osu file format v14

[General]
AudioFilename: audio.mp3
AudioLeadIn: 0
PreviewTime: 55741
Countdown: 0
SampleSet: Soft
StackLeniency: 0.5
Mode: 0
LetterboxInBreaks: 0
WidescreenStoryboard: 1

[Editor]
DistanceSpacing: 1.5
BeatDivisor: 4
GridSize: 4
TimelineZoom: 1.4

[Metadata]
Title:Shout Baby (TV Size)
TitleUnicode:Shout Baby (TV Size)
Artist:Ryokuoushoku Shakai
ArtistUnicode:緑黄色社会
Creator:A r M i N
Version:Doormat's Extra
Source:僕のヒーローアカデミア
Tags:ryokushaka ending boku no j-pop jpop j pop エンディングテーマ ED theme 長屋 晴子 小林 壱誓 peppe 穴見 真吾 my hero academia japanese anime Armin A_r_M_i_N Smoke Doormat Hazu- Grindle SINGALONG
BeatmapID:2448550
BeatmapSetID:1159397

[Difficulty]
HPDrainRate:5.6
CircleSize:4
OverallDifficulty:8.5
ApproachRate:9.2
SliderMultiplier:1.7
SliderTickRate:1

[Events]
//Background and Video events
0,0,"thumb-1920-1061275.png",0,0
//Break Periods
//Storyboard Layer 0 (Background)
//Storyboard Layer 1 (Fail)
//Storyboard Layer 2 (Pass)
//Storyboard Layer 3 (Foreground)
//Storyboard Layer 4 (Overlay)
//Storyboard Sound Samples

[TimingPoints]
492,333.333333333333,4,2,1,70,1,0
3158,-100,4,2,1,70,0,0
13825,-133.333333333333,4,2,2,60,0,0
14133,-133.333333333333,4,2,2,60,0,0
29825,-133.333333333333,4,2,2,60,0,0
35158,-111.111111111111,4,3,3,60,0,0
35466,-111.111111111111,4,3,3,60,0,0
45825,-100,4,3,3,70,0,0
46133,-100,4,3,3,70,0,0
50825,-100,4,2,1,70,0,0
51133,-100,4,2,1,70,0,0
51158,-100,4,2,2,75,0,0
51466,-100,4,2,2,75,0,0
53825,-100,4,2,1,80,0,0
54133,-100,4,2,1,80,0,0
55825,-250,4,2,1,65,0,0
56133,-250,4,2,1,65,0,0
56491,-90.9090909090909,4,2,1,80,0,1
56800,-90.9090909090909,4,2,1,80,0,1
66658,-90.9090909090909,4,2,1,80,0,0
67158,-90.9090909090909,4,2,1,80,0,1
77825,-90.9090909090909,4,2,1,75,0,0
81491,-133.333333333333,4,2,1,75,0,0
82158,-90.9090909090909,4,2,1,75,0,0
85825,-90.9090909090909,4,2,1,80,0,0
86991,-100,4,2,1,80,0,0
87158,-100,4,2,1,60,0,0
87466,-100,4,2,1,60,0,0

[Colours]
Combo1 : 225,209,100
Combo2 : 169,52,67
Combo3 : 202,190,203
Combo4 : 60,117,85

[HitObjects]
256,192,492,12,8,2825,0:0:0:0:
132,36,3158,6,0,L|156:180,1,127.5,4|0,1:2|0:0,0:0:0:0:
140,172,3491,1,8,0:0:0:0:
280,80,3658,1,2,1:2:0:0:
192,280,3825,1,2,0:0:0:0:
276,60,3991,1,2,1:2:0:0:
356,176,4158,1,12,0:0:0:0:
111,147,4325,6,0,P|120:105|128:63,1,85,2|0,0:0|1:0,0:0:0:0:
268,220,4658,2,0,P|276:261|285:303,1,85,2|8,0:0|0:0,0:0:0:0:
412,136,4991,2,0,P|421:94|429:52,1,85,2|2,0:0|0:1,0:0:0:0:
272,112,5325,1,2,1:2:0:0:
440,236,5491,1,10,0:0:0:0:
268,128,5658,1,2,0:0:0:0:
212,316,5825,6,0,L|348:292,1,127.5,4|0,1:2|0:0,0:0:0:0:
348,308,6158,1,10,0:0:0:0:
268,128,6325,1,2,1:2:0:0:
460,188,6492,1,2,0:0:0:0:
264,144,6659,1,2,1:2:0:0:
380,36,6825,1,12,0:0:0:0:
348,264,6991,6,0,P|347:307|353:349,1,85,2|0,0:0|1:0,0:0:0:0:
160,264,7325,2,0,P|160:221|154:179,1,85,2|8,0:0|0:0,0:0:0:0:
332,92,7658,2,0,P|331:134|337:176,1,85,2|2,0:0|0:1,0:0:0:0:
472,52,7991,1,2,1:2:0:0:
284,0,8158,1,10,0:0:0:0:
476,40,8325,1,2,0:0:0:0:
328,200,8491,6,0,L|196:180,1,127.5,4|0,1:2|0:0,0:0:0:0:
192,196,8825,1,10,0:0:0:0:
304,96,8991,1,2,1:2:0:0:
360,300,9158,1,2,0:0:0:0:
320,88,9325,1,0,1:0:0:0:
456,160,9491,1,12,0:0:0:0:
180,110,9658,6,0,P|138:100|96:94,1,85,2|0,0:0|1:0,0:0:0:0:
372,174,9991,2,0,P|414:168|456:159,1,85,2|8,0:0|0:0,0:0:0:0:
180,270,10325,2,0,P|138:260|96:254,1,85,2|2,0:0|0:1,0:0:0:0:
252,144,10658,1,2,1:2:0:0:
300,351,10825,1,10,0:0:0:0:
268,140,10991,1,2,0:0:0:0:
408,232,11158,5,4,1:2:0:0:
356,96,11325,1,2,0:0:0:0:
300,351,11491,1,10,0:0:0:0:
248,215,11658,1,2,1:2:0:0:
472,320,11825,5,2,0:3:0:0:
312,268,11991,1,2,1:2:0:0:
476,128,12158,1,14,0:0:0:0:
400,256,12325,1,2,0:0:0:0:
328,40,12491,5,2,0:3:0:0:
392,164,12658,1,2,0:3:0:0:
192,188,12825,1,10,0:0:0:0:
304,128,12991,5,2,0:0:0:0:
304,128,13075,1,8,0:0:0:0:
304,128,13158,1,10,3:0:0:0:
132,76,13325,1,10,3:2:0:0:
80,248,13491,1,2,1:2:0:0:
252,300,13658,1,10,3:2:0:0:
304,128,13825,6,0,P|332:92|432:104,1,127.500004863739,4|8,1:0|0:0,0:0:0:0:
496,148,14325,1,2,0:0:0:0:
400,244,14491,2,0,L|384:182,1,63.7500024318696,2|0,0:0|1:0,0:0:0:0:
284,248,14825,2,0,L|268:310,1,63.7500024318696,8|0,0:0|0:0,0:0:0:0:
160,232,15158,6,0,P|132:180|176:108,1,127.500004863739,0|10,1:0|0:0,0:0:0:0:
256,104,15658,1,0,1:0:0:0:
176,12,15825,2,0,L|113:26,1,63.7500024318696,2|0,0:0|1:0,0:0:0:0:
256,104,16158,2,0,L|318:118,1,63.7500024318696,14|0,0:0|0:0,0:0:0:0:
270,237,16491,6,0,P|213:261|160:232,2,127.500004863739,2|8|2,1:2|0:0|0:0,0:0:0:0:
320,144,17325,1,0,1:0:0:0:
368,268,17491,2,0,P|360:316|360:348,1,63.7500024318696,8|0,0:0|0:0,0:0:0:0:
236,384,17825,6,0,L|216:248,1,127.500004863739,0|10,1:0|0:0,0:0:0:0:
160,164,18325,1,0,1:0:0:0:
140,314,18491,1,2,0:0:0:0:
225,249,18658,1,0,1:0:0:0:
75,229,18825,2,0,L|8:240,1,63.7500024318696,10|0,0:0|0:0,0:0:0:0:
28,116,19158,6,0,P|62:64|123:60,1,127.500004863739,4|8,1:0|0:0,0:0:0:0:
256,116,19658,1,2,0:0:0:0:
217,21,19825,1,2,0:0:0:0:
161,154,19991,2,0,L|176:232,1,63.7500024318696,0|8,1:0|0:0,0:0:0:0:
268,260,20325,1,2,0:0:0:0:
188,324,20491,6,0,P|156:317|125:312,1,63.7500024318696,2|0,1:2|0:0,0:0:0:0:
268,260,20825,2,0,P|299:253|330:248,1,63.7500024318696,10|0,0:0|1:0,0:0:0:0:
188,195,21158,2,0,P|156:188|125:183,1,63.7500024318696,2|0,0:0|1:0,0:0:0:0:
267,130,21491,2,0,P|298:123|329:118,1,63.7500024318696,14|0,0:0|0:0,0:0:0:0:
187,65,21825,6,0,P|144:40|64:64,1,127.500004863739,2|8,1:2|0:0,0:0:0:0:
0,136,22325,1,2,0:0:0:0:
104,160,22491,1,2,0:0:0:0:
32,240,22658,2,0,L|44:312,1,63.7500024318696,2|10,1:2|0:0,0:0:0:0:
152,368,22991,6,0,L|162:305,1,63.7500024318696,2|2,0:0|1:2,0:0:0:0:
256,252,23325,1,2,0:0:0:0:
202,158,23492,1,10,0:0:0:0:
108,211,23659,1,0,1:0:0:0:
256,264,23825,2,0,L|336:244,1,63.7500024318696,2|0,0:0|1:0,0:0:0:0:
204,144,24158,2,0,L|124:124,1,63.7500024318696,10|2,0:0|0:0,0:0:0:0:
227,24,24491,6,0,P|283:-1|342:19,2,127.500004863739,4|8|0,1:0|0:0|0:0,0:0:0:0:
204,144,25325,1,2,1:2:0:0:
108,72,25491,2,0,P|116:28|120:8,1,63.7500024318696,10|0,0:0|0:0,0:0:0:0:
288,88,25825,6,0,L|308:172,1,63.7500024318696,2|0,1:2|0:0,0:0:0:0:
328,248,26158,2,0,L|412:228,1,63.7500024318696,10|0,0:0|1:0,0:0:0:0:
488,208,26491,2,0,L|468:124,1,63.7500024318696,2|0,0:0|1:0,0:0:0:0:
448,48,26825,2,0,L|364:68,1,63.7500024318696,12|0,0:0|0:0,0:0:0:0:
288,88,27158,6,0,P|264:145|295:198,1,127.500004863739,2|8,1:2|0:0,0:0:0:0:
392,244,27658,1,2,0:0:0:0:
308,312,27825,2,0,L|236:300,1,63.7500024318696,2|0,0:0|1:0,0:0:0:0:
308,176,28158,5,8,0:0:0:0:
392,244,28325,2,0,L|464:232,1,63.7500024318696,2|0,0:0|1:0,0:0:0:0:
312,160,28658,2,0,L|240:148,1,63.7500024318696,2|8,1:2|0:0,0:0:0:0:
352,24,28991,2,0,P|403:58|463:43,1,127.500004863739,2|2,1:2|1:2,0:0:0:0:
512,192,29491,2,0,P|451:177|400:211,1,127.500004863739,12|4,0:0|1:0,0:0:0:0:
400,211,30158,6,0,L|415:272,1,63.7500024318696,10|0,0:0|0:0,0:0:0:0:
304,260,30491,2,0,L|246:233,1,63.7500024318696,2|0,0:0|1:0,0:0:0:0:
309,152,30825,2,0,L|361:115,1,63.7500024318696,10|0,0:0|0:0,0:0:0:0:
264,40,31158,6,0,P|205:19|151:49,1,127.500004863739,2|8,1:2|0:0,0:0:0:0:
88,148,31658,1,2,1:2:0:0:
196,148,31824,1,2,0:0:0:0:
43,48,31991,1,2,1:2:0:0:
32,230,32158,2,0,L|44:304,1,63.7500024318696,10|2,0:0|0:0,0:0:0:0:
56,304,32408,5,2,0:0:0:0:
56,304,32491,1,2,1:3:0:0:
148,224,32658,1,2,0:0:0:0:
168,344,32825,1,10,0:0:0:0:
260,264,32991,2,0,L|264:184,1,63.7500024318696,2|4,1:2|0:2,0:0:0:0:
236,32,33325,5,2,1:2:0:0:
316,124,33492,1,10,0:0:0:0:
196,144,33658,2,0,L|124:132,1,63.7500024318696,2|4,0:0|0:1,0:0:0:0:
108,340,33991,5,0,1:0:0:0:
28,248,34158,1,8,0:0:0:0:
148,228,34325,1,2,0:0:0:0:
148,228,34408,1,2,0:0:0:0:
148,228,34491,1,2,1:2:0:0:
30,260,34658,1,8,0:3:0:0:
119,343,34825,2,0,L|196:335,1,63.7500024318696,4|4,0:3|0:3,0:0:0:0:
220,168,35158,6,0,P|158:127|89:152,1,152.999995330811,12|2,0:1|0:2,0:0:0:0:
0,76,35658,1,2,0:2:0:0:
0,76,35741,1,0,0:0:0:0:
0,76,35825,2,0,L|12:-16,1,76.4999976654053,10|2,0:2|0:2,0:0:0:0:
136,24,36158,2,0,L|145:99,1,76.4999976654053,2|0,0:2|0:0,0:0:0:0:
172,252,36491,6,0,P|244:266|300:217,1,152.999995330811,10|2,0:2|0:2,0:0:0:0:
356,60,36991,1,0,0:0:0:0:
356,60,37075,1,0,0:0:0:0:
356,60,37158,1,10,0:2:0:0:
253,119,37325,1,0,0:0:0:0:
312,221,37491,1,2,0:2:0:0:
415,162,37658,1,0,0:0:0:0:
240,104,37825,6,0,P|202:111|164:116,1,76.4999976654053,10|0,0:2|0:0,0:0:0:0:
164,267,38158,1,2,0:2:0:0:
183,269,38241,1,0,0:0:0:0:
202,272,38324,1,2,0:2:0:0:
221,276,38408,1,0,0:0:0:0:
240,280,38491,2,0,L|232:380,1,76.4999976654053,10|0,0:2|0:0,0:0:0:0:
368,384,38825,2,0,L|376:284,1,76.4999976654053,2|0,0:2|0:0,0:0:0:0:
391,159,39158,6,0,P|428:170|466:175,1,76.4999976654053,10|0,0:2|0:0,0:0:0:0:
344,26,39491,1,2,0:2:0:0:
325,29,39574,1,0,0:0:0:0:
306,32,39657,1,0,0:0:0:0:
287,35,39741,1,0,0:0:0:0:
269,39,39824,1,10,0:2:0:0:
300,160,39991,1,0,0:0:0:0:
179,191,40158,1,2,0:2:0:0:
148,70,40325,1,2,0:2:0:0:
300,160,40491,6,0,P|370:176|418:121,1,152.999995330811,14|0,0:2|0:0,0:0:0:0:
336,56,40991,1,2,0:2:0:0:
432,12,41158,2,0,L|512:20,1,76.4999976654053,10|2,0:2|0:2,0:0:0:0:
336,56,41491,1,2,0:2:0:0:
316,54,41574,1,0,0:0:0:0:
297,52,41657,1,2,0:2:0:0:
278,50,41741,1,0,0:0:0:0:
259,48,41825,6,0,L|244:123,1,76.4999976654053,10|0,0:2|0:0,0:0:0:0:
220,232,42158,2,0,L|295:246,1,76.4999976654053,2|0,0:2|0:0,0:0:0:0:
404,271,42491,2,0,L|418:195,1,76.4999976654053,10|0,0:2|0:0,0:0:0:0:
443,87,42825,2,0,L|367:72,1,76.4999976654053,2|0,0:2|0:0,0:0:0:0:
224,40,43158,6,0,P|188:84|84:68,1,152.999995330811,10|0,0:2|0:0,0:0:0:0:
29,0,43658,1,2,0:2:0:0:
5,152,43825,5,10,0:2:0:0:
93,68,43991,1,2,0:2:0:0:
121,186,44158,1,2,0:2:0:0:
118,204,44241,1,0,0:0:0:0:
116,223,44324,1,0,0:0:0:0:
114,242,44408,1,0,0:0:0:0:
112,261,44491,6,0,P|149:255|185:267,1,76.4999976654053,10|0,0:2|0:0,0:0:0:0:
321,164,44825,2,0,P|285:176|247:170,1,76.4999976654053,2|0,0:2|0:0,0:0:0:0:
160,22,45158,1,10,2:0:0:0:
278,52,45324,1,8,2:3:0:0:
129,140,45491,1,10,2:0:0:0:
247,170,45658,1,4,2:3:0:0:
250,188,45741,1,4,2:3:0:0:
253,207,45824,1,12,2:1:0:0:
253,207,46158,5,10,0:2:0:0:
270,190,46241,1,0,0:0:0:0:
292,179,46324,1,0,0:0:0:0:
316,174,46408,1,0,0:0:0:0:
341,177,46491,1,10,0:2:0:0:
364,186,46574,1,0,0:0:0:0:
383,201,46658,1,0,0:0:0:0:
397,222,46741,1,0,0:0:0:0:
405,245,46824,1,10,0:2:0:0:
405,270,46908,1,0,0:0:0:0:
399,294,46991,1,0,0:0:0:0:
386,315,47074,1,0,0:0:0:0:
367,331,47158,6,0,L|325:324,3,42.5,10|0|0|0,0:2|0:0|0:0|0:0,0:0:0:0:
296,235,47491,2,0,L|254:241,3,42.5,10|0|0|0,0:2|0:0|0:0|0:0,0:0:0:0:
225,331,47825,2,0,L|183:324,3,42.5,10|0|0|0,0:2|0:0|0:0|0:0,0:0:0:0:
154,235,48158,2,0,L|112:241,3,42.5,10|0|0|0,0:2|0:0|0:0|0:0,0:0:0:0:
80,156,48491,5,10,0:2:0:0:
80,129,48574,1,0,0:0:0:0:
87,104,48657,1,0,0:0:0:0:
102,82,48741,1,0,0:0:0:0:
122,64,48824,1,8,0:2:0:0:
146,53,48907,1,0,0:0:0:0:
172,50,48991,1,0,0:0:0:0:
198,54,49074,1,0,0:0:0:0:
222,65,49158,2,0,L|217:107,3,42.5,10|0|0|0,0:2|0:0|0:0|0:0,0:0:0:0:
299,163,49491,2,0,L|303:205,3,42.5,8|0|0|0,0:2|0:0|0:0|0:0,0:0:0:0:
275,307,49825,5,10,0:2:0:0:
300,325,49908,1,0,0:0:0:0:
331,331,49991,1,0,0:0:0:0:
362,324,50075,1,0,0:0:0:0:
387,305,50158,1,8,0:2:0:0:
398,275,50241,1,0,0:0:0:0:
421,253,50325,1,2,0:2:0:0:
451,243,50408,1,0,0:0:0:0:
483,247,50491,5,10,2:0:0:0:
399,95,50658,1,10,2:0:0:0:
399,95,50741,1,8,2:0:0:0:
399,95,50825,1,4,1:2:0:0:
331,331,50991,1,2,0:0:0:0:
247,179,51158,2,0,P|255:123|259:83,1,85,4|0,1:0|0:0,0:0:0:0:
128,132,51491,5,10,0:0:0:0:
332,224,51658,1,2,0:0:0:0:
128,112,51825,2,0,L|44:124,1,85,2|8,1:2|0:0,0:0:0:0:
164,280,52158,5,2,0:0:0:0:
288,44,52325,1,2,1:2:0:0:
148,268,52491,2,0,L|160:356,1,85,2|0,0:0|1:0,0:0:0:0:
332,300,52825,2,0,L|420:288,1,85,14|0,0:0|0:0,0:0:0:0:
364,116,53158,2,0,L|352:28,1,85,2|0,1:2|1:0,0:0:0:0:
180,84,53491,2,0,L|92:96,1,85,10|0,0:0|0:0,0:0:0:0:
332,300,53825,5,14,0:0:0:0:
332,300,54158,1,10,1:2:0:0:
368,160,54325,1,8,1:2:0:0:
192,272,54491,1,10,1:2:0:0:
424,352,54658,1,8,1:2:0:0:
248,124,54825,1,10,1:2:0:0:
476,212,54991,1,8,1:2:0:0:
176,360,55158,5,10,1:2:0:0:
508,300,55325,1,10,1:2:0:0:
508,300,55991,5,8,1:3:0:0:
176,360,56158,2,0,L|121:350,1,51,8|0,0:0|0:0,0:0:0:0:
104,336,56491,6,0,P|148:323|190:302,1,93.5000028533936,6|0,1:2|0:0,0:0:0:0:
396,148,56825,2,0,P|331:85|245:108,1,187.000005706787,8|0,0:0|1:0,0:0:0:0:
160,224,57325,1,8,0:0:0:0:
44,108,57491,2,0,P|56:52|60:16,1,93.5000028533936,2|0,0:0|1:0,0:0:0:0:
294,34,57825,5,2,0:0:0:0:
170,117,57991,1,0,1:0:0:0:
363,167,58158,2,0,L|473:135,1,93.5000028533936,10|0,0:0|0:0,0:0:0:0:
297,361,58491,5,2,0:0:0:0:
421,278,58657,1,0,1:0:0:0:
228,228,58825,2,0,L|125:197,1,93.5000028533936,10|0,0:0|0:0,0:0:0:0:
276,24,59158,6,0,P|316:46|363:49,1,93.5000028533936,4|0,1:0|0:0,0:0:0:0:
316,203,59491,2,0,P|269:206|228:228,1,93.5000028533936,10|0,0:0|0:0,0:0:0:0:
44,336,59825,1,2,1:2:0:0:
80,160,59991,1,8,0:0:0:0:
240,376,60158,2,0,L|360:352,1,93.5000028533936,2|0,0:0|1:0,0:0:0:0:
88,184,60491,6,0,P|42:179|1:158,1,93.5000028533936,2|0,0:1|1:0,0:0:0:0:
180,32,60825,2,0,P|221:11|267:6,1,93.5000028533936,10|0,0:0|0:0,0:0:0:0:
480,148,61158,1,2,0:0:0:0:
448,0,61325,1,0,1:0:0:0:
296,176,61491,2,0,L|320:324,1,140.25000428009,10|0,0:0|0:0,0:0:0:0:
324,336,61825,6,0,P|244:375|176:319,1,187.000005706787,6|8,1:2|0:0,0:0:0:0:
144,152,62325,1,2,0:0:0:0:
304,240,62492,1,2,1:2:0:0:
80,336,62659,2,0,L|-16:320,1,93.5000028533936,8|2,0:0|0:1,0:0:0:0:
144,152,62991,1,0,1:0:0:0:
280,263,63158,6,0,L|271:356,1,93.5000028533936,2|0,0:0|1:0,0:0:0:0:
396,212,63491,2,0,L|488:220,1,93.5000028533936,10|0,0:0|0:0,0:0:0:0:
344,96,63825,2,0,L|352:3,1,93.5000028533936,2|0,0:0|1:0,0:0:0:0:
228,147,64158,2,0,L|135:138,1,93.5000028533936,10|0,0:0|0:0,0:0:0:0:
240,356,64491,6,0,P|284:304|400:316,1,187.000005706787,4|8,1:0|0:0,0:0:0:0:
320,132,64991,1,2,0:0:0:0:
512,200,65158,1,2,1:2:0:0:
484,8,65325,2,0,L|372:28,1,93.5000028533936,8|2,0:0|0:1,0:0:0:0:
216,120,65658,1,0,1:0:0:0:
424,216,65825,5,12,0:1:0:0:
304,48,65991,1,0,1:0:0:0:
216,312,66158,5,12,0:0:0:0:
360,128,66325,1,0,0:0:0:0:
100,64,66491,1,8,1:3:0:0:
61,316,66658,5,8,0:0:0:0:
84,285,66741,1,8,0:0:0:0:
118,267,66824,1,8,0:0:0:0:
157,266,66907,1,8,0:0:0:0:
192,282,66991,1,8,0:0:0:0:
216,312,67074,1,8,0:0:0:0:
225,350,67158,6,0,L|128:376,1,93.5000028533936,6|0,1:2|0:0,0:0:0:0:
220,136,67491,2,0,P|279:203|369:191,1,187.000005706787,8|0,0:0|1:0,0:0:0:0:
428,64,67991,1,8,0:0:0:0:
504,248,68158,2,0,P|498:294|495:341,1,93.5000028533936,2|0,0:0|1:0,0:0:0:0:
252,256,68491,5,2,0:0:0:0:
334,381,68657,1,0,1:0:0:0:
385,188,68824,2,0,L|357:92,1,93.5000028533936,10|0,0:0|0:0,0:0:0:0:
119,188,69158,5,2,0:0:0:0:
201,63,69324,1,0,1:0:0:0:
252,256,69491,2,0,L|219:366,1,93.5000028533936,10|0,0:0|0:0,0:0:0:0:
40,268,69825,6,0,L|20:164,1,93.5000028533936,4|0,1:0|0:0,0:0:0:0:
168,40,70158,2,0,P|217:113|304:100,1,187.000005706787,10|2,0:0|1:2,0:0:0:0:
400,16,70658,1,8,0:0:0:0:
400,216,70825,1,2,0:0:0:0:
495,131,70991,1,0,1:0:0:0:
284,64,71158,5,2,0:1:0:0:
396,128,71325,1,0,1:0:0:0:
224,188,71491,2,0,L|128:168,1,93.5000028533936,10|0,0:0|0:0,0:0:0:0:
0,192,71825,1,2,1:2:0:0:
140,64,71991,1,8,0:3:0:0:
164,292,72158,2,0,L|72:311,1,93.5000028533936,10|0,0:0|0:0,0:0:0:0:
223,48,72491,6,0,P|280:120|376:112,1,187.000005706787,6|8,1:2|0:0,0:0:0:0:
488,20,72991,1,2,0:0:0:0:
324,24,73158,1,2,1:2:0:0:
468,184,73325,2,0,L|456:296,1,93.5000028533936,8|2,0:0|0:1,0:0:0:0:
360,376,73658,1,2,1:2:0:0:
252,204,73825,6,0,L|343:182,1,93.5000028533936,2|0,0:0|1:0,0:0:0:0:
184,368,74158,2,0,L|92:346,1,93.5000028533936,10|0,0:0|0:0,0:0:0:0:
284,172,74491,2,0,L|375:150,1,93.5000028533936,2|0,1:2|1:0,0:0:0:0:
216,336,74824,2,0,L|124:314,1,93.5000028533936,10|0,0:0|0:0,0:0:0:0:
180,20,75158,6,0,P|216:72|340:56,2,187.000005706787,6|8|2,1:2|0:0|1:2,0:0:0:0:
68,124,75991,2,0,L|84:220,1,93.5000028533936,8|2,0:0|0:1,0:0:0:0:
176,324,76325,1,0,1:0:0:0:
252,152,76491,6,0,L|343:130,1,93.5000028533936,2|0,0:0|1:0,0:0:0:0:
92,336,76824,2,0,L|0:314,1,93.5000028533936,12|0,0:0|1:0,0:0:0:0:
140,180,77158,1,8,0:3:0:0:
236,384,77325,1,0,1:0:0:0:
352,244,77491,2,0,P|344:192|340:136,1,93.5000028533936,12|2,0:1|0:0,0:0:0:0:
112,84,77825,6,0,P|39:135|49:224,1,187.000005706787,6|10,1:2|0:0,0:0:0:0:
228,312,78325,1,2,0:0:0:0:
180,164,78492,1,2,1:2:0:0:
80,372,78658,2,0,L|-12:360,1,93.5000028533936,2|8,0:0|0:0,0:0:0:0:
72,200,78991,1,2,0:0:0:0:
228,312,79158,6,0,L|340:292,1,93.5000028533936,2|0,1:2|0:0,0:0:0:0:
248,92,79491,2,0,L|136:72,1,93.5000028533936,10|0,0:0|1:0,0:0:0:0:
332,0,79825,1,2,0:0:0:0:
396,136,79991,2,0,P|384:200|376:264,1,93.5000028533936,2|8,1:2|0:0,0:0:0:0:
500,204,80325,1,2,0:0:0:0:
275,108,80491,6,0,P|185:132|92:140,1,187.000005706787,6|10,1:2|0:0,0:0:0:0:
264,336,80991,2,0,P|357:344|447:368,1,187.000005706787,4|2,1:0|1:2,0:0:0:0:
449,93,81491,6,0,B|377:81|377:81|341:117|341:117|257:105,1,191.250007295609,14|0,0:0|1:0,0:0:0:0:
336,308,82158,2,0,L|440:292,1,93.5000028533936,8|2,0:0|0:0,0:0:0:0:
248,188,82491,5,2,1:2:0:0:
184,368,82658,1,2,1:2:0:0:
68,216,82825,2,0,P|84:148|92:100,1,93.5000028533936,10|0,0:0|0:0,0:0:0:0:
328,68,83158,6,0,P|367:91|413:101,1,93.5000028533936,6|0,1:2|0:0,0:0:0:0:
320,272,83491,2,0,P|280:295|234:305,1,93.5000028533936,10|0,1:0|0:0,0:0:0:0:
72,184,83825,1,2,1:2:0:0:
56,356,83991,1,2,0:0:0:0:
236,160,84158,2,0,P|216:104|204:52,1,93.5000028533936,10|0,0:1|0:0,0:0:0:0:
480,144,84491,6,0,P|463:187|451:232,1,93.5000028533936,0|0,1:0|0:0,0:0:0:0:
216,368,84825,2,0,P|216:277|146:219,1,187.000005706787,10|2,0:1|1:2,0:0:0:0:
4,300,85325,1,0,1:0:0:0:
52,76,85491,2,0,L|164:88,1,93.5000028533936,10|0,0:0|0:0,0:0:0:0:
328,248,85825,5,14,1:2:0:0:
328,248,86158,1,10,1:2:0:0:
280,100,86325,1,8,1:2:0:0:
236,336,86491,1,10,1:2:0:0:
408,148,86658,1,8,1:2:0:0:
160,184,86825,1,10,1:2:0:0:
480,280,86991,1,10,1:2:0:0:
376,384,87158,5,2,0:0:0:0:
256,192,87241,12,0,88241,0:0:0:0:
