osu file format v14

[General]
AudioFilename: audio.mp3
AudioLeadIn: 0
PreviewTime: 55741
Countdown: 0
SampleSet: Soft
StackLeniency: 0.5
Mode: 0
LetterboxInBreaks: 0
WidescreenStoryboard: 1

[Editor]
DistanceSpacing: 0.4
BeatDivisor: 4
GridSize: 4
TimelineZoom: 1

[Metadata]
Title:Shout Baby (TV Size)
TitleUnicode:Shout Baby (TV Size)
Artist:Ryokuoushoku Shakai
ArtistUnicode:緑黄色社会
Creator:A r M i N
Version:Another
Source:僕のヒーローアカデミア
Tags:ryokushaka ending boku no j-pop jpop j pop エンディングテーマ ED theme 長屋 晴子 小林 壱誓 peppe 穴見 真吾 my hero academia japanese anime Armin A_r_M_i_N Smoke Doormat Hazu- Grindle SINGALONG
BeatmapID:2420983
BeatmapSetID:1159397

[Difficulty]
HPDrainRate:5.4
CircleSize:4
OverallDifficulty:8.2
ApproachRate:9
SliderMultiplier:1.7
SliderTickRate:1

[Events]
//Background and Video events
0,0,"thumb-1920-1061275.png",0,0
//Break Periods
//Storyboard Layer 0 (Background)
//Storyboard Layer 1 (Fail)
//Storyboard Layer 2 (Pass)
//Storyboard Layer 3 (Foreground)
//Storyboard Layer 4 (Overlay)
//Storyboard Sound Samples

[TimingPoints]
492,333.333333333333,4,2,1,70,1,0
3158,-100,4,2,1,70,0,0
13825,-125,4,2,2,60,0,0
14133,-125,4,2,2,60,0,0
29825,-111.111111111111,4,2,2,60,0,0
35158,-111.111111111111,4,3,3,60,0,0
35466,-111.111111111111,4,3,3,60,0,0
45825,-111.111111111111,4,3,3,70,0,0
46133,-111.111111111111,4,3,3,70,0,0
50825,-111.111111111111,4,2,1,70,0,0
51133,-111.111111111111,4,2,1,70,0,0
51158,-100,4,2,2,75,0,0
51466,-100,4,2,2,75,0,0
53825,-100,4,2,1,80,0,0
54133,-100,4,2,1,80,0,0
55825,-100,4,2,1,65,0,0
56133,-100,4,2,1,65,0,0
56491,-83.3333333333333,4,2,1,80,0,1
56800,-83.3333333333333,4,2,1,80,0,1
66658,-83.3333333333333,4,2,1,80,0,0
67158,-83.3333333333333,4,2,1,80,0,1
77825,-90.9090909090909,4,2,1,75,0,0
85825,-83.3333333333333,4,2,1,80,0,1
86991,-100,4,2,1,80,0,0
87158,-250,4,2,1,60,0,0
87466,-250,4,2,1,60,0,0

[Colours]
Combo1 : 225,209,100
Combo2 : 169,52,67
Combo3 : 202,190,203
Combo4 : 60,117,85

[HitObjects]
256,192,492,12,8,2825,0:0:0:0:
23,126,3158,6,0,P|87:182|166:168,1,170,4|8,1:2|0:0,0:0:0:0:
256,12,3658,1,2,1:2:0:0:
112,85,3825,1,2,0:0:0:0:
264,195,3991,2,0,L|249:111,1,85,2|12,1:2|0:0,0:0:0:0:
120,289,4325,6,0,L|204:274,1,85,2|0,0:0|1:0,0:0:0:0:
357,348,4658,2,0,P|323:324|302:288,1,85,2|8,0:0|0:0,0:0:0:0:
411,173,4991,2,0,L|396:257,1,85,2|2,0:0|0:1,0:0:0:0:
287,175,5325,1,2,1:2:0:0:
485,106,5491,1,10,0:0:0:0:
312,166,5658,1,2,0:0:0:0:
486,299,5825,6,0,P|424:354|343:341,1,170,4|10,1:2|0:0,0:0:0:0:
210,191,6325,1,2,1:2:0:0:
396,257,6491,1,2,0:0:0:0:
239,366,6658,2,0,L|254:282,1,85,2|12,1:2|0:0,0:0:0:0:
114,166,6991,6,0,L|129:250,1,85,2|0,0:0|1:0,0:0:0:0:
308,199,7325,2,0,L|293:115,1,85,2|8,0:0|0:0,0:0:0:0:
228,297,7658,2,0,L|312:312,1,85,2|2,0:0|0:1,0:0:0:0:
210,191,7991,1,2,1:2:0:0:
150,362,8158,1,10,0:0:0:0:
219,165,8325,1,2,0:0:0:0:
331,342,8491,6,0,B|436:360|436:360|455:332|448:299,1,170,4|10,1:2|0:0,0:0:0:0:
321,157,8991,1,2,1:2:0:0:
243,295,9158,1,2,0:0:0:0:
428,199,9325,2,0,L|413:115,1,85,0|12,1:0|0:0,0:0:0:0:
223,59,9658,6,0,L|208:143,1,85,2|0,0:0|1:0,0:0:0:0:
57,241,9991,2,0,P|81:206|118:185,1,85,2|8,0:0|0:0,0:0:0:0:
233,296,10325,2,0,L|149:281,1,85,2|2,0:0|0:1,0:0:0:0:
289,169,10658,1,2,1:2:0:0:
352,375,10825,1,10,0:0:0:0:
297,196,10991,1,2,0:0:0:0:
470,291,11158,6,0,L|386:276,1,85,4|2,1:2|0:0,0:0:0:0:
195,172,11491,2,0,L|210:256,1,85,10|2,0:0|1:2,0:0:0:0:
336,105,11825,1,2,0:3:0:0:
146,38,11991,1,2,1:2:0:0:
297,196,12158,1,14,0:0:0:0:
354,7,12325,1,2,0:0:0:0:
492,158,12491,6,0,L|408:173,1,85,2|2,0:3|0:3,0:0:0:0:
266,323,12825,2,0,L|350:338,1,85,10|2,0:0|0:0,0:0:0:0:
388,349,13075,1,8,0:0:0:0:
388,349,13158,1,10,3:0:0:0:
297,196,13325,1,10,3:2:0:0:
169,373,13491,2,0,P|162:331|153:289,1,85,2|10,1:2|3:2,0:0:0:0:
61,99,13825,6,0,P|107:145|172:136,1,136,4|8,1:0|0:0,0:0:0:0:
287,5,14325,1,2,0:0:0:0:
347,130,14491,2,0,P|314:122|281:115,1,68,2|0,0:0|1:0,0:0:0:0:
460,38,14825,2,0,P|473:104|485:171,1,136,8|0,0:0|1:0,0:0:0:0:
499,187,15491,6,0,P|465:194|432:202,1,68,10|0,0:0|1:0,0:0:0:0:
353,334,15825,1,2,0:0:0:0:
445,300,15991,1,0,1:0:0:0:
351,142,16158,2,0,P|343:175|336:208,1,68,14|0,0:0|0:0,0:0:0:0:
240,381,16491,6,0,P|230:335|210:246,1,136,2|8,1:2|0:0,0:0:0:0:
81,164,16991,1,0,0:0:0:0:
195,85,17158,2,0,P|187:118|180:151,1,68,2|0,0:0|1:0,0:0:0:0:
12,91,17491,2,0,P|51:37|116:33,1,136,8|0,0:0|1:0,0:0:0:0:
131,49,18158,6,0,P|164:41|197:33,1,68,10|0,0:0|1:0,0:0:0:0:
324,125,18491,1,2,0:0:0:0:
372,38,18658,1,0,1:0:0:0:
225,130,18825,2,0,P|234:164|240:196,1,68,10|0,0:0|0:0,0:0:0:0:
382,328,19158,6,0,P|389:263|352:206,1,136,4|8,1:0|0:0,0:0:0:0:
198,290,19658,1,2,0:0:0:0:
282,353,19825,2,0,P|287:319|293:286,1,68,2|0,0:0|1:0,0:0:0:0:
160,198,20158,2,0,P|155:164|148:130,1,68,8|2,0:0|0:0,0:0:0:0:
324,173,20491,6,0,P|291:182|259:192,1,68,2|0,1:2|0:0,0:0:0:0:
366,83,20825,2,0,P|398:91|431:101,1,68,10|0,0:0|1:0,0:0:0:0:
267,92,21158,1,2,0:0:0:0:
309,1,21325,1,0,1:0:0:0:
325,173,21491,2,0,P|315:205|306:238,1,68,14|0,0:0|0:0,0:0:0:0:
157,346,21825,6,0,P|120:290|126:223,1,136,2|8,1:2|0:0,0:0:0:0:
249,123,22325,1,2,0:0:0:0:
131,61,22491,2,0,P|141:94|150:127,1,68,2|2,0:0|1:2,0:0:0:0:
284,29,22825,1,10,0:0:0:0:
346,107,22991,6,0,B|415:91|405:145|475:129,1,136,2|2,0:0|0:0,0:0:0:0:
380,270,23491,2,0,P|371:237|362:205,1,68,10|0,0:0|1:0,0:0:0:0:
494,315,23825,2,0,P|503:282|512:249,1,68,2|0,0:0|1:0,0:0:0:0:
389,370,24158,2,0,P|356:361|323:351,1,68,10|2,0:0|0:0,0:0:0:0:
290,340,24408,1,2,0:0:0:0:
290,340,24491,6,0,B|221:324|231:378|161:362,1,136,4|8,1:0|0:0,0:0:0:0:
86,214,24991,2,0,P|149:207|178:264,1,136,2|2,0:0|1:2,0:0:0:0:
63,371,25491,2,0,P|54:338|44:305,1,68,10|0,0:0|0:0,0:0:0:0:
147,121,25825,6,0,P|179:130|212:139,1,68,2|0,1:2|0:0,0:0:0:0:
332,75,26158,2,0,P|364:66|397:56,1,68,10|0,0:0|1:0,0:0:0:0:
416,193,26491,6,0,P|383:184|350:174,1,68,2|0,0:0|1:0,0:0:0:0:
247,16,26825,2,0,P|214:25|181:34,1,68,12|0,0:0|0:0,0:0:0:0:
66,188,27158,6,0,P|110:236|176:233,1,136,2|8,1:2|0:0,0:0:0:0:
272,107,27658,1,2,0:0:0:0:
338,221,27825,2,0,P|305:213|272:206,1,68,2|0,0:0|1:0,0:0:0:0:
368,84,28158,1,8,0:0:0:0:
422,167,28325,6,0,P|429:200|437:233,1,68,2|0,0:0|1:0,0:0:0:0:
287,140,28658,2,0,P|279:173|271:206,1,68,2|8,1:2|0:0,0:0:0:0:
367,83,28991,2,0,P|314:43|248:47,1,136,2|2,1:2|1:2,0:0:0:0:
118,201,29491,2,0,P|109:153|99:100,1,102,12|0,0:0|0:0,0:0:0:0:
91,65,29825,6,0,P|129:73|165:80,1,76.4999976654053,4|0,1:0|0:0,0:0:0:0:
290,170,30158,2,0,P|253:178|216:186,1,76.4999976654053,10|0,0:0|0:0,0:0:0:0:
314,59,30491,1,2,0:0:0:0:
382,134,30658,1,0,1:0:0:0:
487,18,30825,2,0,P|479:55|471:92,1,76.4999976654053,10|0,0:0|0:0,0:0:0:0:
482,295,31158,6,0,P|407:299|352:250,1,152.999995330811,2|8,1:2|0:0,0:0:0:0:
314,59,31658,1,2,1:2:0:0:
440,206,31825,1,2,0:0:0:0:
257,275,31991,1,2,1:2:0:0:
359,148,32158,2,0,P|351:185|343:222,1,76.4999976654053,10|2,0:0|0:0,0:0:0:0:
356,253,32408,1,2,0:0:0:0:
356,253,32491,5,2,1:3:0:0:
240,163,32658,1,2,0:0:0:0:
435,84,32825,1,10,0:0:0:0:
215,172,32991,2,0,B|137:153|148:214|69:196,1,152.999995330811,2|2,1:2|1:2,0:0:0:0:
171,74,33491,1,10,0:0:0:0:
252,260,33658,6,0,P|325:268|377:216,1,152.999995330811,2|0,0:0|1:0,0:0:0:0:
290,71,34158,2,0,P|282:108|274:145,1,76.4999976654053,8|2,0:0|0:0,0:0:0:0:
293,174,34408,1,2,0:0:0:0:
293,174,34491,1,0,1:0:0:0:
171,74,34658,1,8,0:3:0:0:
350,7,34825,1,4,0:3:0:0:
196,64,34991,1,4,0:3:0:0:
389,156,35158,6,0,P|378:231|367:307,1,152.999995330811,12|2,0:1|0:2,0:0:0:0:
237,381,35658,1,2,0:2:0:0:
237,381,35741,1,0,0:0:0:0:
237,381,35825,2,0,P|228:342|219:306,1,76.4999976654053,10|2,0:2|0:2,0:0:0:0:
88,229,36158,2,0,P|78:266|70:303,1,76.4999976654053,2|0,0:2|0:0,0:0:0:0:
199,143,36491,6,0,P|171:105|65:106,1,152.999995330811,10|2,0:2|0:2,0:0:0:0:
181,242,36991,1,0,0:0:0:0:
181,242,37075,1,0,0:0:0:0:
181,242,37158,2,0,P|220:243|254:226,1,76.4999976654053,10|0,0:2|0:0,0:0:0:0:
349,75,37491,2,0,P|312:65|274:56,1,76.4999976654053,2|0,0:2|0:0,0:0:0:0:
391,209,37825,6,0,P|399:246|406:284,1,76.4999976654053,10|0,0:2|0:0,0:0:0:0:
252,226,38158,2,0,P|258:195|263:172,3,38.2499988327027,2|0|2|0,0:2|0:0|0:2|0:0,0:0:0:0:
248,162,38491,2,0,P|213:145|175:143,1,76.4999976654053,10|0,0:2|0:0,0:0:0:0:
50,244,38825,2,0,P|43:206|34:168,1,76.4999976654053,2|0,0:2|0:0,0:0:0:0:
173,258,39158,6,0,P|164:295|157:333,1,76.4999976654053,10|0,0:2|0:0,0:0:0:0:
302,248,39491,2,0,P|297:229|294:210,3,38.2499988327027,2|0|0|0,0:2|0:0|0:0|0:0,0:0:0:0:
286,182,39825,1,10,0:2:0:0:
173,258,39991,1,0,0:0:0:0:
350,326,40158,1,2,0:2:0:0:
199,268,40325,1,2,0:2:0:0:
367,132,40491,6,0,B|445:114|434:175|513:157,1,152.999995330811,14|0,0:2|0:0,0:0:0:0:
392,20,40991,1,2,0:2:0:0:
273,119,41158,2,0,P|284:157|294:194,1,76.4999976654053,10|2,0:2|0:2,0:0:0:0:
149,101,41491,2,0,P|154:82|159:64,3,38.2499988327027,2|0|2|0,0:2|0:0|0:2|0:0,0:0:0:0:
168,37,41825,6,0,P|133:20|95:18,1,76.4999976654053,10|0,0:2|0:0,0:0:0:0:
2,144,42158,2,0,P|13:182|23:219,1,76.4999976654053,2|0,0:2|0:0,0:0:0:0:
149,306,42491,2,0,P|159:269|169:232,1,76.4999976654053,10|0,0:2|0:0,0:0:0:0:
317,152,42825,2,0,P|334:187|336:225,1,76.4999976654053,2|0,0:2|0:0,0:0:0:0:
230,105,43158,6,0,P|287:56|361:62,1,152.999995330811,10|0,0:2|0:0,0:0:0:0:
234,205,43658,1,2,0:2:0:0:
132,116,43825,2,0,P|142:79|152:42,1,76.4999976654053,10|2,0:2|0:2,0:0:0:0:
35,172,44158,2,0,P|40:190|45:208,3,38.2499988327027,2|0|0|0,0:2|0:0|0:0|0:0,0:0:0:0:
53,236,44491,6,0,P|42:272|32:309,1,76.4999976654053,10|0,0:2|0:0,0:0:0:0:
189,370,44825,2,0,P|178:333|168:296,1,76.4999976654053,2|0,0:2|0:0,0:0:0:0:
306,165,45158,1,10,2:0:0:0:
267,309,45325,1,8,2:3:0:0:
404,181,45491,1,10,2:0:0:0:
227,105,45658,1,4,2:3:0:0:
227,105,45741,1,4,2:3:0:0:
227,105,45825,6,0,P|210:140|208:178,1,76.4999976654053,12|0,2:1|0:0,0:0:0:0:
368,88,46158,2,0,P|362:69|357:51,3,38.2499988327027,10|0|0|0,0:2|0:0|0:0|0:0,0:0:0:0:
452,133,46491,2,0,P|457:114|462:96,3,38.2499988327027,10|0|0|0,0:2|0:0|0:0|0:0,0:0:0:0:
371,183,46825,1,10,0:2:0:0:
352,187,46908,1,0,0:0:0:0:
334,193,46991,1,0,0:0:0:0:
315,198,47075,1,0,0:0:0:0:
297,203,47158,6,0,P|302:221|307:239,3,38.2499988327027,10|0|0|0,0:2|0:0|0:0|0:0,0:0:0:0:
213,160,47491,2,0,P|207:178|202:196,3,38.2499988327027,10|0|0|0,0:2|0:0|0:0|0:0,0:0:0:0:
291,107,47825,2,0,P|309:101|327:96,3,38.2499988327027,10|0|0|0,0:2|0:0|0:0|0:0,0:0:0:0:
233,32,48158,2,0,P|214:26|196:21,3,38.2499988327027,10|0|0|0,0:2|0:0|0:0|0:0,0:0:0:0:
107,53,48491,5,10,0:2:0:0:
94,67,48574,1,0,0:0:0:0:
85,84,48657,1,0,0:0:0:0:
80,102,48741,1,0,0:0:0:0:
78,120,48825,2,0,P|84:139|89:157,3,38.2499988327027,8|0|0|0,0:2|0:0|0:0|0:0,0:0:0:0:
51,245,49158,1,10,0:2:0:0:
65,257,49241,1,0,0:0:0:0:
82,265,49324,1,0,0:0:0:0:
101,268,49408,1,0,0:0:0:0:
120,266,49491,2,0,P|138:260|156:255,3,38.2499988327027,8|0|0|0,0:2|0:0|0:0|0:0,0:0:0:0:
240,302,49825,6,0,P|245:283|250:265,3,38.2499988327027,10|0|0|0,0:2|0:0|0:0|0:0,0:0:0:0:
338,218,50158,1,8,0:2:0:0:
342,236,50241,1,0,0:0:0:0:
348,254,50325,2,0,P|366:248|384:243,1,38.2499988327027,2|0,0:2|0:0,0:0:0:0:
256,170,50491,1,10,2:0:0:0:
359,48,50658,1,10,2:0:0:0:
359,48,50741,1,8,2:0:0:0:
359,48,50825,2,0,P|349:85|339:122,1,76.4999976654053,4|2,1:2|0:0,0:0:0:0:
115,136,51158,6,0,P|169:74|252:70,1,170,4|10,1:0|0:0,0:0:0:0:
363,223,51658,1,2,0:0:0:0:
199,252,51825,2,0,P|206:210|215:169,1,85,2|8,1:2|0:0,0:0:0:0:
273,334,52158,1,2,0:0:0:0:
109,233,52325,1,2,1:2:0:0:
294,105,52491,6,0,P|302:146|309:188,1,85,2|0,0:0|1:0,0:0:0:0:
122,68,52825,2,0,P|164:60|206:53,1,85,14|0,0:0|0:0,0:0:0:0:
100,186,53158,1,2,1:2:0:0:
36,20,53325,1,0,1:0:0:0:
205,163,53491,2,0,P|197:204|189:246,1,85,10|0,0:0|0:0,0:0:0:0:
334,74,53825,6,0,P|415:62|478:116,1,170,14|10,0:0|1:2,0:0:0:0:
330,227,54325,1,8,1:2:0:0:
258,17,54491,1,10,1:2:0:0:
388,158,54658,1,8,1:2:0:0:
189,246,54825,1,10,1:2:0:0:
334,74,54991,1,8,1:2:0:0:
355,300,55158,5,10,1:2:0:0:
258,17,55325,1,10,1:2:0:0:
22,364,55991,5,8,1:3:0:0:
140,189,56158,2,0,P|91:227|86:288,1,127.5,8|0,0:0|0:0,0:0:0:0:
146,364,56491,6,0,B|214:348|214:348|270:380|270:380|338:364,1,203.999993774414,6|8,1:2|0:0,0:0:0:0:
417,185,56991,1,0,0:0:0:0:
507,316,57158,2,0,L|406:298,1,101.999996887207,0|8,1:0|0:0,0:0:0:0:
383,85,57491,2,0,L|483:102,1,101.999996887207,2|0,0:0|1:0,0:0:0:0:
267,169,57825,6,0,P|254:119|240:70,1,101.999996887207,2|0,0:0|1:0,0:0:0:0:
417,185,58158,2,0,P|402:233|390:283,1,101.999996887207,10|0,0:0|0:0,0:0:0:0:
357,91,58491,1,2,0:0:0:0:
512,214,58658,1,0,1:0:0:0:
299,322,58825,2,0,P|286:272|272:223,1,101.999996887207,10|0,0:0|0:0,0:0:0:0:
48,215,59158,6,0,P|94:300|191:297,1,203.999993774414,4|10,1:0|0:0,0:0:0:0:
288,129,59658,1,0,0:0:0:0:
120,109,59825,2,0,P|134:158|147:208,1,101.999996887207,2|8,1:2|0:0,0:0:0:0:
290,15,60158,2,0,P|242:28|192:41,1,101.999996887207,2|0,0:0|1:0,0:0:0:0:
63,258,60491,5,2,0:1:0:0:
221,136,60658,1,0,1:0:0:0:
53,38,60825,2,0,P|25:81|24:130,1,101.999996887207,10|0,0:0|0:0,0:0:0:0:
194,285,61158,1,2,0:0:0:0:
120,109,61325,1,0,1:0:0:0:
0,275,61491,2,0,P|49:262|98:248,1,101.999996887207,10|0,0:0|0:0,0:0:0:0:
340,136,61825,6,0,B|305:162|290:198|290:198|342:316,1,203.999993774414,6|8,1:2|0:0,0:0:0:0:
198,159,62325,1,2,0:0:0:0:
404,211,62491,1,2,1:2:0:0:
220,328,62658,2,0,B|116:295|133:394|29:361,1,203.999993774414,8|0,0:0|1:0,0:0:0:0:
170,195,63158,6,0,L|270:212,1,101.999996887207,2|0,0:0|1:0,0:0:0:0:
67,265,63491,2,0,L|50:165,1,101.999996887207,10|0,0:0|0:0,0:0:0:0:
223,22,63825,1,2,0:0:0:0:
170,195,63991,1,0,1:0:0:0:
0,79,64158,2,0,P|42:51|92:50,1,101.999996887207,10|0,0:0|0:0,0:0:0:0:
291,182,64491,6,0,P|276:283|264:384,1,203.999993774414,4|8,1:0|0:0,0:0:0:0:
155,239,64991,1,2,0:0:0:0:
376,129,65158,1,2,1:2:0:0:
157,22,65325,2,0,P|171:70|184:120,1,101.999996887207,8|2,0:0|0:1,0:0:0:0:
286,39,65658,1,0,1:0:0:0:
87,159,65825,5,12,0:1:0:0:
298,244,65991,1,0,1:0:0:0:
102,370,66158,2,0,P|114:320|129:271,1,101.999996887207,12|0,0:0|0:0,0:0:0:0:
377,167,66491,6,0,P|391:215|404:265,1,101.999996887207,8|8,1:3|0:0,0:0:0:0:
338,333,66741,1,8,0:0:0:0:
338,333,66825,2,0,P|334:364|332:388,1,50.9999984436036,8|8,0:0|0:0,0:0:0:0:
217,248,66991,1,8,0:0:0:0:
217,248,67075,1,8,0:0:0:0:
217,248,67158,6,0,B|113:215|130:314|26:281,1,203.999993774414,6|8,1:2|0:0,0:0:0:0:
102,141,67658,1,0,0:0:0:0:
182,348,67825,2,0,L|283:330,1,101.999996887207,0|8,1:0|0:0,0:0:0:0:
89,270,68158,2,0,L|71:371,1,101.999996887207,2|0,0:0|1:0,0:0:0:0:
217,248,68491,6,0,L|199:147,1,101.999996887207,2|0,0:0|1:0,0:0:0:0:
10,115,68825,2,0,P|36:158|81:180,1,101.999996887207,10|0,0:0|0:0,0:0:0:0:
246,34,69158,1,2,0:0:0:0:
103,84,69325,1,0,1:0:0:0:
217,248,69491,2,0,L|318:230,1,101.999996887207,10|0,0:0|0:0,0:0:0:0:
126,185,69825,6,0,B|86:303|86:303|112:338|153:338,1,203.999993774414,4|10,1:0|0:0,0:0:0:0:
317,230,70325,1,0,0:0:0:0:
196,113,70491,2,0,P|210:161|223:211,1,101.999996887207,2|8,1:2|0:0,0:0:0:0:
399,313,70825,2,0,P|411:263|426:214,1,101.999996887207,2|0,0:0|1:0,0:0:0:0:
347,10,71158,5,2,0:1:0:0:
492,146,71325,1,0,1:0:0:0:
285,247,71491,2,0,P|236:232|186:219,1,101.999996887207,10|0,0:0|0:0,0:0:0:0:
353,119,71825,1,2,1:2:0:0:
399,313,71991,1,8,0:3:0:0:
256,137,72158,2,0,P|256:86|284:44,1,101.999996887207,10|0,0:0|0:0,0:0:0:0:
433,219,72491,6,0,B|329:186|346:285|242:252,1,203.999993774414,6|8,1:2|0:0,0:0:0:0:
111,115,72991,1,2,0:0:0:0:
31,330,73158,1,2,1:2:0:0:
202,161,73325,2,0,B|244:43|244:43|207:34|178:3,1,203.999993774414,8|2,0:0|1:2,0:0:0:0:
20,190,73825,6,0,P|69:200|119:212,1,101.999996887207,2|0,0:0|1:0,0:0:0:0:
278,348,74158,2,0,P|228:358|178:370,1,101.999996887207,10|0,0:0|0:0,0:0:0:0:
314,194,74491,1,2,1:2:0:0:
380,384,74658,1,0,1:0:0:0:
218,215,74825,2,0,P|218:164|246:122,1,101.999996887207,10|0,0:0|0:0,0:0:0:0:
467,167,75158,6,0,B|467:208|432:234|432:234|314:194,1,203.999993774414,6|8,1:2|0:0,0:0:0:0:
214,18,75658,1,0,0:0:0:0:
170,271,75825,1,2,1:2:0:0:
344,99,75991,2,0,P|251:117|144:137,1,203.999993774414,8|0,0:0|1:0,0:0:0:0:
62,99,76408,1,2,0:0:0:0:
62,99,76491,6,0,P|44:142|43:197,1,101.999996887207,2|0,0:0|1:0,0:0:0:0:
229,315,76825,2,0,P|240:263|252:213,1,101.999996887207,12|0,0:0|1:0,0:0:0:0:
134,341,77158,1,8,0:3:0:0:
337,276,77325,1,0,1:0:0:0:
143,137,77491,1,12,0:1:0:0:
248,351,77658,1,2,0:0:0:0:
340,139,77825,5,6,1:2:0:0:
159,249,77991,1,2,0:2:0:0:
355,367,78158,2,0,P|346:321|336:275,1,93.5000028533936,10|2,0:0|0:0,0:0:0:0:
444,105,78491,1,2,1:2:0:0:
266,205,78658,1,2,0:0:0:0:
456,307,78825,1,8,0:0:0:0:
340,139,78991,1,2,0:0:0:0:
221,323,79158,6,0,P|175:314|129:304,1,93.5000028533936,2|0,1:2|0:0,0:0:0:0:
193,106,79491,2,0,P|201:151|211:197,1,93.5000028533936,10|0,0:0|1:0,0:0:0:0:
43,110,79825,1,2,0:0:0:0:
164,10,79991,2,0,P|210:7|252:26,1,93.5000028533936,2|8,1:2|0:0,0:0:0:0:
325,154,80325,1,2,0:0:0:0:
453,15,80491,6,0,B|421:27|400:56|400:56|434:170,1,187.000005706787,6|10,1:2|0:0,0:0:0:0:
287,334,80991,2,0,P|296:288|305:242,1,93.5000028533936,4|0,1:0|0:0,0:0:0:0:
407,358,81325,1,2,1:2:0:0:
201,268,81491,6,0,B|105:237|121:328|25:298,1,187.000005706787,14|2,0:0|0:1,0:0:0:0:
180,161,81991,1,0,1:0:0:0:
287,334,82158,2,0,P|295:287|306:243,1,93.5000028533936,8|2,0:0|0:0,0:0:0:0:
440,93,82491,1,2,1:2:0:0:
484,264,82658,1,2,1:2:0:0:
335,147,82825,2,0,P|288:143|246:162,1,93.5000028533936,10|0,0:0|0:0,0:0:0:0:
57,283,83158,6,0,P|67:239|76:192,1,93.5000028533936,6|0,1:2|0:0,0:0:0:0:
235,326,83491,2,0,P|189:336|143:345,1,93.5000028533936,10|0,1:0|0:0,0:0:0:0:
246,162,83825,1,2,1:2:0:0:
326,365,83991,1,2,0:0:0:0:
151,191,84158,2,0,P|147:144|166:102,1,93.5000028533936,10|0,0:1|0:0,0:0:0:0:
433,111,84491,6,0,P|424:156|414:202,1,93.5000028533936,0|0,1:0|0:0,0:0:0:0:
241,329,84825,2,0,P|231:283|222:237,1,93.5000028533936,10|0,0:1|0:0,0:0:0:0:
98,57,85158,1,2,1:2:0:0:
291,162,85325,1,0,1:0:0:0:
102,313,85491,2,0,P|56:303|10:294,1,93.5000028533936,10|0,0:0|0:0,0:0:0:0:
202,110,85825,5,14,1:2:0:0:
202,110,86158,5,10,1:2:0:0:
277,324,86325,1,8,1:2:0:0:
291,67,86491,5,10,1:2:0:0:
187,282,86658,1,8,1:2:0:0:
209,11,86825,5,10,1:2:0:0:
277,324,86991,1,10,1:2:0:0:
202,110,87158,6,0,P|151:118|101:127,1,102,2|2,0:0|0:0,0:0:0:0:
21,79,87825,2,0,P|3:116|0:158,1,85,2|0,0:0|0:0,0:0:0:0:
