osu file format v14

[General]
AudioFilename: audio.mp3
AudioLeadIn: 0
PreviewTime: 227729
Countdown: 0
SampleSet: Soft
StackLeniency: 0.9
Mode: 0
LetterboxInBreaks: 0
WidescreenStoryboard: 1

[Editor]
DistanceSpacing: 1.1
BeatDivisor: 4
GridSize: 32
TimelineZoom: 1.58

[Metadata]
Title:Shout Baby
TitleUnicode:Shout Baby
Artist:Ryokuoushoku Shakai
ArtistUnicode:緑黄色社会
Creator:Keqing
Version:Brave
Source:僕のヒーローアカデミア
Tags:iljaaz FuJu 長屋晴子 Nagaya Haruko 小林壱誓 Kobayashi Issei 穴見真吾 Anami Shingo peppe SINGALONG 麗日お茶子 Uraraka Ochaco Ochako ウラビティ Uravity 4期 第4期 第4クール 4th season ryokushaka ending boku no jpop j-pop エンディングテーマ ED theme my hero academia japanese anime full ver version pop
BeatmapID:2593335
BeatmapSetID:1247712

[Difficulty]
HPDrainRate:6
CircleSize:4.2
OverallDifficulty:8.4
ApproachRate:9.3
SliderMultiplier:1.74
SliderTickRate:1

[Events]
//Background and Video events
0,0,"BG.jpg",0,0
//Break Periods
//Storyboard Layer 0 (Background)
//Storyboard Layer 1 (Fail)
//Storyboard Layer 2 (Pass)
//Storyboard Layer 3 (Foreground)
//Storyboard Layer 4 (Overlay)
//Storyboard Sound Samples

[TimingPoints]
485,333.333333333333,4,2,4,40,1,0
1151,-135.135135135135,4,2,4,40,0,0
1818,-227.272727272727,4,2,4,40,0,0
22734,-227.272727272727,4,2,4,5,0,0
22818,-135.135135135135,4,2,4,70,0,0
23151,-87.719298245614,4,2,4,70,0,0
23651,-135.135135135135,4,2,4,70,0,0
24151,-87.719298245614,4,2,4,70,0,0
24984,-106.382978723404,4,2,4,70,0,0
25818,-87.719298245614,4,2,4,70,0,0
26318,-135.135135135135,4,2,4,70,0,0
26818,-87.719298245614,4,2,4,70,0,0
27651,-106.382978723404,4,2,4,70,0,0
28484,-87.719298245614,4,2,4,70,0,0
28984,-135.135135135135,4,2,4,70,0,0
29484,-87.719298245614,4,2,4,70,0,0
29984,-106.382978723404,4,2,4,70,0,0
31151,-87.719298245614,4,2,4,70,0,0
31651,-135.135135135135,4,2,4,70,0,0
32151,-87.719298245614,4,2,4,70,0,0
33818,-106.382978723404,4,2,4,60,0,0
36151,-87.7192982456139,4,2,4,60,0,0
36484,-106.382978723404,4,2,4,60,0,0
39151,-87.7192982456139,4,2,4,60,0,0
39818,-106.382978723404,4,2,4,60,0,0
41484,-87.7192982456139,4,2,4,60,0,0
41818,-106.382978723404,4,2,4,60,0,0
44484,-87.7192982456139,4,2,4,60,0,0
44984,-106.382978723404,4,2,4,60,0,0
46818,-87.7192982456139,4,2,4,60,0,0
47151,-106.382978723404,4,2,4,60,0,0
49484,-87.7192982456139,4,2,4,60,0,0
49818,-106.382978723404,4,2,4,60,0,0
51151,-87.7192982456139,4,2,4,60,0,0
51651,-106.382978723404,4,2,4,60,0,0
52151,-87.7192982456139,4,2,4,60,0,0
52484,-96.153846153846,4,2,4,70,0,0
55151,-135.135135135135,4,2,4,60,0,0
65818,-135.135135135135,4,2,4,70,0,0
67151,-87.719298245614,4,2,4,70,0,0
70818,-74.6268656716418,4,2,4,70,0,0
71151,-80.6451612903226,4,2,4,70,0,0
76151,-156.25,4,2,4,70,0,0
76484,-80.6451612903226,4,2,4,85,0,0
87151,-156.25,4,2,4,85,0,0
87484,-80.6451612903226,4,2,4,85,0,0
97818,-80.6451612903226,4,2,4,80,0,0
108151,-135.135135135135,4,2,4,70,0,0
108484,-87.719298245614,4,2,4,70,0,0
108984,-135.135135135135,4,2,4,70,0,0
109484,-87.719298245614,4,2,4,70,0,0
110318,-106.382978723404,4,2,4,70,0,0
111151,-87.719298245614,4,2,4,70,0,0
111651,-135.135135135135,4,2,4,70,0,0
112151,-87.719298245614,4,2,4,70,0,0
112984,-106.382978723404,4,2,4,70,0,0
113818,-87.719298245614,4,2,4,70,0,0
114318,-135.135135135135,4,2,4,70,0,0
114818,-87.719298245614,4,2,4,70,0,0
115318,-106.382978723404,4,2,4,70,0,0
116484,-87.719298245614,4,2,4,70,0,0
116984,-135.135135135135,4,2,4,70,0,0
117484,-87.719298245614,4,2,4,70,0,0
119151,-106.382978723404,4,2,4,60,0,0
121484,-87.7192982456139,4,2,4,60,0,0
121818,-106.382978723404,4,2,4,60,0,0
124484,-87.7192982456139,4,2,4,60,0,0
125151,-106.382978723404,4,2,4,60,0,0
126818,-87.7192982456139,4,2,4,60,0,0
127151,-106.382978723404,4,2,4,60,0,0
129484,-87.7192982456139,4,2,4,60,0,0
130318,-106.382978723404,4,2,4,60,0,0
133818,-87.7192982456139,4,2,4,60,0,0
134318,-106.382978723404,4,2,4,60,0,0
134818,-87.7192982456139,4,2,4,60,0,0
135151,-106.382978723404,4,2,4,60,0,0
136484,-87.7192982456139,4,2,4,60,0,0
136984,-106.382978723404,4,2,4,60,0,0
137818,-96.153846153846,4,2,4,60,0,0
140484,-87.719298245614,4,2,4,70,0,0
140733,-87.719298245614,4,2,4,5,0,0
140818,-87.719298245614,4,2,4,70,0,0
141067,-87.719298245614,4,2,4,5,0,0
141151,-87.719298245614,4,2,4,70,0,0
141400,-87.719298245614,4,2,4,5,0,0
141484,-87.719298245614,4,2,4,70,0,0
141733,-87.719298245614,4,2,4,5,0,0
141818,-87.719298245614,4,2,4,70,0,0
142067,-87.719298245614,4,2,4,5,0,0
142151,-87.719298245614,4,2,4,70,0,0
142400,-87.719298245614,4,2,4,5,0,0
142484,-87.719298245614,4,2,4,70,0,0
142733,-87.719298245614,4,2,4,5,0,0
142818,-87.719298245614,4,2,4,70,0,0
143067,-87.719298245614,4,2,4,5,0,0
143151,-87.719298245614,4,2,4,70,0,0
143400,-87.719298245614,4,2,4,5,0,0
143484,-87.719298245614,4,2,4,70,0,0
144067,-87.719298245614,4,2,4,5,0,0
144151,-87.719298245614,4,2,4,70,0,0
144400,-87.719298245614,4,2,4,5,0,0
144484,-87.719298245614,4,2,4,70,0,0
144733,-87.719298245614,4,2,4,5,0,0
144818,-87.719298245614,4,2,4,70,0,0
145067,-87.719298245614,4,2,4,5,0,0
145151,-87.719298245614,4,2,4,70,0,0
146067,-87.719298245614,4,2,4,5,0,0
146151,-87.719298245614,4,2,4,70,0,0
146400,-87.719298245614,4,2,4,5,0,0
146484,-87.719298245614,4,2,4,70,0,0
146733,-87.719298245614,4,2,4,5,0,0
146818,-87.719298245614,4,2,4,70,0,0
147067,-87.719298245614,4,2,4,5,0,0
147151,-87.719298245614,4,2,4,70,0,0
147400,-87.719298245614,4,2,4,5,0,0
147484,-87.719298245614,4,2,4,70,0,0
147733,-87.719298245614,4,2,4,5,0,0
147818,-87.719298245614,4,2,4,70,0,0
148067,-87.719298245614,4,2,4,5,0,0
148151,-87.719298245614,4,2,4,70,0,0
148400,-87.719298245614,4,2,4,5,0,0
148484,-87.719298245614,4,2,4,70,0,0
156151,-74.6268656716418,4,2,4,70,0,0
156484,-80.6451612903226,4,2,4,70,0,0
161151,-135.135135135135,4,2,4,70,0,0
161484,-69.4444444444444,4,2,4,70,0,0
161818,-80.6451612903226,4,2,4,85,0,0
172484,-156.25,4,2,4,85,0,0
173318,-80.6451612903226,4,2,4,85,0,0
183151,-80.6451612903226,4,2,4,80,0,0
192484,-119.047619047619,4,2,4,65,0,0
193818,-106.382978723404,4,2,4,65,0,0
215151,-96.153846153846,4,2,4,75,0,0
224484,-156.25,4,2,4,75,0,0
227150,-156.25,4,2,4,5,0,0
227818,-294.117647058824,4,2,4,45,0,0
228401,-294.117647058824,4,2,4,5,0,0
228484,-294.117647058824,4,2,4,45,0,0
236484,-156.25,4,2,4,70,0,0
239067,-156.25,4,2,4,5,0,0
239151,-156.25,4,2,4,70,0,0
239401,-156.25,4,2,4,5,0,0
239484,-156.25,4,2,4,70,0,0
240484,-80.6451612903226,4,2,4,85,0,0
251151,-135.135135135135,4,2,4,85,0,0
251484,-80.6451612903226,4,2,4,85,0,0
251818,-135.135135135135,4,2,4,85,0,0
252151,-80.6451612903226,4,2,4,85,0,0
252484,-135.135135135135,4,2,4,85,0,0
252818,-80.6451612903226,4,2,4,85,0,0
253151,-135.135135135135,4,2,4,85,0,0
253484,-80.6451612903226,4,2,4,85,0,0

[Colours]
Combo1 : 255,119,119
Combo2 : 255,176,216
Combo3 : 206,157,157
Combo4 : 193,193,225

[HitObjects]
450,318,1151,6,0,L|440:249,2,64.3800015717774,2|2|2,2:0|2:0|2:0,2:0:0:0:
512,366,1651,1,2,2:0:0:0:
347,259,1818,6,0,L|367:137,1,114.840003504639,2|2,2:0|2:0,2:0:0:0:
422,93,2484,1,2,2:0:0:0:
422,93,3484,6,0,L|403:16,2,76.5600023364259,2|2|2,2:0|2:0|2:0,2:0:0:0:
365,145,4484,6,0,B|325:155|325:155|307:174|307:174|252:186,1,114.840003504639,2|2,2:0|2:0,2:0:0:0:
191,152,5151,1,2,2:0:0:0:
191,152,6151,6,0,L|208:66,1,76.5600023364259,2|2,2:0|2:0,2:0:0:0:
153,24,6818,1,2,2:0:0:0:
28,126,7151,6,0,L|42:248,1,114.840003504639,2|2,2:0|2:0,2:0:0:0:
104,282,7818,1,2,2:0:0:0:
4,384,8318,5,2,2:0:0:0:
77,352,8484,2,0,L|158:371,1,76.5600023364259,2|2,2:0|2:0,2:0:0:0:
233,198,9151,2,0,L|156:214,1,76.5600023364259,2|2,2:0|2:0,2:0:0:0:
335,368,9818,6,0,P|367:329|347:266,1,114.840003504639,2|0,2:0|2:0,2:0:0:0:
374,200,10484,1,2,2:0:0:0:
450,60,11484,6,0,P|415:64|380:35,2,76.5600023364259,2|2|2,2:0|2:0|2:0,2:0:0:0:
512,163,12484,6,0,B|425:165|455:214|362:214,1,153.120004672852,2|0,2:0|2:0,2:0:0:0:
507,310,13484,1,2,2:0:0:0:
371,383,13818,6,0,L|383:303,1,76.5600023364259,2|2,2:0|2:0,2:0:0:0:
243,174,14484,2,0,L|254:254,1,76.5600023364259,2|2,2:0|2:0,2:0:0:0:
74,384,15151,6,0,P|47:362|66:291,1,114.840003504639,2|0,2:0|2:0,2:0:0:0:
47,216,15818,2,0,B|173:219|105:326|241:340,1,229.680007009278,2|0,2:0|2:0,2:0:0:0:
324,214,16984,5,2,2:0:0:0:
273,163,17151,2,0,L|223:175,2,38.2800011682129,2|2|0,2:0|2:0|2:0,2:0:0:0:
308,96,17651,1,2,2:0:0:0:
397,253,17818,6,0,P|360:245|298:300,1,114.840003504639,2|0,2:0|2:0,2:0:0:0:
459,190,18484,2,0,P|468:153|475:101,1,76.5600023364259,2|2,2:0|2:0,2:0:0:0:
512,294,19151,1,2,2:0:0:0:
256,0,20484,5,2,2:0:0:0:
256,192,20568,12,0,22734,2:0:0:0:
423,120,22818,6,0,P|416:84|409:114,1,96.5700023576661,8|0,2:0|2:0,2:0:0:0:
424,103,23151,6,0,B|366:82|327:117|327:117|298:176|231:163,1,198.359997578613,4|8,3:2|2:0,2:0:0:0:
119,4,23651,2,0,P|164:19|223:30,1,96.5700023576661,2|0,3:2|2:0,2:0:0:0:
253,91,23984,1,0,3:2:0:0:
66,267,24151,6,0,B|52:219|36:173|36:173|86:161|138:138,1,198.359997578613,12|0,2:0|3:2,2:0:0:0:
66,267,24651,1,2,2:0:0:0:
206,357,24818,1,8,2:0:0:0:
261,301,24984,2,0,L|340:280,1,81.7799987521363,2|0,2:0|2:0,2:0:0:0:
225,204,25318,5,2,3:2:0:0:
350,369,25484,1,10,2:0:0:0:
512,282,25651,1,2,2:0:0:0:
389,177,25818,6,0,B|328:207|328:207|305:264|351:287,1,148.76999818396,4|0,3:2|2:0,2:0:0:0:
407,317,26151,1,8,2:0:0:0:
282,142,26318,2,0,L|304:70,1,64.3800015717774,0|0,3:2|2:0,2:0:0:0:
397,24,26651,1,0,3:2:0:0:
282,142,26818,6,0,B|175:170|175:170|117:132|162:95,1,198.359997578613,12|0,2:0|3:2,2:0:0:0:
276,238,27318,1,2,2:0:0:0:
96,350,27484,1,8,2:0:0:0:
128,268,27651,6,0,L|209:296,1,81.7799987521363,2|0,2:0|2:0,2:0:0:0:
278,384,27984,1,0,3:2:0:0:
106,260,28151,1,8,2:0:0:0:
282,142,28318,1,0,2:0:0:0:
205,294,28484,6,0,L|188:115,1,148.76999818396,4|0,3:2|2:0,2:0:0:0:
140,89,28818,1,8,2:0:0:0:
357,0,28984,6,0,L|342:105,1,96.5700023576661,0|0,3:2|2:0,2:0:0:0:
282,142,29318,1,0,3:2:0:0:
443,276,29484,6,0,B|470:252|506:254|506:254|360:227,1,198.359997578613,12|0,2:0|3:2,2:0:0:0:
185,374,29984,2,0,P|224:377|267:343,1,81.7799987521363,2|8,2:0|2:0,2:0:0:0:
171,188,30318,2,0,P|106:175|33:157,1,122.669998128204,2|0,2:0|2:0,2:0:0:0:
0,212,30651,1,0,3:2:0:0:
185,105,30818,1,8,2:0:0:0:
302,274,30984,1,2,2:0:0:0:
444,147,31151,6,0,P|433:101|428:33,1,99.1799987893067,6|2,3:2|2:0,2:0:0:0:
267,192,31484,1,8,2:0:0:0:
438,371,31651,6,0,P|441:323|454:262,1,96.5700023576661,0|0,3:2|2:0,2:0:0:0:
506,220,31984,1,0,3:2:0:0:
317,341,32151,6,0,B|194:305|194:305|224:327|226:381,1,198.359997578613,12|0,2:0|2:0,2:0:0:0:
351,217,32651,1,0,3:2:0:0:
187,164,32818,1,8,2:0:0:0:
383,383,32984,1,2,3:2:0:0:
405,351,33068,1,0,3:2:0:0:
390,316,33151,5,10,2:0:0:0:
224,365,33318,1,10,2:0:0:0:
183,298,33484,5,10,2:0:0:0:
38,239,33651,1,10,2:0:0:0:
46,370,33818,6,0,B|101:352|101:352|122:314|122:314|197:294,1,163.559997504273,4|8,3:2|2:0,2:0:0:0:
38,239,34318,1,2,2:0:0:0:
187,164,34484,6,0,P|150:181|98:193,1,81.7799987521363,2|0,2:0|3:2,2:0:0:0:
241,381,34818,2,0,P|290:340|256:239,2,163.559997504273,8|0|10,2:0|3:2|2:0,2:0:0:0:
160,272,35651,1,0,3:2:0:0:
316,174,35818,2,0,L|406:202,1,81.7799987521363,2|0,2:0|3:2,2:0:0:0:
268,38,36151,6,0,B|216:48|216:48|192:74|192:74|117:90,1,148.76999818396,10|0,2:0|2:0,2:0:0:0:
50,146,36484,6,0,B|92:142|122:105|122:105|119:152|152:185,1,163.559997504273,2|8,3:2|2:0,2:0:0:0:
268,38,36984,1,2,2:0:0:0:
327,93,37151,2,0,P|325:132|314:183,1,81.7799987521363,2|0,2:0|3:2,2:0:0:0:
419,347,37484,2,0,B|453:350|469:325|469:325|451:251,1,122.669998128204,8|0,2:0|2:0,2:0:0:0:
456,183,37818,6,0,B|364:192|412:252|297:261,1,163.559997504273,0|10,3:2|2:0,2:0:0:0:
180,384,38318,1,0,3:2:0:0:
134,319,38484,2,0,L|152:232,1,81.7799987521363,2|0,2:0|3:2,2:0:0:0:
280,359,38818,1,8,2:0:0:0:
66,224,39068,5,2,2:0:0:0:
56,215,39151,2,0,B|102:159|176:180|176:180|146:213|150:267,1,198.359997578613,4|8,3:2|2:0,2:0:0:0:
89,100,39651,1,2,2:0:0:0:
228,242,39818,2,0,P|261:266|313:258,1,81.7799987521363,2|0,2:0|3:2,2:0:0:0:
180,384,40151,1,8,2:0:0:0:
255,361,40318,1,2,2:0:0:0:
150,238,40484,6,0,P|142:280|131:322,1,81.7799987521363,2|0,3:2|2:0,2:0:0:0:
270,107,40818,2,0,P|279:145|283:196,1,81.7799987521363,10|0,2:0|2:0,2:0:0:0:
146,44,41151,2,0,P|107:36|65:18,1,81.7799987521363,2|0,2:0|3:2,2:0:0:0:
279,201,41484,6,0,P|340:208|393:132,1,148.76999818396,10|0,2:0|2:0,2:0:0:0:
448,96,41818,6,0,P|441:56|435:4,1,81.7799987521363,2|0,3:2|2:0,2:0:0:0:
279,201,42151,2,0,B|339:213|339:213|361:250|361:250|435:269,1,163.559997504273,8|2,2:0|2:0,2:0:0:0:
303,116,42651,1,0,3:2:0:0:
206,314,42818,2,0,P|244:314|281:281,1,81.7799987521363,8|0,2:0|2:0,2:0:0:0:
120,164,43151,5,0,3:2:0:0:
94,238,43318,1,0,2:0:0:0:
221,143,43484,1,10,2:0:0:0:
87,70,43651,1,0,3:2:0:0:
219,233,43818,2,0,L|204:320,1,81.7799987521363,2|0,2:0|3:2,2:0:0:0:
358,193,44151,1,8,2:0:0:0:
460,348,44318,1,2,2:0:0:0:
471,328,44401,1,2,2:0:0:0:
462,307,44484,6,0,B|414:279|373:320|373:320|348:378|286:365,1,198.359997578613,4|8,3:2|2:0,2:0:0:0:
202,143,44984,2,0,L|290:169,1,81.7799987521363,0|0,2:0|2:0,2:0:0:0:
423,66,45318,1,0,3:2:0:0:
363,17,45484,6,0,P|322:29|266:41,1,81.7799987521363,10|0,2:0|2:0,2:0:0:0:
448,166,45818,2,0,P|485:216|463:283,1,122.669998128204,2|0,3:2|2:0,2:0:0:0:
425,327,46151,1,8,2:0:0:0:
284,199,46318,1,0,3:2:0:0:
378,130,46484,6,0,P|368:170|360:227,1,81.7799987521363,2|0,2:0|3:2,2:0:0:0:
165,384,46818,2,0,P|121:336|156:258,1,148.76999818396,10|0,2:0|2:0,2:0:0:0:
143,190,47151,6,0,B|192:183|224:230|206:227|231:272|292:274,1,163.559997504273,2|8,3:2|2:0,2:0:0:0:
448,166,47651,1,2,2:0:0:0:
302,48,47818,2,0,P|341:39|384:22,1,81.7799987521363,2|0,2:0|3:2,2:0:0:0:
253,123,48151,1,8,2:0:0:0:
430,257,48318,6,0,P|391:243|329:230,1,81.7799987521363,0|0,2:0|3:2,2:0:0:0:
448,166,48651,1,0,3:0:0:0:
302,48,48818,1,8,2:0:0:0:
430,257,48984,6,0,L|447:353,1,81.7799987521363,2|0,3:2|2:0,2:0:0:0:
284,199,49318,1,0,3:2:0:0:
119,374,49484,6,0,B|57:353|57:353|28:303|73:275,1,148.76999818396,12|0,2:0|2:0,2:0:0:0:
103,211,49818,6,0,L|120:387,1,163.559997504273,4|10,3:2|2:0,2:0:0:0:
233,255,50318,1,0,2:0:0:0:
85,117,50484,2,0,P|124:132|177:147,1,81.7799987521363,2|0,2:0|3:2,2:0:0:0:
336,310,50818,2,0,P|393:306|430:235,1,122.669998128204,10|0,2:0|2:0,2:0:0:0:
481,197,51151,6,0,P|468:125|458:34,1,148.76999818396,2|0,3:2|2:0,2:0:0:0:
403,0,51484,1,8,2:0:0:0:
262,88,51651,2,0,L|251:142,2,40.8899993760681,0|0|2,3:2|3:2|2:0,2:0:0:0:
209,39,51984,1,2,3:2:0:0:
361,163,52151,6,0,B|315:173|315:173|290:197|290:197|210:212,1,148.76999818396,10|0,2:0|2:0,2:0:0:0:
157,247,52484,6,0,B|139:206|139:206|168:150,1,90.4799994477539,6|2,3:2|2:0,2:0:0:0:
311,299,52818,1,8,2:0:0:0:
192,368,52984,2,0,B|129:355|129:355|108:312|108:312|37:292,1,180.959998895508,2|2,3:2|3:2,2:0:0:0:
224,209,53484,1,8,2:0:0:0:
60,68,53651,2,0,L|77:179,1,90.4799994477539,2|0,2:0|3:2,2:0:0:0:
236,283,53984,1,2,2:0:0:0:
45,384,54151,1,8,2:0:0:0:
205,150,54318,5,2,3:2:0:0:
214,181,54401,1,2,3:2:0:0:
224,209,54484,5,8,2:0:0:0:
357,325,54651,1,8,3:0:0:0:
236,283,54818,5,8,3:0:0:0:
367,218,54984,1,8,3:0:0:0:
503,363,55151,6,0,L|427:343,2,64.3800015717774,6|8|10,3:2|2:1|2:1,2:0:0:0:
367,218,55651,1,8,2:1:0:0:
350,224,55734,1,8,2:1:0:0:
333,230,55818,1,10,3:2:0:0:
433,139,55984,1,8,2:1:0:0:
380,81,56151,2,0,L|371:12,1,64.3800015717774,10|8,2:1|2:1,2:0:0:0:
452,270,56484,6,0,B|404:259|404:259|387:243|387:243|321:227,1,128.760003143555,10|8,3:2|2:1,2:0:0:0:
186,104,56984,1,8,2:1:0:0:
205,98,57068,1,8,2:1:0:0:
221,92,57151,1,10,3:2:0:0:
133,186,57318,1,8,2:1:0:0:
193,232,57484,2,0,L|204:309,1,64.3800015717774,10|8,2:1|2:1,2:0:0:0:
46,363,57818,6,0,L|59:285,1,64.3800015717774,10|8,3:2|2:1,2:0:0:0:
171,372,58151,1,8,2:1:0:0:
215,382,58234,1,8,2:1:0:0:
253,371,58318,1,8,2:1:0:0:
281,335,58401,1,8,2:1:0:0:
285,289,58484,2,0,L|212:309,1,64.3800015717774,8|8,3:2|2:1,2:0:0:0:
378,383,58818,1,8,2:1:0:0:
503,223,58984,5,8,2:1:0:0:
368,305,59151,2,0,L|435:326,1,64.3800015717774,8|8,2:0|2:1,2:0:0:0:
330,217,59484,1,8,2:1:0:0:
431,124,59651,1,8,2:1:0:0:
429,140,59734,1,8,2:1:0:0:
426,156,59818,5,10,2:0:0:0:
352,73,59984,1,10,2:1:0:0:
416,26,60151,1,10,2:1:0:0:
506,140,60318,1,10,2:1:0:0:
330,217,60484,6,0,B|261:203|290:169|214:157,1,128.760003143555,6|8,3:2|2:1,2:0:0:0:
152,192,60984,1,10,2:1:0:0:
31,76,61151,2,0,L|103:57,1,64.3800015717774,8|8,2:0|2:1,2:0:0:0:
37,249,61484,1,8,2:1:0:0:
12,228,61568,1,8,2:1:0:0:
7,195,61651,1,10,2:1:0:0:
23,171,61734,1,8,2:1:0:0:
55,158,61818,6,0,L|131:183,1,64.3800015717774,10|8,3:2|2:1,2:0:0:0:
244,317,62151,2,0,L|170:338,1,64.3800015717774,2|8,2:1|2:1,2:0:0:0:
317,153,62484,6,0,L|332:230,1,64.3800015717774,10|8,3:2|2:1,2:0:0:0:
458,347,62818,5,8,2:1:0:0:
387,369,62984,1,8,2:1:0:0:
436,244,63151,6,0,L|511:267,1,64.3800015717774,8|8,3:2|2:1,2:0:0:0:
317,153,63484,2,0,L|302:71,1,64.3800015717774,8|10,2:1|2:0,2:0:0:0:
183,214,63818,1,10,3:2:0:0:
254,240,63984,1,10,2:1:0:0:
171,60,64151,1,10,2:1:0:0:
132,51,64234,1,8,2:1:0:0:
97,67,64318,1,8,2:1:0:0:
82,102,64401,1,8,2:1:0:0:
86,123,64484,6,0,L|162:150,1,64.3800015717774,8|8,3:2|2:1,2:0:0:0:
61,315,64818,2,0,L|132:297,1,64.3800015717774,10|8,2:0|2:1,2:0:0:0:
56,235,65151,5,0,3:2:0:0:
160,374,65318,1,8,3:0:0:0:
41,322,65484,5,2,3:2:0:0:
189,219,65651,1,8,3:0:0:0:
189,219,65734,1,8,3:0:0:0:
189,219,65818,1,4,3:2:0:0:
394,384,66151,5,10,3:1:0:0:
392,375,66234,1,8,2:1:0:0:
390,365,66318,1,8,2:1:0:0:
389,354,66401,1,8,2:1:0:0:
411,338,66484,5,10,3:1:0:0:
413,323,66568,1,8,2:1:0:0:
416,308,66651,1,8,2:1:0:0:
420,291,66734,1,8,2:1:0:0:
399,275,66818,5,10,3:1:0:0:
393,254,66901,1,8,2:1:0:0:
390,234,66984,1,8,2:1:0:0:
387,214,67068,1,8,2:1:0:0:
410,192,67151,6,0,L|464:178,3,49.5899993946533,10|8|8|8,3:2|2:1|2:1|2:1,2:0:0:0:
329,110,67484,2,0,L|277:96,3,49.5899993946533,10|8|8|8,3:2|2:1|2:1|2:1,2:0:0:0:
416,80,67818,6,0,L|428:26,3,49.5899993946533,10|8|8|8,3:2|2:1|2:1|2:1,2:0:0:0:
311,186,68151,5,8,3:2:0:0:
284,220,68234,1,8,2:1:0:0:
237,232,68318,1,8,2:1:0:0:
198,213,68401,1,8,2:1:0:0:
200,189,68484,5,10,3:2:0:0:
161,158,68568,1,8,2:1:0:0:
110,164,68651,1,8,2:1:0:0:
83,207,68734,1,8,2:1:0:0:
102,258,68818,1,8,3:2:0:0:
147,293,68901,1,8,2:1:0:0:
142,350,68984,1,8,2:1:0:0:
94,378,69068,1,8,2:1:0:0:
44,358,69151,5,8,3:2:0:0:
28,313,69234,1,8,2:1:0:0:
53,269,69318,1,8,2:1:0:0:
102,258,69401,1,8,2:1:0:0:
147,293,69484,1,8,3:2:0:0:
174,354,69568,1,8,2:1:0:0:
234,369,69651,1,8,2:1:0:0:
285,345,69734,1,8,2:1:0:0:
314,288,69818,6,0,L|306:222,1,49.5899993946533,8|8,3:2|2:1,2:0:0:0:
443,151,69984,2,0,L|429:205,1,49.5899993946533,8|8,2:0|2:1,2:0:0:0:
227,93,70151,1,8,3:2:0:0:
241,33,70234,1,8,2:0:0:0:
293,0,70318,1,10,2:0:0:0:
351,5,70401,1,8,2:0:0:0:
397,53,70484,6,2,L|381:122,1,49.5899993946533,10|10,3:2|2:1,2:0:0:0:
147,293,70651,1,10,3:2:0:0:
147,293,70734,1,8,3:0:0:0:
147,293,70818,6,0,B|138:252|122:211|122:211|166:196|215:172,1,174.869991728257,14|0,2:0|2:0,2:0:0:0:
399,351,71151,6,0,B|335:372|289:311|320:302|275:237|200:263,1,215.759991440186,6|10,3:2|2:0,2:0:0:0:
443,151,71651,1,2,2:0:0:0:
241,33,71818,1,2,3:2:0:0:
362,207,71984,2,0,P|354:155|355:92,1,107.879995720093,8|2,2:0|2:0,2:0:0:0:
222,258,72318,1,2,3:2:0:0:
77,79,72484,6,0,P|86:130|89:194,1,107.879995720093,2|0,2:0|3:2,2:0:0:0:
281,384,72818,2,0,P|327:334|293:249,1,161.819993580139,10|0,2:0|2:0,2:0:0:0:
235,206,73151,6,0,P|223:236|224:277,1,53.9399978600465,2|0,3:2|2:0,2:0:0:0:
354,99,73318,2,0,L|304:80,1,53.9399978600465,0|0,3:2|2:0,2:0:0:0:
362,207,73484,2,0,B|412:192|412:192|428:153|428:153|495:136,1,161.819993580139,10|0,2:0|2:0,2:0:0:0:
512,132,73818,5,12,2:0:0:0:
512,132,74151,5,8,3:2:0:0:
356,314,74318,1,10,2:0:0:0:
303,79,74484,5,10,3:2:0:0:
487,272,74651,1,8,2:0:0:0:
255,179,74818,5,8,3:2:0:0:
484,41,74984,1,8,3:2:0:0:
354,332,75151,5,8,3:2:0:0:
273,0,75318,1,8,3:2:0:0:
273,0,75984,5,8,3:0:0:0:
164,158,76151,2,0,L|150:99,1,55.68,8|2,3:2|2:0,2:0:0:0:
90,60,76401,1,2,2:0:0:0:
90,60,76484,6,0,B|129:7|192:37|192:37|224:96|301:83,1,215.759991440186,6|8,3:2|2:0,2:0:0:0:
92,212,76984,1,2,2:0:0:0:
192,39,77151,5,0,3:2:0:0:
314,262,77318,2,0,P|259:269|218:220,1,107.879995720093,8|2,2:0|2:0,2:0:0:0:
304,103,77651,1,0,3:2:0:0:
229,230,77818,6,0,B|308:222|292:294|404:288,1,161.819993580139,2|0,2:0|2:0,2:0:0:0:
434,333,78151,1,8,2:0:0:0:
499,221,78318,1,2,2:0:0:0:
499,221,78401,1,2,2:0:0:0:
499,221,78484,2,0,P|490:164|484:105,1,107.879995720093,2|0,2:0|3:2,2:0:0:0:
197,305,78818,2,0,P|209:223|219:125,1,161.819993580139,8|0,2:0|2:0,2:0:0:0:
304,103,79151,6,0,B|187:81|219:187|96:159,1,215.759991440186,6|10,3:2|2:0,2:0:0:0:
314,262,79651,1,2,2:0:0:0:
132,362,79818,1,2,3:2:0:0:
238,219,79984,1,8,2:0:0:0:
372,380,80151,2,0,P|321:355|270:341,1,107.879995720093,2|2,2:0|3:2,2:0:0:0:
217,292,80401,1,2,2:0:0:0:
217,292,80484,5,2,2:0:0:0:
405,193,80651,1,0,3:2:0:0:
304,103,80818,6,0,B|247:88|247:88|225:48|225:48|144:29,1,161.819993580139,10|0,2:0|2:0,2:0:0:0:
105,0,81151,2,0,P|95:28|97:60,1,53.9399978600465,2|0,2:0|2:0,2:0:0:0:
12,189,81318,2,0,L|73:172,1,53.9399978600465,0|0,3:2|2:0,2:0:0:0:
217,292,81484,6,0,B|176:246|115:259|115:259|140:282|139:314,1,161.819993580139,10|0,2:0|2:0,2:0:0:0:
41,317,81818,6,0,B|155:296|139:393|264:371,1,215.759991440186,4|8,3:2|2:0,2:0:0:0:
88,243,82318,1,2,2:0:0:0:
304,103,82484,1,2,3:2:0:0:
251,48,82651,2,0,P|193:34|145:19,1,107.879995720093,8|0,2:0|2:0,2:0:0:0:
339,176,82984,1,2,3:2:0:0:
428,33,83151,5,2,2:0:0:0:
238,152,83318,1,0,3:2:0:0:
438,312,83484,2,0,L|424:188,1,107.879995720093,10|0,2:0|2:0,2:0:0:0:
260,352,83818,6,0,P|287:366|328:368,1,53.9399978600465,2|0,2:0|2:0,2:0:0:0:
334,303,83984,2,0,P|308:290|277:283,1,53.9399978600465,0|0,3:2|2:0,2:0:0:0:
153,130,84151,6,0,L|171:292,1,161.819993580139,10|0,2:0|2:0,2:0:0:0:
144,376,84484,6,0,B|70:348|70:348|22:305|45:233|100:244,1,215.759991440186,6|8,3:2|2:0,2:0:0:0:
238,152,84984,1,2,2:0:0:0:
89,60,85151,5,2,3:2:0:0:
267,243,85318,2,0,P|318:224|384:209,1,107.879995720093,8|0,2:0|2:0,2:0:0:0:
470,58,85651,1,0,3:2:0:0:
238,152,85818,5,10,2:0:0:0:
434,327,85984,1,0,3:2:0:0:
369,211,86151,6,0,B|282:221|312:271|217:279,1,161.819993580139,12|0,2:0|2:0,2:0:0:0:
173,327,86484,1,10,3:2:0:0:
29,119,86651,5,8,2:0:0:0:
73,100,86734,1,8,2:0:0:0:
115,125,86818,1,8,3:2:0:0:
140,167,86901,1,8,2:0:0:0:
181,195,86984,1,8,2:0:0:0:
226,174,87068,1,8,2:0:0:0:
238,152,87151,6,0,L|226:57,1,83.52,4|0,3:2|2:0,2:0:0:0:
285,8,87484,6,0,B|347:-20|391:43|391:43|353:84|373:157,1,215.759991440186,12|0,2:0|3:2,2:0:0:0:
503,257,87984,2,0,L|485:142,1,107.879995720093,8|2,2:0|2:0,2:0:0:0:
352,324,88318,1,0,3:2:0:0:
378,231,88484,5,2,2:0:0:0:
502,352,88651,1,0,3:2:0:0:
378,231,88818,6,0,L|263:262,1,107.879995720093,10|0,2:0|2:0,2:0:0:0:
50,362,89151,2,0,B|83:323|125:335|125:335|154:379|216:374,1,161.819993580139,2|0,2:0|2:0,2:0:0:0:
193,297,89484,1,10,2:0:0:0:
57,181,89651,1,2,2:0:0:0:
57,181,89734,1,2,2:0:0:0:
57,181,89818,6,0,B|69:144|74:102|74:102|115:81|148:122,1,161.819993580139,4|0,3:2|2:0,2:0:0:0:
138,131,90151,6,0,B|93:117|93:117|74:73|74:73|-8:48,1,161.819993580139,10|0,2:0|2:0,2:0:0:0:
0,41,90484,1,2,3:2:0:0:
179,210,90651,2,0,L|246:193,1,53.9399978600465,8|0,2:0|2:0,2:0:0:0:
362,54,90818,2,0,L|247:19,1,107.879995720093,2|0,2:0|3:2,2:0:0:0:
447,165,91151,5,2,2:0:0:0:
335,285,91318,1,0,3:2:0:0:
417,384,91484,6,0,B|402:331|402:331|424:286|424:286|403:216,1,161.819993580139,10|0,2:0|2:0,2:0:0:0:
447,165,91818,6,0,L|373:147,1,53.9399978600465,2|0,3:2|2:0,2:0:0:0:
283,299,91984,2,0,L|343:282,1,53.9399978600465,8|0,3:0|2:0,2:0:0:0:
223,99,92151,6,0,B|151:132|151:132|186:232,1,161.819993580139,8|0,2:0|2:0,2:0:0:0:
111,272,92484,6,0,B|237:229|237:229|191:268|201:334,1,215.759991440186,4|8,3:2|2:0,2:0:0:0:
82,186,92984,1,2,2:0:0:0:
283,299,93151,1,2,3:2:0:0:
92,378,93318,2,0,L|111:266,1,107.879995720093,8|0,2:0|2:0,2:0:0:0:
278,212,93651,1,2,3:2:0:0:
118,30,93818,6,0,P|109:88|162:130,1,107.879995720093,2|0,2:0|3:2,2:0:0:0:
283,299,94151,2,0,B|369:285|330:234|418:220,1,161.819993580139,10|0,2:0|2:0,2:0:0:0:
490,207,94484,6,0,P|489:239|472:271,1,53.9399978600465,2|0,3:2|2:0,2:0:0:0:
356,144,94651,2,0,P|356:118|371:81,1,53.9399978600465,0|0,3:2|2:0,2:0:0:0:
418,220,94818,2,0,B|330:234|369:285|283:299,1,161.819993580139,10|0,2:0|2:0,2:0:0:0:
255,372,95151,6,0,L|282:179,1,161.819993580139,4|0,3:2|2:0,2:0:0:0:
230,152,95484,1,8,2:0:0:0:
364,285,95651,1,0,2:0:0:0:
199,224,95818,5,2,3:2:0:0:
440,111,95984,2,0,B|402:77|352:91|352:91|339:131|288:144,1,161.819993580139,8|0,2:0|2:0,2:0:0:0:
280,69,96318,1,2,3:2:0:0:
448,220,96484,6,0,P|454:270|467:341,1,107.879995720093,2|0,2:0|3:2,2:0:0:0:
230,152,96818,1,12,2:0:0:0:
406,7,96984,1,0,3:2:0:0:
334,276,97151,5,8,3:0:0:0:
280,69,97318,1,0,3:2:0:0:
334,276,97484,5,8,3:2:0:0:
386,173,97651,1,2,2:0:0:0:
334,276,97818,6,0,L|216:300,1,107.879995720093,6|2,3:2|2:0,2:0:0:0:
104,87,98151,1,10,2:0:0:0:
174,112,98318,1,2,2:0:0:0:
53,258,98484,2,0,B|23:210|23:210|46:156,1,107.879995720093,2|2,3:2|2:0,2:0:0:0:
228,297,98818,1,10,2:0:0:0:
156,315,98984,1,2,2:0:0:0:
303,166,99151,6,0,B|355:179|355:179|384:215|384:215|449:234,1,161.819993580139,2|0,3:2|2:0,2:0:0:0:
512,249,99484,1,10,2:0:0:0:
279,14,99651,6,0,B|240:56|240:56|260:124,1,107.879995720093,0|0,3:2|2:0,2:0:0:0:
118,203,99984,1,0,3:2:0:0:
293,346,100151,5,8,2:0:0:0:
308,273,100318,1,2,2:0:0:0:
110,376,100484,6,0,B|25:353|25:353|-1:310|34:283,1,161.819993580139,4|0,3:2|2:0,2:0:0:0:
39,214,100818,1,8,2:0:0:0:
173,111,100984,6,0,B|216:101|248:133|248:133|269:187|321:184,1,161.819993580139,4|0,3:2|2:0,2:0:0:0:
370,145,101318,1,0,3:2:0:0:
230,250,101484,6,0,L|203:6,1,215.759991440186,12|0,2:0|2:0,2:0:0:0:
126,184,101984,1,0,3:2:0:0:
305,72,102151,1,8,2:0:0:0:
204,13,102318,1,2,2:0:0:0:
374,221,102484,6,0,L|487:187,1,107.879995720093,2|0,3:2|3:2,2:0:0:0:
310,375,102818,2,0,B|265:375|232:336|251:335|214:296|171:311,1,161.819993580139,8|0,2:0|2:0,2:0:0:0:
117,373,103151,6,0,L|147:197,1,161.819993580139,4|0,3:2|2:0,2:0:0:0:
97,148,103484,2,0,B|24:183|24:183|59:271,1,161.819993580139,8|0,2:0|2:0,2:0:0:0:
4,312,103818,6,0,P|27:326|65:332,1,53.9399978600465,2|0,3:2|2:0,2:0:0:0:
204,165,103984,2,0,P|229:152|265:145,1,53.9399978600465,2|0,3:2|2:0,2:0:0:0:
400,296,104151,2,0,B|442:309|442:309|458:327|458:327|520:344,1,107.879995720093,10|0,2:0|2:0,2:0:0:0:
341,107,104484,6,0,B|324:164|324:164|339:207|339:207|318:287,1,161.819993580139,0|0,3:2|2:0,2:0:0:0:
273,317,104818,2,0,B|234:327|234:327|218:343|218:343|157:358,1,107.879995720093,10|0,2:0|2:0,2:0:0:0:
369,195,105151,1,2,3:2:0:0:
218,127,105318,1,0,3:2:0:0:
276,75,105484,2,0,B|329:62|329:62|355:27|355:27|435:11,1,161.819993580139,10|0,2:0|2:0,2:0:0:0:
491,0,105818,5,12,3:2:0:0:
491,0,106151,5,8,3:2:0:0:
289,189,106318,1,0,3:2:0:0:
512,276,106484,5,8,2:0:0:0:
276,75,106651,1,0,3:2:0:0:
321,374,106818,5,8,2:0:0:0:
512,177,106984,2,0,L|502:105,1,53.9399978600465,4|0,3:2|2:0,2:0:0:0:
441,83,107151,1,2,2:0:0:0:
110,257,108151,6,0,P|87:229|93:265,1,96.5700023576661,8|0,3:2|2:0,2:0:0:0:
96,246,108484,6,0,B|215:213|215:213|180:243|182:295,1,198.359997578613,4|10,3:2|2:0,2:0:0:0:
57,147,108984,2,0,L|76:44,1,96.5700023576661,0|0,3:2|2:0,2:0:0:0:
146,22,109318,1,0,3:2:0:0:
242,196,109484,6,0,B|337:225|337:225|401:184|363:130,1,198.359997578613,12|0,2:0|3:2,2:0:0:0:
182,278,109984,1,2,2:0:0:0:
363,383,110151,1,8,2:0:0:0:
323,319,110318,2,0,L|224:343,1,81.7799987521363,2|0,2:0|2:0,2:0:0:0:
408,218,110651,1,2,3:2:0:0:
211,113,110818,1,10,2:0:0:0:
340,49,110984,1,2,2:0:0:0:
211,113,111151,6,0,B|293:124|264:171|348:188,1,148.76999818396,4|0,3:2|2:0,2:0:0:0:
408,218,111484,1,8,2:0:0:0:
241,13,111651,6,0,L|129:37,1,96.5700023576661,0|0,3:2|2:0,2:0:0:0:
104,96,111984,1,0,3:2:0:0:
211,308,112151,6,0,B|194:258|174:212|174:212|220:196|269:172,1,198.359997578613,12|0,2:0|3:2,2:0:0:0:
115,346,112651,1,2,2:0:0:0:
156,198,112818,5,8,2:0:0:0:
325,320,112984,2,0,L|425:349,1,81.7799987521363,2|0,2:0|2:0,2:0:0:0:
262,384,113318,5,0,3:2:0:0:
471,216,113484,1,8,2:0:0:0:
512,384,113651,1,2,2:0:0:0:
357,222,113818,6,0,B|347:172|347:172|365:134|365:134|352:75,1,148.76999818396,4|0,3:2|2:0,2:0:0:0:
391,14,114151,1,10,2:0:0:0:
256,151,114318,6,0,P|206:151|166:104,1,96.5700023576661,0|0,3:2|2:0,2:0:0:0:
145,55,114651,1,0,3:2:0:0:
88,226,114818,6,0,B|159:211|159:211|185:164|185:164|279:146,1,198.359997578613,12|0,2:0|3:2,2:0:0:0:
378,321,115318,2,0,L|272:290,1,81.7799987521363,2|8,2:0|2:0,2:0:0:0:
451,138,115651,2,0,P|490:189|461:257,1,122.669998128204,2|0,2:0|2:0,2:0:0:0:
473,317,115984,1,0,3:2:0:0:
353,116,116151,2,0,L|373:23,1,81.7799987521363,8|0,2:0|2:0,2:0:0:0:
176,200,116484,6,0,P|109:207|70:142,1,148.76999818396,4|0,3:2|2:0,2:0:0:0:
16,90,116818,1,8,2:0:0:0:
273,204,116984,6,0,L|301:305,1,96.5700023576661,0|0,3:2|2:0,2:0:0:0:
262,359,117318,1,0,3:2:0:0:
353,116,117484,6,0,B|403:54|477:82|477:82|446:98|441:138,1,198.359997578613,12|0,2:0|2:0,2:0:0:0:
336,12,117984,1,0,3:2:0:0:
512,152,118151,1,8,2:0:0:0:
298,297,118318,1,2,2:0:0:0:
373,194,118484,5,2,3:2:0:0:
511,350,118651,1,10,2:0:0:0:
468,381,118734,1,8,2:0:0:0:
420,371,118818,1,10,3:2:0:0:
392,334,118901,1,8,2:0:0:0:
369,293,118984,1,10,2:0:0:0:
319,283,119068,1,8,2:0:0:0:
298,297,119151,6,0,B|206:310|249:357|143:368,1,163.559997504273,4|8,3:2|2:0,2:0:0:0:
27,192,119651,1,2,2:0:0:0:
87,147,119818,2,0,P|124:162|186:179,1,81.7799987521363,2|0,2:0|3:2,2:0:0:0:
80,302,120151,2,0,P|33:315|-22:335,1,81.7799987521363,8|0,2:0|2:0,2:0:0:0:
175,163,120484,6,0,P|229:200|219:295,1,163.559997504273,0|10,3:2|2:0,2:0:0:0:
78,132,120984,2,0,P|87:89|95:33,2,81.7799987521363,0|2|0,3:2|2:0|3:2,2:0:0:0:
227,48,121484,6,0,B|275:40|275:40|301:9|301:9|363:-1,1,148.76999818396,10|0,2:0|2:0,2:0:0:0:
369,119,121818,6,0,B|278:102|317:51|213:47,1,163.559997504273,0|8,3:2|2:0,2:0:0:0:
95,214,122318,1,2,2:0:0:0:
95,214,122401,1,2,2:0:0:0:
95,214,122484,2,0,P|134:201|181:192,1,81.7799987521363,2|0,2:0|3:2,2:0:0:0:
315,351,122818,1,8,2:0:0:0:
248,316,122984,1,2,2:0:0:0:
431,181,123151,6,0,P|445:224|436:269,1,81.7799987521363,2|0,3:2|2:0,2:0:0:0:
303,75,123484,2,0,P|262:63|215:42,1,81.7799987521363,10|0,2:0|3:2,2:0:0:0:
388,0,123818,5,2,2:0:0:0:
239,135,123984,1,0,3:2:0:0:
388,0,124151,2,0,P|391:41|400:94,1,81.7799987521363,10|0,2:0|2:0,2:0:0:0:
193,309,124484,6,0,P|151:254|201:176,1,148.76999818396,4|0,3:2|2:0,2:0:0:0:
239,135,124818,2,0,L|367:181,1,99.1799987893067,8|2,2:0|2:0,2:0:0:0:
193,309,125151,2,0,L|104:330,1,81.7799987521363,2|0,2:0|3:2,2:0:0:0:
256,384,125484,1,8,2:0:0:0:
120,240,125651,5,2,2:0:0:0:
353,89,125818,2,0,P|338:130|331:176,1,81.7799987521363,2|0,3:2|2:0,2:0:0:0:
151,23,126151,2,0,P|166:64|173:110,1,81.7799987521363,10|0,0:0|2:0,2:0:0:0:
304,29,126484,1,2,2:0:0:0:
234,1,126651,1,0,3:2:0:0:
356,180,126818,2,0,L|465:158,1,99.1799987893067,8|0,2:0|2:0,2:0:0:0:
365,343,127151,6,0,P|306:342|277:270,1,122.669998128204,2|0,3:2|2:0,2:0:0:0:
221,237,127484,1,8,2:0:0:0:
87,121,127734,5,2,2:0:0:0:
96,129,127818,2,0,L|76:220,1,81.7799987521363,2|0,2:0|3:2,2:0:0:0:
268,99,128151,1,8,2:0:0:0:
365,187,128318,1,2,2:0:0:0:
365,187,128401,1,2,2:0:0:0:
365,187,128484,6,0,L|457:214,1,81.7799987521363,0|0,3:2|3:2,2:0:0:0:
274,292,128818,1,10,2:0:0:0:
399,376,128984,2,0,L|388:288,1,81.7799987521363,0|2,3:2|2:0,2:0:0:0:
247,202,129318,1,0,3:2:0:0:
424,19,129484,6,0,B|472:33|472:33|363:54,1,148.76999818396,10|0,2:0|2:0,2:0:0:0:
268,99,129818,6,0,B|298:58|355:70|355:70|382:131|449:126,1,198.359997578613,6|8,3:2|2:0,2:0:0:0:
201,266,130318,2,0,L|112:284,1,81.7799987521363,2|0,2:0|2:0,2:0:0:0:
241,384,130651,1,0,3:2:0:0:
112,274,130818,6,0,L|129:181,1,81.7799987521363,10|0,2:0|2:0,2:0:0:0:
298,13,131151,2,0,B|247:34|247:34|272:111,1,122.669998128204,2|0,3:2|2:0,2:0:0:0:
223,156,131484,1,10,2:0:0:0:
341,235,131651,2,0,L|426:261,1,81.7799987521363,0|2,3:2|2:0,2:0:0:0:
486,217,131984,1,0,3:2:0:0:
322,366,132151,2,0,L|239:384,1,81.7799987521363,10|0,2:0|2:0,2:0:0:0:
126,193,132484,6,0,B|186:207|186:207|204:245|204:245|280:267,1,163.559997504273,2|8,3:2|2:0,2:0:0:0:
96,367,132984,1,2,2:0:0:0:
36,227,133151,2,0,P|31:266|18:320,1,81.7799987521363,2|0,2:0|3:2,2:0:0:0:
198,111,133484,2,0,P|207:151|211:204,1,81.7799987521363,8|0,2:0|2:0,2:0:0:0:
406,384,133818,6,0,P|356:357|362:270,1,148.76999818396,4|0,3:2|2:0,2:0:0:0:
326,208,134151,1,8,2:0:0:0:
466,81,134318,2,0,L|372:107,1,81.7799987521363,2|0,3:2|2:0,2:0:0:0:
494,188,134651,1,2,3:2:0:0:
377,92,134818,6,0,B|328:81|328:81|302:42|302:42|252:32,1,148.76999818396,8|0,2:0|2:0,2:0:0:0:
179,0,135151,6,0,B|166:41|166:41|196:97,1,81.7799987521363,4|0,3:2|2:0,2:0:0:0:
58,195,135484,2,0,L|156:220,1,81.7799987521363,10|0,2:0|2:0,2:0:0:0:
265,346,135818,1,2,2:0:0:0:
193,364,135984,1,0,3:2:0:0:
300,219,136151,2,0,P|346:211|403:268,1,122.669998128204,10|0,2:0|2:0,2:0:0:0:
447,316,136484,6,0,P|421:329|382:332,1,49.5899993946533,2|0,3:2|2:0,2:0:0:0:
236,174,136651,2,0,P|210:161|171:158,1,49.5899993946533,0|0,3:2|2:0,2:0:0:0:
137,215,136818,1,8,2:0:0:0:
330,92,136984,6,0,B|438:66|438:66|417:89|413:121,1,163.559997504273,2|0,3:2|3:2,2:0:0:0:
269,0,137484,1,8,2:0:0:0:
496,131,137651,5,8,2:0:0:0:
496,131,137734,1,8,2:0:0:0:
496,131,137818,6,0,P|487:175|482:224,1,90.4799994477539,4|0,3:2|3:2,2:0:0:0:
299,362,138151,1,8,2:0:0:0:
255,302,138318,2,0,P|266:256|273:202,1,90.4799994477539,2|0,2:0|2:0,2:0:0:0:
378,362,138651,5,0,3:2:0:0:
188,238,138818,1,8,2:0:0:0:
343,147,138984,1,2,2:0:0:0:
198,358,139151,5,4,3:2:0:0:
254,128,139318,1,8,2:0:0:0:
387,228,139484,1,0,3:2:0:0:
201,374,139734,5,8,2:0:0:0:
198,358,139818,1,8,3:2:0:0:
272,213,139984,1,0,3:0:0:0:
176,127,140151,5,8,3:0:0:0:
129,0,140318,1,8,3:0:0:0:
254,128,140484,6,0,B|203:143|203:143|182:169|182:169|111:189,1,148.76999818396,4|0,3:2|2:0,2:0:0:0:
45,235,140818,2,0,P|111:217|167:274,1,148.76999818396,2|0,3:2|2:0,2:0:0:0:
274,351,141151,2,0,P|340:369|396:312,1,148.76999818396,2|0,3:2|2:0,2:0:0:0:
473,256,141484,2,0,B|419:241|419:241|395:207|395:207|334:191,1,148.76999818396,2|0,3:2|2:0,2:0:0:0:
236,36,141818,6,0,B|283:7|283:7|258:108,1,148.76999818396,6|0,3:2|2:0,2:0:0:0:
84,230,142151,2,0,B|32:208|32:208|133:182,1,148.76999818396,2|0,3:2|2:0,2:0:0:0:
274,351,142484,2,0,B|196:358|216:303|109:320,1,148.76999818396,2|0,3:2|2:0,2:0:0:0:
345,194,142818,6,0,B|381:187|420:170|420:170|431:206|469:235,1,148.76999818396,10|0,2:0|2:0,2:0:0:0:
504,160,143151,6,0,P|523:108|445:49,1,148.76999818396,4|0,3:2|2:0,2:0:0:0:
406,0,143484,1,2,3:2:0:0:
260,97,143651,1,2,2:0:0:0:
206,43,143818,6,0,B|132:45|154:-7|60:0,1,148.76999818396,6|0,3:2|2:0,2:0:0:0:
261,176,144151,2,0,B|335:178|313:126|407:133,1,148.76999818396,2|0,3:2|2:0,2:0:0:0:
205,369,144484,6,0,P|162:326|191:241,1,148.76999818396,2|0,3:2|2:0,2:0:0:0:
261,176,144818,2,0,B|316:191|316:191|335:221|335:221|398:240,1,148.76999818396,2|0,3:2|2:0,2:0:0:0:
436,302,145151,5,2,3:2:0:0:
260,97,145318,1,8,2:0:0:0:
458,189,145484,5,2,3:2:0:0:
256,285,145651,1,0,3:2:0:0:
372,88,145818,6,0,L|391:253,1,148.76999818396,6|0,3:2|2:0,2:0:0:0:
170,20,146151,2,0,L|146:183,1,148.76999818396,0|0,3:2|2:0,2:0:0:0:
256,285,146484,6,0,L|278:128,1,148.76999818396,2|0,3:2|2:0,2:0:0:0:
59,366,146818,2,0,L|37:218,1,148.76999818396,0|0,3:2|2:0,2:0:0:0:
170,20,147151,6,0,B|212:38|212:38|95:65,1,148.76999818396,2|0,3:2|2:0,2:0:0:0:
276,137,147484,2,0,B|331:152|331:152|348:180|348:180|416:199,1,148.76999818396,2|0,3:2|2:0,2:0:0:0:
213,384,147818,2,0,B|190:310|190:310|261:281,1,148.76999818396,2|0,3:2|2:0,2:0:0:0:
503,113,148151,6,0,P|484:185|470:268,1,148.76999818396,8|0,2:0|2:0,2:0:0:0:
512,321,148484,5,4,3:2:0:0:
355,136,148651,1,8,2:0:0:0:
177,306,148818,6,0,B|120:315|120:315|95:345|95:345|30:356,1,148.76999818396,8|0,2:0|2:0,2:0:0:0:
17,359,149151,5,4,3:2:0:0:
196,227,149318,1,8,3:0:0:0:
59,151,149484,1,0,3:0:0:0:
213,383,149651,1,8,2:0:0:0:
355,136,149818,5,4,3:2:0:0:
177,306,149984,1,8,2:0:0:0:
355,136,150151,2,0,L|345:33,1,99.1799987893067,0|0,3:2|2:0,2:0:0:0:
282,0,150401,1,8,2:0:0:0:
282,0,150484,5,0,3:2:0:0:
439,111,150651,1,0,3:2:0:0:
273,78,150818,5,8,3:0:0:0:
128,191,150984,1,8,3:0:0:0:
269,321,151151,1,4,3:2:0:0:
460,202,151484,5,10,3:1:0:0:
448,193,151568,1,8,2:1:0:0:
434,189,151651,1,8,2:1:0:0:
421,191,151734,1,8,2:1:0:0:
396,220,151818,5,10,2:1:0:0:
381,228,151901,1,8,2:1:0:0:
363,231,151984,1,8,2:1:0:0:
345,224,152068,1,8,2:1:0:0:
322,198,152151,5,10,2:1:0:0:
297,187,152234,1,8,2:1:0:0:
272,186,152318,1,8,2:1:0:0:
252,198,152401,1,8,2:1:0:0:
234,230,152484,6,0,L|243:297,3,49.5899993946533,10|8|8|8,3:2|2:1|2:1|2:1,2:0:0:0:
115,107,152818,2,0,L|125:40,3,49.5899993946533,10|8|8|8,3:2|2:1|2:1|2:1,2:0:0:0:
105,202,153151,6,0,L|44:218,3,49.5899993946533,10|8|8|8,3:2|2:1|2:1|2:1,2:0:0:0:
215,126,153484,5,10,3:2:0:0:
245,98,153568,1,8,2:1:0:0:
251,56,153651,1,8,2:1:0:0:
229,18,153734,1,8,2:1:0:0:
184,11,153818,5,8,3:2:0:0:
202,57,153901,1,8,2:1:0:0:
243,79,153984,1,8,2:1:0:0:
288,67,154068,1,8,2:1:0:0:
323,28,154151,1,8,3:2:0:0:
377,11,154234,1,8,2:1:0:0:
427,37,154318,1,8,2:1:0:0:
447,88,154401,1,8,2:1:0:0:
433,136,154484,5,8,3:2:0:0:
380,170,154568,1,8,2:1:0:0:
322,152,154651,1,8,2:1:0:0:
267,177,154734,1,8,2:1:0:0:
244,235,154818,1,8,3:2:0:0:
269,296,154901,1,8,2:1:0:0:
330,313,154984,1,8,2:1:0:0:
381,280,155068,1,8,2:1:0:0:
392,217,155151,6,0,L|340:205,1,49.5899993946533,8|8,3:2|2:1,2:0:0:0:
179,56,155318,2,0,L|230:40,1,49.5899993946533,8|8,2:0|2:1,2:0:0:0:
165,251,155484,1,8,2:0:0:0:
107,285,155568,1,8,2:0:0:0:
44,263,155651,1,8,2:0:0:0:
32,197,155734,1,8,2:0:0:0:
73,160,155818,5,10,3:2:0:0:
77,172,155901,1,8,3:0:0:0:
78,187,155984,1,8,3:0:0:0:
81,200,156068,1,8,3:0:0:0:
84,211,156151,6,0,B|137:226|137:226|161:277|161:277|238:298,1,174.869991728257,6|0,3:2|2:0,2:0:0:0:
383,131,156484,2,0,B|332:124|295:75|295:75|304:141|258:185,1,215.759991440186,6|10,3:2|2:0,2:0:0:0:
436,272,156984,1,2,2:0:0:0:
288,56,157151,6,0,B|250:44|250:44|232:26|232:26|171:9,1,107.879995720093,2|8,3:2|2:0,2:0:0:0:
72,142,157484,1,2,2:0:0:0:
57,66,157651,1,2,3:2:0:0:
266,176,157818,1,2,2:0:0:0:
84,303,157984,1,0,3:2:0:0:
178,180,158151,6,0,B|231:196|231:196|251:224|251:224|325:246,1,161.819993580139,10|0,2:0|2:0,2:0:0:0:
396,263,158484,1,2,3:2:0:0:
233,381,158651,1,0,3:2:0:0:
396,263,158818,6,0,B|386:205|386:205|413:165|413:165|400:95,1,161.819993580139,8|0,2:0|2:0,2:0:0:0:
449,49,159151,5,4,3:2:0:0:
449,49,159484,5,8,3:2:0:0:
178,180,159651,1,2,3:2:0:0:
439,191,159818,5,8,3:2:0:0:
208,26,159984,1,0,3:2:0:0:
281,320,160151,5,8,3:2:0:0:
344,0,160318,1,0,3:2:0:0:
96,156,160484,5,8,3:2:0:0:
438,305,160651,1,12,2:0:0:0:
448,309,160984,5,0,3:2:0:0:
278,236,161151,2,0,L|206:253,1,64.3800015717774,2|0,2:0|3:2,2:0:0:0:
304,67,161484,6,0,B|353:54|386:87|386:87|412:156|471:143,1,187.920004587891,12|2,2:0|2:0,2:0:0:0:
467,67,161818,6,0,B|342:56|401:170|253:145,1,215.759991440186,6|8,3:2|2:0,2:0:0:0:
448,309,162318,1,2,2:0:0:0:
474,236,162484,5,0,3:2:0:0:
287,349,162651,2,0,P|332:377|394:367,1,107.879995720093,8|2,2:0|2:0,2:0:0:0:
221,245,162984,1,0,3:2:0:0:
169,305,163151,6,0,P|116:317|56:338,1,107.879995720093,2|0,2:0|3:2,2:0:0:0:
217,152,163484,2,0,B|274:166|274:166|294:197|294:197|368:217,1,161.819993580139,10|0,2:0|2:0,2:0:0:0:
420,258,163818,6,0,P|430:234|428:192,1,53.9399978600465,2|0,2:0|2:0,2:0:0:0:
312,72,163984,2,0,P|284:83|244:90,1,53.9399978600465,0|0,3:2|2:0,2:0:0:0:
376,5,164151,6,0,P|435:55|401:144,1,161.819993580139,10|0,2:0|2:0,2:0:0:0:
431,206,164484,6,0,B|311:187|361:307|219:274,1,215.759991440186,6|10,3:2|2:0,2:0:0:0:
187,222,164984,1,0,2:0:0:0:
312,72,165151,5,2,3:2:0:0:
408,279,165318,2,0,P|394:331|387:384,1,107.879995720093,8|2,2:0|2:0,2:0:0:0:
144,162,165651,6,0,P|161:240|171:344,1,161.819993580139,0|0,3:2|2:0,2:0:0:0:
238,353,165984,1,0,3:2:0:0:
57,185,166151,6,0,P|43:122|128:72,1,161.819993580139,10|0,2:0|2:0,2:0:0:0:
170,26,166484,2,0,P|193:40|222:47,1,53.9399978600465,2|0,3:2|2:0,2:0:0:0:
319,167,166651,2,0,P|348:161|385:145,1,53.9399978600465,0|0,3:2|2:0,2:0:0:0:
475,29,166818,2,0,B|394:2|394:2|342:27|366:68,1,161.819993580139,10|0,2:0|2:0,2:0:0:0:
288,94,167151,6,0,B|405:72|369:175|493:152,1,215.759991440186,6|8,3:2|2:0,2:0:0:0:
266,267,167651,1,2,2:0:0:0:
481,361,167818,1,0,3:2:0:0:
370,152,167984,2,0,L|382:272,1,107.879995720093,8|0,2:0|2:0,2:0:0:0:
201,346,168318,1,2,3:2:0:0:
153,184,168484,5,2,2:0:0:0:
301,380,168651,1,0,3:2:0:0:
153,184,168818,2,0,P|162:132|168:62,1,107.879995720093,10|0,2:0|2:0,2:0:0:0:
235,36,169151,1,2,2:0:0:0:
75,130,169318,1,0,3:2:0:0:
236,235,169484,2,0,B|318:218|276:173|374:150,1,161.819993580139,10|0,2:0|2:0,2:0:0:0:
478,197,169818,6,0,B|429:199|382:165|382:165|415:222|395:294,1,215.759991440186,6|8,3:2|2:0,2:0:0:0:
456,101,170318,1,2,2:0:0:0:
319,230,170484,1,0,3:2:0:0:
502,335,170651,1,8,3:2:0:0:
369,151,170818,2,0,B|331:140|331:140|315:122|315:122|266:109,1,107.879995720093,2|0,2:0|3:2,2:0:0:0:
119,354,171151,5,8,2:0:0:0:
319,230,171318,1,0,3:2:0:0:
119,354,171484,6,0,B|128:302|128:302|104:263|104:263|123:189,1,161.819993580139,12|0,2:0|2:0,2:0:0:0:
64,148,171818,5,10,3:2:0:0:
117,119,171901,1,8,2:0:0:0:
173,138,171984,1,8,2:0:0:0:
203,193,172068,1,8,2:0:0:0:
206,255,172151,1,8,3:2:0:0:
253,302,172234,1,8,2:0:0:0:
318,301,172318,1,8,2:0:0:0:
363,262,172401,1,8,2:0:0:0:
369,244,172484,6,0,L|355:147,1,83.52,4|0,3:2|2:0,2:0:0:0:
405,102,172818,1,10,2:0:0:0:
206,255,172984,1,0,3:2:0:0:
408,359,173151,1,0,3:2:0:0:
288,102,173318,2,0,B|259:147|259:147|280:215,1,107.879995720093,8|2,2:0|2:0,2:0:0:0:
138,343,173651,1,0,3:2:0:0:
81,279,173818,6,0,L|100:166,1,107.879995720093,2|0,2:0|3:2,2:0:0:0:
266,299,174151,2,0,B|317:310|317:310|343:345|343:345|417:360,1,161.819993580139,10|0,2:0|2:0,2:0:0:0:
481,374,174484,1,2,2:0:0:0:
340,240,174651,1,0,3:2:0:0:
480,138,174818,2,0,L|452:274,1,107.879995720093,10|0,2:0|2:0,2:0:0:0:
350,94,175151,6,0,B|260:106|291:43|188:54,1,161.819993580139,4|0,3:2|2:0,2:0:0:0:
107,124,175484,2,0,B|158:116|192:73|192:73|184:144|236:191,1,215.759991440186,8|2,2:0|3:2,2:0:0:0:
107,29,175984,1,8,2:0:0:0:
274,109,176151,1,2,2:0:0:0:
120,223,176318,2,0,B|82:232|82:232|68:246|68:246|13:258,1,107.879995720093,0|0,3:2|2:0,2:0:0:0:
194,369,176651,1,0,3:2:0:0:
13,248,176818,6,0,P|89:232|138:299,1,161.819993580139,10|0,2:0|2:0,2:0:0:0:
119,362,177151,2,0,L|49:380,1,53.9399978600465,2|0,2:0|2:0,2:0:0:0:
254,245,177318,2,0,L|313:264,1,53.9399978600465,0|0,3:2|2:0,2:0:0:0:
402,366,177484,6,0,L|374:192,1,161.819993580139,10|0,2:0|2:0,2:0:0:0:
440,160,177818,6,0,B|325:147|373:265|224:241,1,215.759991440186,6|8,3:2|2:0,2:0:0:0:
107,124,178318,1,2,2:0:0:0:
232,40,178484,5,2,3:2:0:0:
34,197,178651,2,0,P|84:210|144:232,1,107.879995720093,8|0,2:0|2:0,2:0:0:0:
59,52,178984,1,2,3:2:0:0:
224,151,179151,5,2,2:0:0:0:
51,288,179318,1,0,3:2:0:0:
224,151,179484,6,0,B|330:122|330:122|306:145|300:183,1,161.819993580139,8|0,2:0|2:0,2:0:0:0:
376,181,179818,2,0,L|445:203,1,53.9399978600465,2|0,2:0|2:0,2:0:0:0:
269,314,179984,2,0,P|260:291|266:250,1,53.9399978600465,0|0,3:2|2:0,2:0:0:0:
469,114,180151,2,0,L|435:298,1,161.819993580139,10|0,2:0|2:0,2:0:0:0:
498,368,180484,6,0,B|431:345|431:345|413:281|413:281|333:251,1,215.759991440186,6|8,3:2|2:0,2:0:0:0:
254,49,180984,1,2,2:0:0:0:
469,114,181151,1,0,3:2:0:0:
261,262,181318,2,0,P|209:270|145:289,1,107.879995720093,8|0,2:0|2:0,2:0:0:0:
335,384,181651,1,2,3:2:0:0:
189,195,181818,5,2,3:2:0:0:
92,384,181984,1,0,3:2:0:0:
339,251,182151,2,0,B|329:196|329:196|349:154|349:154|338:84,1,161.819993580139,12|0,2:0|2:0,2:0:0:0:
278,59,182484,1,0,3:2:0:0:
427,185,182651,5,8,2:0:0:0:
427,185,182734,1,8,2:0:0:0:
427,185,182818,2,0,L|502:203,1,53.9399978600465,8|8,3:2|2:0,2:0:0:0:
262,340,182984,2,0,L|184:360,1,53.9399978600465,8|8,3:0|3:0,2:0:0:0:
29,158,183151,6,0,B|66:99|138:122|138:122|149:175|207:205,1,215.759991440186,6|10,3:2|2:0,2:0:0:0:
68,295,183651,1,2,2:0:0:0:
223,117,183818,5,2,3:2:0:0:
152,92,183984,1,2,3:2:0:0:
262,340,184151,1,10,2:0:0:0:
332,313,184318,1,2,2:0:0:0:
188,194,184484,6,0,P|183:248|170:323,1,107.879995720093,2|0,3:2|2:0,2:0:0:0:
390,108,184818,2,0,P|401:156|410:229,1,107.879995720093,10|0,2:0|3:2,2:0:0:0:
187,30,185151,1,2,2:0:0:0:
258,0,185318,1,0,3:2:0:0:
152,92,185484,1,8,2:0:0:0:
293,198,185651,1,2,2:0:0:0:
174,300,185818,6,0,B|160:276|133:268|133:268|262:297,1,161.819993580139,4|0,3:2|2:0,2:0:0:0:
314,306,186151,1,8,2:0:0:0:
439,1,186318,6,0,B|367:25|367:25|393:121,1,161.819993580139,4|0,3:2|2:0,2:0:0:0:
411,178,186651,1,8,2:0:0:0:
203,371,186818,6,0,L|231:141,1,215.759991440186,4|0,3:2|2:0,2:0:0:0:
314,306,187318,1,0,3:2:0:0:
142,160,187484,1,8,2:0:0:0:
290,79,187651,1,2,2:0:0:0:
142,160,187818,6,0,L|25:182,1,107.879995720093,2|0,3:2|3:2,2:0:0:0:
314,306,188151,2,0,B|371:319|371:319|390:352|390:352|469:367,1,161.819993580139,8|0,2:0|2:0,2:0:0:0:
507,301,188484,6,0,B|486:249|475:190|475:190|420:165|382:229,1,215.759991440186,6|10,3:2|2:0,2:0:0:0:
512,116,188984,1,0,2:0:0:0:
395,226,189151,2,0,P|418:172|397:118,1,107.879995720093,2|0,3:2|3:2,2:0:0:0:
255,0,189484,2,0,P|306:16|369:31,1,107.879995720093,10|0,2:0|2:0,2:0:0:0:
209,208,189818,5,0,3:2:0:0:
283,187,189984,1,0,3:2:0:0:
161,38,190151,2,0,B|131:84|131:84|154:152,1,107.879995720093,8|0,2:0|2:0,2:0:0:0:
263,265,190484,1,2,2:0:0:0:
109,364,190651,1,0,3:2:0:0:
160,304,190818,6,0,P|223:291|295:365,1,161.819993580139,8|0,2:0|2:0,2:0:0:0:
358,384,191151,1,12,2:0:0:0:
358,384,191484,5,10,3:2:0:0:
147,134,191651,1,0,3:2:0:0:
422,125,191818,5,10,3:2:0:0:
160,304,191984,1,0,3:2:0:0:
279,12,192151,5,8,3:2:0:0:
452,277,192318,1,0,3:2:0:0:
452,277,192401,1,0,3:2:0:0:
452,277,192484,6,0,B|386:262|351:174|401:73|521:105|500:190|467:206,1,292.319991079102,4|2,3:2|2:0,2:0:0:0:
344,70,193318,1,0,3:2:0:0:
284,123,193484,2,0,B|246:132|246:132|231:147|231:147|163:162,1,109.619996654663,8|0,2:0|2:0,2:0:0:0:
162,140,193818,6,0,P|168:99|172:46,1,81.7799987521363,6|2,3:2|2:0,2:0:0:0:
309,281,194151,2,0,P|301:240|300:195,1,81.7799987521363,10|2,2:0|2:0,2:0:0:0:
129,352,194484,1,2,3:2:0:0:
88,286,194651,2,0,P|133:268|217:332,1,163.559997504273,8|0,2:0|3:2,2:0:0:0:
378,176,195151,6,0,P|335:191|286:202,1,81.7799987521363,2|2,2:0|3:2,2:0:0:0:
484,311,195484,1,10,2:0:0:0:
387,384,195651,2,0,P|393:342|405:300,1,81.7799987521363,2|0,2:0|2:0,2:0:0:0:
258,131,195984,5,0,3:2:0:0:
401,55,196151,2,0,P|386:116|376:194,1,122.669998128204,8|0,2:0|2:0,2:0:0:0:
428,233,196484,5,2,3:2:0:0:
310,70,196651,1,2,2:0:0:0:
431,122,196818,5,10,2:0:0:0:
277,231,196984,1,2,2:0:0:0:
258,131,197151,5,2,3:2:0:0:
403,304,197318,2,0,P|362:309|307:327,1,81.7799987521363,8|2,2:0|2:0,2:0:0:0:
377,175,197651,1,0,3:2:0:0:
232,44,197818,6,0,P|271:60|324:72,1,81.7799987521363,2|2,2:0|3:2,2:0:0:0:
177,192,198151,1,10,2:0:0:0:
125,78,198318,1,2,2:0:0:0:
122,93,198401,1,2,2:0:0:0:
119,104,198484,1,0,3:2:0:0:
232,44,198651,1,0,3:2:0:0:
63,157,198818,6,0,L|83:288,1,122.669998128204,8|0,2:0|2:0,2:0:0:0:
127,337,199151,6,0,P|98:365|35:361,1,81.7799987521363,2|2,3:2|2:0,2:0:0:0:
220,221,199484,2,0,L|307:247,1,81.7799987521363,10|2,2:0|2:0,2:0:0:0:
406,384,199818,1,2,3:2:0:0:
439,317,199984,2,0,P|395:298|309:365,1,163.559997504273,8|0,2:0|3:2,2:0:0:0:
490,223,200484,6,0,P|482:180|476:126,1,81.7799987521363,2|0,2:0|3:2,2:0:0:0:
329,71,200818,1,10,2:0:0:0:
417,1,200984,2,0,P|412:46|399:98,1,81.7799987521363,2|0,2:0|3:2,2:0:0:0:
220,221,201318,1,0,3:2:0:0:
364,308,201484,1,8,2:0:0:0:
227,228,201651,1,2,2:0:0:0:
227,228,201734,1,2,2:0:0:0:
227,228,201818,6,0,L|132:252,1,81.7799987521363,2|2,3:2|2:0,2:0:0:0:
283,139,202151,1,10,2:0:0:0:
215,110,202318,1,2,2:0:0:0:
352,226,202484,6,0,L|364:314,1,81.7799987521363,2|8,3:2|2:0,2:0:0:0:
118,150,202818,2,0,L|138:13,1,122.669998128204,2|0,2:0|2:0,2:0:0:0:
206,0,203151,6,0,P|220:44|186:77,1,81.7799987521363,2|0,2:0|3:2,2:0:0:0:
32,182,203484,1,8,2:0:0:0:
84,242,203651,2,0,P|126:252|175:268,1,81.7799987521363,2|0,2:0|3:2,2:0:0:0:
96,127,203984,1,2,3:2:0:0:
168,274,204151,1,10,0:0:0:0:
145,318,204234,1,2,0:0:0:0:
96,336,204318,1,2,0:0:0:0:
46,327,204401,1,2,0:0:0:0:
18,284,204484,5,4,3:2:0:0:
191,179,204651,2,0,P|229:196|283:208,1,81.7799987521363,2|10,2:0|2:0,2:0:0:0:
336,347,204984,1,2,2:0:0:0:
267,297,205151,5,2,3:2:0:0:
425,143,205318,2,0,P|385:159|332:168,1,81.7799987521363,8|2,2:0|2:0,2:0:0:0:
467,263,205651,1,2,3:2:0:0:
337,153,205818,6,0,L|357:46,1,81.7799987521363,2|2,2:0|3:2,2:0:0:0:
191,179,206151,1,10,2:0:0:0:
79,30,206318,2,0,P|88:67|91:116,1,81.7799987521363,2|0,2:0|2:0,2:0:0:0:
231,24,206651,2,0,P|272:17|327:0,1,81.7799987521363,2|8,3:2|2:0,2:0:0:0:
88,203,207151,6,0,P|82:244|70:283,1,81.7799987521363,2|2,2:0|2:0,2:0:0:0:
256,121,207484,2,0,P|265:160|269:211,1,81.7799987521363,10|2,2:0|2:0,2:0:0:0:
452,360,207818,2,0,B|406:361|378:321|395:318|361:273|311:290,1,163.559997504273,2|2,3:2|2:0,2:0:0:0:
451,215,208318,1,2,3:2:0:0:
310,300,208484,6,0,P|267:309|217:328,1,81.7799987521363,2|0,2:0|3:2,2:0:0:0:
88,203,208818,1,10,2:0:0:0:
178,160,208984,1,2,2:0:0:0:
178,160,209068,1,2,2:0:0:0:
178,160,209151,6,0,P|168:198|160:258,1,81.7799987521363,0|0,3:2|3:2,2:0:0:0:
30,81,209484,2,0,P|69:38|133:50,1,122.669998128204,8|0,2:0|2:0,2:0:0:0:
197,83,209818,6,0,P|236:92|285:109,1,81.7799987521363,2|2,3:2|2:0,2:0:0:0:
139,331,210151,2,0,P|176:320|224:311,1,81.7799987521363,10|2,2:0|2:0,2:0:0:0:
88,203,210484,1,2,3:2:0:0:
245,175,210651,6,0,B|156:163|175:218|84:202,1,163.559997504273,8|2,2:0|3:2,2:0:0:0:
236,325,211151,2,0,P|277:338|334:361,1,81.7799987521363,2|0,2:0|3:2,2:0:0:0:
438,261,211484,1,10,2:0:0:0:
339,193,211651,1,2,2:0:0:0:
339,193,211734,1,2,2:0:0:0:
339,193,211818,2,0,P|346:232|354:283,1,81.7799987521363,2|0,2:0|3:2,2:0:0:0:
495,195,212151,2,0,P|509:139|466:94,1,122.669998128204,8|0,2:0|2:0,2:0:0:0:
439,22,212484,6,0,P|400:15|355:-1,1,81.7799987521363,2|2,3:2|2:0,2:0:0:0:
260,216,212818,2,0,P|298:202|357:190,1,81.7799987521363,10|2,2:0|2:0,2:0:0:0:
186,45,213151,1,2,3:2:0:0:
160,117,213318,1,0,3:2:0:0:
263,44,213484,1,8,2:2:0:0:
338,192,213651,1,10,2:0:0:0:
238,131,213818,6,0,B|147:118|167:184|60:165,1,163.559997504273,2|10,2:0|2:0,2:0:0:0:
185,356,214318,1,2,2:0:0:0:
203,334,214401,1,2,2:0:0:0:
190,297,214484,1,0,3:2:0:0:
82,167,214651,5,8,2:0:0:0:
105,212,214734,1,8,2:0:0:0:
155,223,214818,1,8,2:0:0:0:
200,197,214901,1,8,2:0:0:0:
223,152,214984,1,8,2:0:0:0:
265,125,215068,1,8,2:0:0:0:
307,145,215151,6,0,P|352:153|413:175,1,90.4799994477539,6|2,3:2|2:0,2:0:0:0:
257,47,215484,1,10,2:0:0:0:
333,228,215651,1,2,2:0:0:0:
476,102,215818,1,2,3:2:0:0:
333,228,215984,6,0,P|339:274|341:334,1,90.4799994477539,8|2,2:0|2:0,2:0:0:0:
434,379,216318,1,0,3:2:0:0:
472,265,216484,5,2,2:0:0:0:
280,370,216651,1,0,3:2:0:0:
333,228,216818,5,10,2:0:0:0:
129,132,216984,2,0,P|101:170|115:229,1,90.4799994477539,2|0,2:0|2:0,2:0:0:0:
5,379,217318,6,0,P|46:362|100:348,1,90.4799994477539,2|8,3:2|2:0,2:0:0:0:
7,262,217651,1,2,2:0:0:0:
129,132,217818,6,0,P|85:149|30:153,1,90.4799994477539,6|2,3:2|2:0,2:0:0:0:
196,335,218151,2,0,P|238:350|280:370,1,90.4799994477539,10|2,2:0|2:0,2:0:0:0:
441,219,218484,1,2,3:2:0:0:
299,291,218651,1,8,2:0:0:0:
440,384,218818,6,0,P|462:349|445:286,1,90.4799994477539,2|0,2:0|3:2,2:0:0:0:
313,102,219151,2,0,P|355:120|402:134,1,90.4799994477539,2|0,2:0|3:2,2:0:0:0:
224,260,219484,1,10,2:0:0:0:
412,118,219651,6,0,P|402:71|399:16,1,90.4799994477539,2|0,2:0|2:0,2:0:0:0:
214,162,219984,2,0,P|222:119|227:58,1,90.4799994477539,2|8,3:2|2:0,2:0:0:0:
361,216,220318,1,2,2:0:0:0:
226,72,220484,6,0,P|185:89|135:101,1,90.4799994477539,6|2,3:2|2:0,2:0:0:0:
39,276,220818,1,8,2:0:0:0:
109,241,220984,1,2,2:0:0:0:
4,163,221151,5,2,3:2:0:0:
167,299,221318,2,0,P|213:311|262:331,1,90.4799994477539,10|0,2:0|2:0,2:0:0:0:
126,384,221651,1,0,3:2:0:0:
321,281,221818,6,0,P|329:234|298:193,1,90.4799994477539,2|0,2:0|3:2,2:0:0:0:
419,356,222151,1,10,2:0:0:0:
295,188,222318,2,0,L|310:90,1,90.4799994477539,2|0,2:0|3:2,2:0:0:0:
200,217,222651,1,2,3:2:0:0:
325,85,222818,6,0,B|376:97|376:97|394:122|394:122|468:140,1,135.719999171631,8|0,2:0|2:0,2:0:0:0:
472,141,223151,5,2,3:2:0:0:
303,0,223318,1,2,3:2:0:0:
449,53,223484,5,10,2:0:0:0:
295,188,223651,1,2,3:2:0:0:
295,188,223734,1,0,3:2:0:0:
295,188,223818,5,10,2:0:0:0:
96,75,223984,1,0,3:2:0:0:
218,81,224151,5,8,3:0:0:0:
0,223,224318,1,0,3:2:0:0:
0,223,224401,1,0,3:2:0:0:
0,223,224484,6,0,B|53:156|145:174|188:241|148:258|188:316|264:357|343:320|343:320|248:327|122:234|126:91|263:36|337:84|340:167|294:192,1,890.88,6|0,3:2|2:0,2:0:0:0:
296,190,227818,6,0,L|286:78,1,103.530000631897,2|0,2:0|2:0,2:0:0:0:
337,31,228484,5,2,2:0:0:0:
337,31,229484,5,2,2:0:0:0:
213,160,229818,2,0,P|181:160|153:142,1,59.160000361084,2|2,2:0|2:0,2:0:0:0:
349,297,230484,2,0,P|377:293|405:279,1,59.160000361084,2|2,2:0|2:0,2:0:0:0:
237,384,231151,5,2,2:0:0:0:
194,324,231484,2,0,L|206:259,2,59.160000361084,2|2|2,2:0|2:0|2:0,2:0:0:0:
26,113,232818,5,2,2:0:0:0:
116,20,233151,1,2,2:0:0:0:
235,72,233484,1,2,2:0:0:0:
333,200,233818,6,0,P|375:242|432:237,1,118.320000722168,2|2,2:0|2:0,2:0:0:0:
430,237,234984,5,2,2:0:0:0:
374,286,235151,2,0,P|344:294|317:304,1,59.160000361084,2|2,2:0|2:0,2:0:0:0:
442,142,235818,2,0,P|472:149|504:161,1,59.160000361084,2|2,2:0|3:2,2:0:0:0:
341,57,236484,6,0,B|281:96|170:58|225:20|116:-26|35:65|35:65|187:94|230:230|194:353|53:370|-37:311|19:182|86:217,1,863.04,6|0,3:2|2:0,2:0:0:0:
129,268,239151,6,0,P|164:293|221:282,1,83.52,2|0,2:0|2:0,2:0:0:0:
285,325,239484,6,0,L|266:203,2,111.36,2|2|2,2:0|2:0|3:2,2:0:0:0:
285,325,240484,6,0,B|204:291|204:291|250:152,1,215.759991440186,6|8,3:2|2:0,2:0:0:0:
97,343,240984,1,0,2:0:0:0:
256,156,241151,2,0,L|247:96,1,53.9399978600465,0|0,3:2|2:0,2:0:0:0:
460,246,241318,2,0,B|371:274|371:274|328:248|353:204,1,161.819993580139,8|0,2:0|2:0,2:0:0:0:
399,158,241651,1,0,3:2:0:0:
442,377,241818,5,2,2:0:0:0:
252,248,241984,1,0,3:2:0:0:
500,63,242151,2,0,L|478:178,1,107.879995720093,10|0,2:0|2:0,2:0:0:0:
304,11,242484,1,2,2:0:0:0:
410,67,242651,1,0,3:2:0:0:
255,155,242818,2,0,B|163:162|197:90|77:110,1,161.819993580139,10|0,2:0|2:0,2:0:0:0:
21,75,243151,6,0,B|93:38|93:38|57:195,1,215.759991440186,6|10,3:2|2:0,2:0:0:0:
239,71,243651,1,0,2:0:0:0:
100,7,243818,5,2,3:2:0:0:
236,247,243984,2,0,P|268:202|240:142,1,107.879995720093,8|0,2:0|2:0,2:0:0:0:
49,294,244318,2,0,B|139:300|105:349|206:364,1,161.819993580139,0|0,3:2|2:0,2:0:0:0:
256,320,244651,1,0,3:2:0:0:
358,127,244818,6,0,L|234:160,1,107.879995720093,10|0,2:0|2:0,2:0:0:0:
402,264,245151,2,0,P|411:241|405:198,1,53.9399978600465,2|0,3:2|2:0,2:0:0:0:
231,83,245318,2,0,L|163:63,1,53.9399978600465,0|0,3:2|2:0,2:0:0:0:
49,294,245484,6,0,B|154:262|154:262|131:288|131:325,1,161.819993580139,12|0,2:0|2:0,2:0:0:0:
207,314,245818,6,0,B|317:287|291:393|419:372,1,215.759991440186,6|10,3:2|2:0,2:0:0:0:
229,229,246318,1,0,2:0:0:0:
453,97,246484,2,0,P|410:128|352:124,1,107.879995720093,2|8,3:2|2:0,2:0:0:0:
501,260,246818,1,2,2:0:0:0:
349,112,246984,6,0,P|292:61|202:86,1,161.819993580139,0|0,3:2|2:0,2:0:0:0:
147,110,247318,1,0,3:2:0:0:
313,315,247484,6,0,B|337:267|337:267|315:204,1,107.879995720093,10|0,2:0|2:0,2:0:0:0:
129,358,247818,2,0,P|156:362|192:375,1,53.9399978600465,2|0,3:2|2:0,2:0:0:0:
76,214,247984,2,0,P|47:220|11:236,1,53.9399978600465,0|0,3:2|2:0,2:0:0:0:
246,147,248151,2,0,P|292:96|247:5,1,161.819993580139,10|0,2:0|2:0,2:0:0:0:
135,133,248484,6,0,B|210:150|210:150|244:201|244:201|336:219,1,215.759991440186,6|8,3:2|2:0,2:0:0:0:
129,358,248984,1,2,2:0:0:0:
246,147,249151,5,2,3:2:0:0:
400,303,249318,2,0,P|350:314|284:338,1,107.879995720093,8|0,2:0|2:0,2:0:0:0:
418,169,249651,1,2,3:2:0:0:
288,344,249818,5,2,2:0:0:0:
347,102,249984,1,0,3:2:0:0:
461,246,250151,5,10,2:0:0:0:
289,29,250318,1,0,3:2:0:0:
470,157,250484,6,0,L|395:174,1,53.9399978600465,4|0,3:2|2:0,2:0:0:0:
235,333,250651,2,0,L|308:347,1,53.9399978600465,8|0,2:0|2:0,2:0:0:0:
180,111,250818,1,0,3:2:0:0:
133,103,250901,1,0,3:2:0:0:
94,131,250984,1,0,3:2:0:0:
91,174,251068,1,0,3:2:0:0:
99,188,251151,6,0,L|162:204,1,64.3800015717774,2|2,3:2|3:2,2:0:0:0:
88,384,251484,2,0,B|145:372|145:372|168:338|168:338|253:319,1,161.819993580139,14|0,2:0|2:0,2:0:0:0:
282,272,251818,6,0,P|301:303|295:347,1,64.3800015717774,2|2,3:2|3:2,2:0:0:0:
486,240,252151,2,0,P|418:292|416:363,1,161.819993580139,14|0,2:0|2:0,2:0:0:0:
443,375,252484,6,0,L|512:354,1,64.3800015717774,2|0,3:2|3:2,2:0:0:0:
364,166,252818,2,0,B|286:139|286:139|223:165|260:220,1,161.819993580139,14|0,2:0|2:0,2:0:0:0:
282,272,253151,6,0,L|351:253,1,64.3800015717774,2|2,3:2|3:2,2:0:0:0:
448,43,253484,2,0,L|474:162,1,107.879995720093,12|2,2:0|2:0,2:0:0:0:
290,27,253818,6,0,B|201:19|228:81|131:73,1,161.819993580139,6|0,3:2|2:0,2:0:0:0:
82,26,254151,1,10,2:0:0:0:
0,213,254318,6,0,B|121:165|121:165|150:221|103:254,1,215.759991440186,4|2,3:2|3:2,2:0:0:0:
311,381,254818,6,0,B|215:342|215:342|254:217,1,215.759991440186,12|0,2:0|2:0,2:0:0:0:
116,355,255318,5,0,3:2:0:0:
344,254,255484,1,8,2:0:0:0:
136,152,255651,1,0,3:2:0:0:
311,381,255818,6,0,L|303:312,1,53.9399978600465,0|0,3:2|2:0,2:0:0:0:
248,234,255984,2,0,L|260:175,1,53.9399978600465,0|0,3:2|2:0,2:0:0:0:
403,30,256151,6,0,B|364:-8|364:-8|386:104,1,161.819993580139,8|0,2:0|2:0,2:0:0:0:
455,124,256484,6,0,B|324:98|380:207|235:177,2,215.759991440186,6|10|2,3:2|2:0|3:2,2:0:0:0:
262,14,257318,1,2,3:2:0:0:
421,200,257484,1,8,2:0:0:0:
511,54,257651,1,2,2:0:0:0:
258,180,257818,6,0,P|205:193|150:214,1,107.879995720093,0|0,3:2|3:2,2:0:0:0:
344,384,258151,2,0,P|390:335|343:243,1,161.819993580139,10|0,2:0|2:0,2:0:0:0:
288,266,258484,2,0,L|269:337,1,53.9399978600465,2|0,3:2|2:0,2:0:0:0:
421,200,258651,2,0,L|409:133,1,53.9399978600465,0|0,3:2|2:0,2:0:0:0:
240,15,258818,2,0,B|192:29|192:29|319:53,1,161.819993580139,10|0,2:0|2:0,2:0:0:0:
377,67,259151,5,12,3:2:0:0:
377,67,259484,5,8,3:2:0:0:
155,211,259651,1,8,3:2:0:0:
240,15,259818,5,8,3:2:0:0:
382,340,259984,1,8,3:2:0:0:
129,218,260151,5,8,2:0:0:0:
480,102,260318,1,14,2:0:0:0:
