osu file format v14

[General]
AudioFilename: audio.mp3
AudioLeadIn: 0
PreviewTime: 169841
Countdown: 0
SampleSet: Soft
StackLeniency: 0.4
Mode: 0
LetterboxInBreaks: 0
WidescreenStoryboard: 1

[Editor]
Bookmarks: 11174,21841,43174,53841,65841,87174,97841,107841,108507,119174,140507,159174,169841,180507,204507,215174,225841,236507
DistanceSpacing: 0.4
BeatDivisor: 4
GridSize: 4
TimelineZoom: 2.5

[Metadata]
Title:S.T.U.D
TitleUnicode:S.T.U.D
Artist:Ryokuoushoku Shakai
ArtistUnicode:緑黄色社会
Creator:- AfifAkilie -
Version:soncak's In.s.a.n.e
Source:
Tags:Stud Actor japanese vocalist jpop j-pop リョクシャカ ryokushaka 穴見真吾 Shingo Anami 小林壱誓 Kobayashi Issei pop rock 長屋晴子 Nagaya Haruko peppe Issey hard insane restart KlaksoncakFish SupaV
BeatmapID:3610838
BeatmapSetID:1750641

[Difficulty]
HPDrainRate:5
CircleSize:4
OverallDifficulty:7.9
ApproachRate:9
SliderMultiplier:1.6
SliderTickRate:1

[Events]
//Background and Video events
0,0,"BGStud1.jpg",0,0
//Break Periods
2,100707,106041
//Storyboard Layer 0 (Background)
//Storyboard Layer 1 (Fail)
//Storyboard Layer 2 (Pass)
//Storyboard Layer 3 (Foreground)
//Storyboard Layer 4 (Overlay)
//Storyboard Sound Samples

[TimingPoints]
508,333.333333333333,4,2,1,45,1,0
508,-133.333333333333,4,2,1,45,0,0
2340,-133.333333333333,4,2,1,55,0,0
2674,-133.333333333333,4,2,1,45,0,0
4007,-133.333333333333,4,2,1,55,0,0
4174,-133.333333333333,4,2,1,45,0,0
4674,-133.333333333333,4,2,1,55,0,0
4841,-133.333333333333,4,2,1,45,0,0
5340,-133.333333333333,4,2,1,55,0,0
5507,-133.333333333333,4,2,1,45,0,0
6007,-133.333333333333,4,2,1,55,0,0
6174,-133.333333333333,4,2,1,45,0,0
10340,-133.333333333333,4,2,1,55,0,0
10841,-66.6666666666667,4,2,1,55,0,0
11091,-66.6666666666667,4,2,1,60,0,0
11174,-83.3333333333333,4,2,1,60,0,0
13007,-83.3333333333333,4,2,1,65,0,0
13174,-83.3333333333333,4,2,1,60,0,0
15674,-83.3333333333333,4,2,1,65,0,0
15840,-83.3333333333333,4,2,1,60,0,0
16507,-83.3333333333333,4,2,1,65,0,0
16674,-66.6666666666667,4,2,1,65,0,0
19424,-66.6666666666667,4,2,1,70,0,0
19507,-66.6666666666667,4,2,1,65,0,0
21257,-66.6666666666667,4,2,1,70,0,0
21341,-66.6666666666667,4,2,1,65,0,0
21841,-100,4,2,1,50,0,0
26591,-100,4,2,1,55,0,0
26674,-100,4,2,1,50,0,0
29674,-100,4,2,1,55,0,0
29841,-100,4,2,1,50,0,0
31924,-100,4,2,1,55,0,0
32007,-100,4,2,1,50,0,0
35174,-83.3333333333333,4,2,1,50,0,0
35340,-83.3333333333333,4,2,1,55,0,0
35507,-83.3333333333333,4,2,1,50,0,0
35840,-83.3333333333333,4,2,1,55,0,0
36007,-83.3333333333333,4,2,1,50,0,0
38007,-100,4,2,1,50,0,0
39840,-100,4,2,1,55,0,0
40007,-100,4,2,1,50,0,0
40507,-50,4,2,1,50,0,0
40757,-50,4,2,1,55,0,0
40841,-50,4,2,1,60,0,0
42174,-66.6666666666667,4,2,1,60,0,0
42340,-66.6666666666667,4,2,1,65,0,0
42507,-100,4,2,1,65,0,0
43174,-83.3333333333333,4,2,1,65,0,0
43424,-83.3333333333333,4,2,1,70,0,0
43507,-83.3333333333333,4,2,1,65,0,0
44007,-83.3333333333333,4,2,1,70,0,0
44174,-83.3333333333333,4,2,1,65,0,0
45007,-83.3333333333333,4,2,1,70,0,0
45174,-83.3333333333333,4,2,1,65,0,0
45673,-83.3333333333333,4,2,1,70,0,0
45841,-83.3333333333333,4,2,1,65,0,0
46091,-83.3333333333333,4,2,1,70,0,0
46174,-83.3333333333333,4,2,1,65,0,0
46673,-83.3333333333333,4,2,1,70,0,0
46841,-83.3333333333333,4,2,1,65,0,0
47007,-83.3333333333333,4,2,1,70,0,0
47173,-83.3333333333333,4,2,1,65,0,0
47674,-83.3333333333333,4,2,1,70,0,0
47841,-83.3333333333333,4,2,1,65,0,0
48340,-83.3333333333333,4,2,1,70,0,0
48507,-83.3333333333333,4,2,1,65,0,0
48757,-83.3333333333333,4,2,1,70,0,0
48841,-83.3333333333333,4,2,1,65,0,0
49340,-83.3333333333333,4,2,1,70,0,0
49507,-83.3333333333333,4,2,1,65,0,0
49674,-83.3333333333333,4,2,1,70,0,0
49840,-83.3333333333333,4,2,1,65,0,0
50340,-83.3333333333333,4,2,1,70,0,0
50507,-83.3333333333333,4,2,1,65,0,0
51007,-83.3333333333333,4,2,1,70,0,0
51174,-83.3333333333333,4,2,1,65,0,0
51424,-83.3333333333333,4,2,1,70,0,0
51507,-83.3333333333333,4,2,1,65,0,0
53673,-83.3333333333333,4,2,1,70,0,0
53841,-90.9090909090909,4,2,1,50,0,0
56340,-90.9090909090909,4,2,1,55,0,0
56507,-90.9090909090909,4,2,1,50,0,0
56757,-90.9090909090909,4,2,1,50,0,0
56841,-90.9090909090909,4,2,1,50,0,0
59174,-66.6666666666667,4,2,1,50,0,0
60174,-100,4,2,1,50,0,0
61007,-66.6666666666667,4,2,1,50,0,0
61507,-83.3333333333333,4,2,1,50,0,0
61841,-66.6666666666667,4,2,1,50,0,0
62007,-66.6666666666667,4,2,1,55,0,0
62174,-66.6666666666667,4,2,1,50,0,0
63007,-66.6666666666667,4,2,1,55,0,0
63174,-66.6666666666667,4,2,1,50,0,0
63424,-66.6666666666667,4,2,1,55,0,0
63507,-66.6666666666667,4,2,1,65,0,0
65257,-66.6666666666667,4,2,1,70,0,0
65341,-66.6666666666667,4,2,1,65,0,0
65507,-83.3333333333333,4,2,1,65,0,0
65673,-83.3333333333333,4,2,1,70,0,0
65841,-74.0740740740741,4,2,1,85,0,1
70591,-74.0740740740741,4,2,1,90,0,1
70674,-74.0740740740741,4,2,1,85,0,1
71673,-74.0740740740741,4,2,1,90,0,1
71757,-74.0740740740741,4,2,1,85,0,1
72340,-74.0740740740741,4,2,1,90,0,1
72507,-66.6666666666667,4,2,1,85,0,1
73174,-66.6666666666667,4,2,1,90,0,1
73341,-66.6666666666667,4,2,1,85,0,1
73507,-74.0740740740741,4,2,1,85,0,1
83757,-74.0740740740741,4,2,1,90,0,1
83841,-74.0740740740741,4,2,1,85,0,1
86174,-55.5555555555556,4,2,1,85,0,1
86424,-55.5555555555556,4,2,1,90,0,1
86507,-55.5555555555556,4,2,1,85,0,1
86841,-83.3333333333333,4,2,1,85,0,1
87174,-83.3333333333333,4,2,1,80,0,0
88757,-83.3333333333333,4,2,1,85,0,0
88841,-83.3333333333333,4,2,1,80,0,0
94091,-83.3333333333333,4,2,1,85,0,0
94174,-83.3333333333333,4,2,1,80,0,0
96841,-100,4,2,1,80,0,0
97841,-100,4,2,1,45,0,0
100507,-100,4,2,1,50,0,0
107841,-66.6666666666667,4,2,1,55,0,0
108340,-66.6666666666667,4,2,1,60,0,0
108507,-100,4,2,1,60,0,0
111174,-66.6666666666667,4,2,1,60,0,0
112841,-83.3333333333333,4,2,1,60,0,0
113091,-83.3333333333333,4,2,1,65,0,0
113340,-83.3333333333333,4,2,1,60,0,0
114341,-90.9090909090909,4,2,1,60,0,0
118507,-55.5555555555556,4,2,1,60,0,0
119174,-166.666666666667,4,2,1,50,0,0
121341,-166.666666666667,4,2,1,55,0,0
121507,-166.666666666667,4,2,1,50,0,0
121841,-125,4,2,1,50,0,0
124007,-125,4,2,1,55,0,0
124174,-125,4,2,1,50,0,0
124340,-125,4,2,1,55,0,0
124507,-166.666666666667,4,2,1,50,0,0
127174,-125,4,2,1,50,0,0
129673,-125,4,2,1,55,0,0
129841,-133.333333333333,4,2,1,60,0,0
131841,-100,4,2,1,60,0,0
132507,-133.333333333333,4,2,1,60,0,0
134507,-100,4,2,1,60,0,0
135174,-66.6666666666667,4,2,1,60,0,0
136174,-58.8235294117647,4,2,1,60,0,0
136674,-55.5555555555556,4,2,1,65,0,0
136841,-55.5555555555556,4,2,1,60,0,0
137007,-83.3333333333333,4,2,1,60,0,0
137841,-66.6666666666667,4,2,1,60,0,0
138174,-66.6666666666667,4,2,1,65,0,0
138341,-83.3333333333333,4,2,1,65,0,0
138841,-55.5555555555556,4,2,1,65,0,0
139174,-55.5555555555556,4,2,1,70,0,0
140507,-100,4,2,5,85,0,0
140840,-100,4,2,1,60,0,0
141007,-100,4,2,1,60,0,0
141340,-100,4,2,1,65,0,0
141507,-100,4,2,1,60,0,0
144007,-100,4,2,1,65,0,0
144174,-100,4,2,1,60,0,0
147673,-100,4,2,1,65,0,0
147757,-100,4,2,1,60,0,0
148673,-100,4,2,1,65,0,0
148841,-100,4,2,1,60,0,0
149591,-100,4,2,1,60,0,0
149674,-100,4,2,1,60,0,0
150090,-100,4,2,1,60,0,0
150174,-100,4,2,1,60,0,0
151174,-90.9090909090909,4,2,1,60,0,0
151924,-90.9090909090909,4,2,1,65,0,0
152007,-90.9090909090909,4,2,1,60,0,0
153257,-90.9090909090909,4,2,1,65,0,0
153341,-90.9090909090909,4,2,1,60,0,0
155090,-90.9090909090909,4,2,1,65,0,0
155174,-90.9090909090909,4,2,1,60,0,0
158424,-90.9090909090909,4,2,1,65,0,0
158507,-90.9090909090909,4,2,1,60,0,0
159174,-90.9090909090909,4,2,1,70,0,0
159674,-83.3333333333333,4,2,1,70,0,0
160757,-83.3333333333333,4,2,1,75,0,0
160841,-83.3333333333333,4,2,1,70,0,0
163424,-83.3333333333333,4,2,1,75,0,0
163507,-83.3333333333333,4,2,1,70,0,0
167174,-66.6666666666667,4,2,1,70,0,0
167424,-66.6666666666667,4,2,1,75,0,0
167507,-66.6666666666667,4,2,1,70,0,0
168507,-83.3333333333333,4,2,1,70,0,0
168924,-83.3333333333333,4,2,1,75,0,0
169007,-83.3333333333333,4,2,1,70,0,0
169841,-83.3333333333333,4,2,1,45,0,0
171674,-100,4,2,1,60,0,0
171757,-100,4,2,1,65,0,0
171841,-100,4,2,1,60,0,0
172424,-100,4,2,1,65,0,0
172507,-100,4,2,1,70,0,0
172674,-66.6666666666667,4,2,1,70,0,0
173341,-83.3333333333333,4,2,1,70,0,0
174007,-100,4,2,1,70,0,0
174507,-83.3333333333333,4,2,1,70,0,0
175174,-100,4,2,1,60,0,0
179007,-66.6666666666667,4,2,1,65,0,0
179174,-66.6666666666667,4,2,1,75,0,0
180507,-133.333333333333,4,2,1,75,0,0
180841,-74.0740740740741,4,2,1,85,0,1
186340,-74.0740740740741,4,2,1,90,0,1
186424,-74.0740740740741,4,2,1,85,0,1
187007,-74.0740740740741,4,2,1,90,0,1
187174,-74.0740740740741,4,2,1,85,0,1
187841,-74.0740740740741,4,2,1,90,0,1
188007,-74.0740740740741,4,2,1,85,0,1
191757,-74.0740740740741,4,2,1,90,0,1
191841,-74.0740740740741,4,2,1,85,0,1
192757,-74.0740740740741,4,2,1,90,0,1
192841,-74.0740740740741,4,2,1,85,0,1
194091,-74.0740740740741,4,2,1,90,0,1
194174,-74.0740740740741,4,2,1,85,0,1
195340,-74.0740740740741,4,2,1,90,0,1
195507,-74.0740740740741,4,2,1,85,0,1
196424,-74.0740740740741,4,2,1,90,0,1
196507,-74.0740740740741,4,2,1,85,0,1
196673,-74.0740740740741,4,2,1,90,0,1
196841,-74.0740740740741,4,2,1,85,0,1
198757,-74.0740740740741,4,2,1,90,0,1
198841,-74.0740740740741,4,2,1,85,0,1
201424,-74.0740740740741,4,2,1,90,0,1
201507,-74.0740740740741,4,2,1,85,0,1
203507,-66.6666666666667,4,2,1,85,0,1
204507,-83.3333333333333,4,2,1,70,0,0
223007,-83.3333333333333,4,2,1,75,0,0
223174,-83.3333333333333,4,2,1,70,0,0
224507,-100,4,2,1,70,0,0
224841,-57.1428571428571,4,2,1,70,0,0
225507,-100,4,2,1,70,0,0
225673,-100,4,2,1,75,0,0
225841,-90.9090909090909,4,2,1,55,0,0
231174,-90.9090909090909,4,2,1,60,0,0
231341,-66.6666666666667,4,2,1,60,0,0
234091,-66.6666666666667,4,2,1,65,0,0
234174,-66.6666666666667,4,2,1,60,0,0
234341,-66.6666666666667,4,2,1,65,0,0
234507,-66.6666666666667,4,2,1,70,0,0
235840,-66.6666666666667,4,2,1,80,0,0
236341,-100,4,2,1,80,0,0
237007,-83.3333333333333,4,2,1,70,0,0
237174,-166.666666666667,4,2,1,85,0,0
237507,-166.666666666667,4,2,1,20,0,0

[Colours]
Combo1 : 225,128,81
Combo2 : 64,208,187
Combo3 : 235,188,80
Combo4 : 111,227,210

[HitObjects]
488,70,508,6,0,P|447:72|414:78,1,60.0000000000001,2|2,0:2|0:2,2:0:0:0:
386,139,841,1,2,0:2:0:0:
386,139,1007,2,0,P|381:88|372:4,1,120,2|2,0:2|0:2,2:0:0:0:
293,58,1507,2,0,P|298:87|300:117,1,60.0000000000001,2|2,0:2|0:2,2:0:0:0:
266,193,1841,2,0,P|224:154|85:126,1,180,2|0,0:2|2:0,2:0:0:0:
60,361,2674,6,0,P|14:367|-16:371,2,60.0000000000001,2|2|2,0:2|0:2|0:2,2:0:0:0:
135,382,3174,2,0,P|177:351|167:264,1,120,2|2,0:2|0:2,2:0:0:0:
145,218,3674,2,0,P|126:180|159:210,1,120,2|0,0:2|2:0,2:0:0:0:
239,229,4174,5,2,0:2:0:0:
239,229,4341,2,0,P|303:236|374:240,1,120,2|0,0:2|2:0,2:0:0:0:
417,315,4841,1,2,0:2:0:0:
417,315,5007,2,0,P|353:322|282:326,1,120,2|0,0:2|2:0,2:0:0:0:
222,304,5507,1,2,0:2:0:0:
239,229,5674,6,0,P|277:201|286:122,1,120,2|0,0:2|2:0,2:0:0:0:
262,59,6174,2,0,P|212:52|180:43,1,60.0000000000001,2|2,0:2|0:2,2:0:0:0:
129,23,6507,1,2,0:2:0:0:
129,23,6674,2,0,P|84:15|34:77,1,120,2|2,0:2|0:2,2:0:0:0:
77,136,7174,6,0,B|21:140|4:82|84:34|157:146|88:227,1,240.000000000001,2|2,0:2|0:0,2:0:0:0:
29,269,8007,1,2,0:2:0:0:
20,303,8174,1,2,0:2:0:0:
69,371,8341,1,2,0:2:0:0:
170,353,8507,6,0,P|244:340|270:337,2,90.0000000000002,2|2|2,0:2|0:2|0:2,2:0:0:0:
117,283,9174,6,0,P|43:270|17:267,2,90.0000000000002,2|2|2,0:2|0:2|0:2,2:0:0:0:
268,334,9841,5,2,0:2:0:0:
262,229,10174,2,0,P|225:251|217:278,1,60.0000000000001,2|0,0:2|2:0,2:0:0:0:
423,378,10507,5,10,0:2:0:0:
435,376,10591,1,8,0:2:0:0:
446,374,10674,1,0,1:2:0:0:
353,315,10841,6,0,B|311:240|371:155|441:216|378:241,1,180,6|0,1:2|2:0,2:0:0:0:
376,229,11174,6,0,P|364:165|358:111,1,96,2|2,1:2|1:2,2:0:0:0:
409,61,11507,1,2,1:2:0:0:
296,2,11674,6,0,P|287:62|278:125,1,96,2|0,1:2|1:2,2:0:0:0:
245,175,12007,1,2,1:2:0:0:
301,253,12174,1,2,1:2:0:0:
216,166,12341,6,0,P|190:109|171:63,1,96,2|2,1:2|1:2,2:0:0:0:
154,1,12674,1,2,1:2:0:0:
29,70,12841,1,2,1:2:0:0:
151,212,13007,5,0,1:2:0:0:
0,238,13174,2,0,P|61:257|105:274,1,96,2|10,1:2|0:2,2:0:0:0:
225,250,13507,1,2,1:2:0:0:
195,344,13674,1,0,1:2:0:0:
277,346,13841,6,0,P|271:288|237:253,1,96,6|2,1:2|1:2,2:0:0:0:
151,212,14174,1,2,1:2:0:0:
250,150,14341,6,0,P|310:152|353:194,1,96,2|0,1:2|1:2,2:0:0:0:
349,255,14674,1,2,1:2:0:0:
494,248,14841,1,2,1:2:0:0:
351,157,15007,6,0,P|329:114|335:67,1,96,2|2,1:2|1:2,2:0:0:0:
458,9,15341,1,2,1:2:0:0:
420,97,15507,1,2,1:2:0:0:
316,54,15674,6,0,P|345:18|374:12,2,48,0|0|0,1:0|1:0|1:2,2:0:0:0:
252,106,16007,1,0,1:2:0:0:
85,33,16174,1,8,0:2:0:0:
162,12,16341,1,0,1:2:0:0:
122,168,16507,5,4,1:2:0:0:
6,99,16674,2,0,L|65:111,2,60,8|8|8,0:2|0:2|0:2,2:0:0:0:
131,185,17007,5,4,1:2:0:0:
248,118,17174,2,0,L|208:163,2,60,8|8|8,0:2|0:2|0:2,2:0:0:0:
111,184,17507,5,4,1:2:0:0:
111,319,17674,2,0,L|91:262,2,60,8|8|8,0:2|0:2|0:2,2:0:0:0:
122,168,18007,5,4,1:2:0:0:
219,250,18174,1,8,0:2:0:0:
211,266,18257,1,8,0:2:0:0:
204,282,18341,1,8,0:2:0:0:
184,376,18507,5,8,3:2:0:0:
301,284,18674,1,8,2:3:0:0:
342,359,18841,1,4,2:3:0:0:
386,286,19007,1,0,1:2:0:0:
499,348,19174,6,0,P|443:301|402:178,1,180,4|0,1:2|2:0,2:0:0:0:
408,186,19507,1,0,1:2:0:0:
464,52,19674,1,0,1:2:0:0:
288,24,19841,5,8,1:2:0:0:
349,93,20007,1,8,1:2:0:0:
275,17,20174,1,8,1:2:0:0:
262,139,20341,1,8,1:2:0:0:
259,5,20507,5,8,1:2:0:0:
83,126,20674,2,0,P|120:100|150:80,1,60,0|0,1:2|1:2,2:0:0:0:
214,73,20841,6,0,B|180:44|181:8|181:8|100:60|90:156|156:216,1,300,8|0,0:2|2:0,2:0:0:0:
156,211,21341,5,8,1:2:0:0:
12,159,21507,1,8,1:2:0:0:
79,316,21674,1,8,1:2:0:0:
238,159,21841,6,0,P|293:154|328:150,1,80,6|0,1:2|1:2,2:0:0:0:
418,140,22174,1,10,0:2:0:0:
353,224,22341,6,0,P|333:151|348:52,1,160,10|0,0:2|1:2,2:0:0:0:
411,12,22841,1,8,0:2:0:0:
497,147,23007,6,0,P|442:142|407:138,1,80,2|0,0:2|1:2,2:0:0:0:
286,120,23341,1,0,1:2:0:0:
353,224,23507,1,10,0:2:0:0:
238,240,23674,2,0,P|184:287|191:386,1,160,10|0,0:2|1:2,2:0:0:0:
269,334,24174,1,10,0:2:0:0:
94,315,24341,5,2,0:2:0:0:
94,315,24424,1,8,0:2:0:0:
94,315,24507,2,0,P|85:260|67:150,1,160,0|10,1:2|0:2,2:0:0:0:
157,6,25007,2,0,P|93:-4|66:82,1,160,10|0,0:2|1:2,2:0:0:0:
154,184,25507,1,8,0:2:0:0:
224,115,25674,6,0,P|185:107|146:100,1,80,2|0,0:2|1:2,2:0:0:0:
61,72,26007,1,0,1:2:0:0:
234,13,26174,1,10,0:2:0:0:
318,157,26341,6,0,P|332:76|342:13,1,120,2|0,1:2|2:0,2:0:0:0:
342,23,26674,1,8,0:2:0:0:
408,189,26841,1,10,0:2:0:0:
446,13,27007,1,10,0:2:0:0:
504,161,27174,6,0,P|455:171|410:178,2,80,0|0|10,1:2|1:2|0:2,2:0:0:0:
331,231,27674,1,10,0:2:0:0:
331,231,27841,2,0,P|312:184|322:145,1,80,2|2,0:2|1:2,2:0:0:0:
490,249,28174,2,0,P|493:288|476:323,1,80,10|2,0:2|0:2,2:0:0:0:
355,321,28507,6,0,P|315:314|276:306,1,80,2|0,1:2|1:2,2:0:0:0:
239,219,28841,1,10,0:2:0:0:
203,363,29007,6,0,P|174:314|71:301,1,160,10|2,0:2|1:2,2:0:0:0:
13,347,29507,1,8,0:2:0:0:
157,264,29674,1,2,2:0:0:0:
157,264,29757,1,0,2:0:0:0:
157,264,29841,6,0,P|146:207|140:168,1,80,2|0,1:2|1:2,2:0:0:0:
128,101,30174,1,10,0:2:0:0:
0,150,30341,2,0,P|64:194|142:184,1,160,10|0,0:2|1:2,2:0:0:0:
211,123,30841,5,10,0:2:0:0:
115,17,31007,2,0,P|64:29|10:40,1,80,2|0,0:2|1:2,2:0:0:0:
198,43,31341,5,0,1:2:0:0:
198,43,31507,1,8,0:2:0:0:
294,149,31674,2,0,P|345:137|428:120,1,120,0|0,1:2|2:0,2:0:0:0:
426,119,32007,5,8,1:2:0:0:
284,28,32174,1,8,1:2:0:0:
228,210,32341,1,8,1:2:0:0:
311,239,32507,6,0,P|371:256|416:272,1,80,6|0,1:2|1:2,2:0:0:0:
282,322,32841,1,10,0:2:0:0:
425,339,33007,2,0,P|471:277|453:202,1,160,10|0,0:2|1:2,2:0:0:0:
375,175,33507,1,10,0:2:0:0:
297,238,33674,6,0,P|284:276|274:314,2,80,2|0|0,0:2|1:2|1:2,2:0:0:0:
216,208,34174,1,10,0:2:0:0:
191,371,34341,2,0,P|178:316|105:238,1,160,10|0,0:2|1:2,2:0:0:0:
17,363,34841,6,0,P|77:348|98:313,1,80,10|2,0:2|0:2,2:0:0:0:
205,204,35174,6,0,P|198:139|189:82,1,96,4|0,1:2|2:0,2:0:0:0:
184,28,35507,1,2,0:2:0:0:
286,189,35674,6,0,P|279:124|270:67,1,96,2|0,1:2|2:0,2:0:0:0:
265,13,36007,1,2,1:2:0:0:
371,180,36174,5,10,0:2:0:0:
371,180,36341,2,0,P|370:115|468:40,2,192,0|0|0,1:2|1:2|1:2,2:0:0:0:
488,157,37174,1,8,0:2:0:0:
337,259,37341,1,0,1:2:0:0:
341,277,37424,1,8,0:2:0:0:
345,295,37507,2,0,P|412:309|452:318,1,96,2|8,1:2|2:3,2:0:0:0:
464,233,37841,5,6,1:2:0:0:
356,171,38007,2,0,P|289:185|249:194,1,80,2|8,1:2|0:2,2:0:0:0:
248,344,38341,2,0,P|245:302|167:206,1,160,10|2,0:2|1:2,2:0:0:0:
89,225,38841,5,8,0:2:0:0:
89,225,39007,2,0,P|76:263|64:301,1,80,2|0,0:2|1:2,2:0:0:0:
176,210,39341,2,0,P|215:201|254:193,1,80,2|8,1:2|0:2,2:0:0:0:
120,143,39674,2,0,P|93:113|66:83,1,80,10|0,0:2|2:0,2:0:0:0:
108,0,40007,2,0,P|134:29|161:59,1,80,2|8,1:2|0:2,2:0:0:0:
331,175,40341,2,0,L|370:166,1,40,2|0,1:2|1:2,2:0:0:0:
481,111,40507,6,0,B|438:72|454:1|454:1|428:69|358:85,1,240,12|0,0:2|2:0,2:0:0:0:
354,84,40841,1,0,1:2:0:0:
480,193,41007,1,8,0:2:0:0:
318,172,41174,1,8,0:2:0:0:
493,187,41341,1,8,0:2:0:0:
333,268,41507,1,8,0:2:0:0:
506,181,41674,1,10,0:2:0:0:
397,338,41841,5,8,1:2:0:0:
508,281,42007,1,8,2:3:0:0:
403,212,42174,6,0,P|341:180|281:205,1,120,4|0,2:3|2:0,2:0:0:0:
249,261,42424,1,8,0:2:0:0:
256,275,42507,2,0,P|191:267|155:258,1,80,2|8,1:2|0:2,2:0:0:0:
48,248,42841,2,0,P|59:306|68:348,1,80,2|0,1:2|1:2,2:0:0:0:
64,242,43174,6,0,P|64:165|28:101,1,144,6|0,1:2|2:0,2:0:0:0:
22,91,43507,2,0,P|96:100|130:107,1,96,8|2,0:2|0:2,2:0:0:0:
186,19,43841,2,0,P|233:23|281:32,1,96,8|0,0:2|2:0,2:0:0:0:
199,116,44174,1,10,0:2:0:0:
301,223,44341,6,0,P|299:175|285:130,1,96,2|8,1:2|0:2,2:0:0:0:
281,42,44674,1,2,0:2:0:0:
481,18,44841,2,0,P|466:63|464:111,1,96,8|0,0:2|2:0,2:0:0:0:
500,199,45174,1,10,0:2:0:0:
386,170,45341,1,2,1:2:0:0:
360,294,45507,2,0,P|414:284|470:278,1,96,10|0,0:2|2:0,2:0:0:0:
312,364,45757,5,2,2:0:0:0:
294,356,45841,2,0,P|254:293|161:295,1,144,6|0,1:2|2:0,2:0:0:0:
172,290,46174,2,0,P|134:248|141:198,1,96,8|2,0:2|0:0,2:0:0:0:
95,124,46507,2,0,P|56:150|46:196,1,96,8|0,0:2|2:0,2:0:0:0:
11,273,46841,1,10,0:2:0:0:
134,211,47007,6,0,P|213:192|246:186,1,96,0|8,2:0|0:2,2:0:0:0:
292,93,47341,2,0,P|279:33|269:-20,2,96,2|8|0,1:2|0:2|2:0,2:0:0:0:
314,176,47757,1,2,2:0:0:0:
333,173,47841,2,0,P|377:132|382:85,1,96,10|2,0:2|1:2,2:0:0:0:
456,5,48174,2,0,P|469:63|507:91,1,96,10|0,0:2|2:0,2:0:0:0:
509,186,48507,6,0,P|458:202|427:294,1,144,14|0,0:2|2:0,2:0:0:0:
430,298,48841,2,0,P|486:311|536:320,1,96,8|2,0:2|0:2,2:0:0:0:
311,364,49174,2,0,P|367:377|417:386,1,96,8|0,0:2|2:0,2:0:0:0:
337,271,49507,1,10,0:2:0:0:
225,338,49674,6,0,P|204:290|219:234,1,96,0|8,2:0|0:2,2:0:0:0:
345,261,50007,2,0,P|366:213|351:157,2,96,2|8|0,0:2|0:2|2:0,2:0:0:0:
287,204,50424,1,2,2:0:0:0:
281,185,50507,2,0,P|211:165|167:153,1,96,10|0,0:2|1:2,2:0:0:0:
35,205,50841,2,0,P|81:217|127:231,1,96,10|0,0:2|2:0,2:0:0:0:
189,159,51174,6,0,P|199:108|142:30,1,144,14|0,0:2|2:0,2:0:0:0:
132,31,51507,1,8,0:2:0:0:
46,122,51674,1,2,0:2:0:0:
230,63,51841,1,10,0:2:0:0:
54,12,52007,1,0,1:2:0:0:
127,231,52174,1,8,0:2:0:0:
189,159,52341,6,0,P|283:140|384:120,1,192,4|0,1:2|1:2,2:0:0:0:
123,109,52841,2,0,B|75:96|53:50|53:50|63:118|16:162,1,192,8|10,0:2|0:2,2:0:0:0:
15,176,53257,1,8,0:2:0:0:
12,214,53341,1,8,0:2:0:0:
33,245,53424,1,8,0:2:0:0:
69,256,53507,2,0,P|111:290|116:335,1,96,10|0,0:2|1:0,2:0:0:0:
188,376,53757,5,0,1:0:0:0:
205,377,53841,2,0,P|274:328|276:243,1,176,6|8,1:2|0:2,2:0:0:0:
166,208,54341,1,10,0:2:0:0:
183,209,54424,1,8,0:2:0:0:
200,211,54507,2,0,P|207:150|210:114,1,88,0|0,1:2|1:2,2:0:0:0:
349,22,54841,5,10,0:2:0:0:
264,8,55007,2,0,P|272:60|378:105,1,176,0|2,1:2|1:2,2:0:0:0:
511,53,55507,1,8,0:2:0:0:
465,135,55674,1,8,0:2:0:0:
468,152,55757,1,8,0:2:0:0:
471,169,55841,2,0,P|485:237|493:269,1,88,2|0,1:2|1:2,2:0:0:0:
400,281,56174,2,0,P|386:213|378:181,1,88,10|0,0:2|2:0,2:0:0:0:
352,361,56507,6,0,P|302:332|230:359,1,132,6|2,1:2|0:0,2:0:0:0:
217,356,56841,2,0,P|231:288|239:256,1,88,10|10,0:2|0:2,2:0:0:0:
264,190,57091,1,8,0:2:0:0:
247,184,57174,2,0,B|203:174|203:174|158:208,1,88,2|0,1:2|1:2,2:0:0:0:
145,290,57507,2,0,B|101:300|101:300|56:266,1,88,10|2,0:2|1:2,2:0:0:0:
0,136,57841,6,0,P|54:142|140:64,1,176,2|8,0:2|0:2,2:0:0:0:
273,16,58341,1,8,0:2:0:0:
255,12,58424,1,8,0:2:0:0:
237,9,58507,2,0,P|228:67|220:112,1,88,2|0,1:2|1:2,2:0:0:0:
247,184,58841,2,0,P|305:175|350:167,1,88,6|0,2:3|1:2,2:0:0:0:
486,86,59174,6,0,B|520:32|469:-16|368:28|383:124|445:185,1,240,14|2,0:2|1:2,2:0:0:0:
335,272,59674,6,0,B|386:316|377:381|377:381|389:317|469:292,1,240,14|2,0:2|0:2,2:0:0:0:
419,151,60174,2,0,P|408:210|403:246,1,80,14|2,2:3|0:2,2:0:0:0:
293,351,60507,6,0,P|244:326|267:227,1,160,6|2,1:2|1:2,2:0:0:0:
322,91,61007,6,0,P|234:41|230:141,1,240,14|2,0:2|0:2,2:0:0:0:
256,234,61507,2,0,P|209:222|162:215,1,96,6|2,2:3|0:2,2:0:0:0:
42,375,61841,6,0,P|72:317|72:258,1,120,6|0,1:2|2:0,2:0:0:0:
47,169,62174,1,2,1:2:0:0:
171,11,62341,6,0,P|176:69|146:120,1,120,14|0,0:2|1:2,2:0:0:0:
26,161,62674,1,2,0:2:0:0:
162,215,62841,6,0,P|225:203|266:165,1,120,10|0,0:2|2:0,2:0:0:0:
397,15,63174,6,0,P|409:92|423:210,1,180,6|0,1:2|2:0,2:0:0:0:
425,208,63507,1,8,1:2:0:0:
341,215,63674,1,8,1:2:0:0:
462,285,63841,1,8,1:2:0:0:
336,233,64007,1,8,1:2:0:0:
406,368,64174,1,8,1:2:0:0:
322,216,64341,1,8,1:2:0:0:
276,382,64507,6,0,P|267:322|250:287,1,60,8|8,2:3|2:3,2:0:0:0:
251,167,64674,1,4,2:3:0:0:
229,156,64757,1,4,2:3:0:0:
208,142,64841,1,0,1:2:0:0:
209,249,65007,6,0,B|104:232|135:344|59:342,1,180,8|0,0:2|2:0,2:0:0:0:
45,342,65341,1,0,1:2:0:0:
0,269,65507,2,0,P|24:227|92:229,1,96,12|0,0:2|2:0,2:0:0:0:
314,271,65841,6,0,P|261:258|208:248,1,108,2|2,1:2|1:2,2:0:0:0:
145,176,66174,1,10,0:2:0:0:
237,101,66341,1,2,1:2:0:0:
233,85,66424,1,8,0:2:0:0:
229,69,66507,1,0,1:2:0:0:
113,9,66674,1,2,1:2:0:0:
67,146,66841,2,0,P|112:96|167:96,1,108,10|2,0:2|0:2,2:0:0:0:
321,146,67174,5,2,1:2:0:0:
321,146,67341,1,0,1:2:0:0:
477,18,67507,1,8,0:2:0:0:
316,12,67674,6,0,P|337:90|359:231,1,216,0|2,1:2|1:2,2:0:0:0:
435,183,68174,2,0,P|425:122|410:53,1,108,10|2,0:2|0:0,2:0:0:0:
149,91,68507,6,0,P|211:107|238:179,1,108,2|0,1:2|1:2,2:0:0:0:
140,337,68841,1,10,0:2:0:0:
16,194,69007,1,2,0:0:0:0:
32,191,69091,1,8,0:2:0:0:
48,189,69174,2,0,P|124:175|175:170,2,108,2|0|10,1:2|1:2|0:2,2:0:0:0:
212,377,69674,6,0,P|220:321|82:277,1,216,2|0,0:0|1:2,2:0:0:0:
140,337,70174,1,10,0:2:0:0:
303,344,70341,2,0,P|320:291|295:232,1,108,2|0,0:0|1:2,2:0:0:0:
293,230,70591,1,0,1:0:0:0:
282,218,70674,1,0,1:2:0:0:
398,310,70841,1,10,0:2:0:0:
488,193,71007,1,10,0:2:0:0:
483,208,71091,1,8,0:2:0:0:
476,222,71174,6,0,P|421:227|375:186,1,108,4|0,1:2|1:2,2:0:0:0:
285,31,71507,2,0,P|362:44|421:47,1,108,10|0,0:2|2:0,2:0:0:0:
320,124,71757,1,8,0:2:0:0:
304,128,71841,2,0,P|227:141|168:144,1,108,2|0,1:2|1:2,2:0:0:0:
47,111,72174,2,0,P|64:57|119:26,1,108,10|0,0:2|2:0,2:0:0:0:
197,143,72507,6,0,B|154:139|132:108|132:108|189:190|129:286,1,240,2|10,1:2|0:2,2:0:0:0:
0,329,73007,1,2,1:2:0:0:
70,208,73174,1,0,2:0:0:0:
148,350,73341,1,0,1:2:0:0:
141,262,73507,2,0,P|200:243|252:224,1,108,10|2,0:2|1:2,2:0:0:0:
477,143,73841,6,0,B|482:119|451:105|451:105|410:185|309:200,1,216,14|10,0:2|0:2,2:0:0:0:
243,227,74341,1,2,1:2:0:0:
269,41,74507,2,0,P|319:60|371:78,1,108,8|0,0:2|1:2,2:0:0:0:
461,240,74841,2,0,P|410:258|359:276,1,108,10|2,0:2|1:2,2:0:0:0:
185,8,75174,5,8,0:2:0:0:
260,133,75341,1,0,1:2:0:0:
245,140,75424,1,0,1:2:0:0:
229,144,75507,1,0,1:2:0:0:
99,23,75674,5,8,0:2:0:0:
153,125,75841,1,0,1:2:0:0:
139,115,75924,1,0,1:2:0:0:
127,103,76007,1,0,1:2:0:0:
16,36,76174,6,0,P|30:77|29:109,3,54,8|8|8|8,0:2|0:2|0:2|0:2,2:0:0:0:
27,110,76507,6,0,P|60:160|37:210,1,108,6|2,1:2|1:2,2:0:0:0:
8,271,76841,1,10,0:2:0:0:
171,210,77007,1,2,0:0:0:0:
155,214,77091,1,8,0:2:0:0:
139,218,77174,2,0,P|154:276|170:340,1,108,0|2,1:2|1:2,2:0:0:0:
105,382,77507,1,10,0:2:0:0:
237,266,77674,1,2,0:0:0:0:
394,384,77841,6,0,P|408:326|419:275,2,108,2|0|8,1:2|1:2|0:2,2:0:0:0:
445,198,78341,2,0,B|327:176|360:295|255:274,1,216,0|2,1:2|1:2,2:0:0:0:
401,104,78841,2,0,P|462:114|537:124,1,108,10|10,0:2|0:2,2:0:0:0:
354,30,79091,1,8,0:2:0:0:
338,27,79174,6,0,P|310:96|307:146,1,108,2|0,1:2|1:2,2:0:0:0:
343,212,79507,1,10,0:2:0:0:
228,71,79674,1,2,0:0:0:0:
212,67,79757,1,8,0:2:0:0:
196,63,79841,2,0,P|142:67|108:126,1,108,0|0,1:2|1:2,2:0:0:0:
185,146,80174,1,8,0:2:0:0:
68,13,80341,6,0,P|25:70|73:215,1,216,2|0,0:0|1:2,2:0:0:0:
141,220,80841,1,10,0:2:0:0:
274,152,81007,1,2,0:0:0:0:
274,152,81174,2,0,P|260:72|249:22,1,108,0|0,1:2|1:2,2:0:0:0:
177,21,81507,1,10,0:2:0:0:
339,68,81674,1,2,1:2:0:0:
354,65,81757,1,0,1:2:0:0:
370,62,81841,6,0,P|438:50|483:38,2,108,4|0|10,1:2|1:2|0:2,2:0:0:0:
275,152,82341,1,2,0:0:0:0:
434,229,82507,1,2,1:2:0:0:
468,128,82674,2,0,P|416:141|363:150,1,108,2|8,1:2|0:2,2:0:0:0:
265,245,83007,1,2,0:0:0:0:
188,103,83174,5,0,1:2:0:0:
188,103,83341,1,0,1:2:0:0:
113,212,83507,2,0,P|37:210|9:124,1,162,8|0,0:2|2:0,2:0:0:0:
15,126,83841,2,0,P|57:115|96:114,2,54,0|8|2,1:2|0:2|1:2,2:0:0:0:
88,306,84174,1,6,2:3:0:0:
0,284,84341,1,2,0:2:0:0:
165,378,84507,6,0,P|236:366|327:349,1,162,10|2,0:2|0:0,2:0:0:0:
340,347,84841,2,0,P|371:293|339:246,1,108,8|2,0:2|1:2,2:0:0:0:
247,70,85174,6,0,P|204:105|203:164,1,108,8|0,0:2|1:2,2:0:0:0:
232,230,85424,1,2,0:0:0:0:
247,232,85507,2,0,P|314:247|361:257,1,108,8|2,0:2|1:2,2:0:0:0:
436,225,85757,1,8,0:2:0:0:
451,221,85841,1,2,1:2:0:0:
282,328,86007,1,0,1:2:0:0:
370,172,86174,6,0,B|355:108|322:16|322:16|383:50,1,216,12|0,0:2|2:0,2:0:0:0:
432,89,86507,1,2,1:2:0:0:
446,91,86591,1,8,0:2:0:0:
460,93,86674,1,8,0:2:0:0:
274,132,86841,6,0,P|259:86|246:40,1,96,2|0,1:2|1:2,2:0:0:0:
118,14,87174,5,14,0:2:0:0:
48,47,87341,1,2,0:2:0:0:
32,139,87507,1,10,0:2:0:0:
129,219,87674,2,0,P|181:185|185:131,1,96,2|8,1:2|0:2,2:0:0:0:
114,141,88007,5,2,1:2:0:0:
52,292,88174,1,10,0:2:0:0:
125,364,88341,2,0,P|178:374|224:385,1,96,2|8,1:2|0:2,2:0:0:0:
319,274,88674,5,2,1:2:0:0:
322,255,88757,1,0,1:0:0:0:
326,236,88841,1,10,0:2:0:0:
300,355,89007,1,2,1:2:0:0:
397,319,89174,2,0,P|409:260|414:210,1,96,10|2,0:2|1:2,2:0:0:0:
247,191,89507,2,0,P|235:250|230:300,1,96,10|0,0:2|1:2,2:0:0:0:
345,155,89841,5,12,0:2:0:0:
299,90,90007,1,2,0:2:0:0:
386,55,90174,1,10,0:2:0:0:
275,16,90341,2,0,P|216:36|160:59,1,96,2|8,1:2|0:2,2:0:0:0:
164,126,90674,5,2,1:2:0:0:
34,17,90841,1,10,0:2:0:0:
56,197,91007,2,0,P|73:152|88:106,1,96,2|8,1:2|0:2,2:0:0:0:
110,28,91341,5,2,1:2:0:0:
194,55,91507,1,10,0:2:0:0:
157,157,91674,1,2,1:2:0:0:
323,221,91841,2,0,P|328:169|290:121,1,96,10|2,0:2|1:2,2:0:0:0:
153,171,92174,2,0,P|148:223|186:271,1,96,10|0,0:2|1:2,2:0:0:0:
183,272,92424,1,0,1:2:0:0:
197,284,92507,5,14,0:2:0:0:
249,358,92674,1,2,0:0:0:0:
332,303,92841,1,10,0:2:0:0:
444,368,93007,2,0,P|461:311|478:258,1,96,2|8,0:2|0:2,2:0:0:0:
500,194,93341,5,2,0:2:0:0:
343,162,93507,1,10,0:2:0:0:
426,95,93674,2,0,P|391:47|356:7,1,96,2|8,0:2|0:2,2:0:0:0:
210,24,94007,5,2,0:2:0:0:
229,21,94091,1,0,1:2:0:0:
247,18,94174,1,10,0:2:0:0:
222,111,94341,1,2,0:2:0:0:
122,21,94507,2,0,P|115:87|112:138,1,96,10|2,0:2|0:2,2:0:0:0:
62,237,94841,2,0,P|33:181|9:115,1,96,10|0,0:2|0:2,2:0:0:0:
43,71,95174,5,10,0:2:0:0:
118,102,95341,1,2,0:0:0:0:
150,197,95507,1,10,0:2:0:0:
52,268,95674,2,0,P|34:318|58:370,1,96,2|8,0:2|0:2,2:0:0:0:
124,376,96007,5,2,0:2:0:0:
229,247,96174,1,10,0:2:0:0:
322,270,96341,2,0,P|334:315|316:359,1,96,2|8,0:2|0:2,2:0:0:0:
212,372,96674,2,0,P|217:334|222:307,1,48,2|0,1:2|1:2,2:0:0:0:
240,162,96841,6,0,B|213:134|178:140|178:140|227:98|327:124|356:199|356:199|437:175|362:112|358:192,1,400,10|8,0:2|0:2,2:0:0:0:
275,240,97841,1,2,0:2:0:0:
256,192,98007,12,0,100507,2:0:0:0:
440,364,107841,6,0,P|439:334|430:295,1,60,0|2,1:2|1:2,2:0:0:0:
493,148,108007,6,0,B|465:252|349:241|313:194|365:149|397:203,1,240,12|0,0:2|2:0,2:0:0:0:
278,218,108507,6,0,P|278:160|305:124,1,80,2|0,1:2|1:2,2:0:0:0:
332,295,108841,1,10,0:2:0:0:
250,300,109007,2,0,P|202:279|167:178,1,160,2|0,1:2|0:2,2:0:0:0:
212,106,109507,1,10,0:2:0:0:
99,32,109674,6,0,P|39:43|0:47,2,80,2|0|0,0:0|1:2|1:2,2:0:0:0:
180,22,110174,1,10,0:2:0:0:
165,183,110341,2,0,P|121:131|19:135,1,160,2|0,1:2|1:2,2:0:0:0:
0,215,110841,6,0,P|39:209|78:201,1,80,10|2,0:2|0:0,2:0:0:0:
228,102,111174,6,0,B|371:21|371:21|332:90,1,240,2|2,1:2|1:2,2:0:0:0:
322,185,111674,6,0,B|439:261|439:261|404:122,1,240,10|2,0:2|1:2,2:0:0:0:
512,150,112174,6,0,B|408:123|408:123|373:190|294:163,1,240,14|0,0:2|1:2,2:0:0:0:
228,102,112674,1,0,1:2:0:0:
78,201,112841,6,0,P|89:247|98:305,1,96,8|8,0:2|0:2,2:0:0:0:
155,162,113091,1,8,2:0:0:0:
148,143,113174,2,0,P|137:97|128:39,1,96,0|0,2:0|1:2,2:0:0:0:
69,207,113507,2,0,P|80:253|89:311,1,96,10|10,0:2|0:2,2:0:0:0:
92,319,113757,1,8,0:2:0:0:
95,338,113841,5,2,1:2:0:0:
217,231,114007,1,2,1:2:0:0:
217,231,114174,1,8,0:2:0:0:
178,375,114341,2,0,B|193:287|281:341|296:244,1,176,10|2,0:2|1:2,2:0:0:0:
443,224,114841,1,8,0:2:0:0:
443,224,115007,6,0,P|399:197|352:210,1,88,2|0,0:0|1:2,2:0:0:0:
293,255,115341,1,2,1:2:0:0:
478,317,115507,1,8,0:2:0:0:
434,119,115674,2,0,P|366:109|281:177,1,176,10|2,0:2|1:2,2:0:0:0:
214,220,116174,1,8,0:2:0:0:
174,38,116341,5,2,1:2:0:0:
155,35,116424,1,0,1:2:0:0:
137,34,116507,1,10,0:2:0:0:
32,105,116674,1,10,0:2:0:0:
103,210,116841,1,10,0:2:0:0:
208,138,117007,1,2,1:2:0:0:
258,294,117507,5,10,0:2:0:0:
391,253,117674,1,10,0:2:0:0:
511,326,117841,1,10,0:2:0:0:
378,367,118007,1,0,1:2:0:0:
257,278,118174,6,0,P|248:222|241:174,1,88,10|8,0:2|0:2,2:0:0:0:
226,114,118424,1,8,0:2:0:0:
224,96,118507,2,0,B|247:8|373:-23|423:62|384:137|320:120,1,288,0|10,1:2|2:3,2:0:0:0:
147,76,119007,1,6,2:3:0:0:
110,155,119174,6,0,P|69:161|6:173,2,95.9999999999998,6|0|0,1:2|1:2|1:2,2:0:0:0:
250,234,120174,1,0,1:2:0:0:
181,286,120341,1,8,2:3:0:0:
178,302,120424,1,8,2:3:0:0:
174,318,120507,2,0,P|215:324|278:336,2,95.9999999999998,2|0|0,1:2|1:2|1:2,2:0:0:0:
96,356,121341,1,0,2:0:0:0:
96,356,121507,1,2,1:2:0:0:
352,356,121841,6,0,P|336:278|322:210,2,128,6|0|0,1:2|1:2|1:2,2:0:0:0:
468,237,122841,1,2,1:2:0:0:
402,188,123007,1,2,1:2:0:0:
399,172,123091,1,8,2:3:0:0:
397,156,123174,6,0,P|413:78|427:10,2,128,0|0|2,1:2|1:2|1:2,2:0:0:0:
326,230,124007,1,0,2:0:0:0:
279,138,124174,2,0,P|246:114|205:114,1,64,6|0,1:2|2:0,2:0:0:0:
45,205,124507,6,0,P|40:256|35:300,2,95.9999999999998,2|0|0,1:2|1:2|1:2,2:0:0:0:
220,190,125507,1,0,1:2:0:0:
166,250,125674,1,0,1:2:0:0:
152,239,125757,1,8,0:2:0:0:
138,228,125841,6,0,P|132:180|127:132,2,95.9999999999998,10|0|0,2:3|1:2|1:2,2:0:0:0:
301,171,126841,2,0,P|295:125|290:107,1,47.9999999999999,6|2,2:3|0:0,2:0:0:0:
286,42,127174,6,0,P|337:48|378:112,2,128,6|0|0,1:2|1:2|1:2,2:0:0:0:
301,171,128174,5,0,1:2:0:0:
359,260,128341,1,8,0:2:0:0:
374,257,128424,1,0,1:2:0:0:
389,254,128507,2,0,P|381:205|373:167,1,64,2|8,1:2|0:2,2:0:0:0:
228,119,128841,2,0,P|222:150|217:182,1,64,2|8,1:2|2:3,2:0:0:0:
212,289,129174,6,0,P|243:282|275:276,1,64,2|4,1:2|2:3,2:0:0:0:
76,353,129507,2,0,P|107:360|138:366,1,64,2|0,1:2|2:0,2:0:0:0:
9,253,129841,6,0,P|68:261|127:272,1,120,6|0,1:2|1:2,2:0:0:0:
203,212,130341,1,10,0:2:0:0:
203,212,130507,2,0,P|195:164|191:143,1,60.0000000000001,0|8,1:2|2:3,2:0:0:0:
125,230,130841,2,0,P|117:182|113:161,1,60.0000000000001,0|4,1:2|2:3,2:0:0:0:
185,68,131174,6,0,P|241:50|290:81,1,120,2|0,1:2|1:2,2:0:0:0:
276,168,131674,1,2,1:2:0:0:
374,104,131841,2,0,P|428:96|483:90,1,80,8|8,0:2|0:2,2:0:0:0:
388,183,132091,1,8,0:2:0:0:
407,182,132174,2,0,P|461:174|516:168,1,80,2|8,1:2|0:2,2:0:0:0:
421,261,132424,1,8,0:2:0:0:
402,262,132507,6,0,P|355:290|360:366,1,120,6|0,1:2|1:2,2:0:0:0:
280,383,133007,1,10,0:2:0:0:
233,287,133174,6,0,P|227:238|217:157,1,120,0|0,1:2|1:2,2:0:0:0:
208,86,133674,1,4,2:3:0:0:
78,10,133841,6,0,P|50:61|66:118,1,120,2|0,1:2|1:2,2:0:0:0:
143,139,134341,1,2,1:2:0:0:
196,6,134507,2,0,P|204:54|209:103,1,80,8|8,0:2|0:2,2:0:0:0:
279,12,134757,1,8,0:2:0:0:
282,31,134841,2,0,P|290:79|295:128,1,80,2|8,1:2|2:3,2:0:0:0:
350,175,135091,1,4,2:3:0:0:
367,179,135174,6,0,B|432:161|443:93|443:93|435:163|496:210,1,240.000009155274,14|2,0:2|1:2,2:0:0:0:
344,304,135674,6,0,B|379:370|271:423|214:304|302:231,1,240.000009155274,10|2,0:2|0:0,2:0:0:0:
412,255,136174,6,0,P|282:296|154:342,1,272.000005187988,6|8,1:2|0:2,2:0:0:0:
21,271,136674,1,0,2:0:0:0:
149,190,136841,1,0,1:2:0:0:
155,342,137007,6,0,P|138:255|53:176,1,192,8|8,0:2|0:2,2:0:0:0:
217,135,137507,2,0,P|224:86|260:37,1,96,10|2,0:2|1:2,2:0:0:0:
100,262,137841,6,0,P|3:255|67:182,1,240,10|10,0:2|1:2,2:0:0:0:
224,230,138341,6,0,P|257:300|181:285,1,192,10|10,0:2|0:2,2:0:0:0:
124,114,138841,6,0,P|189:21|213:137,1,288,10|10,1:2|1:2,2:0:0:0:
229,221,139341,1,10,0:2:0:0:
307,160,139507,5,10,0:2:0:0:
337,245,139674,1,10,0:2:0:0:
390,128,139841,5,10,0:2:0:0:
469,227,140007,1,2,1:2:0:0:
439,49,140174,5,10,0:2:0:0:
506,110,140341,1,2,0:2:0:0:
351,43,140507,6,0,P|298:30|175:56,1,160,6|0,1:2|1:2,2:0:0:0:
307,160,141007,1,10,0:2:0:0:
307,160,141174,2,0,P|357:169|409:179,1,80,0|0,1:2|2:0,2:0:0:0:
195,45,141507,6,0,P|151:20|119:110,1,160,10|0,0:2|1:2,2:0:0:0:
189,131,142007,1,8,0:2:0:0:
232,206,142174,2,0,P|239:251|208:290,1,80,2|8,1:2|0:2,2:0:0:0:
124,362,142424,1,8,0:2:0:0:
128,346,142507,2,0,L|141:261,1,80,2|8,1:2|2:3,2:0:0:0:
210,358,142841,2,0,L|223:273,1,80,4|0,2:3|1:2,2:0:0:0:
0,289,143174,6,0,P|71:260|158:230,1,160,6|0,1:2|1:2,2:0:0:0:
232,206,143674,1,8,0:2:0:0:
375,341,143841,2,0,P|414:348|457:356,1,80,0|0,1:2|2:0,2:0:0:0:
304,383,144174,6,0,P|288:335|324:213,1,160,14|0,0:2|1:2,2:0:0:0:
324,148,144674,1,8,0:2:0:0:
392,257,144841,2,0,P|398:217|402:177,1,80,0|0,1:2|1:2,2:0:0:0:
404,161,145091,1,8,0:2:0:0:
406,145,145174,1,2,1:2:0:0:
500,88,145341,1,8,2:3:0:0:
365,69,145507,2,0,P|344:36|356:-16,1,80,6|0,2:3|1:2,2:0:0:0:
152,29,145841,6,0,P|181:73|126:155,1,160,6|0,1:2|1:2,2:0:0:0:
73,90,146341,1,8,0:2:0:0:
253,7,146507,2,0,P|263:69|267:108,1,80,0|0,1:2|1:2,2:0:0:0:
201,210,146841,6,0,P|149:197|39:173,1,160,6|0,1:2|1:2,2:0:0:0:
73,90,147341,1,8,0:2:0:0:
20,255,147507,2,0,P|79:266|129:273,1,80,0|0,1:2|2:0,2:0:0:0:
114,273,147757,1,8,0:2:0:0:
129,277,147841,1,0,1:2:0:0:
214,375,148007,2,0,P|203:329|220:287,2,80,0|6|8,1:2|2:3|0:2,2:0:0:0:
402,337,148507,6,0,L|394:275,2,40,0|8|0,1:2|0:2|2:0,2:0:0:0:
316,329,148841,1,8,0:2:0:0:
482,305,149007,1,8,0:2:0:0:
373,139,149174,2,0,P|378:179|383:219,1,80,0|8,1:2|0:2,2:0:0:0:
151,126,149507,1,8,0:2:0:0:
153,110,149591,1,8,0:2:0:0:
156,94,149674,6,0,P|160:54|165:14,1,80,8|0,0:2|1:2,2:0:0:0:
225,175,150007,2,0,L|233:105,1,40,0|8,1:2|0:2,2:0:0:0:
242,51,150174,1,8,0:2:0:0:
140,206,150341,1,8,0:0:0:0:
82,31,150507,2,0,L|73:89,3,40,8|8|8|8,0:2|0:2|0:2|0:2,2:0:0:0:
68,110,150841,5,8,0:2:0:0:
61,149,150924,1,8,0:2:0:0:
54,188,151007,1,8,0:2:0:0:
47,227,151091,1,8,0:2:0:0:
40,266,151174,6,0,P|106:255|152:245,2,88,6|2|10,1:2|1:2|0:2,2:0:0:0:
195,367,151674,1,10,0:2:0:0:
206,238,151841,5,2,0:0:0:0:
208,220,151924,1,0,2:0:0:0:
210,202,152007,1,0,1:2:0:0:
263,307,152174,1,8,0:2:0:0:
493,352,152341,6,0,P|430:293|345:294,1,176,2|2,0:0|1:2,2:0:0:0:
347,276,152757,1,2,0:0:0:0:
347,258,152841,2,0,P|352:192|354:165,1,88,10|10,0:2|0:2,2:0:0:0:
365,3,153174,1,2,0:0:0:0:
382,6,153257,1,0,0:2:0:0:
399,9,153341,1,2,1:2:0:0:
436,177,153507,1,10,0:2:0:0:
356,87,153674,1,2,1:2:0:0:
339,90,153757,1,8,0:2:0:0:
321,91,153841,6,0,P|252:103|212:113,2,88,4|2|10,1:2|1:2|0:2,2:0:0:0:
260,18,154341,1,10,0:2:0:0:
212,198,154507,1,2,0:0:0:0:
103,40,154674,2,0,P|133:5|184:5,1,88,2|8,1:2|0:2,2:0:0:0:
151,122,155007,6,0,L|100:131,1,44,2|0,0:0|2:0,2:0:0:0:
30,139,155174,1,0,1:2:0:0:
80,208,155341,1,2,1:2:0:0:
12,345,155507,1,10,0:2:0:0:
166,307,155674,2,0,P|92:293|57:286,1,88,10|0,0:2|1:2,2:0:0:0:
233,252,156007,1,2,1:2:0:0:
283,381,156174,1,8,0:2:0:0:
289,346,156257,1,8,0:2:0:0:
303,313,156341,1,8,0:2:0:0:
325,286,156424,1,8,0:2:0:0:
355,268,156507,5,4,1:2:0:0:
220,167,156674,1,2,1:2:0:0:
264,71,156841,5,10,0:2:0:0:
283,100,156924,1,8,0:2:0:0:
314,115,157007,2,0,P|355:124|375:120,2,44,10|8|4,0:2|0:2|1:2,2:0:0:0:
201,9,157341,1,2,1:2:0:0:
154,82,157507,5,10,0:2:0:0:
142,115,157591,1,8,0:2:0:0:
115,137,157674,2,0,P|77:154|56:155,2,44,10|8|4,0:2|0:2|1:2,2:0:0:0:
0,240,158007,5,10,0:2:0:0:
34,233,158091,1,8,0:2:0:0:
67,246,158174,1,8,0:2:0:0:
25,322,158341,2,0,L|18:377,2,44,10|10|0,2:3|2:3|1:2,2:0:0:0:
110,323,158674,5,6,2:3:0:0:
76,155,158841,2,0,P|135:181|157:214,1,88,10|0,0:2|0:2,2:0:0:0:
174,372,159174,5,6,1:2:0:0:
181,292,159341,1,2,0:2:0:0:
269,236,159507,1,10,0:2:0:0:
388,284,159674,2,0,P|432:297|484:267,1,96,2|8,1:2|0:2,2:0:0:0:
511,97,160007,5,2,1:2:0:0:
423,216,160174,1,10,0:2:0:0:
345,201,160341,2,0,P|337:142|331:85,1,96,2|8,1:2|0:2,2:0:0:0:
200,16,160674,5,2,1:2:0:0:
219,18,160757,1,0,1:2:0:0:
238,20,160841,1,10,0:2:0:0:
319,24,161007,1,2,1:2:0:0:
250,105,161174,6,0,P|202:129|155:112,1,96,10|2,0:2|1:2,2:0:0:0:
41,31,161507,2,0,P|86:21|127:44,1,96,10|0,0:2|1:2,2:0:0:0:
194,202,161841,5,14,0:2:0:0:
149,268,162007,1,2,1:2:0:0:
219,349,162174,1,10,0:2:0:0:
347,335,162341,2,0,P|400:324|444:319,1,96,2|8,1:2|0:2,2:0:0:0:
281,290,162674,5,2,1:2:0:0:
372,201,162841,1,10,0:2:0:0:
309,152,163007,2,0,P|296:96|326:52,1,96,2|8,1:2|0:2,2:0:0:0:
389,21,163341,5,2,1:2:0:0:
406,29,163424,1,0,1:2:0:0:
424,32,163507,1,10,0:2:0:0:
503,30,163674,1,2,1:2:0:0:
474,124,163841,6,0,P|427:117|380:110,1,96,10|2,0:2|1:2,2:0:0:0:
219,88,164174,2,0,P|171:80|124:73,1,96,10|0,0:2|1:2,2:0:0:0:
33,54,164507,5,14,0:2:0:0:
104,170,164674,1,2,0:2:0:0:
133,65,164841,1,10,0:2:0:0:
15,161,165007,2,0,P|22:218|78:251,1,96,2|8,1:2|0:2,2:0:0:0:
210,216,165341,5,2,1:2:0:0:
61,326,165507,1,10,0:2:0:0:
195,211,165674,2,0,P|186:282|177:332,1,96,2|8,1:2|0:2,2:0:0:0:
237,375,166007,5,2,1:2:0:0:
309,330,166174,1,10,0:2:0:0:
169,300,166341,1,2,1:2:0:0:
316,315,166507,1,10,0:2:0:0:
176,210,166674,1,2,1:2:0:0:
323,300,166841,2,0,P|336:248|352:197,1,96,10|0,0:2|1:2,2:0:0:0:
472,31,167174,6,0,P|409:21|381:138,1,180,14|0,0:2|2:0,2:0:0:0:
368,131,167507,2,0,P|328:179|267:160,1,120,8|0,0:2|1:2,2:0:0:0:
192,14,167841,5,8,0:2:0:0:
262,161,168007,1,0,1:2:0:0:
273,2,168174,5,8,0:2:0:0:
250,146,168341,1,0,1:2:0:0:
146,79,168507,6,0,P|114:122|48:121,1,96,8|8,0:2|0:2,2:0:0:0:
56,126,168757,1,8,0:2:0:0:
40,114,168841,2,0,P|13:118|-22:120,1,48,0|0,1:2|2:0,2:0:0:0:
47,205,169007,2,0,P|20:209|-15:211,1,48,8|8,0:2|0:2,2:0:0:0:
134,211,169174,5,0,1:2:0:0:
119,365,169341,1,8,0:2:0:0:
261,301,169507,1,8,1:2:0:0:
131,195,169674,1,8,0:2:0:0:
256,188,169841,5,2,0:0:0:0:
473,151,171674,6,0,P|468:122|460:87,1,40,2|0,1:2|2:0,2:0:0:0:
496,30,171841,2,0,B|416:5|352:91|397:96|387:182|299:179,1,280,8|0,0:2|2:0,2:0:0:0:
282,176,172507,5,14,1:2:0:0:
159,121,172674,2,0,B|111:76|127:-35|223:-43|261:25|214:73,1,240,0|2,1:2|1:2,2:0:0:0:
207,198,173174,5,12,0:2:0:0:
99,266,173341,2,0,B|48:281|-21:225|10:156|73:156|87:208,1,192,0|2,1:2|1:2,2:0:0:0:
265,256,173841,5,12,0:2:0:0:
200,373,174007,2,0,P|156:373|203:367,1,160,0|2,1:2|1:2,2:0:0:0:
352,265,174507,6,0,P|341:215|349:157,1,96,4|0,2:3|1:2,2:0:0:0:
434,94,174757,1,0,1:2:0:0:
449,105,174841,2,0,P|455:155|412:180,1,96,14|2,0:2|0:0,2:0:0:0:
288,99,175174,6,0,P|300:56|313:12,1,80,0|8,1:2|0:2,2:0:0:0:
209,100,175424,1,8,0:2:0:0:
203,84,175507,2,0,P|193:41|182:-3,1,80,10|8,1:2|0:2,2:0:0:0:
149,156,175757,1,8,0:2:0:0:
135,145,175841,2,0,P|104:112|72:79,1,80,10|8,1:2|0:2,2:0:0:0:
155,249,176091,1,8,0:2:0:0:
136,244,176174,2,0,P|97:232|59:221,1,80,10|8,1:2|0:2,2:0:0:0:
154,345,176424,5,8,0:2:0:0:
167,334,176507,2,0,P|205:313|246:290,1,80,10|8,1:2|0:2,2:0:0:0:
309,383,176757,1,8,0:2:0:0:
310,366,176841,2,0,P|322:323|335:279,1,80,10|10,1:2|0:2,2:0:0:0:
445,300,177091,1,8,0:2:0:0:
434,287,177174,2,0,P|413:248|390:207,1,80,8|8,1:2|0:2,2:0:0:0:
483,145,177424,1,8,0:2:0:0:
466,144,177507,1,10,1:2:0:0:
363,132,177674,5,10,0:2:0:0:
268,101,179007,6,0,P|275:95|267:105,1,60,0|0,2:0|2:0,2:0:0:0:
188,81,179174,6,0,P|248:18|334:29,2,180,10|10|10,1:2|1:2|1:2,2:0:0:0:
218,184,179841,6,0,P|304:196|363:133,2,180,10|10|10,1:2|1:2|1:2,2:0:0:0:
113,158,180507,6,0,P|81:153|45:146,1,60.0000000000001,2|2,0:0|1:2,2:0:0:0:
0,77,180757,5,0,1:2:0:0:
19,67,180841,2,0,P|32:148|53:286,1,216,14|0,1:2|0:2,2:0:0:0:
155,240,181341,1,2,1:2:0:0:
77,384,181507,2,0,P|117:342|194:338,1,108,10|2,0:2|0:0,2:0:0:0:
380,374,181841,5,0,1:2:0:0:
380,374,182007,1,0,1:2:0:0:
241,275,182174,1,8,0:2:0:0:
381,354,182341,2,0,P|295:300|293:182,1,216,0|0,1:2|1:2,2:0:0:0:
457,297,182841,2,0,P|469:237|508:209,1,108,8|2,0:2|0:2,2:0:0:0:
400,61,183174,6,0,P|390:137|386:178,1,108,2|0,1:2|1:2,2:0:0:0:
375,255,183507,1,10,0:2:0:0:
308,105,183674,1,2,0:0:0:0:
302,84,183757,1,10,0:2:0:0:
296,63,183841,2,0,P|248:28|192:39,2,108,0|0|10,1:2|1:2|0:2,2:0:0:0:
55,243,184341,6,0,B|164:248|104:125|213:126,1,216,2|0,0:0|1:2,2:0:0:0:
125,62,184841,1,10,0:2:0:0:
222,210,185007,1,2,1:2:0:0:
237,225,185091,1,8,0:2:0:0:
249,242,185174,2,0,P|244:276|241:312,2,54,0|8|0,1:2|0:0|1:2,2:0:0:0:
116,319,185507,1,10,0:2:0:0:
228,382,185674,5,10,0:2:0:0:
249,377,185757,1,8,0:2:0:0:
270,373,185841,2,0,P|330:358|389:341,1,108,4|0,1:2|1:2,2:0:0:0:
502,140,186174,6,0,P|451:133|412:169,1,108,10|0,0:2|2:0,2:0:0:0:
353,338,186424,1,8,0:2:0:0:
374,344,186507,2,0,P|406:303|394:252,1,108,2|0,1:2|1:2,2:0:0:0:
261,130,186841,2,0,P|280:178|330:193,1,108,8|0,0:2|2:0,2:0:0:0:
411,169,187174,6,0,P|400:98|264:54,1,216,2|10,1:2|0:2,2:0:0:0:
39,113,187674,1,2,1:2:0:0:
200,74,187841,1,0,2:0:0:0:
105,12,188007,1,0,1:2:0:0:
121,93,188174,2,0,P|133:146|146:198,1,108,10|2,0:2|1:2,2:0:0:0:
251,376,188507,6,0,B|289:302|247:220|247:220|318:236,1,216,12|10,1:2|0:2,2:0:0:0:
385,254,189007,1,2,1:2:0:0:
145,198,189174,2,0,P|159:250|172:302,1,108,8|0,0:2|1:2,2:0:0:0:
385,254,189507,2,0,P|397:201|412:149,1,108,10|2,0:2|1:2,2:0:0:0:
319,17,189841,5,8,1:2:0:0:
494,94,190007,1,4,2:3:0:0:
477,79,190091,1,0,1:2:0:0:
456,72,190174,1,0,1:2:0:0:
258,80,190341,5,8,1:2:0:0:
376,75,190507,1,0,1:2:0:0:
359,90,190591,1,0,1:2:0:0:
338,97,190674,1,0,1:2:0:0:
177,99,190841,6,0,P|148:93|123:63,3,54,8|8|8|8,0:2|0:2|0:2|0:2,2:0:0:0:
123,56,191174,6,0,P|55:45|-3:32,1,108,14|2,1:2|1:2,2:0:0:0:
196,18,191507,1,10,1:2:0:0:
65,130,191674,1,2,0:0:0:0:
43,134,191757,1,0,1:0:0:0:
22,140,191841,2,0,P|10:193|40:242,1,108,8|2,0:2|1:2,2:0:0:0:
205,375,192174,2,0,P|230:328|217:277,1,108,10|2,0:2|1:2,2:0:0:0:
34,237,192507,6,0,P|102:224|203:199,1,162,10|0,0:2|2:0,2:0:0:0:
212,195,192841,2,0,P|222:133|230:83,1,108,8|0,0:2|1:2,2:0:0:0:
393,15,193174,1,8,0:2:0:0:
295,174,193341,1,2,1:2:0:0:
460,118,193507,2,0,P|395:120|374:166,1,108,10|2,0:2|1:2,2:0:0:0:
447,380,193841,6,0,P|490:348|478:239,1,162,14|0,1:2|2:0,2:0:0:0:
470,233,194174,1,10,0:2:0:0:
295,174,194341,1,2,1:2:0:0:
342,339,194507,2,0,P|351:270|359:218,1,108,8|0,0:2|1:2,2:0:0:0:
313,94,194841,1,10,0:2:0:0:
216,198,195007,6,0,P|129:171|70:149,1,108.000000411987,2|8,1:2|0:2,2:0:0:0:
19,139,195341,1,0,1:0:0:0:
29,232,195507,1,10,0:2:0:0:
200,109,195674,1,2,1:2:0:0:
103,80,195841,2,0,P|51:65|0:50,1,108,8|0,0:2|1:2,2:0:0:0:
173,21,196174,1,10,0:2:0:0:
125,215,196341,1,2,1:2:0:0:
120,235,196424,1,0,1:0:0:0:
115,256,196507,6,0,P|166:296|219:280,1,108,8|0,0:2|2:0,2:0:0:0:
344,234,196841,1,10,0:2:0:0:
256,216,197007,1,2,1:2:0:0:
322,384,197174,1,10,0:2:0:0:
456,274,197341,2,0,P|459:221|422:183,1,108,2|10,1:2|0:2,2:0:0:0:
339,151,197674,1,2,1:2:0:0:
480,29,197841,5,8,0:2:0:0:
480,29,198007,1,0,1:2:0:0:
327,67,198174,2,0,P|390:85|445:106,1,108,8|0,0:2|1:2,2:0:0:0:
188,167,198507,5,8,0:2:0:0:
241,88,198674,1,2,1:2:0:0:
236,67,198757,1,0,1:0:0:0:
232,45,198841,1,10,0:2:0:0:
149,0,199007,6,0,P|141:49|135:82,1,54,2|2,1:2|1:2,2:0:0:0:
10,110,199174,6,0,P|66:117|102:187,1,108,10|0,0:2|1:2,2:0:0:0:
137,237,199424,1,2,0:2:0:0:
152,252,199507,2,0,P|220:238|276:221,1,108,8|2,0:2|1:2,2:0:0:0:
512,69,199841,6,0,P|498:140|490:185,1,108,10|0,0:2|1:2,2:0:0:0:
411,161,200091,1,2,0:2:0:0:
395,145,200174,2,0,P|395:79|430:49,1,108,8|0,0:2|1:2,2:0:0:0:
479,264,200507,5,10,0:2:0:0:
335,203,200674,1,0,1:2:0:0:
423,384,200841,6,0,P|406:319|388:266,1,108,8|0,0:2|1:2,2:0:0:0:
204,157,201174,2,0,P|221:92|239:39,1,108,8|2,0:2|1:2,2:0:0:0:
253,44,201424,1,0,1:0:0:0:
273,36,201507,1,10,0:2:0:0:
257,227,201674,2,0,L|200:245,1,54,2|0,1:2|1:2,2:0:0:0:
132,200,201841,6,0,P|93:235|41:233,1,108,10|0,0:2|1:2,2:0:0:0:
15,317,202091,1,2,0:0:0:0:
36,321,202174,2,0,P|86:336|108:384,1,108,8|2,0:2|1:2,2:0:0:0:
293,294,202507,6,0,P|236:314|183:332,1,108,10|0,0:2|1:2,2:0:0:0:
175,314,202757,1,2,0:0:0:0:
161,296,202841,1,8,0:2:0:0:
335,213,203007,1,2,1:2:0:0:
485,311,203174,6,0,P|479:337|474:364,2,54,10|8|0,0:2|0:2|1:2,2:0:0:0:
430,247,203507,6,0,B|398:198|438:162|451:178|512:154|502:46|413:57|410:102,1,240,14|10,1:2|0:2,2:0:0:0:
388,112,203924,1,8,0:2:0:0:
358,116,204007,1,8,0:2:0:0:
329,105,204091,1,8,0:2:0:0:
307,84,204174,2,0,P|298:49|291:19,3,60,10|8|8|8,0:2|0:2|0:2|0:2,2:0:0:0:
212,24,204507,6,0,P|229:91|240:139,1,96,14|2,1:2|1:2,2:0:0:0:
153,241,204841,1,10,0:2:0:0:
106,93,205007,2,0,L|152:103,2,48,10|8|0,0:2|0:2|1:2,2:0:0:0:
5,164,205341,1,2,1:2:0:0:
5,164,205507,2,0,P|16:117|28:70,1,96,10|2,0:2|1:2,2:0:0:0:
153,241,205841,6,0,P|164:287|176:334,1,96,2|0,1:2|1:2,2:0:0:0:
78,207,206174,1,8,0:2:0:0:
17,366,206341,1,8,0:2:0:0:
31,353,206424,1,8,0:2:0:0:
48,345,206507,2,0,P|85:341|115:361,2,48,0|8|0,1:2|0:2|1:2,2:0:0:0:
250,372,206841,2,0,P|310:379|346:347,1,96,8|8,0:2|0:2,2:0:0:0:
474,184,207174,6,0,P|414:177|378:209,1,96,0|0,1:2|1:2,2:0:0:0:
426,384,207507,2,0,P|408:297|386:188,1,192,8|2,0:2|1:2,2:0:0:0:
275,89,208007,1,0,1:2:0:0:
275,89,208174,2,0,P|337:102|378:113,1,96,10|2,0:2|1:2,2:0:0:0:
435,54,208507,5,0,1:2:0:0:
435,54,208674,1,2,1:2:0:0:
308,185,208841,2,0,P|246:173|119:152,1,192,8|0,0:2|1:2,2:0:0:0:
100,148,209257,1,8,0:2:0:0:
80,145,209341,1,2,1:2:0:0:
9,48,209507,1,8,0:2:0:0:
146,36,209674,1,8,0:2:0:0:
164,33,209757,1,8,0:2:0:0:
183,30,209841,6,0,P|203:76|193:121,1,96,6|2,1:2|1:2,2:0:0:0:
7,195,210174,1,10,0:2:0:0:
129,198,210341,2,0,L|114:134,2,48,2|8|0,1:2|0:2|1:2,2:0:0:0:
192,255,210674,1,0,1:2:0:0:
67,259,210841,2,0,P|47:305|57:350,1,96,8|2,0:2|0:0,2:0:0:0:
188,337,211174,6,0,P|240:326|288:317,1,96,2|0,1:2|1:2,2:0:0:0:
460,237,211507,2,0,P|384:291|378:384,1,192,8|0,0:2|1:2,2:0:0:0:
462,335,212007,1,0,1:2:0:0:
282,318,212174,2,0,P|268:256|292:210,1,96,8|0,0:2|1:2,2:0:0:0:
294,216,212424,1,8,0:2:0:0:
312,209,212507,5,2,1:2:0:0:
260,130,212674,1,2,1:2:0:0:
316,64,212841,1,10,0:2:0:0:
192,0,213007,2,0,B|95:10|159:113|43:116,1,192,2|2,1:2|1:2,2:0:0:0:
202,75,213507,1,10,0:2:0:0:
50,35,213674,1,2,1:2:0:0:
32,203,213841,6,0,P|94:190|145:175,1,96,12|2,0:2|1:2,2:0:0:0:
372,249,214174,2,0,P|310:236|259:221,1,96,8|2,0:2|1:2,2:0:0:0:
202,75,214507,1,8,0:2:0:0:
305,21,214674,5,2,1:2:0:0:
302,44,214757,1,8,0:2:0:0:
300,68,214841,2,0,L|294:132,3,48,8|8|8|8,0:2|0:2|0:2|0:2,2:0:0:0:
293,139,215174,6,0,P|373:125|392:90,1,96,6|2,1:2|1:2,2:0:0:0:
410,28,215507,1,10,0:2:0:0:
491,180,215674,2,0,L|434:169,2,48,2|8|0,1:2|0:2|1:2,2:0:0:0:
379,118,216007,1,2,1:2:0:0:
408,245,216174,6,0,P|448:271|495:266,1,96,10|2,0:2|0:0,2:0:0:0:
278,227,216507,2,0,P|231:220|192:265,1,96,2|0,1:2|1:2,2:0:0:0:
189,383,216841,1,10,0:2:0:0:
262,321,217007,1,10,0:2:0:0:
281,318,217091,1,8,0:2:0:0:
299,315,217174,2,0,L|353:306,2,48,0|8|2,1:2|0:2|1:2,2:0:0:0:
127,310,217507,2,0,P|80:317|41:272,1,96,10|2,0:2|0:0,2:0:0:0:
12,111,217841,6,0,P|18:175|22:221,1,96,0|0,1:2|1:2,2:0:0:0:
106,232,218174,2,0,P|115:150|131:25,1,192,8|2,0:2|1:2,2:0:0:0:
260,62,218674,1,0,1:2:0:0:
194,229,218841,2,0,P|216:173|231:127,1,96,10|2,0:2|1:2,2:0:0:0:
339,32,219174,5,0,1:2:0:0:
339,32,219341,1,2,1:2:0:0:
492,86,219507,2,0,P|445:77|398:118,1,96,8|10,0:2|0:2,2:0:0:0:
309,164,219841,2,0,L|356:176,2,48,0|8|2,1:2|0:2|1:2,2:0:0:0:
496,249,220174,2,0,P|480:203|421:183,1,96,8|8,0:2|0:2,2:0:0:0:
324,251,220424,5,8,0:2:0:0:
328,269,220507,2,0,P|339:332|348:383,1,96,2|2,1:2|1:2,2:0:0:0:
426,383,220841,1,10,0:2:0:0:
256,328,221007,2,0,L|247:267,2,48,10|8|0,0:2|0:2|1:2,2:0:0:0:
230,199,221341,1,2,1:2:0:0:
129,344,221507,2,0,P|148:301|170:258,1,96,10|2,0:2|1:2,2:0:0:0:
264,120,221841,6,0,P|214:111|169:148,1,96,2|0,1:2|1:2,2:0:0:0:
32,171,222174,2,0,P|78:251|170:258,1,192,8|2,0:2|1:2,2:0:0:0:
319,189,222674,1,0,1:2:0:0:
161,38,222841,2,0,P|168:85|177:133,1,96,8|0,0:2|2:0,2:0:0:0:
248,280,223174,5,2,1:2:0:0:
248,280,223341,1,0,1:2:0:0:
381,384,223507,2,0,P|391:288|401:193,1,192,8|0,0:2|1:2,2:0:0:0:
404,173,223924,1,8,0:2:0:0:
406,154,224007,1,0,1:2:0:0:
483,245,224174,1,8,0:2:0:0:
414,70,224341,1,8,0:2:0:0:
395,74,224424,1,8,0:2:0:0:
376,78,224507,6,0,P|321:90|281:98,1,80,8|0,1:2|1:2,2:0:0:0:
199,115,224841,6,0,B|47:113|58:-14|157:-64|246:28|249:130|134:191,1,420,14|0,0:2|1:2,2:0:0:0:
69,232,225424,1,0,1:0:0:0:
75,214,225507,6,0,P|64:160|43:133,1,80,4|0,2:3|2:0,2:0:0:0:
149,264,225841,6,0,P|202:258|252:277,1,88,6|2,1:2|1:2,2:0:0:0:
289,344,226174,1,2,1:2:0:0:
441,362,226341,6,0,P|462:322|467:271,1,88,2|0,1:2|1:2,2:0:0:0:
416,213,226674,1,2,1:2:0:0:
288,203,226841,1,2,1:2:0:0:
230,139,227007,6,0,P|222:92|244:45,1,88,2|0,1:2|1:2,2:0:0:0:
311,9,227341,1,2,0:0:0:0:
371,75,227507,1,2,1:2:0:0:
291,222,227674,5,2,1:2:0:0:
168,198,227841,2,0,P|129:170|111:121,1,88,2|14,1:2|1:2,2:0:0:0:
161,9,228174,1,2,1:2:0:0:
90,55,228341,1,2,1:2:0:0:
168,198,228507,6,0,P|155:252|142:302,1,88,6|2,1:2|1:2,2:0:0:0:
85,338,228841,1,2,1:2:0:0:
223,379,229007,6,0,P|269:337|305:304,1,88,2|0,1:2|1:2,2:0:0:0:
352,271,229341,1,2,1:2:0:0:
433,346,229507,1,2,1:2:0:0:
359,252,229674,6,0,P|367:194|373:144,1,88,2|0,1:2|1:2,2:0:0:0:
384,79,230007,1,2,1:2:0:0:
270,13,230174,6,0,P|262:63|190:89,1,132,2|0,1:2|1:2,2:0:0:0:
176,81,230507,2,0,P|112:54|82:39,1,88,0|2,1:2|1:2,2:0:0:0:
10,166,230841,1,2,1:2:0:0:
88,135,231007,1,2,0:0:0:0:
172,285,231174,5,4,1:2:0:0:
94,210,231341,2,0,P|88:174|111:133,2,60,8|8|8,0:2|0:2|0:2,2:0:0:0:
187,289,231674,5,4,1:2:0:0:
175,138,231841,2,0,P|203:114|250:114,2,60,8|8|8,0:2|0:2|0:2,2:0:0:0:
202,293,232174,5,4,1:2:0:0:
277,172,232341,2,0,P|311:184|335:225,2,60,8|8|8,0:2|0:2|0:2,2:0:0:0:
217,297,232674,5,4,1:2:0:0:
298,277,232841,1,8,0:2:0:0:
304,306,232924,1,8,0:2:0:0:
296,334,233007,1,10,0:2:0:0:
373,377,233174,5,8,3:2:0:0:
484,247,233341,1,0,1:2:0:0:
416,194,233507,1,10,3:2:0:0:
405,280,233674,1,6,2:3:0:0:
497,160,233841,6,0,P|452:113|346:136,1,180,4|0,1:2|2:0,2:0:0:0:
339,156,234174,1,0,1:0:0:0:
270,13,234341,1,8,1:2:0:0:
257,167,234507,5,8,1:2:0:0:
205,84,234674,1,8,1:2:0:0:
265,188,234841,5,8,1:2:0:0:
85,171,235007,1,10,1:2:0:0:
273,209,235174,5,8,0:0:0:0:
129,286,235341,1,4,2:3:0:0:
113,283,235424,1,0,1:2:0:0:
97,280,235507,2,0,P|148:230|158:351,1,240,4|0,1:2|1:0,2:0:0:0:
106,369,236007,5,8,1:2:0:0:
281,230,236174,1,8,1:2:0:0:
77,180,236341,6,0,B|79:105|1:134|-1:48|-1:48|87:72|147:17|147:17|118:45|138:100,1,400,14|0,1:2|0:0,2:0:0:0:
