osu file format v14

[General]
AudioFilename: audio.mp3
AudioLeadIn: 0
PreviewTime: 169841
Countdown: 0
SampleSet: Soft
StackLeniency: 0.4
Mode: 0
LetterboxInBreaks: 0
WidescreenStoryboard: 1

[Editor]
Bookmarks: 97841,107841,169841,171674,177674,179174,236507,237674
DistanceSpacing: 1.3
BeatDivisor: 4
GridSize: 4
TimelineZoom: 1.6

[Metadata]
Title:S.T.U.D
TitleUnicode:S.T.U.D
Artist:Ryokuoushoku Shakai
ArtistUnicode:緑黄色社会
Creator:- AfifAkilie -
Version:SupaV's Ha.r.d
Source:
Tags:Stud Actor japanese vocalist jpop j-pop リョクシャカ ryokushaka 穴見真吾 Shingo Anami 小林壱誓 Kobayashi Issei pop rock 長屋晴子 Nagaya Haruko peppe Issey hard insane restart KlaksoncakFish SupaV
BeatmapID:3630607
BeatmapSetID:1750641

[Difficulty]
HPDrainRate:4
CircleSize:3.5
OverallDifficulty:6
ApproachRate:8
SliderMultiplier:1.38
SliderTickRate:1

[Events]
//Background and Video events
0,0,"BGStud1.jpg",0,0
//Break Periods
2,98174,105841
//Storyboard Layer 0 (Background)
//Storyboard Layer 1 (Fail)
//Storyboard Layer 2 (Pass)
//Storyboard Layer 3 (Foreground)
//Storyboard Layer 4 (Overlay)
//Storyboard Sound Samples

[TimingPoints]
508,333.333333333333,4,2,1,45,1,0
508,-142.857142857143,4,2,1,45,0,0
2174,-142.857142857143,4,2,1,45,0,0
2674,-142.857142857143,4,2,1,45,0,0
6840,-142.857142857143,4,2,1,45,0,0
7007,-142.857142857143,4,2,1,45,0,0
10340,-142.857142857143,4,2,1,45,0,0
10507,-100,4,2,1,55,0,0
11174,-100,4,2,1,60,0,0
13007,-100,4,2,1,60,0,0
13174,-100,4,2,1,60,0,0
15673,-100,4,2,1,60,0,0
15841,-100,4,2,1,60,0,0
16507,-100,4,2,1,65,0,0
16590,-100,4,2,1,65,0,0
16673,-100,4,2,1,65,0,0
17090,-100,4,2,1,65,0,0
17173,-100,4,2,1,65,0,0
17590,-100,4,2,1,65,0,0
17673,-100,4,2,1,65,0,0
18090,-100,4,2,1,65,0,0
18173,-100,4,2,1,65,0,0
21174,-100,4,2,1,65,0,0
21341,-100,4,2,1,65,0,0
21841,-111.111111111111,4,2,1,50,0,0
26507,-111.111111111111,4,2,1,50,0,0
26674,-111.111111111111,4,2,1,50,0,0
29173,-111.111111111111,4,2,1,50,0,0
29341,-111.111111111111,4,2,1,50,0,0
29674,-111.111111111111,4,2,1,50,0,0
29841,-111.111111111111,4,2,1,50,0,0
35174,-100,4,2,1,50,0,0
35340,-100,4,2,1,50,0,0
35507,-100,4,2,1,50,0,0
35840,-100,4,2,1,50,0,0
36007,-100,4,2,1,50,0,0
36840,-100,4,2,1,50,0,0
37174,-100,4,2,1,50,0,0
38507,-100,4,2,1,50,0,0
38674,-100,4,2,1,50,0,0
39840,-100,4,2,1,50,0,0
40007,-100,4,2,1,50,0,0
40840,-100,4,2,1,60,0,0
42341,-100,4,2,1,60,0,0
42424,-100,4,2,1,65,0,0
42507,-100,4,2,1,65,0,0
44007,-100,4,2,1,65,0,0
44174,-100,4,2,1,65,0,0
45673,-100,4,2,1,65,0,0
45841,-100,4,2,1,65,0,0
46674,-100,4,2,1,65,0,0
46841,-100,4,2,1,65,0,0
47007,-100,4,2,1,65,0,0
47173,-100,4,2,1,65,0,0
47674,-100,4,2,1,65,0,0
47841,-100,4,2,1,65,0,0
48340,-100,4,2,1,65,0,0
48507,-100,4,2,1,65,0,0
49340,-100,4,2,1,65,0,0
49507,-100,4,2,1,65,0,0
49673,-100,4,2,1,65,0,0
49841,-100,4,2,1,65,0,0
51007,-100,4,2,1,65,0,0
51174,-100,4,2,1,65,0,0
53674,-100,4,2,1,65,0,0
53841,-100,4,2,1,50,0,0
55173,-100,4,2,1,50,0,0
55341,-100,4,2,1,50,0,0
56340,-100,4,2,1,50,0,0
56507,-100,4,2,1,50,0,0
56757,-100,4,2,1,50,0,0
57007,-100,4,2,1,50,0,0
57424,-100,4,2,1,50,0,0
57674,-100,4,2,1,50,0,0
59340,-100,4,2,1,50,0,0
59507,-100,4,2,1,50,0,0
60673,-100,4,2,1,50,0,0
60841,-100,4,2,1,50,0,0
62007,-100,4,2,1,50,0,0
62174,-100,4,2,1,50,0,0
63007,-100,4,2,1,50,0,0
63174,-100,4,2,1,50,0,0
63340,-100,4,2,1,50,0,0
63507,-100,4,2,1,65,0,0
65673,-100,4,2,1,65,0,0
65841,-86.9565217391304,4,2,1,85,0,1
67840,-86.9565217391304,4,2,1,85,0,1
68007,-86.9565217391304,4,2,1,85,0,1
71673,-86.9565217391304,4,2,1,85,0,1
71841,-86.9565217391304,4,2,1,85,0,1
72340,-86.9565217391304,4,2,1,85,0,1
72507,-86.9565217391304,4,2,1,85,0,1
78507,-86.9565217391304,4,2,1,85,0,1
78674,-86.9565217391304,4,2,1,85,0,1
87174,-100,4,2,1,80,0,0
97007,-100,4,2,1,80,0,0
97174,-100,4,2,1,80,0,0
97257,-100,4,2,1,80,0,0
97341,-100,4,2,1,80,0,0
97424,-100,4,2,1,80,0,0
97507,-100,4,2,1,80,0,0
97591,-100,4,2,1,80,0,0
97674,-100,4,2,1,80,0,0
97841,-100,4,2,1,45,0,0
107841,-111.111111111111,4,2,1,55,0,0
108507,-111.111111111111,4,2,1,60,0,0
111174,-100,4,2,1,60,0,0
111340,-100,4,2,1,60,0,0
111507,-100,4,2,1,60,0,0
111840,-100,4,2,1,60,0,0
112007,-100,4,2,1,60,0,0
113174,-100,4,2,1,60,0,0
113340,-100,4,2,1,60,0,0
114507,-100,4,2,1,60,0,0
114674,-100,4,2,1,60,0,0
115840,-100,4,2,1,60,0,0
116007,-100,4,2,1,60,0,0
117841,-111.111111111111,4,2,1,60,0,0
119174,-125,4,2,1,50,0,0
122674,-125,4,2,1,50,0,0
122841,-125,4,2,1,50,0,0
124007,-125,4,2,1,50,0,0
124174,-125,4,2,1,50,0,0
124340,-125,4,2,1,50,0,0
124507,-125,4,2,1,50,0,0
125340,-125,4,2,1,50,0,0
125507,-125,4,2,1,50,0,0
126674,-125,4,2,1,50,0,0
126841,-125,4,2,1,50,0,0
129673,-125,4,2,1,50,0,0
129841,-111.111111111111,4,2,1,60,0,0
135174,-100,4,2,1,60,0,0
135340,-100,4,2,1,60,0,0
135507,-100,4,2,1,60,0,0
136340,-100,4,2,1,60,0,0
136507,-100,4,2,1,60,0,0
138007,-100,4,2,1,60,0,0
138174,-100,4,2,1,65,0,0
139174,-100,4,2,1,70,0,0
140507,-111.111111111111,4,2,5,85,0,0
140840,-111.111111111111,4,2,1,60,0,0
141340,-111.111111111111,4,2,1,60,0,0
141507,-111.111111111111,4,2,1,60,0,0
144007,-111.111111111111,4,2,1,60,0,0
144174,-111.111111111111,4,2,1,60,0,0
144340,-111.111111111111,4,2,1,60,0,0
147674,-111.111111111111,4,2,1,60,0,0
147757,-111.111111111111,4,2,1,60,0,0
149591,-111.111111111111,4,2,1,60,0,0
149674,-111.111111111111,4,2,1,60,0,0
150090,-111.111111111111,4,2,1,60,0,0
150340,-111.111111111111,4,2,1,60,0,0
151174,-100,4,2,1,60,0,0
151924,-100,4,2,1,60,0,0
152007,-100,4,2,1,60,0,0
159174,-100,4,2,1,70,0,0
167340,-100,4,2,1,70,0,0
167507,-100,4,2,1,70,0,0
169841,-166.666666666667,4,2,1,45,0,0
171674,-125,4,2,1,60,0,0
172507,-100,4,2,1,70,0,0
175173,-100,4,2,1,60,0,0
179174,-86.9565217391304,4,2,1,75,0,1
180341,-100,4,2,1,75,0,0
180841,-86.9565217391304,4,2,1,85,0,1
182507,-86.9565217391304,4,2,1,85,0,1
182674,-86.9565217391304,4,2,1,85,0,1
186340,-86.9565217391304,4,2,1,85,0,1
186507,-86.9565217391304,4,2,1,85,0,1
187007,-86.9565217391304,4,2,1,85,0,1
187174,-86.9565217391304,4,2,1,85,0,1
193841,-86.9565217391304,4,2,1,85,0,1
194007,-86.9565217391304,4,2,1,85,0,1
194174,-86.9565217391304,4,2,1,85,0,1
195340,-86.9565217391304,4,2,1,85,0,1
195507,-86.9565217391304,4,2,1,85,0,1
196673,-86.9565217391304,4,2,1,85,0,1
196841,-86.9565217391304,4,2,1,85,0,1
203673,-86.9565217391304,4,2,1,85,0,1
203841,-86.9565217391304,4,2,1,85,0,1
204507,-90.9090909090909,4,2,1,70,0,0
213173,-90.9090909090909,4,2,1,70,0,0
213341,-90.9090909090909,4,2,1,70,0,0
223007,-90.9090909090909,4,2,1,70,0,0
223174,-90.9090909090909,4,2,1,70,0,0
225673,-90.9090909090909,4,2,1,70,0,0
225841,-100,4,2,1,55,0,0
231174,-100,4,2,1,60,0,0
231257,-100,4,2,1,60,0,0
231340,-100,4,2,1,60,0,0
231757,-100,4,2,1,60,0,0
231840,-100,4,2,1,60,0,0
232257,-100,4,2,1,60,0,0
232340,-100,4,2,1,60,0,0
232757,-100,4,2,1,60,0,0
232840,-100,4,2,1,60,0,0
234341,-100,4,2,1,65,0,0
234507,-100,4,2,1,70,0,0
235840,-100,4,2,1,80,0,0
237007,-100,4,2,1,70,0,0
237341,-100,4,2,1,70,0,0

[Colours]
Combo1 : 225,128,81
Combo2 : 64,208,187
Combo3 : 235,188,80
Combo4 : 111,227,210

[HitObjects]
468,24,508,6,0,P|493:13|525:0,2,48.299998526001,2|2|2,0:2|0:2|0:2,0:0:0:0:
402,81,1007,2,0,P|380:64|319:15,1,96.599997052002,2|2,0:2|0:2,0:0:0:0:
241,2,1507,2,0,P|246:26|251:49,1,48.299998526001,2|2,0:2|0:2,0:0:0:0:
289,127,1841,2,0,P|263:186|244:278,1,144.899995578003,2|0,0:2|0:0,0:0:0:0:
85,332,2674,2,0,P|58:325|28:317,2,48.299998526001,2|2|2,0:2|0:2|0:2,0:0:0:0:
159,377,3174,6,0,P|170:349|145:270,1,96.599997052002,2|2,0:2|0:2,0:0:0:0:
145,199,3674,2,0,B|178:180|214:209|211:213|208:217|242:250|285:223,1,144.899995578003,2|2,0:2|0:2,0:0:0:0:
348,177,4341,2,0,P|379:227|388:323,1,144.899995578003,2|2,0:2|0:2,0:0:0:0:
464,356,5007,2,0,P|475:284|512:213,1,144.899995578003,2|2,0:2|0:2,0:0:0:0:
443,159,5674,1,2,0:2:0:0:
247,2,6174,6,0,P|220:7|188:14,2,48.299998526001,2|2|2,0:2|0:2|0:2,0:0:0:0:
333,15,6674,2,0,P|325:37|317:60,1,48.299998526001,2|0,0:2|0:0,0:0:0:0:
248,115,7007,1,2,0:2:0:0:
248,115,7174,2,0,B|219:140|178:119|179:115|182:110|142:85|105:120,1,144.899995578003,2|2,0:2|0:0,0:0:0:0:
47,275,8007,2,0,P|16:282|-13:289,2,48.299998526001,2|2|2,0:2|0:2|0:2,0:0:0:0:
133,282,8507,6,0,B|137:253|137:253|105:199,2,72.4499977890015,2|2|2,0:2|0:2|0:2,0:0:0:0:
216,308,9174,2,0,B|225:280|225:280|279:248,2,72.4499977890015,2|2|2,0:2|0:2|0:2,0:0:0:0:
153,369,9841,5,2,0:2:0:0:
202,202,10174,2,0,P|208:174|216:141,1,48.299998526001,2|0,0:2|0:0,0:0:0:0:
269,85,10507,2,0,L|258:52,3,34.5,10|8|0|0,0:2|0:2|1:2|1:2,0:0:0:0:
222,25,10841,2,0,P|186:19|133:7,1,69,6|0,1:2|0:0,0:0:0:0:
64,1,11174,6,0,P|36:24|25:69,1,69,2|2,1:2|1:2,0:0:0:0:
4,144,11507,1,2,1:2:0:0:
4,144,11674,2,0,P|20:210|38:295,1,138,2|2,1:2|1:2,0:0:0:0:
18,369,12174,1,2,1:2:0:0:
18,369,12341,2,0,P|83:358|125:298,1,138,2|2,1:2|1:2,0:0:0:0:
161,221,12841,2,0,P|195:229|246:239,1,69,2|0,1:2|0:0,0:0:0:0:
314,202,13174,1,2,1:2:0:0:
314,202,13341,1,10,0:2:0:0:
375,267,13507,2,0,P|365:302|355:341,1,69,2|0,1:2|1:2,0:0:0:0:
432,383,13841,6,0,B|441:347|452:309,1,69,6|2,1:2|1:2,0:0:0:0:
510,249,14174,1,2,1:2:0:0:
510,249,14341,2,0,P|465:199|388:191,1,138,2|2,1:2|1:2,0:0:0:0:
316,222,14841,1,2,1:2:0:0:
316,222,15007,2,0,P|303:154|289:83,1,138,2|2,1:2|1:2,0:0:0:0:
233,16,15507,2,0,P|264:-2|314:-2,1,69,2|0,1:2|0:0,0:0:0:0:
369,47,15841,1,0,1:2:0:0:
448,3,16007,1,0,1:2:0:0:
509,68,16174,2,0,P|499:102|491:135,1,69,8|0,0:2|1:2,0:0:0:0:
439,207,16507,6,0,L|451:249,4,34.5,4|0|8|8|8,1:2|0:0|0:2|0:2|0:2,0:0:0:0:
471,122,17007,2,0,L|503:90,4,34.5,4|0|8|8|8,1:2|0:0|0:2|0:2|0:2,0:0:0:0:
383,140,17507,2,0,L|340:129,4,34.5,4|0|8|8|8,1:2|0:0|0:2|0:2|0:2,0:0:0:0:
439,207,18007,2,0,L|451:249,4,34.5,4|0|8|8|8,1:2|0:0|0:2|0:2|0:2,0:0:0:0:
383,140,18507,2,0,P|357:117|310:118,1,69,8|8,3:2|2:3,0:0:0:0:
253,169,18841,1,4,2:3:0:0:
253,169,19007,1,0,1:2:0:0:
295,249,19174,6,0,P|355:263|444:280,1,138,4|0,1:2|1:2,0:0:0:0:
492,349,19674,1,0,1:2:0:0:
492,349,19841,2,0,P|466:378|422:376,1,69,8|8,1:2|1:2,0:0:0:0:
363,340,20174,1,8,1:2:0:0:
363,340,20341,1,8,1:2:0:0:
284,382,20507,5,8,1:2:0:0:
250,309,20674,1,0,1:2:0:0:
250,309,20757,1,0,1:2:0:0:
250,309,20841,2,0,P|263:240|277:166,1,138,8|0,0:2|0:0,0:0:0:0:
314,94,21341,1,8,1:2:0:0:
314,94,21507,2,0,P|304:48|293:7,1,69,8|8,1:2|1:2,0:0:0:0:
215,0,21841,6,0,P|224:45|231:79,1,62.0999981048585,6|0,1:2|1:2,0:0:0:0:
191,141,22174,1,10,0:2:0:0:
191,141,22341,2,0,P|151:97|81:108,1,124.199996209717,10|0,0:2|1:2,0:0:0:0:
7,94,22841,1,8,0:2:0:0:
7,94,23007,2,0,P|29:147|42:229,1,124.199996209717,2|0,0:2|1:2,0:0:0:0:
111,272,23507,1,10,0:2:0:0:
111,272,23673,2,0,P|126:207|161:144,1,124.199996209717,10|0,0:2|1:2,0:0:0:0:
104,88,24174,1,10,0:2:0:0:
104,88,24341,1,2,0:2:0:0:
353,5,24841,5,10,0:2:0:0:
353,5,25007,2,0,P|409:-6|463:55,1,124.199996209717,10|0,0:2|1:2,0:0:0:0:
494,118,25507,1,8,0:2:0:0:
494,118,25673,2,0,P|437:129|383:67,1,124.199996209717,2|0,0:2|1:2,0:0:0:0:
328,31,26174,1,10,0:2:0:0:
328,31,26341,2,0,P|317:66|304:108,1,62.0999981048585,2|0,1:2|0:0,0:0:0:0:
290,175,26674,1,8,0:2:0:0:
211,150,26841,1,10,0:2:0:0:
211,150,27007,1,10,0:2:0:0:
60,362,27507,6,0,P|24:354|-11:346,2,62.0999981048585,10|10|2,0:2|0:2|0:2,0:0:0:0:
111,291,28007,2,0,P|147:283|182:275,2,62.0999981048585,2|10|2,1:2|0:2|0:2,0:0:0:0:
29,260,28507,2,0,P|8:237|11:190,1,62.0999981048585,2|0,1:2|1:2,0:0:0:0:
65,144,28841,1,10,0:2:0:0:
65,144,29007,2,0,P|53:109|41:68,1,62.0999981048585,10|0,0:2|0:0,0:0:0:0:
18,1,29341,2,0,P|52:9|97:19,1,62.0999981048585,2|8,1:2|0:2,0:0:0:0:
164,2,29674,1,0,0:0:0:0:
164,2,29841,6,0,P|164:32|146:67,1,62.0999981048585,2|0,1:2|1:2,0:0:0:0:
179,148,30174,1,10,0:2:0:0:
179,148,30341,2,0,P|238:118|314:109,1,124.199996209717,10|0,0:2|1:2,0:0:0:0:
359,167,30841,1,10,0:2:0:0:
359,167,31007,2,0,P|383:118|360:50,1,124.199996209717,2|0,0:2|1:2,0:0:0:0:
293,1,31507,1,8,0:2:0:0:
219,47,31674,1,0,1:2:0:0:
278,210,32007,2,0,P|312:227|345:241,2,62.0999981048585,8|8|8,1:2|1:2|1:2,0:0:0:0:
219,145,32507,6,0,P|196:174|188:206,1,62.0999981048585,6|0,1:2|1:2,0:0:0:0:
119,249,32841,1,10,0:2:0:0:
119,249,33007,2,0,P|152:303|169:375,1,124.199996209717,10|0,0:2|1:2,0:0:0:0:
256,384,33507,1,10,0:2:0:0:
256,384,33673,2,0,P|264:328|302:260,1,124.199996209717,2|0,0:2|1:2,0:0:0:0:
306,184,34174,1,10,0:2:0:0:
306,184,34341,1,10,0:2:0:0:
499,366,34841,1,10,0:2:0:0:
499,366,35007,1,2,0:2:0:0:
439,298,35174,6,0,P|398:288|358:278,1,69,4|0,1:2|0:0,0:0:0:0:
319,215,35507,1,2,0:2:0:0:
319,215,35674,2,0,P|360:205|400:195,1,69,2|0,1:2|0:0,0:0:0:0:
454,140,36007,1,2,1:2:0:0:
419,56,36174,2,0,B|341:27|302:92|309:103|317:118|268:194|180:145,1,276,10|0,0:2|0:0,0:0:0:0:
84,6,37174,2,0,P|29:5|5:61,1,103.5,8|8,0:2|0:2,0:0:0:0:
0,86,37507,2,0,P|23:128|29:164,1,69,2|8,1:2|2:3,0:0:0:0:
78,222,37841,5,6,1:2:0:0:
128,148,38007,2,0,P|163:124|203:132,1,69,2|8,1:2|0:2,0:0:0:0:
269,165,38341,2,0,P|257:204|246:245,1,69,10|0,0:2|0:0,0:0:0:0:
319,287,38674,2,0,P|330:247|342:207,1,69,2|8,1:2|0:2,0:0:0:0:
414,173,39007,2,0,P|455:176|481:211,1,69,2|0,0:2|1:2,0:0:0:0:
476,284,39341,2,0,P|435:281|409:246,1,69,2|8,1:2|0:2,0:0:0:0:
337,220,39674,2,0,P|326:180|316:139,1,69,10|0,0:2|0:0,0:0:0:0:
387,98,40007,2,0,P|397:58|408:17,1,69,2|8,1:2|0:2,0:0:0:0:
318,3,40341,1,2,1:2:0:0:
318,3,40424,1,0,1:2:0:0:
318,3,40507,6,0,P|249:-2|225:64,1,138,12|0,0:2|1:2,0:0:0:0:
251,137,41007,1,8,0:2:0:0:
251,137,41174,2,0,P|211:128|161:118,1,69,8|8,0:2|0:2,0:0:0:0:
121,57,41507,2,0,P|81:66|31:76,1,69,8|10,0:2|0:2,0:0:0:0:
4,148,41841,1,8,1:2:0:0:
4,148,42007,1,8,2:3:0:0:
82,192,42174,1,4,2:3:0:0:
23,259,42341,1,0,0:0:0:0:
90,318,42507,6,0,P|98:350|109:392,1,69,2|8,1:2|0:2,0:0:0:0:
194,359,42841,2,0,P|185:326|175:285,1,69,2|0,1:2|1:2,0:0:0:0:
198,205,43174,6,0,P|277:195|316:250,1,138,6|8,1:2|0:2,0:0:0:0:
291,321,43674,2,0,P|212:331|173:276,1,138,2|0,0:2|0:0,0:0:0:0:
118,230,44174,1,10,0:2:0:0:
118,230,44341,2,0,P|125:192|135:149,1,69,2|8,1:2|0:2,0:0:0:0:
55,114,44674,2,0,P|48:152|38:195,1,69,2|8,0:2|0:2,0:0:0:0:
0,356,45174,2,0,P|39:359|71:330,1,69,10|2,0:2|1:2,0:0:0:0:
144,304,45507,2,0,P|183:301|215:330,1,69,10|0,0:2|0:0,0:0:0:0:
268,382,45841,6,0,P|312:354|413:359,1,138,6|8,1:2|0:2,0:0:0:0:
445,277,46341,2,0,P|376:272|320:234,1,138,2|0,0:0|0:0,0:0:0:0:
235,222,46841,1,10,0:2:0:0:
235,222,47007,2,0,P|225:261|213:308,1,69,0|8,0:0|0:2,0:0:0:0:
130,267,47341,2,0,P|140:228|152:181,1,69,2|8,1:2|0:2,0:0:0:0:
220,146,47674,1,0,0:0:0:0:
220,146,47841,2,0,P|261:147|296:174,1,69,10|2,0:2|1:2,0:0:0:0:
297,249,48174,2,0,P|256:248|221:220,1,69,10|0,0:2|0:0,0:0:0:0:
220,146,48507,6,0,P|237:76|250:2,1,138,14|8,0:2|0:2,0:0:0:0:
337,0,49007,2,0,P|320:70|307:144,1,138,2|0,0:2|0:0,0:0:0:0:
321,223,49507,2,0,P|351:227|393:198,1,69,10|0,0:2|0:0,0:0:0:0:
459,157,49841,1,8,0:2:0:0:
459,157,50007,2,0,P|418:141|379:126,1,69,2|8,0:2|0:2,0:0:0:0:
226,68,50507,2,0,P|222:33|252:2,1,69,10|0,0:2|1:2,0:0:0:0:
328,31,50841,2,0,P|332:66|302:97,1,69,10|0,0:2|0:0,0:0:0:0:
246,152,51174,6,0,P|176:136|100:118,1,138,14|8,0:2|0:2,0:0:0:0:
49,62,51674,1,2,0:2:0:0:
49,62,51841,2,0,P|29:94|28:136,1,69,10|0,0:2|1:2,0:0:0:0:
47,216,52174,1,8,0:2:0:0:
47,216,52341,2,0,P|30:283|12:368,1,138,4|0,1:2|1:2,0:0:0:0:
99,382,52841,1,8,0:2:0:0:
264,312,53174,6,0,P|269:334|274:358,3,34.5,10|8|8|8,0:2|0:2|0:2|0:2,0:0:0:0:
294,384,53507,1,10,0:2:0:0:
390,377,53674,1,0,1:0:0:0:
390,377,53757,1,0,1:0:0:0:
390,377,53841,6,0,P|451:381|496:314,1,138,6|8,1:2|0:2,0:0:0:0:
465,250,54341,1,10,0:2:0:0:
465,250,54424,1,8,0:2:0:0:
465,250,54507,2,0,P|429:258|391:267,1,69,0|0,1:2|1:2,0:0:0:0:
335,207,54841,1,10,0:2:0:0:
335,207,55007,2,0,P|317:233|315:289,1,69,0|0,1:2|0:0,0:0:0:0:
241,326,55341,2,0,P|204:317|159:307,1,69,2|8,1:2|0:2,0:0:0:0:
118,252,55674,1,8,0:2:0:0:
118,252,55757,1,8,0:2:0:0:
118,252,55841,2,0,P|96:218|105:175,1,69,2|0,1:2|1:2,0:0:0:0:
183,164,56174,2,0,P|205:198|196:241,1,69,10|0,0:2|0:0,0:0:0:0:
248,303,56507,6,0,B|281:322|281:322|368:305,2,103.5,6|2|10,1:2|0:0|0:2,0:0:0:0:
182,364,57174,2,0,B|149:383|149:383|62:366,2,103.5,2|0|2,1:2|0:0|1:2,0:0:0:0:
156,277,57841,6,0,P|134:202|116:139,1,138,2|8,0:2|0:2,0:0:0:0:
178,79,58341,1,8,0:2:0:0:
178,79,58424,1,8,0:2:0:0:
178,79,58507,2,0,P|144:58|107:55,1,69,2|0,1:2|1:2,0:0:0:0:
42,1,58841,2,0,P|29:37|20:71,1,69,6|0,2:3|1:2,0:0:0:0:
39,154,59174,6,0,P|69:142|125:134,1,69,14|0,0:2|0:0,0:0:0:0:
186,97,59507,1,2,1:2:0:0:
233,173,59674,2,0,P|224:211|214:255,1,69,14|0,0:2|1:2,0:0:0:0:
157,306,60007,1,2,0:2:0:0:
224,373,60174,1,14,2:3:0:0:
224,373,60341,1,2,0:2:0:0:
297,322,60507,6,0,P|320:302|374:311,1,69,6|0,1:2|0:0,0:0:0:0:
427,358,60841,1,2,1:2:0:0:
511,328,61007,2,0,P|501:285|492:241,1,69,14|0,0:2|1:2,0:0:0:0:
509,171,61341,1,2,0:2:0:0:
432,135,61507,1,6,2:3:0:0:
432,135,61674,1,2,0:2:0:0:
492,68,61841,6,0,P|499:31|509:-14,1,69,6|0,1:2|0:0,0:0:0:0:
415,2,62174,1,2,1:2:0:0:
346,59,62341,2,0,P|307:59|274:22,1,69,14|0,0:2|1:2,0:0:0:0:
201,6,62674,2,0,P|216:76|232:155,1,138,2|0,0:2|0:0,0:0:0:0:
286,210,63174,6,0,P|255:227|204:225,1,69,6|0,1:2|0:0,0:0:0:0:
151,173,63507,2,0,P|120:156|69:158,1,69,8|8,1:2|1:2,0:0:0:0:
2,185,63841,1,8,1:2:0:0:
2,185,64007,1,8,1:2:0:0:
63,250,64174,1,8,1:2:0:0:
24,331,64341,1,8,1:2:0:0:
108,383,64507,5,8,2:3:0:0:
108,383,64591,1,8,2:3:0:0:
108,383,64674,2,0,L|147:372,3,34.5,4|4|0|0,2:3|2:3|1:2|1:2,0:0:0:0:
185,381,65007,1,8,0:2:0:0:
293,237,65341,1,0,1:2:0:0:
293,237,65507,2,0,P|282:274|274:322,1,69,12|0,0:2|0:0,0:0:0:0:
316,382,65841,6,0,P|350:353|399:362,1,79.3500015134812,2|2,1:2|1:2,0:0:0:0:
466,380,66174,1,10,0:2:0:0:
507,302,66341,2,0,P|493:244|483:204,1,79.3500015134812,2|0,1:2|1:2,0:0:0:0:
434,156,66674,1,2,1:2:0:0:
485,86,66841,1,10,0:2:0:0:
485,86,67007,1,2,0:2:0:0:
414,34,67174,6,0,P|381:10|318:17,1,79.3500015134812,2|0,1:2|1:2,0:0:0:0:
256,3,67507,1,8,0:2:0:0:
190,60,67674,2,0,P|201:101|212:150,1,79.3500015134812,0|0,1:2|0:0,0:0:0:0:
200,224,68007,1,2,1:2:0:0:
287,221,68174,1,10,0:2:0:0:
338,304,68341,1,2,0:0:0:0:
338,304,68424,1,8,0:2:0:0:
338,304,68507,6,0,P|328:349|316:397,1,79.3500015134812,2|0,1:2|1:2,0:0:0:0:
232,382,68841,1,10,0:2:0:0:
232,382,69007,2,0,P|196:317|110:314,1,158.700003026962,2|0,0:0|1:2,0:0:0:0:
37,343,69507,1,10,0:2:0:0:
0,265,69674,6,0,P|21:190|39:86,1,158.700003026962,2|0,0:0|1:2,0:0:0:0:
90,43,70174,1,10,0:2:0:0:
90,43,70341,2,0,P|157:25|221:95,1,158.700003026962,2|0,0:0|1:2,0:0:0:0:
241,164,70841,1,10,0:2:0:0:
330,199,71007,1,10,0:2:0:0:
330,199,71091,1,8,0:2:0:0:
330,199,71174,6,0,P|371:188|428:175,1,79.3500015134812,4|0,1:2|1:2,0:0:0:0:
464,113,71507,2,0,P|430:93|382:95,1,79.3500015134812,10|0,0:2|0:0,0:0:0:0:
326,32,71841,2,0,P|315:77|309:116,1,79.3500015134812,2|0,1:2|1:2,0:0:0:0:
241,164,72174,2,0,P|251:208|263:262,1,79.3500015134812,10|0,0:2|0:0,0:0:0:0:
280,325,72507,6,0,P|237:323|202:349,1,79.3500015134812,2|0,1:2|1:2,0:0:0:0:
129,382,72841,1,10,0:2:0:0:
47,352,73007,2,0,P|56:296|81:179,1,158.700003026962,2|0,1:2|1:2,0:0:0:0:
39,122,73507,1,10,0:2:0:0:
39,122,73674,1,2,1:2:0:0:
68,39,73841,6,0,P|103:13|150:21,1,79.3500015134812,14|0,0:2|1:2,0:0:0:0:
223,2,74174,1,10,0:2:0:0:
223,2,74341,1,2,1:2:0:0:
273,73,74508,2,0,P|264:111|255:150,1,79.3500015134812,8|0,0:2|1:2,0:0:0:0:
331,193,74841,2,0,P|341:154|352:102,1,79.3500015134812,10|2,0:2|1:2,0:0:0:0:
357,32,75174,5,8,0:2:0:0:
357,32,75341,1,0,1:2:0:0:
438,2,75507,1,0,1:2:0:0:
495,68,75674,2,0,P|458:145|451:225,1,158.700003026962,8|0,0:2|1:2,0:0:0:0:
439,303,76174,2,0,L|388:314,3,39.6750007567406,8|8|8|8,0:2|0:2|0:2|0:2,0:0:0:0:
359,327,76507,6,0,P|322:303|327:249,1,79.3500015134812,6|2,1:2|1:2,0:0:0:0:
361,196,76841,1,10,0:2:0:0:
361,196,77007,2,0,P|352:154|344:112,1,79.3500015134812,2|0,0:0|1:2,0:0:0:0:
369,33,77341,1,2,1:2:0:0:
292,5,77507,1,10,0:2:0:0:
292,5,77674,1,2,0:0:0:0:
210,35,77841,6,0,P|168:39|136:17,1,79.3500015134812,2|0,1:2|1:2,0:0:0:0:
47,4,78174,1,8,0:2:0:0:
1,77,78341,2,0,P|11:118|21:162,1,79.3500015134812,0|0,1:2|0:0,0:0:0:0:
92,203,78674,1,2,1:2:0:0:
35,269,78841,1,10,0:2:0:0:
91,336,79007,1,10,0:2:0:0:
91,336,79091,1,8,0:2:0:0:
91,336,79174,6,0,P|136:324|179:313,1,79.3500015134812,2|0,1:2|1:2,0:0:0:0:
241,267,79507,1,10,0:2:0:0:
241,267,79674,2,0,P|296:258|353:358,1,158.700003026962,2|0,0:0|1:2,0:0:0:0:
426,382,80174,1,8,0:2:0:0:
481,314,80341,6,0,P|494:238|518:137,1,158.700003026962,2|0,0:0|1:2,0:0:0:0:
510,74,80841,1,10,0:2:0:0:
510,74,81007,2,0,P|480:15|383:29,1,158.700003026962,2|0,0:0|1:2,0:0:0:0:
323,64,81507,1,10,0:2:0:0:
259,20,81674,1,2,1:2:0:0:
259,20,81757,1,0,1:2:0:0:
259,20,81841,6,0,P|213:7|161:-2,1,79.3500015134812,4|0,1:2|1:2,0:0:0:0:
98,4,82174,1,10,0:2:0:0:
98,4,82341,1,2,0:0:0:0:
29,57,82507,1,2,1:2:0:0:
76,130,82674,2,0,P|65:163|40:226,1,79.3500015134812,2|8,1:2|0:2,0:0:0:0:
16,289,83007,1,2,0:0:0:0:
16,289,83091,1,8,0:2:0:0:
16,289,83174,6,0,P|76:284|132:369,1,158.700003026962,0|8,1:2|0:2,0:0:0:0:
212,383,83674,2,0,P|256:370|309:357,1,79.3500015134812,0|0,1:2|1:2,0:0:0:0:
355,306,84007,1,2,1:2:0:0:
293,251,84174,1,6,2:3:0:0:
293,251,84341,1,2,0:2:0:0:
342,179,84507,6,0,B|378:159|378:159|475:178,2,119.025002270222,10|2|2,0:2|0:0|1:2,0:0:0:0:
300,101,85174,2,0,B|335:80|335:80|369:-12,2,119.025002270222,8|2|2,0:2|0:0|1:2,0:0:0:0:
247,171,85841,6,0,P|201:159|147:147,1,79.3500015134812,2|0,1:2|1:2,0:0:0:0:
88,184,86174,2,0,P|85:174|109:94,1,79.3500015134812,12|0,0:2|0:0,0:0:0:0:
94,21,86507,2,0,L|140:11,3,39.6750007567406,2|8|8|8,1:2|0:2|0:2|0:2,0:0:0:0:
176,2,86841,2,0,P|216:7|268:16,1,79.3500015134812,2|0,1:2|1:2,0:0:0:0:
328,64,87174,6,0,P|342:33|341:-4,2,69,14|2|10,0:2|0:2|0:2,0:0:0:0:
398,120,87674,2,0,P|408:159|435:259,1,138,2|2,1:2|1:2,0:0:0:0:
509,301,88174,1,10,0:2:0:0:
441,360,88341,2,0,P|401:365|363:330,1,69,2|8,1:2|0:2,0:0:0:0:
328,275,88674,6,0,P|320:238|311:198,2,69,2|10|2,1:2|0:2|1:2,0:0:0:0:
248,317,89174,2,0,P|240:353|231:394,2,69,10|2|10,0:2|1:2|0:2,0:0:0:0:
71,353,89841,6,0,P|41:375|-10:368,2,69,12|2|10,0:2|0:2|0:2,0:0:0:0:
104,269,90341,2,0,P|94:226|83:178,1,69,2|8,1:2|0:2,0:0:0:0:
29,134,90674,1,2,1:2:0:0:
29,134,90841,1,10,0:2:0:0:
55,48,91007,2,0,P|79:26|136:30,1,69,2|8,1:2|0:2,0:0:0:0:
192,66,91341,6,0,P|186:102|177:148,2,69,2|10|2,1:2|0:2|1:2,0:0:0:0:
258,5,91841,2,0,P|294:2|332:31,1,69,10|2,0:2|1:2,0:0:0:0:
341,105,92174,2,0,P|305:108|267:79,1,69,10|0,0:2|1:2,0:0:0:0:
192,66,92507,6,0,L|169:-9,2,69,14|2|10,0:2|0:0|0:2,0:0:0:0:
134,134,93007,2,0,P|87:118|27:182,1,138,2|2,0:2|0:2,0:0:0:0:
0,258,93507,1,10,0:2:0:0:
59,325,93674,2,0,P|88:315|130:302,1,69,2|8,0:2|0:2,0:0:0:0:
202,258,94007,6,0,P|221:229|214:183,2,69,2|10|2,0:2|0:2|0:2,0:0:0:0:
265,322,94507,2,0,P|263:356|292:392,2,69,10|2|10,0:2|0:2|0:2,0:0:0:0:
445,267,95174,6,0,P|480:275|520:285,2,69,10|2|10,0:2|0:0|0:2,0:0:0:0:
355,276,95674,2,0,P|358:239|377:206,1,69,2|8,0:2|0:2,0:0:0:0:
448,161,96007,1,2,0:2:0:0:
448,161,96174,1,10,0:2:0:0:
387,94,96341,2,0,P|393:61|402:21,1,69,2|8,0:2|0:2,0:0:0:0:
313,3,96674,1,2,1:2:0:0:
313,3,96757,1,0,1:2:0:0:
313,3,96841,6,0,P|304:42|286:140,1,138,10|8,0:2|1:2,0:0:0:0:
215,193,97341,2,0,P|183:164|148:167,2,69,8|8|8,1:2|1:2|0:2,0:0:0:0:
265,267,97841,5,2,0:2:0:0:
0,27,107841,5,0,1:2:0:0:
0,27,107924,1,2,1:2:0:0:
0,27,108007,2,0,P|33:77|47:150,1,124.199996209717,12|0,0:2|0:0,0:0:0:0:
1,213,108507,6,0,P|36:228|80:221,1,62.0999981048585,2|0,1:2|1:2,0:0:0:0:
130,175,108841,1,10,0:2:0:0:
130,175,109007,2,0,P|192:185|271:197,1,124.199996209717,2|0,1:2|0:2,0:0:0:0:
322,255,109507,1,10,0:2:0:0:
322,255,109674,2,0,P|346:197|316:135,1,124.199996209717,2|0,0:0|1:2,0:0:0:0:
264,87,110174,1,10,0:2:0:0:
264,87,110341,1,2,1:2:0:0:
512,6,110841,1,10,0:2:0:0:
512,6,111007,1,2,0:0:0:0:
435,53,111174,6,0,P|445:88|460:142,1,69,2|0,1:2|0:0,0:0:0:0:
512,186,111507,1,2,1:2:0:0:
512,186,111674,2,0,P|476:205|430:204,1,69,10|0,0:2|0:0,0:0:0:0:
375,155,112007,1,2,1:2:0:0:
295,196,112174,2,0,B|213:213|184:144|192:134|202:120|164:38|70:74,1,276,14|8,0:2|0:2,0:0:0:0:
1,231,113174,2,0,P|11:272|22:313,1,69,0|0,0:0|1:2,0:0:0:0:
88,353,113507,1,10,0:2:0:0:
155,293,113674,1,10,0:2:0:0:
155,293,113757,1,8,0:2:0:0:
155,293,113841,5,2,1:2:0:0:
228,343,114007,2,0,P|243:318|233:263,1,69,2|8,1:2|0:2,0:0:0:0:
180,212,114341,2,0,P|190:174|202:129,1,69,10|0,0:2|0:0,0:0:0:0:
111,118,114674,2,0,P|101:156|89:201,1,69,2|8,1:2|0:2,0:0:0:0:
102,274,115007,2,0,P|136:295|181:293,1,69,2|0,0:0|1:2,0:0:0:0:
248,263,115341,2,0,P|282:242|327:244,1,69,2|8,1:2|0:2,0:0:0:0:
390,280,115674,2,0,P|398:318|410:368,1,69,10|0,0:2|0:0,0:0:0:0:
494,351,116007,2,0,P|485:312|474:263,1,69,2|8,1:2|0:2,0:0:0:0:
495,201,116341,1,2,1:2:0:0:
495,201,116424,1,0,1:2:0:0:
495,201,116507,6,0,P|512:170|506:120,1,69,10|10,0:2|0:2,0:0:0:0:
508,46,116841,1,10,0:2:0:0:
424,78,117007,1,2,1:2:0:0:
260,2,117341,1,0,1:2:0:0:
311,75,117507,2,0,P|302:112|289:168,1,69,10|10,0:2|0:2,0:0:0:0:
333,220,117841,6,0,P|262:228|216:184,1,124.199996209717,10|10,0:2|0:2,0:0:0:0:
161,152,118341,1,8,0:2:0:0:
161,152,118424,1,8,0:2:0:0:
161,152,118507,2,0,P|151:185|142:222,1,62.0999981048585,0|8,1:2|0:2,0:0:0:0:
59,190,118841,2,0,P|68:156|78:120,1,62.0999981048585,10|6,2:3|2:3,0:0:0:0:
30,53,119174,6,0,P|58:15|127:19,1,110.4,6|0,1:2|1:2,0:0:0:0:
186,68,119674,1,2,0:0:0:0:
421,2,120174,1,0,1:2:0:0:
354,57,120341,1,8,2:3:0:0:
354,57,120424,1,8,2:3:0:0:
354,57,120507,2,0,P|326:121|324:222,2,165.6,2|10|2,1:2|2:3|1:2,0:0:0:0:
185,3,121841,6,0,P|173:61|161:133,1,110.4,6|0,1:2|1:2,0:0:0:0:
227,174,122341,2,0,P|238:232|251:304,1,110.4,2|0,0:0|0:0,0:0:0:0:
205,360,122841,1,2,1:2:0:0:
126,384,123007,1,2,1:2:0:0:
126,384,123091,1,8,2:3:0:0:
126,384,123174,6,0,P|83:353|90:289,1,110.4,0|0,1:2|1:2,0:0:0:0:
16,249,123674,1,8,2:3:0:0:
16,249,123841,2,0,P|7:211|-3:175,1,55.2,2|0,1:2|0:0,0:0:0:0:
29,110,124174,1,6,1:2:0:0:
157,231,124507,6,0,P|213:232|254:178,1,110.4,2|0,1:2|1:2,0:0:0:0:
335,178,125007,2,0,P|323:122|310:62,1,110.4,2|0,0:0|0:0,0:0:0:0:
367,1,125507,1,0,1:2:0:0:
460,28,125674,1,0,1:2:0:0:
460,28,125757,1,8,0:2:0:0:
460,28,125841,6,0,P|487:48|482:128,1,110.4,10|0,2:3|1:2,0:0:0:0:
416,165,126341,2,0,P|431:218|455:295,1,110.4,10|0,2:3|0:0,0:0:0:0:
504,345,126841,1,6,2:3:0:0:
504,345,127007,1,2,0:0:0:0:
423,381,127174,6,0,P|384:335|328:338,1,110.4,6|0,1:2|1:2,0:0:0:0:
262,382,127674,1,2,0:0:0:0:
26,335,128174,1,0,1:2:0:0:
103,288,128341,1,8,0:2:0:0:
103,288,128424,1,0,1:2:0:0:
103,288,128507,2,0,P|118:228|135:164,2,110.4,2|2|2,1:2|1:2|1:2,0:0:0:0:
154,366,129341,1,4,2:3:0:0:
154,366,129507,2,0,P|184:383|224:378,1,55.2,2|0,1:2|0:0,0:0:0:0:
291,378,129841,6,0,P|276:315|264:252,1,124.199996209717,6|0,1:2|1:2,0:0:0:0:
330,199,130341,2,0,P|344:261|357:325,1,124.199996209717,10|8,0:2|2:3,0:0:0:0:
423,376,130841,2,0,P|458:377|490:343,1,62.0999981048585,0|4,1:2|2:3,0:0:0:0:
508,280,131174,6,0,P|462:228|408:231,1,124.199996209717,2|0,1:2|1:2,0:0:0:0:
330,198,131674,2,0,P|345:133|360:65,1,124.199996209717,2|8,1:2|0:2,0:0:0:0:
404,3,132174,1,2,1:2:0:0:
495,33,132341,1,8,0:2:0:0:
495,33,132424,1,8,0:2:0:0:
495,33,132507,6,0,P|508:92|470:143,1,124.199996209717,6|0,1:2|1:2,0:0:0:0:
449,225,133007,2,0,P|391:206|319:196,1,124.199996209717,10|8,0:2|2:3,0:0:0:0:
244,217,133507,2,0,P|243:180|258:146,1,62.0999981048585,0|4,1:2|2:3,0:0:0:0:
264,70,133841,6,0,P|219:16|163:19,1,124.199996209717,2|0,1:2|1:2,0:0:0:0:
106,76,134341,2,0,P|96:41|86:3,1,62.0999981048585,2|8,1:2|0:2,0:0:0:0:
10,11,134674,1,8,0:2:0:0:
10,11,134757,1,8,0:2:0:0:
10,11,134841,2,0,P|19:45|30:84,1,62.0999981048585,2|8,1:2|2:3,0:0:0:0:
61,153,135174,6,0,P|82:183|76:234,1,69,14|0,0:2|0:0,0:0:0:0:
30,286,135507,1,2,1:2:0:0:
82,358,135674,2,0,P|120:344|167:330,1,69,10|0,0:2|1:2,0:0:0:0:
230,370,136007,1,2,0:0:0:0:
285,299,136174,2,0,P|302:266|283:216,1,69,6|0,1:2|0:0,0:0:0:0:
269,150,136507,6,0,P|334:160|422:176,1,138,8|0,0:2|1:2,0:0:0:0:
498,186,137007,1,8,0:2:0:0:
498,186,137174,2,0,P|495:151|481:120,1,69,0|8,1:2|0:2,0:0:0:0:
512,38,137507,1,10,0:2:0:0:
512,38,137674,1,2,1:2:0:0:
430,0,137841,6,0,P|393:5|354:11,1,69,10|0,0:2|0:0,0:0:0:0:
272,1,138174,1,10,1:2:0:0:
272,1,138341,2,0,P|246:33|254:74,1,69,10|8,0:2|1:2,0:0:0:0:
208,140,138674,1,10,0:2:0:0:
286,183,138841,2,0,P|323:176|375:169,1,69,10|10,1:2|0:2,0:0:0:0:
417,108,139174,5,10,1:2:0:0:
417,108,139341,1,10,0:2:0:0:
489,159,139507,2,0,P|508:193|501:235,1,69,10|10,0:2|0:2,0:0:0:0:
456,298,139841,1,10,0:2:0:0:
456,298,140007,1,2,1:2:0:0:
372,263,140174,1,10,0:2:0:0:
332,343,140341,1,2,0:2:0:0:
256,301,140507,6,0,P|190:286|117:270,1,124.199996209717,6|0,1:2|1:2,0:0:0:0:
89,199,141007,2,0,P|50:255|63:321,1,124.199996209717,10|0,0:2|0:0,0:0:0:0:
127,357,141507,2,0,P|193:372|266:388,1,124.199996209717,10|0,0:2|1:2,0:0:0:0:
324,340,142007,1,8,0:2:0:0:
324,340,142174,1,2,1:2:0:0:
414,374,142341,1,8,0:2:0:0:
414,374,142424,1,8,0:2:0:0:
414,374,142507,2,0,P|447:379|492:388,1,62.0999981048585,2|8,1:2|2:3,0:0:0:0:
511,304,142841,2,0,P|477:299|433:290,1,62.0999981048585,4|0,2:3|1:2,0:0:0:0:
363,280,143174,6,0,P|400:220|468:208,1,124.199996209717,6|0,1:2|1:2,0:0:0:0:
510,144,143674,2,0,P|444:117|420:53,1,124.199996209717,8|0,0:2|0:0,0:0:0:0:
360,10,144174,2,0,P|350:45|343:76,1,62.0999981048585,14|0,0:2|0:0,0:0:0:0:
313,151,144507,2,0,P|326:192|352:289,1,124.199996209717,0|0,1:2|1:2,0:0:0:0:
370,363,145007,1,0,1:2:0:0:
370,363,145091,1,8,0:2:0:0:
370,363,145174,2,0,P|329:361|296:348,1,62.0999981048585,2|8,1:2|2:3,0:0:0:0:
231,315,145507,2,0,L|184:323,3,31.0499990524292,6|4|0|0,2:3|2:3|1:2|1:2,0:0:0:0:
164,345,145841,6,0,P|105:355|69:297,1,124.199996209717,6|0,1:2|1:2,0:0:0:0:
2,253,146341,1,8,0:2:0:0:
2,253,146507,2,0,P|9:217|19:173,1,62.0999981048585,0|0,1:2|1:2,0:0:0:0:
7,104,146841,2,0,P|62:114|103:183,1,124.199996209717,6|0,1:2|1:2,0:0:0:0:
143,242,147341,2,0,P|201:228|291:212,1,124.199996209717,8|0,0:2|0:0,0:0:0:0:
311,142,147841,2,0,P|324:112|317:68,1,62.0999981048585,0|0,1:2|1:2,0:0:0:0:
249,45,148174,1,6,2:3:0:0:
249,45,148341,6,0,B|218:61|218:61|139:52,2,93.1499971572877,8|8|8,0:2|0:2|0:2,0:0:0:0:
323,1,149007,2,0,P|356:2|388:29,1,62.0999981048585,8|0,0:2|1:2,0:0:0:0:
439,81,149341,2,0,B|463:56|463:56|479:-21,2,93.1499971572877,8|8|0,0:2|0:2|1:2,0:0:0:0:
315,123,150091,5,8,0:2:0:0:
416,205,150341,5,8,0:0:0:0:
336,236,150507,2,0,L|325:280,3,31.0499990524292,8|8|8|8,0:2|0:2|0:2|0:2,0:0:0:0:
303,302,150841,2,0,L|314:346,3,31.0499990524292,8|8|8|8,0:2|0:2|0:2|0:2,0:0:0:0:
329,372,151174,5,6,1:2:0:0:
403,321,151341,1,2,1:2:0:0:
468,382,151507,2,0,P|479:346|497:293,1,69,10|10,0:2|0:2,0:0:0:0:
509,228,151841,1,2,0:0:0:0:
509,228,152007,2,0,P|498:186|487:144,1,69,0|8,1:2|0:2,0:0:0:0:
508,72,152341,6,0,P|465:11|401:17,1,138,2|2,0:0|1:2,0:0:0:0:
338,69,152841,1,10,0:2:0:0:
338,69,153007,1,10,0:2:0:0:
258,27,153174,2,0,P|220:37|164:47,1,69,2|2,0:0|1:2,0:0:0:0:
114,5,153507,1,10,0:2:0:0:
114,5,153674,2,0,P|103:49|129:90,1,69,2|4,1:2|1:2,0:0:0:0:
165,140,154007,6,0,P|156:181|146:227,2,69,2|10|10,1:2|0:2|0:2,0:0:0:0:
253,123,154507,1,2,0:0:0:0:
253,123,154674,2,0,P|291:130|336:139,1,69,2|8,1:2|0:2,0:0:0:0:
386,75,155007,2,0,P|411:128|382:202,1,138,2|2,0:0|1:2,0:0:0:0:
302,236,155507,1,10,0:2:0:0:
350,311,155674,2,0,P|342:342|331:391,1,69,10|0,0:2|1:2,0:0:0:0:
243,383,156007,1,2,1:2:0:0:
177,321,156174,2,0,L|132:311,3,34.5,8|8|8|8,0:2|0:2|0:2|0:2,0:0:0:0:
103,291,156507,5,4,1:2:0:0:
26,338,156674,1,2,1:2:0:0:
2,251,156841,2,0,L|16:203,3,34.5,10|8|10|8,0:2|0:2|0:2|0:2,0:0:0:0:
10,172,157174,2,0,P|44:145|81:147,1,69,4|2,1:2|1:2,0:0:0:0:
150,179,157507,2,0,L|198:169,3,34.5,10|8|10|8,0:2|0:2|0:2|0:2,0:0:0:0:
217,141,157841,5,4,1:2:0:0:
303,189,158007,1,10,0:2:0:0:
303,189,158091,1,8,0:2:0:0:
303,189,158174,1,8,0:2:0:0:
361,120,158341,2,0,P|384:91|374:40,1,69,10|0,2:3|1:2,0:0:0:0:
314,4,158674,1,6,2:3:0:0:
238,52,158841,1,10,0:2:0:0:
61,22,159174,6,0,P|30:14|-10:5,2,69,6|2|10,1:2|0:2|0:2,0:0:0:0:
118,91,159674,2,0,P|139:147|98:211,1,138,2|2,1:2|1:2,0:0:0:0:
31,267,160174,1,10,0:2:0:0:
78,343,160341,2,0,P|114:335|151:327,1,69,2|8,1:2|0:2,0:0:0:0:
213,269,160674,6,0,P|228:236|213:192,2,69,2|10|2,1:2|0:2|1:2,0:0:0:0:
286,321,161174,2,0,P|270:353|285:397,2,69,10|2|10,0:2|1:2|0:2,0:0:0:0:
444,190,161841,6,0,P|481:199|530:211,2,69,14|2|10,0:2|1:2|0:2,0:0:0:0:
354,199,162341,2,0,P|356:166|384:120,1,69,2|8,1:2|0:2,0:0:0:0:
437,72,162674,1,2,1:2:0:0:
437,72,162841,1,10,0:2:0:0:
374,8,163007,2,0,P|336:11|281:17,1,69,2|8,1:2|0:2,0:0:0:0:
223,52,163341,6,0,P|205:91|220:130,2,69,2|10|2,1:2|0:2|1:2,0:0:0:0:
142,11,163841,2,0,P|106:5|59:-4,1,69,10|2,0:2|1:2,0:0:0:0:
14,66,164174,2,0,P|50:71|97:81,1,69,10|0,0:2|1:2,0:0:0:0:
150,138,164507,6,0,P|171:118|220:119,2,69,14|2|10,0:2|0:2|0:2,0:0:0:0:
64,164,165007,2,0,P|90:207|109:300,1,138,2|2,1:2|1:2,0:0:0:0:
159,366,165507,1,10,0:2:0:0:
232,313,165674,2,0,P|264:319|308:327,1,69,2|8,1:2|0:2,0:0:0:0:
364,263,166007,6,0,P|384:296|384:344,2,69,2|10|2,1:2|0:2|1:2,0:0:0:0:
285,218,166507,1,10,0:2:0:0:
326,138,166674,1,2,1:2:0:0:
264,72,166841,2,0,P|255:32|246:-5,1,69,10|0,0:2|1:2,0:0:0:0:
158,2,167174,6,0,P|165:37|174:75,1,69,14|0,0:2|0:0,0:0:0:0:
118,141,167507,2,0,P|149:159|195:145,1,69,8|0,0:2|1:2,0:0:0:0:
257,107,167841,1,8,0:2:0:0:
257,107,168007,1,0,1:2:0:0:
316,173,168174,2,0,P|324:208|332:251,1,69,8|0,0:2|1:2,0:0:0:0:
361,324,168507,6,0,P|408:373|487:347,1,138,8|0,0:2|1:2,0:0:0:0:
512,286,169007,1,8,0:2:0:0:
512,286,169091,1,8,0:2:0:0:
512,286,169174,2,0,P|503:246|494:205,1,69,0|8,1:2|0:2,0:0:0:0:
509,129,169507,1,8,1:2:0:0:
452,59,169674,1,8,0:2:0:0:
366,97,169841,5,2,0:0:0:0:
0,384,171674,1,2,1:2:0:0:
0,384,171841,2,0,P|8:353|19:309,1,55.2,8|10,0:2|2:3,0:0:0:0:
19,245,172174,1,6,2:3:0:0:
19,245,172341,1,2,1:2:0:0:
107,231,172507,6,0,P|173:229|200:299,1,138,14|2,1:2|0:0,0:0:0:0:
214,380,173007,1,2,1:2:0:0:
214,380,173174,2,0,P|252:362|353:348,1,138,12|2,0:2|0:0,0:0:0:0:
428,383,173674,1,2,1:2:0:0:
428,383,173841,2,0,P|433:327|376:265,1,138,12|2,0:2|0:0,0:0:0:0:
294,250,174341,1,2,1:2:0:0:
294,250,174507,2,0,P|301:211|313:170,1,69,4|0,2:3|1:2,0:0:0:0:
235,140,174841,1,14,0:2:0:0:
235,140,175007,2,0,P|227:178|216:220,1,69,2|0,0:0|1:2,0:0:0:0:
183,290,175341,5,8,0:2:0:0:
183,290,175424,1,8,0:2:0:0:
183,290,175507,2,0,P|145:314|108:309,1,69,10|8,1:2|0:2,0:0:0:0:
32,320,175841,2,0,P|39:283|49:239,1,69,10|8,1:2|0:2,0:0:0:0:
87,172,176174,2,0,P|79:135|70:91,1,69,10|8,1:2|0:2,0:0:0:0:
8,41,176507,2,0,P|43:17|85:13,1,69,10|8,1:2|0:2,0:0:0:0:
150,50,176841,1,10,1:2:0:0:
232,8,177007,1,10,0:2:0:0:
232,8,177091,1,8,0:2:0:0:
232,8,177174,2,0,P|239:41|248:91,1,69,8|8,1:2|0:2,0:0:0:0:
286,155,177507,1,10,1:2:0:0:
358,101,177674,5,10,0:2:0:0:
491,264,179174,2,0,B|482:310|482:310|519:388,2,119.025002270222,10|10|10,1:2|1:2|1:2,0:0:0:0:
405,244,179841,2,0,B|392:289|392:289|325:343,2,119.025002270222,10|10|10,1:2|1:2|1:2,0:0:0:0:
478,115,180674,1,2,1:2:0:0:
478,115,180757,1,0,1:2:0:0:
478,115,180841,5,14,1:2:0:0:
506,32,181007,2,0,P|466:4|431:6,1,79.3500015134812,2|0,0:0|0:2,0:0:0:0:
361,48,181341,1,2,1:2:0:0:
287,2,181507,1,10,0:2:0:0:
287,2,181674,1,2,0:0:0:0:
222,61,181841,6,0,P|187:53|140:40,1,79.3500015134812,0|0,1:2|1:2,0:0:0:0:
65,4,182174,1,8,0:2:0:0:
0,63,182341,2,0,P|20:92|32:151,1,79.3500015134812,0|0,1:2|0:0,0:0:0:0:
3,216,182674,1,0,1:2:0:0:
68,274,182841,1,8,0:2:0:0:
128,212,183007,1,2,0:2:0:0:
128,212,183091,1,8,0:2:0:0:
128,212,183174,6,0,P|174:219|222:227,1,79.3500015134812,2|0,1:2|1:2,0:0:0:0:
255,152,183507,1,10,0:2:0:0:
255,152,183674,2,0,P|294:216|262:291,1,158.700003026962,2|0,0:0|1:2,0:0:0:0:
218,362,184174,1,10,0:2:0:0:
302,383,184341,6,0,P|376:354|484:348,1,158.700003026962,2|0,0:0|1:2,0:0:0:0:
511,280,184841,1,10,0:2:0:0:
511,280,185007,2,0,P|465:207|393:215,1,158.700003026962,2|0,1:2|1:2,0:0:0:0:
326,257,185507,1,10,0:2:0:0:
264,210,185674,1,10,0:2:0:0:
264,210,185757,1,8,0:2:0:0:
264,210,185841,6,0,P|268:171|281:111,1,79.3500015134812,4|0,1:2|1:2,0:0:0:0:
213,71,186174,2,0,P|243:52|302:54,1,79.3500015134812,10|0,0:2|0:0,0:0:0:0:
360,3,186507,2,0,P|390:21|449:19,1,79.3500015134812,2|0,1:2|1:2,0:0:0:0:
511,63,186841,2,0,P|498:107|489:148,1,79.3500015134812,8|0,0:2|0:0,0:0:0:0:
419,190,187174,6,0,P|406:146|397:105,1,79.3500015134812,2|0,1:2|1:2,0:0:0:0:
320,73,187507,1,10,0:2:0:0:
233,86,187674,2,0,P|173:98|104:12,1,158.700003026962,2|0,1:2|1:2,0:0:0:0:
29,5,188174,1,10,0:2:0:0:
29,5,188341,1,2,1:2:0:0:
2,87,188507,6,0,P|32:162|49:248,1,158.700003026962,12|10,1:2|0:2,0:0:0:0:
6,315,189007,1,2,1:2:0:0:
72,371,189174,2,0,P|112:372|141:328,1,79.3500015134812,8|0,0:2|1:2,0:0:0:0:
190,276,189507,1,10,0:2:0:0:
190,276,189674,1,2,1:2:0:0:
267,317,189841,6,0,P|310:324|361:334,1,79.3500015134812,8|4,1:2|2:3,0:0:0:0:
387,258,190174,1,0,1:2:0:0:
387,258,190257,1,0,1:2:0:0:
387,258,190341,2,0,P|347:250|308:243,1,79.3500015134812,8|0,1:2|1:2,0:0:0:0:
255,174,190674,1,0,1:2:0:0:
339,128,190841,2,0,L|395:135,3,39.6750007567406,8|8|8|8,0:2|0:2|0:2|0:2,0:0:0:0:
419,148,191174,6,0,P|446:117|438:66,1,79.3500015134812,14|2,1:2|1:2,0:0:0:0:
412,5,191507,1,10,1:2:0:0:
412,5,191674,2,0,P|368:10|322:19,1,79.3500015134812,2|8,0:0|0:2,0:0:0:0:
251,3,192007,1,2,1:2:0:0:
251,3,192174,1,10,0:2:0:0:
180,54,192341,1,2,1:2:0:0:
100,18,192507,6,0,P|88:63|75:106,1,79.3500015134812,10|0,0:2|1:2,0:0:0:0:
96,180,192841,1,8,0:2:0:0:
176,146,193007,2,0,P|218:144|255:184,1,79.3500015134812,0|8,1:2|0:2,0:0:0:0:
309,226,193341,1,2,1:2:0:0:
377,172,193507,1,10,0:2:0:0:
454,232,193674,1,2,1:2:0:0:
454,232,193841,6,0,P|438:275|424:326,1,79.3500015134812,14|0,1:2|0:0,0:0:0:0:
358,358,194174,1,10,0:2:0:0:
358,358,194341,2,0,P|281:374|232:311,1,158.700003026962,2|0,1:2|1:2,0:0:0:0:
168,259,194841,1,10,0:2:0:0:
232,201,195007,6,0,P|304:192|417:179,1,158.700003026962,2|0,1:2|0:0,0:0:0:0:
476,159,195507,1,10,0:2:0:0:
476,159,195674,2,0,P|447:73|384:75,1,158.700003026962,2|0,1:2|1:2,0:0:0:0:
304,87,196174,1,10,0:2:0:0:
256,13,196341,1,2,1:2:0:0:
183,60,196507,6,0,P|147:66|102:71,1,79.3500015134812,8|0,0:2|0:0,0:0:0:0:
36,22,196841,1,10,0:2:0:0:
36,22,197007,1,2,1:2:0:0:
0,102,197174,1,10,0:2:0:0:
57,167,197341,2,0,P|48:202|35:255,1,79.3500015134812,2|10,1:2|0:2,0:0:0:0:
4,324,197674,1,2,1:2:0:0:
70,380,197841,6,0,P|126:321|205:338,1,158.700003026962,8|8,0:2|0:2,0:0:0:0:
267,381,198341,2,0,P|277:339|289:287,1,79.3500015134812,0|8,1:2|0:2,0:0:0:0:
233,233,198674,1,2,1:2:0:0:
288,165,198841,1,10,0:2:0:0:
232,112,199007,1,2,1:2:0:0:
232,112,199091,1,2,1:2:0:0:
232,112,199174,6,0,B|187:91|187:91|99:110,2,119.025002270222,10|2|2,0:2|0:2|1:2,0:0:0:0:
273,35,199841,2,0,B|316:56|316:56|404:23,2,119.025002270222,10|2|0,0:2|0:2|1:2,0:0:0:0:
192,1,200507,6,0,P|105:19|9:35,1,158.700003026962,10|8,0:2|0:2,0:0:0:0:
8,113,201007,2,0,P|10:159|45:191,1,79.3500015134812,0|8,1:2|0:2,0:0:0:0:
103,232,201341,1,2,1:2:0:0:
157,164,201507,1,10,0:2:0:0:
248,194,201674,1,2,1:2:0:0:
248,194,201757,1,0,1:2:0:0:
248,194,201841,6,0,B|287:219|287:219|377:202,2,119.025002270222,10|2|2,0:2|0:0|1:2,0:0:0:0:
228,279,202507,2,0,B|189:255|189:255|99:271,2,119.025002270222,10|2|2,0:2|0:0|1:2,0:0:0:0:
310,308,203174,6,0,P|352:300|400:291,1,79.3500015134812,10|0,0:2|1:2,0:0:0:0:
451,231,203507,2,0,P|476:265|466:317,1,79.3500015134812,14|0,1:2|0:0,0:0:0:0:
438,382,203841,2,0,L|396:376,3,39.6750007567406,10|8|8|8,0:2|0:2|0:2|0:2,0:0:0:0:
364,349,204174,2,0,L|322:355,3,39.6750007567406,10|8|8|8,0:2|0:2|0:2|0:2,0:0:0:0:
284,343,204507,6,0,P|246:315|215:318,1,75.9000023162842,14|2,1:2|1:2,0:0:0:0:
148,361,204841,1,10,0:2:0:0:
77,316,205007,2,0,P|86:275|96:223,1,75.9000023162842,10|0,0:2|1:2,0:0:0:0:
124,166,205341,1,2,1:2:0:0:
124,166,205507,1,10,0:2:0:0:
56,116,205674,1,2,1:2:0:0:
111,53,205841,6,0,P|186:64|284:76,1,151.800004632568,2|8,1:2|0:2,0:0:0:0:
325,127,206341,2,0,P|343:88|341:52,1,75.9000023162842,8|0,0:2|1:2,0:0:0:0:
409,5,206674,1,0,1:2:0:0:
409,5,206841,2,0,P|460:-1|508:44,1,113.850003474426,8|8,0:2|0:2,0:0:0:0:
503,79,207174,6,0,P|478:137|459:226,1,151.800004632568,0|8,1:2|0:2,0:0:0:0:
504,300,207674,1,0,1:2:0:0:
504,300,207841,2,0,P|465:313|419:305,1,75.9000023162842,2|0,1:2|1:2,0:0:0:0:
378,244,208174,1,10,0:2:0:0:
303,281,208341,6,0,P|224:270|144:259,2,151.800004632568,2|2|10,1:2|1:2|0:2,0:0:0:0:
349,356,209174,1,0,1:2:0:0:
349,356,209341,2,0,P|386:362|436:372,1,75.9000023162842,2|8,1:2|0:2,0:0:0:0:
512,380,209674,1,8,0:2:0:0:
512,380,209757,1,8,0:2:0:0:
512,380,209841,6,0,P|516:338|500:307,1,75.9000023162842,6|2,1:2|1:2,0:0:0:0:
423,246,210174,1,10,0:2:0:0:
490,196,210341,2,0,P|498:152|506:110,1,75.9000023162842,2|0,1:2|1:2,0:0:0:0:
510,41,210674,1,0,1:2:0:0:
510,41,210841,1,8,0:2:0:0:
437,0,211007,1,2,0:0:0:0:
373,54,211174,6,0,P|341:108|253:96,1,151.800004632568,2|8,1:2|0:2,0:0:0:0:
182,88,211674,1,0,1:2:0:0:
182,88,211841,2,0,P|191:44|200:7,1,75.9000023162842,0|0,1:2|1:2,0:0:0:0:
115,0,212174,2,0,P|105:43|97:81,1,75.9000023162842,8|0,0:2|1:2,0:0:0:0:
110,161,212507,5,2,1:2:0:0:
110,161,212674,1,2,1:2:0:0:
184,122,212841,1,10,0:2:0:0:
247,176,213007,2,0,P|316:191|362:117,1,151.800004632568,2|2,1:2|1:2,0:0:0:0:
341,52,213507,1,10,0:2:0:0:
410,4,213674,1,2,1:2:0:0:
410,4,213841,6,0,P|445:0|486:36,1,75.9000023162842,12|2,0:2|1:2,0:0:0:0:
470,104,214174,2,0,P|479:145|489:192,1,75.9000023162842,8|2,0:2|1:2,0:0:0:0:
509,258,214507,1,8,0:2:0:0:
433,274,214674,1,2,1:2:0:0:
433,274,214757,1,8,0:2:0:0:
433,274,214841,2,0,L|383:260,3,37.9500011581421,8|8|8|8,0:2|0:2|0:2|0:2,0:0:0:0:
356,252,215174,6,0,P|333:296|354:338,1,75.9000023162842,6|2,1:2|1:2,0:0:0:0:
393,382,215507,1,10,0:2:0:0:
475,370,215674,2,0,P|486:333|503:276,1,75.9000023162842,2|0,1:2|1:2,0:0:0:0:
459,228,216007,1,2,1:2:0:0:
459,228,216174,1,10,0:2:0:0:
505,158,216341,1,2,0:0:0:0:
443,102,216507,6,0,P|365:109|275:119,1,151.800004632568,2|10,1:2|0:2,0:0:0:0:
231,174,217007,2,0,P|208:126|219:78,1,75.9000023162842,10|0,0:2|1:2,0:0:0:0:
170,35,217341,1,2,1:2:0:0:
170,35,217507,1,10,0:2:0:0:
246,0,217674,6,0,P|317:12|416:28,1,151.800004632568,2|0,0:0|1:2,0:0:0:0:
475,1,218174,1,8,0:2:0:0:
511,86,218341,1,8,0:2:0:0:
511,86,218424,1,10,0:2:0:0:
511,86,218507,2,0,P|494:127|483:166,1,75.9000023162842,2|0,1:2|1:2,0:0:0:0:
468,239,218841,1,10,0:2:0:0:
397,194,219007,6,0,P|368:167|393:60,2,151.800004632568,2|2|10,1:2|1:2|0:2,0:0:0:0:
468,239,219841,1,0,1:2:0:0:
468,239,220007,2,0,P|458:281|445:332,1,75.9000023162842,2|8,1:2|0:2,0:0:0:0:
395,376,220341,1,8,0:2:0:0:
395,376,220424,1,8,0:2:0:0:
395,376,220507,6,0,P|346:349|315:353,1,75.9000023162842,2|2,1:2|1:2,0:0:0:0:
248,378,220841,1,10,0:2:0:0:
186,321,221007,2,0,P|191:285|202:240,1,75.9000023162842,10|0,0:2|1:2,0:0:0:0:
251,180,221341,1,2,1:2:0:0:
251,180,221507,1,10,0:2:0:0:
191,121,221674,1,2,1:2:0:0:
238,52,221841,6,0,P|292:10|448:29,1,227.700006948853,2|8,1:2|0:2,0:0:0:0:
508,76,222507,2,0,P|478:148|474:226,1,151.800004632568,2|8,1:2|0:2,0:0:0:0:
397,238,223007,1,8,0:2:0:0:
397,238,223091,1,8,0:2:0:0:
397,238,223174,6,0,P|437:292|516:288,2,151.800004632568,2|8|0,1:2|0:2|1:2,0:0:0:0:
359,163,224007,2,0,P|317:171|197:192,1,151.800004632568,0|8,1:2|0:2,0:0:0:0:
144,138,224507,6,0,P|126:188|133:226,1,75.9000023162842,8|0,1:2|1:2,0:0:0:0:
179,275,224841,2,0,P|155:360|30:356,1,227.700006948853,14|0,0:2|1:2,0:0:0:0:
1,281,225507,2,0,P|14:233|25:194,1,75.9000023162842,4|0,2:3|0:0,0:0:0:0:
18,117,225841,6,0,P|57:123|91:151,1,69,6|2,1:2|1:2,0:0:0:0:
145,209,226174,1,2,1:2:0:0:
145,209,226341,2,0,P|212:195|307:179,1,138,2|2,1:2|1:2,0:0:0:0:
361,233,226841,1,2,1:2:0:0:
361,233,227007,2,0,P|372:155|328:104,1,138,2|2,1:2|0:0,0:0:0:0:
249,115,227507,2,0,P|238:78|226:29,1,69,2|2,1:2|1:2,0:0:0:0:
311,5,227841,1,2,1:2:0:0:
311,5,228007,1,14,1:2:0:0:
396,31,228174,2,0,P|438:34|474:70,1,69,2|2,1:2|1:2,0:0:0:0:
508,124,228507,6,0,P|497:165|486:211,1,69,6|2,1:2|1:2,0:0:0:0:
505,284,228841,1,2,1:2:0:0:
505,284,229007,2,0,P|436:270|399:197,1,138,2|2,1:2|1:2,0:0:0:0:
359,142,229507,1,2,1:2:0:0:
359,142,229674,2,0,P|282:152|215:164,1,138,2|2,1:2|1:2,0:0:0:0:
132,156,230174,2,0,P|137:204|157:225,1,69,2|0,1:2|0:0,0:0:0:0:
153,308,230507,2,0,P|185:315|233:329,1,69,0|2,1:2|1:2,0:0:0:0:
296,277,230841,1,2,1:2:0:0:
362,336,231007,1,2,0:0:0:0:
428,276,231174,6,0,L|438:233,4,34.5,4|0|8|8|8,1:2|0:0|0:2|0:2|0:2,0:0:0:0:
459,360,231674,2,0,L|492:390,4,34.5,4|0|8|8|8,1:2|0:0|0:2|0:2|0:2,0:0:0:0:
370,345,232174,2,0,L|327:357,4,34.5,4|0|8|8|8,1:2|0:0|0:2|0:2|0:2,0:0:0:0:
428,276,232674,2,0,L|438:233,4,34.5,4|0|8|8|10,1:2|0:0|0:2|0:2|0:2,0:0:0:0:
370,345,233174,2,0,P|327:343|301:316,1,69,8|0,3:2|1:2,0:0:0:0:
243,271,233508,1,10,3:2:0:0:
243,271,233674,1,6,2:3:0:0:
288,193,233841,6,0,P|296:141|312:47,1,138,4|0,1:2|1:0,0:0:0:0:
244,3,234341,1,8,1:2:0:0:
244,3,234507,2,0,P|205:2|170:29,1,69,8|8,1:2|1:2,0:0:0:0:
118,82,234841,1,8,1:2:0:0:
118,82,235007,1,10,1:2:0:0:
165,157,235174,5,8,0:0:0:0:
97,214,235341,1,4,2:3:0:0:
97,214,235424,1,0,1:2:0:0:
97,214,235507,2,0,P|53:252|57:344,1,138,4|0,1:2|1:0,0:0:0:0:
118,383,236007,1,8,1:2:0:0:
184,323,236174,1,8,1:2:0:0:
256,375,236341,6,0,B|287:297|233:252|233:252|272:205|272:205|206:152|259:57,1,345,14|0,1:2|0:0,0:0:0:0:
