osu file format v14

[General]
AudioFilename: audio.mp3
AudioLeadIn: 0
PreviewTime: 169841
Countdown: 0
SampleSet: Soft
StackLeniency: 0.4
Mode: 0
LetterboxInBreaks: 0
WidescreenStoryboard: 0

[Editor]
DistanceSpacing: 0.8
BeatDivisor: 4
GridSize: 4
TimelineZoom: 1.6

[Metadata]
Title:S.T.U.D
TitleUnicode:S.T.U.D
Artist:Ryokuoushoku Shakai
ArtistUnicode:緑黄色社会
Creator:- AfifAkilie -
Version:Re.s.t.a.r.t
Source:
Tags:Stud Actor japanese vocalist jpop j-pop リョクシャカ ryokushaka 穴見真吾 Shingo Anami 小林壱誓 Kobayashi Issei pop rock 長屋晴子 Nagaya Haruko peppe Issey hard insane restart KlaksoncakFish SupaV
BeatmapID:3581594
BeatmapSetID:1750641

[Difficulty]
HPDrainRate:6
CircleSize:4.5
OverallDifficulty:9
ApproachRate:9.3
SliderMultiplier:1.8
SliderTickRate:1

[Events]
//Background and Video events
0,0,"BGStud1.jpg",0,0
//Break Periods
//Storyboard Layer 0 (Background)
//Storyboard Layer 1 (Fail)
//Storyboard Layer 2 (Pass)
//Storyboard Layer 3 (Foreground)
//Storyboard Layer 4 (Overlay)
//Storyboard Sound Samples

[TimingPoints]
508,333.333333333333,4,2,1,45,1,0
508,-166.666666666667,4,2,1,45,0,0
2341,-166.666666666667,4,2,1,55,0,0
2674,-166.666666666667,4,2,1,45,0,0
3840,-166.666666666667,4,2,1,55,0,0
4174,-166.666666666667,4,2,1,45,0,0
4507,-166.666666666667,4,2,1,55,0,0
4840,-166.666666666667,4,2,1,45,0,0
5174,-166.666666666667,4,2,1,55,0,0
5507,-166.666666666667,4,2,1,45,0,0
5841,-166.666666666667,4,2,1,55,0,0
6174,-166.666666666667,4,2,1,45,0,0
6840,-166.666666666667,4,2,1,55,0,0
7007,-166.666666666667,4,2,1,45,0,0
9841,-111.111111111111,4,2,1,45,0,0
10341,-111.111111111111,4,2,1,55,0,0
10507,-111.111111111111,4,2,1,55,0,0
10841,-83.3333333333333,4,2,1,55,0,0
11091,-83.3333333333333,4,2,1,60,0,0
11174,-83.3333333333333,4,2,1,60,0,0
12174,-125,4,2,1,60,0,0
13091,-125,4,2,1,65,0,0
13174,-125,4,2,1,60,0,0
14841,-111.111111111111,4,2,1,60,0,0
15757,-111.111111111111,4,2,1,65,0,0
15841,-111.111111111111,4,2,1,60,0,0
16507,-111.111111111111,4,2,1,65,0,0
18007,-100,4,2,1,65,0,0
18090,-100,4,2,1,70,0,0
18174,-100,4,2,1,65,0,0
20590,-100,4,2,1,70,0,0
20674,-100,4,2,1,65,0,0
21174,-100,4,2,1,70,0,0
21341,-100,4,2,1,65,0,0
21841,-100,4,2,1,50,0,0
22174,-125,4,2,1,50,0,0
22257,-125,4,2,1,55,0,0
22341,-125,4,2,1,50,0,0
23840,-125,4,2,1,55,0,0
24007,-125,4,2,1,50,0,0
24924,-125,4,2,1,55,0,0
25007,-125,4,2,1,50,0,0
26507,-125,4,2,1,55,0,0
26674,-125,4,2,1,50,0,0
29173,-125,4,2,1,55,0,0
29341,-125,4,2,1,50,0,0
29674,-125,4,2,1,55,0,0
29841,-125,4,2,1,50,0,0
30507,-125,4,2,1,55,0,0
30674,-125,4,2,1,50,0,0
31840,-125,4,2,1,55,0,0
32007,-125,4,2,1,50,0,0
34507,-125,4,2,1,55,0,0
34674,-125,4,2,1,50,0,0
35174,-100,4,2,1,50,0,0
35424,-100,4,2,1,55,0,0
35507,-100,4,2,1,50,0,0
35924,-100,4,2,1,55,0,0
36007,-100,4,2,1,50,0,0
36341,-125,4,2,1,50,0,0
36507,-125,4,2,1,55,0,0
36674,-125,4,2,1,50,0,0
36840,-125,4,2,1,55,0,0
37007,-125,4,2,1,50,0,0
38507,-125,4,2,1,55,0,0
38674,-125,4,2,1,50,0,0
39840,-125,4,2,1,55,0,0
40007,-125,4,2,1,50,0,0
40757,-125,4,2,1,55,0,0
40841,-125,4,2,1,60,0,0
42424,-125,4,2,1,65,0,0
42507,-100,4,2,1,65,0,0
42590,-100,4,2,1,70,0,0
42674,-100,4,2,1,65,0,0
43424,-100,4,2,1,70,0,0
43507,-100,4,2,1,65,0,0
44007,-100,4,2,1,70,0,0
44174,-100,4,2,1,65,0,0
45007,-100,4,2,1,70,0,0
45174,-100,4,2,1,65,0,0
45673,-100,4,2,1,70,0,0
45841,-100,4,2,1,65,0,0
46091,-100,4,2,1,70,0,0
46174,-100,4,2,1,65,0,0
46673,-100,4,2,1,70,0,0
46841,-100,4,2,1,65,0,0
47673,-100,4,2,1,70,0,0
47841,-100,4,2,1,65,0,0
48340,-100,4,2,1,70,0,0
48507,-83.3333333333333,4,2,1,65,0,0
48673,-83.3333333333333,4,2,1,70,0,0
48840,-83.3333333333333,4,2,1,65,0,0
49174,-100,4,2,1,65,0,0
49340,-100,4,2,1,70,0,0
49507,-100,4,2,1,65,0,0
49673,-100,4,2,1,70,0,0
49841,-100,4,2,1,65,0,0
50340,-100,4,2,1,70,0,0
50507,-100,4,2,1,65,0,0
51007,-100,4,2,1,70,0,0
51174,-100,4,2,1,65,0,0
51424,-100,4,2,1,70,0,0
51507,-100,4,2,1,65,0,0
52591,-100,4,2,1,70,0,0
52674,-100,4,2,1,65,0,0
53091,-100,4,2,1,70,0,0
53174,-100,4,2,1,65,0,0
53757,-100,4,2,1,70,0,0
53841,-100,4,2,1,50,0,0
55173,-100,4,2,1,55,0,0
55341,-100,4,2,1,50,0,0
56340,-100,4,2,1,55,0,0
56507,-100,4,2,1,50,0,0
56757,-100,4,2,1,50,0,0
57007,-100,4,2,1,50,0,0
58341,-100,4,2,1,50,0,0
59174,-83.3333333333333,4,2,1,50,0,0
59424,-83.3333333333333,4,2,1,55,0,0
59507,-83.3333333333333,4,2,1,50,0,0
59674,-125,4,2,1,50,0,0
59924,-125,4,2,1,55,0,0
60007,-125,4,2,1,50,0,0
60424,-125,4,2,1,55,0,0
60507,-83.3333333333333,4,2,1,50,0,0
60757,-83.3333333333333,4,2,1,55,0,0
60841,-83.3333333333333,4,2,1,50,0,0
61007,-125,4,2,1,50,0,0
61257,-125,4,2,1,55,0,0
61341,-125,4,2,1,50,0,0
61841,-100,4,2,1,50,0,0
62757,-100,4,2,1,55,0,0
62841,-71.4285714285714,4,2,1,50,0,0
63091,-71.4285714285714,4,2,1,55,0,0
63174,-62.5,4,2,1,50,0,0
63424,-62.5,4,2,1,55,0,0
63507,-62.5,4,2,1,65,0,0
64507,-125,4,2,1,65,0,0
65424,-125,4,2,1,70,0,0
65507,-71.4285714285714,4,2,1,65,0,0
65757,-71.4285714285714,4,2,1,70,0,0
65841,-71.4285714285714,4,2,1,85,0,0
66174,-83.3333333333333,4,2,1,85,0,0
67091,-83.3333333333333,4,2,1,90,0,0
67174,-83.3333333333333,4,2,1,85,0,0
67840,-83.3333333333333,4,2,1,90,0,0
67924,-83.3333333333333,4,2,1,85,0,0
69757,-83.3333333333333,4,2,1,90,0,0
69841,-83.3333333333333,4,2,1,85,0,0
70590,-83.3333333333333,4,2,1,90,0,0
70673,-83.3333333333333,4,2,1,85,0,0
70757,-83.3333333333333,4,2,1,90,0,0
70841,-83.3333333333333,4,2,1,85,0,0
71673,-83.3333333333333,4,2,1,90,0,0
71841,-83.3333333333333,4,2,1,85,0,0
72424,-83.3333333333333,4,2,1,90,0,0
72507,-83.3333333333333,4,2,1,85,0,0
73173,-83.3333333333333,4,2,1,90,0,0
73257,-83.3333333333333,4,2,1,85,0,0
75757,-83.3333333333333,4,2,1,90,0,0
75841,-83.3333333333333,4,2,1,85,0,0
78507,-83.3333333333333,4,2,1,90,0,0
78591,-83.3333333333333,4,2,1,85,0,0
80424,-83.3333333333333,4,2,1,90,0,0
80507,-83.3333333333333,4,2,1,85,0,0
82091,-83.3333333333333,4,2,1,90,0,0
82174,-83.3333333333333,4,2,1,85,0,0
86174,-71.4285714285714,4,2,1,85,0,0
86424,-71.4285714285714,4,2,1,90,0,0
86507,-83.3333333333333,4,2,1,85,0,0
87174,-100,4,2,1,80,0,0
89757,-100,4,2,1,85,0,0
89841,-100,4,2,1,80,0,0
95091,-100,4,2,1,85,0,0
95174,-100,4,2,1,80,0,0
96590,-100,4,2,1,85,0,0
96674,-100,4,2,1,80,0,0
96841,-83.3333333333333,4,2,1,80,0,0
97091,-83.3333333333333,4,2,1,85,0,0
97174,-83.3333333333333,4,2,1,80,0,0
97841,-166.666666666667,4,2,1,45,0,0
99174,-166.666666666667,4,2,1,50,0,0
100841,-166.666666666667,4,2,1,45,0,0
101340,-166.666666666667,4,2,1,50,0,0
101507,-166.666666666667,4,2,1,45,0,0
103173,-166.666666666667,4,2,1,50,0,0
103507,-166.666666666667,4,2,1,45,0,0
105173,-166.666666666667,4,2,1,50,0,0
105341,-166.666666666667,4,2,1,45,0,0
105507,-166.666666666667,4,2,1,50,0,0
105674,-166.666666666667,4,2,1,45,0,0
106674,-166.666666666667,4,2,1,50,0,0
106841,-166.666666666667,4,2,1,45,0,0
107340,-166.666666666667,4,2,1,50,0,0
107507,-500,4,2,1,45,0,0
107757,-500,4,2,1,50,0,0
107841,-500,4,2,1,55,0,0
108007,-83.3333333333333,4,2,1,55,0,0
108423,-83.3333333333333,4,2,1,60,0,0
108507,-83.3333333333333,4,2,1,60,0,0
108841,-125,4,2,1,60,0,0
108924,-125,4,2,1,65,0,0
109007,-125,4,2,1,60,0,0
110257,-125,4,2,1,65,0,0
110341,-125,4,2,1,60,0,0
111174,-100,4,2,1,60,0,0
113173,-100,4,2,1,65,0,0
113341,-100,4,2,1,60,0,0
114507,-100,4,2,1,65,0,0
114674,-100,4,2,1,60,0,0
115840,-100,4,2,1,65,0,0
116007,-100,4,2,1,60,0,0
119174,-125,4,2,1,50,0,0
120007,-125,4,2,1,55,0,0
120174,-125,4,2,1,50,0,0
120757,-125,4,2,1,55,0,0
120841,-125,4,2,1,50,0,0
121340,-125,4,2,1,55,0,0
121507,-125,4,2,1,50,0,0
121673,-125,4,2,1,55,0,0
121841,-125,4,2,1,50,0,0
129673,-125,4,2,1,55,0,0
129841,-125,4,2,1,60,0,0
130091,-125,4,2,1,65,0,0
130174,-125,4,2,1,60,0,0
132757,-125,4,2,1,65,0,0
132841,-125,4,2,1,60,0,0
135174,-100,4,2,1,60,0,0
136424,-100,4,2,1,65,0,0
136507,-100,4,2,1,60,0,0
138174,-100,4,2,1,65,0,0
139174,-83.3333333333333,4,2,1,70,0,0
139257,-83.3333333333333,4,2,1,75,0,0
139341,-83.3333333333333,4,2,1,70,0,0
139424,-83.3333333333333,4,2,1,75,0,0
139507,-76.9230769230769,4,2,1,70,0,0
139590,-76.9230769230769,4,2,1,75,0,0
139674,-76.9230769230769,4,2,1,70,0,0
139757,-76.9230769230769,4,2,1,75,0,0
139841,-71.4285714285714,4,2,1,70,0,0
139924,-71.4285714285714,4,2,1,75,0,0
140007,-71.4285714285714,4,2,1,70,0,0
140174,-66.6666666666667,4,2,1,70,0,0
140257,-66.6666666666667,4,2,1,75,0,0
140341,-66.6666666666667,4,2,1,70,0,0
140424,-66.6666666666667,4,2,1,75,0,0
140507,-66.6666666666667,4,2,5,85,0,0
140923,-66.6666666666667,4,2,5,90,0,0
141007,-66.6666666666667,4,2,1,60,0,0
141174,-100,4,2,1,60,0,0
141424,-100,4,2,1,65,0,0
141507,-100,4,2,1,60,0,0
141757,-100,4,2,1,65,0,0
141841,-100,4,2,1,60,0,0
143424,-100,4,2,1,65,0,0
143507,-100,4,2,1,60,0,0
144007,-100,4,2,1,65,0,0
144174,-100,4,2,1,60,0,0
144424,-100,4,2,1,65,0,0
144507,-100,4,2,1,60,0,0
146091,-100,4,2,1,65,0,0
146174,-100,4,2,1,60,0,0
146507,-83.3333333333333,4,2,1,60,0,0
146757,-83.3333333333333,4,2,1,65,0,0
146841,-83.3333333333333,4,2,1,60,0,0
148091,-83.3333333333333,4,2,1,65,0,0
148174,-83.3333333333333,4,2,1,60,0,0
148591,-100,4,2,1,60,0,0
148757,-100,4,2,1,65,0,0
148841,-100,4,2,1,60,0,0
150424,-100,4,2,1,65,0,0
150507,-100,4,2,1,60,0,0
151924,-100,4,2,1,65,0,0
152007,-100,4,2,1,60,0,0
152090,-100,4,2,1,65,0,0
152174,-100,4,2,1,60,0,0
153257,-100,4,2,1,65,0,0
153341,-100,4,2,1,60,0,0
153424,-100,4,2,1,65,0,0
153507,-100,4,2,1,60,0,0
159091,-100,4,2,1,65,0,0
159174,-100,4,2,1,70,0,0
159674,-83.3333333333333,4,2,1,70,0,0
161757,-83.3333333333333,4,2,1,75,0,0
161841,-83.3333333333333,4,2,1,70,0,0
164757,-83.3333333333333,4,2,1,75,0,0
164841,-83.3333333333333,4,2,1,70,0,0
167424,-83.3333333333333,4,2,1,75,0,0
167507,-83.3333333333333,4,2,1,70,0,0
168424,-83.3333333333333,4,2,1,75,0,0
168507,-83.3333333333333,4,2,1,70,0,0
169674,-125,4,2,1,70,0,0
169840,-125,4,2,1,45,0,0
171674,-166.666666666667,4,2,1,60,0,0
171757,-166.666666666667,4,2,1,65,0,0
171841,-166.666666666667,4,2,1,60,0,0
172507,-166.666666666667,4,2,1,70,0,0
172674,-100,4,2,1,70,0,0
174590,-100,4,2,1,75,0,0
174674,-100,4,2,1,70,0,0
175091,-100,4,2,1,75,0,0
175174,-100,4,2,1,60,0,0
175590,-100,4,2,1,65,0,0
175674,-100,4,2,1,60,0,0
175924,-100,4,2,1,65,0,0
176007,-100,4,2,1,60,0,0
176257,-100,4,2,1,65,0,0
176341,-100,4,2,1,60,0,0
176590,-100,4,2,1,65,0,0
176674,-100,4,2,1,60,0,0
176924,-100,4,2,1,65,0,0
177007,-100,4,2,1,60,0,0
177257,-100,4,2,1,65,0,0
177341,-100,4,2,1,60,0,0
177590,-100,4,2,1,65,0,0
177674,-100,4,2,1,60,0,0
179174,-62.5,4,2,1,75,0,0
179257,-62.5,4,2,1,80,0,0
179424,-62.5,4,2,1,75,0,0
179507,-62.5,4,2,1,80,0,0
179674,-62.5,4,2,1,75,0,0
179757,-62.5,4,2,1,80,0,0
179841,-71.4285714285714,4,2,1,75,0,0
179924,-71.4285714285714,4,2,1,80,0,0
180091,-71.4285714285714,4,2,1,75,0,0
180174,-71.4285714285714,4,2,1,80,0,0
180341,-71.4285714285714,4,2,1,75,0,0
180424,-71.4285714285714,4,2,1,80,0,0
180674,-71.4285714285714,4,2,1,75,0,0
180841,-83.3333333333333,4,2,1,85,0,0
181091,-83.3333333333333,4,2,1,90,0,0
181174,-83.3333333333333,4,2,1,85,0,0
182507,-83.3333333333333,4,2,1,90,0,0
182591,-83.3333333333333,4,2,1,85,0,0
184424,-83.3333333333333,4,2,1,90,0,0
184507,-83.3333333333333,4,2,1,85,0,0
185424,-83.3333333333333,4,2,1,90,0,0
185507,-83.3333333333333,4,2,1,85,0,0
186340,-83.3333333333333,4,2,1,90,0,0
186507,-83.3333333333333,4,2,1,85,0,0
187091,-83.3333333333333,4,2,1,90,0,0
187174,-83.3333333333333,4,2,1,85,0,0
187840,-83.3333333333333,4,2,1,90,0,0
187924,-83.3333333333333,4,2,1,85,0,0
189924,-83.3333333333333,4,2,1,90,0,0
190007,-83.3333333333333,4,2,1,85,0,0
190424,-83.3333333333333,4,2,1,90,0,0
190507,-83.3333333333333,4,2,1,85,0,0
191757,-83.3333333333333,4,2,1,90,0,0
191841,-83.3333333333333,4,2,1,85,0,0
194091,-83.3333333333333,4,2,1,90,0,0
194174,-83.3333333333333,4,2,1,85,0,0
195091,-83.3333333333333,4,2,1,90,0,0
195174,-83.3333333333333,4,2,1,85,0,0
195424,-83.3333333333333,4,2,1,90,0,0
195507,-83.3333333333333,4,2,1,85,0,0
196757,-83.3333333333333,4,2,1,90,0,0
196841,-83.3333333333333,4,2,1,85,0,0
198091,-83.3333333333333,4,2,1,90,0,0
198174,-83.3333333333333,4,2,1,85,0,0
198924,-83.3333333333333,4,2,1,90,0,0
199007,-83.3333333333333,4,2,1,85,0,0
199590,-83.3333333333333,4,2,1,90,0,0
199674,-83.3333333333333,4,2,1,85,0,0
200257,-83.3333333333333,4,2,1,90,0,0
200341,-83.3333333333333,4,2,1,85,0,0
201424,-83.3333333333333,4,2,1,90,0,0
201507,-83.3333333333333,4,2,1,85,0,0
201590,-83.3333333333333,4,2,1,90,0,0
201674,-83.3333333333333,4,2,1,85,0,0
203507,-71.4285714285714,4,2,1,85,0,0
203757,-71.4285714285714,4,2,1,90,0,0
203841,-71.4285714285714,4,2,1,85,0,0
204507,-71.4285714285714,4,2,1,70,0,0
205507,-100,4,2,1,70,0,0
211091,-100,4,2,1,75,0,0
211174,-100,4,2,1,70,0,0
211924,-100,4,2,1,75,0,0
212007,-100,4,2,1,70,0,0
220090,-100,4,2,1,75,0,0
220174,-100,4,2,1,70,0,0
223007,-100,4,2,1,75,0,0
223174,-100,4,2,1,70,0,0
224841,-83.3333333333333,4,2,1,70,0,0
224924,-83.3333333333333,4,2,1,75,0,0
225007,-83.3333333333333,4,2,1,70,0,0
225841,-125,4,2,1,55,0,0
227257,-125,4,2,1,60,0,0
227341,-125,4,2,1,55,0,0
230174,-100,4,2,1,55,0,0
230841,-125,4,2,1,55,0,0
231174,-125,4,2,1,60,0,0
232757,-125,4,2,1,65,0,0
232841,-125,4,2,1,60,0,0
234341,-125,4,2,1,65,0,0
234507,-125,4,2,1,70,0,0
235841,-125,4,2,1,80,0,0
236341,-83.3333333333333,4,2,1,80,0,0
237174,-83.3333333333333,4,2,1,85,0,0

[Colours]
Combo1 : 225,128,81
Combo2 : 64,208,187
Combo3 : 235,188,80
Combo4 : 111,227,210

[HitObjects]
0,314,508,6,0,P|0:343|23:371,2,53.9999999999999,2|2|2,0:2|0:2|0:2,2:0:0:0:
178,282,1007,2,0,P|119:293|59:322,1,108,2|2,0:2|0:2,2:0:0:0:
75,312,1507,1,2,0:2:0:0:
240,384,1674,1,2,0:2:0:0:
240,384,1841,2,0,P|256:303|287:207,1,162,2|0,0:2|2:0,2:0:0:0:
340,88,2674,6,0,P|327:65|329:39,2,53.9999999999999,2|2|2,0:2|0:2|0:2,2:0:0:0:
507,7,3174,2,0,P|448:18|388:47,1,108,2|2,0:2|0:2,2:0:0:0:
327,166,3674,2,0,P|300:165|278:150,2,53.9999999999999,2|0|0,0:2|2:0|2:0,2:0:0:0:
406,139,4174,1,2,0:2:0:0:
340,88,4341,5,2,0:2:0:0:
340,88,4507,2,0,P|321:146|310:205,1,108,0|2,2:0|0:2,2:0:0:0:
225,264,5007,1,2,0:2:0:0:
225,264,5174,2,0,P|244:322|255:381,1,108,0|2,2:0|0:2,2:0:0:0:
356,289,5674,1,2,0:2:0:0:
356,289,5841,2,0,P|335:268|301:268,1,53.9999999999999,0|0,2:0|2:0,2:0:0:0:
169,340,6174,5,2,0:2:0:0:
253,367,6341,1,2,0:2:0:0:
225,264,6507,1,2,0:2:0:0:
83,335,6674,2,0,P|89:371|107:391,1,53.9999999999999,2|0,0:2|2:0,2:0:0:0:
131,259,7007,1,2,0:2:0:0:
131,259,7174,2,0,P|106:186|77:138,1,108,2|2,0:2|0:0,2:0:0:0:
0,10,7674,6,0,P|17:37|21:63,1,53.9999999999999,2|2,0:0|0:0,2:0:0:0:
117,46,8007,1,2,0:2:0:0:
117,46,8174,2,0,P|102:74|81:90,1,53.9999999999999,2|2,0:2|0:2,2:0:0:0:
165,175,8507,2,0,P|126:179|86:153,2,80.9999999999998,2|2|2,0:2|0:2|0:2,2:0:0:0:
282,59,9174,2,0,P|298:23|340:1,2,80.9999999999998,2|2|2,0:2|0:2|0:2,2:0:0:0:
323,218,9841,2,0,B|346:233|350:253|350:253|391:200|461:222,1,162,2|2,0:2|0:2,2:0:0:0:
453,220,10341,1,0,2:0:0:0:
271,276,10507,5,10,0:2:0:0:
237,290,10591,1,8,0:2:0:0:
206,310,10674,1,0,1:2:0:0:
179,335,10757,1,0,1:2:0:0:
156,363,10841,2,0,P|92:314|8:295,1,162,6|0,1:2|2:0,2:0:0:0:
14,295,11174,5,2,1:2:0:0:
48,379,11341,1,2,1:2:0:0:
86,205,11507,5,2,1:2:0:0:
98,303,11674,1,2,1:2:0:0:
193,171,11841,5,0,1:2:0:0:
177,277,12007,1,2,1:2:0:0:
285,364,12174,2,0,P|274:323|249:288,1,72,2|2,1:2|1:2,2:0:0:0:
343,301,12424,1,2,1:2:0:0:
343,301,12507,2,0,P|351:266|371:236,1,72,2|2,1:2|1:2,2:0:0:0:
512,384,12841,6,0,P|453:345|402:330,1,108,2|0,1:2|2:0,2:0:0:0:
347,311,13174,1,2,1:2:0:0:
393,147,13341,1,10,0:2:0:0:
458,257,13507,1,2,1:2:0:0:
283,212,13674,1,0,1:2:0:0:
283,212,13757,1,0,1:2:0:0:
283,212,13841,5,6,1:2:0:0:
237,319,14007,1,2,1:2:0:0:
234,140,14174,5,2,1:2:0:0:
153,240,14341,1,2,1:2:0:0:
216,56,14507,5,0,1:2:0:0:
101,139,14674,1,2,1:2:0:0:
0,0,14841,2,0,P|21:40|31:86,1,81.0000000000001,2|2,1:2|1:2,2:0:0:0:
101,139,15091,1,2,1:2:0:0:
101,138,15174,2,0,P|111:98|130:63,1,81.0000000000001,2|2,1:2|1:2,2:0:0:0:
323,6,15507,6,0,P|270:42|210:55,1,121.5,2|0,1:2|2:0,2:0:0:0:
168,1,15841,1,0,1:2:0:0:
234,140,16007,1,0,1:2:0:0:
399,37,16174,1,8,0:2:0:0:
218,61,16341,1,0,1:2:0:0:
473,91,16507,5,4,1:2:0:0:
300,233,16674,1,8,0:2:0:0:
314,205,16757,1,8,0:2:0:0:
313,174,16841,1,8,0:2:0:0:
246,295,17007,5,4,1:2:0:0:
403,140,17174,1,8,0:2:0:0:
419,165,17257,1,8,0:2:0:0:
446,180,17341,1,8,0:2:0:0:
376,62,17507,5,4,1:2:0:0:
432,275,17674,1,8,0:2:0:0:
400,276,17757,1,8,0:2:0:0:
374,292,17841,1,8,0:2:0:0:
511,290,18007,6,0,L|499:339,1,45,4|0,1:2|2:0,2:0:0:0:
350,384,18174,2,0,L|319:352,1,45,8|8,0:2|0:2,2:0:0:0:
434,384,18341,1,8,0:2:0:0:
379,204,18507,5,8,3:2:0:0:
296,276,18674,1,8,2:3:0:0:
436,380,18841,1,4,2:3:0:0:
432,275,19007,1,0,1:2:0:0:
252,370,19174,1,4,1:2:0:0:
244,357,19507,5,0,1:2:0:0:
138,204,19674,1,0,1:2:0:0:
297,184,19841,1,8,1:2:0:0:
162,343,20007,1,8,1:2:0:0:
103,126,20174,1,8,1:2:0:0:
344,115,20341,1,8,1:2:0:0:
217,206,20507,6,0,L|227:256,1,45,8|0,1:2|2:0,2:0:0:0:
305,228,20674,2,0,L|296:183,1,45,0|0,1:2|1:2,2:0:0:0:
2,281,20841,2,0,P|62:286|139:199,1,180,8|0,0:2|2:0,2:0:0:0:
0,0,21341,1,8,1:2:0:0:
46,195,21507,1,8,1:2:0:0:
246,128,21674,1,8,1:2:0:0:
50,67,21841,5,6,1:2:0:0:
103,126,22007,1,0,1:2:0:0:
264,97,22174,2,0,P|251:116|243:138,1,36,10|0,0:2|2:0,2:0:0:0:
136,18,22341,2,0,P|165:83|179:154,1,144,10|0,0:2|1:2,2:0:0:0:
349,154,22841,2,0,P|305:178|285:206,1,72,8|2,0:2|0:2,2:0:0:0:
189,353,23174,5,0,1:2:0:0:
125,209,23341,1,0,1:2:0:0:
238,271,23507,1,10,0:2:0:0:
109,384,23674,2,0,P|101:344|87:307,1,72,10|0,0:2|2:0,2:0:0:0:
207,193,24007,1,0,1:2:0:0:
276,341,24174,2,0,P|313:359|349:382,1,72,10|2,0:2|0:2,2:0:0:0:
358,376,24424,5,8,0:2:0:0:
358,376,24507,1,0,1:2:0:0:
512,270,24674,1,0,1:2:0:0:
353,184,24841,2,0,P|366:203|374:225,1,36,10|0,0:2|2:0,2:0:0:0:
481,105,25007,2,0,P|452:170|438:241,1,144,10|0,0:2|1:2,2:0:0:0:
274,240,25507,2,0,P|318:264|338:292,1,72,8|2,0:2|0:2,2:0:0:0:
473,340,25841,5,0,1:2:0:0:
353,184,26007,1,0,1:2:0:0:
375,379,26174,1,10,0:2:0:0:
437,241,26341,2,0,P|447:205|452:164,1,72,2|0,1:2|2:0,2:0:0:0:
257,0,26674,5,8,0:2:0:0:
353,184,26841,1,10,0:2:0:0:
512,61,27007,1,10,0:2:0:0:
393,74,27174,1,0,1:2:0:0:
393,74,27341,1,0,1:2:0:0:
451,170,27507,5,10,0:2:0:0:
314,104,27674,1,10,0:2:0:0:
450,17,27841,2,0,P|474:52|473:92,1,72,2|2,0:2|1:2,2:0:0:0:
271,158,28174,2,0,P|290:119|324:100,1,72,10|2,0:2|0:2,2:0:0:0:
508,224,28507,1,2,1:2:0:0:
508,224,28674,1,0,1:2:0:0:
310,249,28841,1,10,0:2:0:0:
393,74,29007,2,0,P|380:115|377:163,1,72,10|0,0:2|2:0,2:0:0:0:
230,216,29341,2,0,P|225:180|213:146,1,72,2|8,1:2|0:2,2:0:0:0:
329,11,29674,5,0,2:0:0:0:
329,11,29841,2,0,P|296:53|202:31,1,144,2|10,1:2|0:2,2:0:0:0:
146,162,30341,2,0,P|177:146|213:145,1,72,10|0,0:2|2:0,2:0:0:0:
136,75,30674,1,0,1:2:0:0:
41,202,30841,2,0,P|32:167|19:134,1,72,10|2,0:2|0:2,2:0:0:0:
125,0,31174,1,0,1:2:0:0:
125,0,31341,1,0,1:2:0:0:
12,119,31507,1,8,0:2:0:0:
146,163,31674,2,0,P|128:211|120:251,1,72,0|0,1:2|2:0,2:0:0:0:
5,383,32007,5,8,1:2:0:0:
209,316,32174,1,8,1:2:0:0:
52,206,32341,1,8,1:2:0:0:
93,310,32507,5,6,1:2:0:0:
93,310,32674,1,0,1:2:0:0:
212,226,32841,1,10,0:2:0:0:
17,308,33007,2,0,P|88:327|156:384,1,144,10|0,0:2|1:2,2:0:0:0:
272,305,33507,2,0,P|225:300|202:326,1,72,10|2,0:2|0:2,2:0:0:0:
321,377,33841,5,0,1:2:0:0:
321,377,34007,1,0,1:2:0:0:
397,179,34174,1,10,0:2:0:0:
512,318,34341,2,0,L|441:339,1,72,10|0,0:2|2:0,2:0:0:0:
357,300,34674,1,0,1:2:0:0:
472,147,34841,1,10,0:2:0:0:
431,259,35007,1,2,0:2:0:0:
308,212,35174,6,0,B|302:152|302:152|280:132|280:132|283:97|271:68,1,135,4|0,1:2|2:0,2:0:0:0:
276,78,35507,1,2,0:2:0:0:
465,0,35674,2,0,P|431:53|355:52,1,135,2|0,1:2|2:0,2:0:0:0:
355,50,36007,1,2,1:2:0:0:
148,0,36174,1,10,0:2:0:0:
196,64,36341,2,0,L|206:147,1,72,0|0,1:2|2:0,2:0:0:0:
308,212,36674,2,0,L|298:295,2,72,0|0|0,1:2|2:0|1:2,2:0:0:0:
276,78,37174,5,8,0:2:0:0:
212,241,37341,1,0,1:2:0:0:
212,241,37424,1,8,0:2:0:0:
212,241,37507,1,2,1:2:0:0:
127,263,37674,1,8,2:3:0:0:
42,285,37841,5,6,1:2:0:0:
42,285,38007,1,2,1:2:0:0:
186,318,38174,1,8,0:2:0:0:
67,208,38341,2,0,P|58:173|45:140,1,72,10|0,0:2|2:0,2:0:0:0:
212,241,38674,2,0,P|220:206|234:172,1,72,2|8,1:2|0:2,2:0:0:0:
189,0,39007,6,0,P|163:31|159:76,1,72,2|0,0:2|1:2,2:0:0:0:
318,191,39341,2,0,P|319:150|297:111,1,72,2|8,1:2|0:2,2:0:0:0:
101,112,39674,2,0,P|123:145|164:164,1,72,10|0,0:2|2:0,2:0:0:0:
322,48,40007,2,0,P|284:33|239:43,1,72,2|8,1:2|0:2,2:0:0:0:
234,172,40341,1,2,1:2:0:0:
234,172,40424,1,0,1:2:0:0:
234,172,40507,2,0,P|312:189|369:206,1,108,12|0,0:2|2:0,2:0:0:0:
412,221,40841,5,0,1:2:0:0:
350,276,41007,1,8,0:2:0:0:
366,126,41174,1,8,0:2:0:0:
489,200,41341,1,8,0:2:0:0:
334,352,41507,1,8,0:2:0:0:
215,204,41674,1,10,0:2:0:0:
464,100,41841,1,8,1:2:0:0:
407,332,42007,1,8,2:3:0:0:
267,117,42174,1,4,2:3:0:0:
209,0,42424,5,8,0:2:0:0:
209,0,42507,2,0,P|212:35|218:61,1,45,2|0,1:2|2:0,2:0:0:0:
347,163,42674,2,0,P|350:140|351:118,1,45,8|0,0:2|0:2,2:0:0:0:
209,212,42841,1,2,1:2:0:0:
179,217,42924,1,0,1:2:0:0:
148,224,43007,1,0,1:2:0:0:
117,231,43091,1,0,1:2:0:0:
88,239,43174,6,0,P|81:303|140:358,1,135,6|0,1:2|2:0,2:0:0:0:
142,349,43507,2,0,L|41:376,1,90,8|2,0:2|0:2,2:0:0:0:
196,131,43841,2,0,L|109:154,1,90,8|0,0:2|2:0,2:0:0:0:
221,300,44174,1,10,0:2:0:0:
295,188,44341,2,0,L|208:211,1,90,2|8,1:2|0:2,2:0:0:0:
409,345,44674,1,2,0:2:0:0:
409,345,44841,2,0,L|322:368,1,90,8|2,0:2|1:2,2:0:0:0:
221,300,45174,2,0,L|134:323,1,90,10|2,0:2|1:2,2:0:0:0:
382,164,45507,2,0,L|295:187,1,90,10|0,0:2|2:0,2:0:0:0:
32,141,45841,6,0,P|25:76|84:21,1,135,6|0,1:2|2:0,2:0:0:0:
86,31,46174,2,0,L|-14:3,1,90,8|2,0:2|0:0,2:0:0:0:
119,247,46507,2,0,L|18:219,1,90,8|0,0:2|2:0,2:0:0:0:
281,159,46841,2,0,L|104:110,1,180,10|8,0:2|0:2,2:0:0:0:
204,222,47341,1,2,1:2:0:0:
342,88,47507,2,0,L|255:64,1,90,8|0,0:2|2:0,2:0:0:0:
371,264,47841,2,0,L|284:240,1,90,10|2,0:2|1:2,2:0:0:0:
472,40,48174,2,0,L|385:16,1,90,10|0,0:2|2:0,2:0:0:0:
459,233,48507,6,0,L|489:123,2,108,14|0|8,0:2|2:0|0:2,2:0:0:0:
281,159,49007,1,2,0:2:0:0:
347,350,49174,2,0,L|370:263,1,90,8|0,0:2|2:0,2:0:0:0:
204,384,49507,2,0,L|227:297,1,90,10|0,0:2|2:0,2:0:0:0:
365,184,49841,1,8,0:2:0:0:
214,124,50007,1,2,0:2:0:0:
214,124,50174,2,0,L|237:37,1,90,8|0,0:2|0:2,2:0:0:0:
104,200,50507,2,0,L|127:113,1,90,10|0,0:2|1:2,2:0:0:0:
298,145,50841,2,0,L|321:58,1,90,10|0,0:2|2:0,2:0:0:0:
512,0,51174,6,0,P|480:55|414:35,1,135,14|0,0:2|2:0,2:0:0:0:
413,27,51507,2,0,L|436:113,1,90,8|2,0:2|0:2,2:0:0:0:
424,298,51841,1,10,0:2:0:0:
298,145,52007,1,0,1:2:0:0:
502,204,52174,1,8,0:2:0:0:
309,268,52341,6,0,L|169:297,1,135,4|0,1:2|2:0,2:0:0:0:
168,298,52674,1,0,1:2:0:0:
345,360,52841,2,0,L|372:228,1,135,8|0,0:2|2:0,2:0:0:0:
383,149,53174,2,0,P|411:159|432:181,1,45,10|8,0:2|0:2,2:0:0:0:
309,268,53341,2,0,P|287:261|269:248,1,45,8|8,0:2|0:2,2:0:0:0:
270,24,53507,2,0,L|289:160,1,135,10|0,0:2|2:0,2:0:0:0:
288,157,53841,5,6,1:2:0:0:
375,54,54007,1,0,1:2:0:0:
196,0,54174,1,8,0:2:0:0:
239,101,54341,1,10,0:2:0:0:
239,101,54424,1,8,0:2:0:0:
239,101,54507,1,0,1:2:0:0:
212,185,54674,1,0,1:2:0:0:
185,269,54841,5,10,0:2:0:0:
268,384,55007,2,0,P|275:339|256:280,1,90,0|0,1:2|2:0,2:0:0:0:
212,185,55341,1,2,1:2:0:0:
95,262,55507,2,0,P|66:296|53:357,1,90,8|8,0:2|0:2,2:0:0:0:
62,349,55757,5,8,0:2:0:0:
60,351,55841,1,2,1:2:0:0:
185,269,56007,1,0,1:2:0:0:
0,125,56174,2,0,P|26:184|34:226,1,90,10|0,0:2|2:0,2:0:0:0:
142,343,56507,2,0,P|207:358|283:381,2,135,6|2|10,1:2|0:0|0:2,2:0:0:0:
134,330,57091,5,8,0:2:0:0:
134,330,57174,1,2,1:2:0:0:
101,178,57341,1,0,1:2:0:0:
266,239,57507,1,10,0:2:0:0:
176,249,57674,2,0,P|192:192|213:157,1,90,2|2,1:2|0:2,2:0:0:0:
127,9,58007,1,0,1:2:0:0:
39,35,58174,5,8,0:2:0:0:
173,99,58341,1,8,0:2:0:0:
173,99,58424,1,8,0:2:0:0:
173,99,58507,1,2,1:2:0:0:
305,0,58674,1,0,1:2:0:0:
265,123,58841,2,0,P|253:79|232:39,1,90,6|0,2:3|1:2,2:0:0:0:
493,7,59174,6,0,P|447:74|427:152,1,162,14|0,0:2|2:0,2:0:0:0:
440,230,59507,1,2,1:2:0:0:
267,128,59674,2,0,P|322:156|359:199,1,108,14|0,0:2|2:0,2:0:0:0:
365,263,60007,1,2,0:2:0:0:
512,285,60174,2,0,P|456:313|419:356,1,108,14|0,2:3|2:0,2:0:0:0:
346,347,60507,6,0,L|172:323,1,162,6|0,1:2|2:0,2:0:0:0:
113,308,60841,1,2,1:2:0:0:
276,215,61007,2,0,L|147:232,1,108,14|0,0:2|2:0,2:0:0:0:
96,234,61341,1,2,0:2:0:0:
5,372,61507,1,6,2:3:0:0:
185,324,61674,1,2,0:2:0:0:
0,263,61841,6,0,B|24:276|33:301|33:301|21:239|12:172,1,180,6|2,1:2|1:2,2:0:0:0:
216,52,62341,2,0,P|196:95|147:93,1,90,14|0,0:2|1:2,0:0:0:0:
39,19,62674,1,2,0:2:0:0:
39,19,62841,2,0,P|115:9|234:70,1,189,10|0,0:2|2:0,2:0:0:0:
322,115,63174,2,0,B|374:94|410:53|381:-36|287:-13|299:54,1,216,6|0,1:2|2:0,2:0:0:0:
243,121,63507,5,8,1:2:0:0:
444,215,63674,1,8,1:2:0:0:
298,37,63841,1,8,1:2:0:0:
179,221,64007,1,8,1:2:0:0:
441,297,64174,1,8,1:2:0:0:
378,62,64341,1,8,1:2:0:0:
271,360,64507,6,0,P|251:348|247:321,1,36,8|8,2:3|2:3,2:0:0:0:
350,299,64674,2,0,P|349:322|328:339,1,36,4|4,2:3|2:3,2:0:0:0:
258,262,64841,2,0,P|278:250|303:260,1,36,0|0,1:2|1:2,2:0:0:0:
404,370,65007,1,8,0:2:0:0:
404,370,65341,6,0,P|425:375|448:384,1,36,0|0,1:2|2:0,2:0:0:0:
512,228,65507,2,0,P|425:236|340:318,1,189,12|0,0:2|2:0,2:0:0:0:
325,367,65841,1,2,1:2:0:0:
208,194,66007,1,2,1:2:0:0:
391,228,66174,2,0,P|405:178|434:120,1,108,10|2,0:2|1:2,2:0:0:0:
502,39,66424,1,8,0:2:0:0:
502,39,66507,2,0,P|451:51|386:55,1,108,0|2,1:2|1:2,2:0:0:0:
168,121,66841,6,0,P|238:182|300:157,1,162,10|0,0:2|2:0,2:0:0:0:
347,109,67174,1,2,1:2:0:0:
180,0,67341,1,0,1:2:0:0:
123,192,67507,1,8,0:2:0:0:
245,103,67674,2,0,P|261:165|266:222,1,108,0|0,1:2|2:0,2:0:0:0:
307,278,67924,1,8,0:2:0:0:
307,278,68007,1,2,1:2:0:0:
484,373,68174,2,0,P|490:319|504:267,1,108,10|2,0:2|0:0,2:0:0:0:
450,211,68424,5,8,0:2:0:0:
450,211,68507,1,2,1:2:0:0:
372,348,68674,1,0,1:2:0:0:
221,271,68841,2,0,P|167:277|115:291,1,108,10|2,0:2|0:0,2:0:0:0:
7,351,69091,1,8,0:2:0:0:
7,351,69174,2,0,P|28:301|41:249,1,108,2|0,1:2|1:2,2:0:0:0:
180,94,69507,2,0,P|178:175|111:209,1,162,10|0,0:2|2:0,2:0:0:0:
46,174,69841,5,0,1:2:0:0:
4,2,70007,1,0,1:2:0:0:
213,20,70174,1,10,0:2:0:0:
97,98,70341,1,2,0:0:0:0:
97,98,70424,1,8,0:2:0:0:
97,98,70507,2,0,P|86:59|78:38,3,54,0|8|0|0,1:2|1:2|1:2|1:0,2:0:0:0:
178,130,70841,1,10,0:2:0:0:
115,290,71007,5,10,0:2:0:0:
115,290,71091,1,8,0:2:0:0:
115,290,71174,1,4,1:2:0:0:
46,174,71341,1,0,1:2:0:0:
196,318,71507,2,0,P|165:363|103:378,1,108,10|0,0:2|2:0,2:0:0:0:
246,193,71841,2,0,P|300:197|344:243,1,108,2|0,1:2|1:2,2:0:0:0:
113,213,72174,2,0,P|89:163|139:67,1,162,10|0,0:2|2:3,2:3:0:0:
199,40,72507,5,2,1:2:0:0:
251,208,72674,1,0,1:2:0:0:
403,91,72841,1,10,0:2:0:0:
306,70,73007,2,0,P|327:127|337:187,1,108,2|0,1:2|2:0,2:0:0:0:
343,186,73257,1,8,0:2:0:0:
343,186,73341,1,0,1:2:0:0:
482,319,73507,2,0,P|492:266|511:215,1,108,10|2,0:2|1:2,2:0:0:0:
509,8,73841,5,14,0:2:0:0:
419,234,74007,1,0,1:2:0:0:
361,25,74174,1,10,0:2:0:0:
510,215,74341,1,2,1:2:0:0:
272,155,74507,5,8,0:2:0:0:
511,120,74674,1,0,1:2:0:0:
349,300,74841,1,10,0:2:0:0:
438,75,75007,1,2,1:2:0:0:
482,319,75174,5,8,0:2:0:0:
272,155,75341,1,0,1:2:0:0:
272,155,75424,1,0,1:2:0:0:
272,155,75507,2,0,P|289:189|298:226,1,54,0|0,1:2|1:2,2:0:0:0:
317,343,75674,2,0,P|337:311|365:284,1,54,8|0,0:2|2:0,2:0:0:0:
458,211,75841,5,0,1:2:0:0:
458,211,75924,1,0,1:2:0:0:
458,211,76007,2,0,P|420:208|383:198,1,54,0|0,1:2|1:2,2:0:0:0:
231,354,76174,1,8,0:2:0:0:
201,330,76257,1,8,0:2:0:0:
167,313,76341,1,8,0:2:0:0:
130,306,76424,1,8,0:2:0:0:
92,306,76507,5,6,1:2:0:0:
217,204,76674,1,2,1:2:0:0:
0,160,76841,2,0,P|17:211|26:264,1,108,10|2,0:2|0:0,2:0:0:0:
127,234,77091,1,8,0:2:0:0:
127,234,77174,2,0,P|136:180|153:129,1,108,0|2,1:2|1:2,2:0:0:0:
0,0,77507,2,0,P|36:69|117:68,1,162,10|8,0:2|0:2,2:0:0:0:
185,57,77841,5,2,1:2:0:0:
0,172,78007,1,0,1:2:0:0:
75,5,78174,1,8,0:2:0:0:
169,141,78341,2,0,P|226:159|281:184,1,108,0|0,1:2|2:0,2:0:0:0:
281,175,78591,1,8,0:2:0:0:
281,175,78674,1,2,1:2:0:0:
406,0,78841,2,0,P|356:21|304:37,1,108,10|10,0:2|0:2,2:0:0:0:
491,196,79174,5,2,1:2:0:0:
504,3,79341,1,0,1:2:0:0:
339,107,79507,2,0,P|365:164|381:227,1,108,10|2,0:2|0:0,2:0:0:0:
452,296,79757,1,8,0:2:0:0:
452,296,79841,2,0,P|467:244|490:195,1,108,0|0,1:2|1:2,2:0:0:0:
245,314,80174,2,0,P|301:338|375:276,1,162,8|0,0:2|2:0,2:0:0:0:
377,207,80507,5,0,1:2:0:0:
169,141,80674,1,0,1:2:0:0:
301,260,80841,2,0,P|286:208|263:159,1,108,10|2,0:2|0:0,2:0:0:0:
417,19,81174,1,0,1:2:0:0:
489,195,81341,1,0,1:2:0:0:
294,92,81507,1,10,0:2:0:0:
501,31,81674,5,2,1:2:0:0:
501,31,81757,1,0,1:2:0:0:
501,31,81841,2,0,P|462:86|372:88,1,162,4|0,1:2|2:0,2:0:0:0:
337,26,82174,1,10,0:2:0:0:
208,212,82341,1,2,0:0:0:0:
208,212,82424,1,8,0:2:0:0:
208,212,82507,2,0,P|147:223|1:281,1,216,2|8,1:2|0:2,2:0:0:0:
186,65,83007,5,2,0:0:0:0:
186,65,83091,1,8,0:2:0:0:
186,65,83174,2,0,P|177:133|140:149,1,108,0|0,1:2|1:2,2:0:0:0:
8,5,83507,1,8,0:2:0:0:
94,37,83674,1,0,1:2:0:0:
0,162,83841,1,0,1:2:0:0:
0,162,83924,1,8,0:2:0:0:
0,162,84007,1,2,1:2:0:0:
116,271,84174,2,0,P|107:202|70:186,1,108,6|2,2:3|0:2,2:0:0:0:
0,384,84507,5,10,0:2:0:0:
63,114,84674,1,0,1:2:0:0:
193,342,84841,1,8,0:2:0:0:
130,72,85007,1,2,1:2:0:0:
278,384,85174,5,8,0:2:0:0:
341,114,85341,1,0,1:2:0:0:
471,342,85507,1,8,0:2:0:0:
408,72,85674,1,2,1:2:0:0:
408,72,85757,1,8,0:2:0:0:
408,72,85841,1,2,1:2:0:0:
426,273,86007,1,0,1:2:0:0:
457,138,86174,6,0,B|484:143|510:144|510:144|448:167|378:209,1,189,12|0,0:2|2:0,2:0:0:0:
351,263,86507,2,0,P|328:245|321:202,1,54,2|8,1:2|0:2,2:0:0:0:
424,279,86674,2,0,P|419:309|396:330,1,54,8|8,0:2|0:2,2:0:0:0:
298,325,86841,1,2,1:2:0:0:
161,267,87007,1,0,1:2:0:0:
8,383,87174,6,0,P|31:307|83:221,1,180,14|10,0:2|0:2,2:0:0:0:
0,97,87674,2,0,P|-7:140|43:164,1,90,2|8,1:2|0:2,2:0:0:0:
185,31,88007,1,2,1:2:0:0:
98,1,88174,1,10,0:2:0:0:
169,133,88341,2,0,P|124:115|69:104,1,90,2|8,1:2|0:2,2:0:0:0:
288,6,88674,5,2,1:2:0:0:
323,98,88841,1,10,0:2:0:0:
262,167,89007,1,2,1:2:0:0:
427,111,89174,1,10,0:2:0:0:
392,19,89341,1,2,1:2:0:0:
366,180,89507,2,0,P|399:246|422:311,1,135,10|0,0:2|2:0,2:0:0:0:
452,371,89841,5,12,0:2:0:0:
496,280,90007,1,2,0:2:0:0:
292,243,90174,1,10,0:2:0:0:
336,334,90341,2,0,P|382:310|436:302,1,90,2|8,1:2|0:2,2:0:0:0:
512,158,90674,1,2,1:2:0:0:
427,111,90841,1,10,0:2:0:0:
366,180,91007,2,0,P|320:156|266:148,1,90,2|8,1:2|0:2,2:0:0:0:
115,127,91341,5,2,1:2:0:0:
226,87,91507,1,10,0:2:0:0:
106,130,91674,1,2,1:2:0:0:
282,148,91841,1,10,0:2:0:0:
60,68,92007,1,2,1:2:0:0:
0,258,92174,1,10,0:2:0:0:
160,196,92341,5,0,1:2:0:0:
160,196,92424,1,0,1:2:0:0:
160,196,92507,1,14,0:2:0:0:
206,277,92674,1,2,0:0:0:0:
31,374,92841,1,10,0:2:0:0:
77,293,93007,2,0,P|108:331|126:380,1,90,2|8,0:2|0:2,2:0:0:0:
293,293,93341,1,2,0:2:0:0:
206,277,93507,1,10,0:2:0:0:
348,377,93674,2,0,P|365:335|394:301,1,90,2|8,0:2|0:2,2:0:0:0:
418,108,94007,5,2,0:2:0:0:
409,205,94174,1,10,0:2:0:0:
485,256,94341,1,2,0:2:0:0:
318,250,94507,1,10,0:2:0:0:
394,301,94674,1,2,0:2:0:0:
327,153,94841,2,0,P|274:130|192:119,1,135,10|0,0:2|2:0,2:0:0:0:
123,134,95174,5,10,0:2:0:0:
174,228,95341,1,2,0:0:0:0:
18,329,95507,1,10,0:2:0:0:
69,235,95674,2,0,P|88:290|96:335,1,90,2|8,0:2|0:2,2:0:0:0:
260,249,96007,5,2,0:2:0:0:
149,378,96174,1,10,0:2:0:0:
253,257,96341,1,2,0:2:0:0:
390,357,96507,2,0,P|358:349|338:333,1,45,8|0,0:2|2:0,2:0:0:0:
493,158,96674,1,2,1:2:0:0:
493,158,96757,1,0,1:2:0:0:
493,158,96841,2,0,B|497:195|472:224|472:224|482:240|482:240|454:270|458:318,1,162,10|0,0:2|2:0,2:0:0:0:
486,376,97174,5,8,1:2:0:0:
417,165,97341,1,8,1:2:0:0:
328,274,97507,1,8,1:2:0:0:
403,41,97674,1,8,0:2:0:0:
465,228,97841,6,0,B|492:227|524:245|524:245|425:117|275:183|275:183|269:239|214:259,2,431.999999999999,2|0|0,0:2|2:0|2:0,2:0:0:0:
464,232,100841,5,2,0:2:0:0:
464,232,101007,2,0,P|441:271|419:342,1,108,2|0,0:2|2:0,2:0:0:0:
325,380,101507,1,2,0:2:0:0:
325,380,101674,2,0,P|302:340|215:243,1,162,2|2,0:2|0:2,2:0:0:0:
407,131,102341,2,0,P|359:192|282:178,1,162,2|2,0:2|0:2,2:0:0:0:
298,89,103007,2,0,P|326:75|362:83,1,53.9999999999999,2|0,0:2|2:0,2:0:0:0:
512,212,103507,6,0,P|486:200|453:197,1,53.9999999999999,2|2,0:2|0:2,2:0:0:0:
445,94,103841,2,0,P|421:110|402:137,1,53.9999999999999,2|2,0:2|0:2,2:0:0:0:
309,93,104174,2,0,P|311:120|321:145,1,53.9999999999999,2|2,0:2|0:2,2:0:0:0:
383,204,104507,2,0,B|412:323,1,108,2|2,0:2|0:2,2:0:0:0:
470,362,105007,2,0,P|486:340|486:306,1,53.9999999999999,2|0,0:2|2:0,2:0:0:0:
334,332,105341,2,0,P|343:357|365:374,1,53.9999999999999,2|0,0:2|2:0,2:0:0:0:
313,255,105674,5,2,0:2:0:0:
313,255,105841,2,0,B|270:266|270:266|259:279|259:279|200:294,1,108,2|2,0:2|0:2,2:0:0:0:
4,328,106341,2,0,P|45:371|89:355,1,108,2|0,0:2|2:0,2:0:0:0:
134,288,106841,1,2,0:2:0:0:
134,288,107007,2,0,B|108:183,1,108,2|0,0:2|2:0,2:0:0:0:
159,16,107507,2,0,P|161:26|161:15,1,27,2|0,0:2|2:0,2:0:0:0:
90,44,107841,5,0,1:2:0:0:
90,44,107924,1,2,1:2:0:0:
90,44,108007,2,0,B|63:52|28:30|28:30|85:123|147:53|208:132,1,270,12|0,0:2|2:0,2:0:0:0:
218,204,108507,5,2,1:2:0:0:
274,108,108674,1,0,1:2:0:0:
130,169,108841,2,0,P|136:198|147:215,1,36,10|0,0:2|2:0,2:0:0:0:
280,255,109007,2,0,P|241:290|208:379,1,144,2|0,1:2|0:2,2:0:0:0:
96,315,109507,2,0,P|126:290|166:282,1,72,10|2,0:2|0:0,2:0:0:0:
309,353,109841,5,0,1:2:0:0:
348,213,110007,1,0,1:2:0:0:
260,224,110174,2,0,P|276:247|286:278,1,36,10|0,0:2|2:0,2:0:0:0:
389,297,110341,2,0,P|423:249|492:202,1,144,2|0,1:2|1:2,2:0:0:0:
428,0,110841,1,10,0:2:0:0:
294,152,111007,1,2,0:0:0:0:
512,22,111174,6,0,P|448:87|361:64,1,180,2|2,1:2|1:2,2:0:0:0:
140,0,111674,2,0,B|163:42|137:99|106:63|78:122|99:169,1,180,10|2,0:2|1:2,2:0:0:0:
345,189,112174,2,0,P|244:157|150:137,1,180,14|0,0:2|1:2,2:0:0:0:
15,167,112674,1,0,1:2:0:0:
170,292,112841,1,8,0:2:0:0:
96,160,113007,2,0,P|106:207|106:258,1,90,8|0,0:2|2:0,2:0:0:0:
0,384,113341,1,0,1:2:0:0:
35,244,113507,1,10,0:2:0:0:
170,292,113674,5,10,0:2:0:0:
170,292,113757,1,8,0:2:0:0:
170,292,113841,1,2,1:2:0:0:
80,335,114007,1,2,1:2:0:0:
185,205,114174,1,8,0:2:0:0:
246,323,114341,6,0,P|219:366|177:378,1,90,10|0,0:2|2:0,2:0:0:0:
279,214,114674,2,0,P|255:176|261:132,1,90,2|8,1:2|0:2,2:0:0:0:
355,297,115007,2,0,P|400:295|435:322,1,90,2|0,0:0|1:2,2:0:0:0:
316,374,115341,1,2,1:2:0:0:
279,214,115507,1,8,0:2:0:0:
435,322,115674,2,0,P|446:272|464:226,1,90,10|0,0:2|2:0,2:0:0:0:
451,46,116007,1,2,1:2:0:0:
363,216,116174,1,8,0:2:0:0:
512,152,116341,5,2,1:2:0:0:
512,152,116424,1,0,1:2:0:0:
512,152,116507,1,10,0:2:0:0:
287,47,116674,1,10,0:2:0:0:
459,235,116841,1,10,0:2:0:0:
227,277,117007,1,2,1:2:0:0:
344,106,117341,5,0,1:2:0:0:
225,271,117507,1,10,0:2:0:0:
457,229,117674,1,10,0:2:0:0:
285,41,117841,1,10,0:2:0:0:
510,146,118007,1,0,1:2:0:0:
374,253,118174,1,10,0:2:0:0:
344,106,118341,5,8,0:2:0:0:
344,106,118424,1,8,0:2:0:0:
344,106,118507,1,0,1:2:0:0:
431,156,118674,1,8,0:2:0:0:
334,331,118841,1,10,2:3:0:0:
404,378,119007,1,6,2:3:0:0:
512,215,119174,6,0,P|409:238|364:257,1,144,6|0,1:2|1:2,2:0:0:0:
334,331,119674,1,2,0:0:0:0:
334,331,119841,2,0,P|301:366|265:371,1,72,0|0,1:2|2:0,2:0:0:0:
208,314,120174,2,0,P|186:285|153:273,1,72,0|8,1:2|2:3,2:0:0:0:
83,321,120424,5,8,2:3:0:0:
83,321,120507,2,0,P|51:362|0:356,1,108,2|0,1:2|2:0,2:0:0:0:
0,284,120841,1,0,1:2:0:0:
49,176,121007,1,10,2:3:0:0:
17,107,121174,2,0,P|43:80|94:85,1,72,0|0,1:2|2:0,2:0:0:0:
268,129,121507,2,0,P|242:156|191:151,1,72,2|0,1:2|2:0,2:0:0:0:
155,50,121841,6,0,B|176:137|112:111|141:200,2,144,6|0|0,1:2|1:2|1:2,2:0:0:0:
138,187,122841,1,2,1:2:0:0:
236,243,123007,1,2,1:2:0:0:
236,243,123091,1,8,2:3:0:0:
236,243,123174,2,0,P|309:267|376:291,1,144,0|0,1:2|1:2,2:0:0:0:
464,254,123674,1,8,2:3:0:0:
511,342,123841,1,2,1:2:0:0:
306,175,124174,5,6,1:2:0:0:
508,12,124507,2,0,P|479:68|394:77,2,144,2|0|0,1:2|1:2|1:2,2:0:0:0:
429,7,125507,1,0,1:2:0:0:
403,83,125674,1,0,1:2:0:0:
403,83,125757,1,8,0:2:0:0:
403,83,125841,2,0,P|338:93|249:114,1,144,10|0,2:3|1:2,2:0:0:0:
170,67,126341,1,10,2:3:0:0:
116,158,126507,1,0,1:2:0:0:
306,175,126841,5,6,2:3:0:0:
86,78,127174,2,0,P|46:113|42:207,2,144,6|0|0,1:2|1:2|1:2,2:0:0:0:
38,199,128174,1,0,1:2:0:0:
114,258,128341,1,8,0:2:0:0:
114,258,128424,1,0,1:2:0:0:
114,258,128507,2,0,P|132:226|137:185,1,72,2|8,1:2|0:2,2:0:0:0:
168,340,128841,2,0,P|131:339|93:355,1,72,2|8,1:2|2:3,2:0:0:0:
227,201,129174,2,0,P|263:201|301:185,1,72,2|4,1:2|2:3,2:0:0:0:
281,283,129507,2,0,P|262:314|257:355,1,72,2|0,1:2|2:0,2:0:0:0:
512,384,129841,6,0,P|440:357|395:348,1,108,6|0,1:2|2:0,2:0:0:0:
336,339,130174,1,0,1:2:0:0:
381,278,130341,1,10,0:2:0:0:
409,350,130507,1,0,1:2:0:0:
304,266,130674,1,8,2:3:0:0:
351,209,130841,1,0,1:2:0:0:
430,218,131007,1,4,2:3:0:0:
465,296,131174,5,2,1:2:0:0:
465,296,131341,1,0,1:2:0:0:
465,296,131507,1,0,1:2:0:0:
501,178,131674,1,2,1:2:0:0:
489,93,131841,1,8,0:2:0:0:
427,146,132007,5,8,0:2:0:0:
405,149,132091,1,8,0:2:0:0:
384,152,132174,1,2,1:2:0:0:
363,156,132257,1,0,1:2:0:0:
341,160,132341,1,8,0:2:0:0:
320,165,132424,1,8,0:2:0:0:
300,169,132507,2,0,P|245:188|180:207,1,108,6|0,1:2|2:0,2:0:0:0:
121,211,132841,5,0,1:2:0:0:
149,139,133007,1,10,0:2:0:0:
76,150,133174,1,0,1:2:0:0:
44,223,133341,1,8,2:3:0:0:
91,280,133507,1,0,1:2:0:0:
170,271,133674,1,4,2:3:0:0:
197,202,133841,5,2,1:2:0:0:
197,202,134007,1,0,1:2:0:0:
197,202,134174,1,0,1:2:0:0:
76,150,134341,1,2,1:2:0:0:
0,160,134507,1,8,0:2:0:0:
98,315,134674,5,8,0:2:0:0:
98,315,134757,1,8,0:2:0:0:
98,315,134841,2,0,L|88:269,1,36,2|0,1:2|1:2,2:0:0:0:
79,167,135007,2,0,L|71:202,1,36,8|4,2:3|2:3,2:0:0:0:
190,292,135174,6,0,P|277:300|372:331,1,180,14|2,0:2|1:2,2:0:0:0:
508,164,135674,2,0,P|442:156|391:249,1,180,10|2,0:2|0:0,2:0:0:0:
512,365,136174,2,0,P|496:305|464:224,1,135,6|0,1:2|2:0,2:0:0:0:
385,233,136507,2,0,P|418:154|503:153,1,180,8|0,0:2|1:2,2:0:0:0:
424,350,137007,1,8,0:2:0:0:
307,230,137174,1,0,1:2:0:0:
503,153,137341,5,8,0:2:0:0:
503,153,137424,1,0,1:2:0:0:
503,153,137507,1,10,0:2:0:0:
469,236,137674,1,2,1:2:0:0:
351,31,137841,1,10,0:2:0:0:
353,41,138174,5,10,1:2:0:0:
378,129,138341,1,10,0:2:0:0:
448,67,138507,1,8,1:2:0:0:
264,15,138674,1,10,0:2:0:0:
319,201,138841,1,10,1:2:0:0:
512,119,139007,1,10,0:2:0:0:
170,39,139174,6,0,P|196:61|202:93,1,54,10|0,1:2|2:0,2:0:0:0:
277,91,139341,2,0,P|270:124|246:145,1,54,10|0,0:2|2:0,2:0:0:0:
274,275,139507,6,0,P|241:286|211:275,1,58.5,10|0,0:2|2:0,2:0:0:0:
175,341,139674,2,0,P|149:319|143:287,1,58.5,10|0,0:2|2:0,2:0:0:0:
17,247,139841,6,0,P|23:213|47:192,1,63,10|0,0:2|2:0,2:0:0:0:
9,128,140007,2,0,P|41:116|71:127,1,63,2|0,1:2|0:2,2:0:0:0:
170,39,140174,6,0,P|196:61|202:93,1,67.5,10|0,0:2|2:0,2:0:0:0:
277,91,140341,2,0,P|270:124|246:145,1,67.5,2|0,0:2|2:0,2:0:0:0:
61,301,140507,6,0,B|11:321|-29:260|2:196|69:180|133:199|153:283|109:271|141:341|190:345,1,337.5,6|0,1:2|2:0,2:0:0:0:
184,344,141007,1,10,0:2:0:0:
317,239,141174,2,0,P|243:229|203:281,1,135,0|0,1:2|2:0,2:0:0:0:
265,327,141507,2,0,P|333:340|414:360,1,135,10|0,0:2|2:0,2:0:0:0:
396,355,141841,1,0,1:2:0:0:
512,305,142007,1,8,0:2:0:0:
383,265,142174,1,2,1:2:0:0:
489,131,142341,5,8,0:2:0:0:
489,131,142424,1,8,0:2:0:0:
489,131,142507,1,2,1:2:0:0:
432,192,142674,1,8,2:3:0:0:
353,175,142841,1,4,2:3:0:0:
407,109,143007,1,0,1:2:0:0:
512,305,143174,6,0,P|444:279|369:263,1,135,6|0,1:2|2:0,2:0:0:0:
383,265,143507,1,0,1:2:0:0:
506,222,143674,1,8,0:2:0:0:
427,357,143841,2,0,P|384:368|334:381,1,90,0|0,1:2|2:0,2:0:0:0:
163,262,144174,6,0,P|231:288|306:304,1,135,14|0,0:2|2:0,2:0:0:0:
291,301,144507,1,0,1:2:0:0:
169,345,144674,1,8,0:2:0:0:
248,210,144841,2,0,P|291:199|341:186,1,90,0|0,1:2|1:2,2:0:0:0:
344,184,145091,1,8,0:2:0:0:
344,184,145174,1,2,1:2:0:0:
383,265,145341,1,8,2:3:0:0:
512,81,145507,5,6,2:3:0:0:
497,53,145591,1,4,2:3:0:0:
470,37,145674,1,0,1:2:0:0:
439,37,145757,1,0,1:2:0:0:
412,53,145841,2,0,P|426:130|434:207,1,135,6|0,1:2|2:0,2:0:0:0:
442,196,146174,1,0,1:2:0:0:
347,3,146341,1,8,0:2:0:0:
304,73,146507,6,0,B|266:62|227:88|243:116|204:146|156:129,1,162,0|0,1:2|2:0,2:0:0:0:
51,59,146841,2,0,B|10:27|10:27|191:61,1,216,6|0,1:2|1:2,2:0:0:0:
299,150,147341,1,8,0:2:0:0:
230,0,147507,1,0,1:2:0:0:
164,131,147757,5,8,0:2:0:0:
164,131,147841,1,0,1:2:0:0:
29,191,148007,1,0,1:2:0:0:
24,169,148091,1,8,2:0:0:0:
16,149,148174,1,6,2:3:0:0:
223,196,148341,1,8,0:2:0:0:
112,197,148507,1,0,1:2:0:0:
112,197,148591,2,0,P|121:253|142:299,1,90,8|0,0:2|2:0,2:0:0:0:
196,314,148841,5,8,0:2:0:0:
21,269,149007,1,8,0:2:0:0:
210,316,149174,1,0,1:2:0:0:
65,384,149341,1,8,0:2:0:0:
112,197,149507,1,8,0:2:0:0:
150,378,149674,5,8,0:2:0:0:
150,378,149757,1,8,0:2:0:0:
150,378,149841,1,0,1:2:0:0:
12,267,150007,1,0,1:2:0:0:
209,224,150174,2,0,P|269:239|347:267,1,135,8|0,0:2|2:0,2:0:0:0:
356,258,150507,5,8,0:2:0:0:
376,249,150591,1,8,0:2:0:0:
398,242,150674,1,8,0:2:0:0:
419,235,150757,1,8,0:2:0:0:
465,222,150841,5,8,0:2:0:0:
420,217,150924,1,8,0:2:0:0:
386,188,151007,1,8,0:2:0:0:
374,146,151091,1,8,0:2:0:0:
386,103,151174,5,6,1:2:0:0:
463,141,151341,1,2,1:2:0:0:
275,275,151507,1,10,0:2:0:0:
301,187,151674,1,10,0:2:0:0:
512,285,151841,2,0,P|498:306|487:337,1,45,2|0,0:0|2:0,2:0:0:0:
441,384,152007,2,0,P|427:365|417:345,1,45,0|0,1:2|2:0,2:0:0:0:
356,257,152174,1,8,0:2:0:0:
241,355,152341,6,0,P|176:338|63:326,1,180,2|2,0:0|1:2,2:0:0:0:
53,328,152757,1,2,0:0:0:0:
53,328,152841,1,10,0:2:0:0:
0,167,153007,1,10,0:2:0:0:
123,191,153174,6,0,P|135:215|142:248,1,45,2|0,0:0|2:0,2:0:0:0:
205,270,153341,2,0,P|190:292|164:315,1,45,2|0,1:2|2:0,2:0:0:0:
51,241,153507,1,10,0:2:0:0:
195,129,153674,1,2,1:2:0:0:
195,129,153757,1,8,0:2:0:0:
195,129,153841,1,4,1:2:0:0:
241,355,154007,5,2,1:2:0:0:
278,212,154174,1,10,0:2:0:0:
238,369,154341,1,10,0:2:0:0:
346,134,154507,1,2,0:0:0:0:
123,191,154674,1,2,1:2:0:0:
339,275,154841,1,8,0:2:0:0:
305,47,155007,2,0,P|259:23|217:28,1,90,2|0,0:0|1:2,2:0:0:0:
51,241,155341,5,2,1:2:0:0:
278,212,155507,1,10,0:2:0:0:
132,13,155674,2,0,P|134:64|159:98,1,90,10|0,0:2|1:2,2:0:0:0:
389,62,156007,1,2,1:2:0:0:
217,44,156174,1,8,0:2:0:0:
228,73,156257,1,8,0:2:0:0:
238,103,156341,1,8,0:2:0:0:
245,133,156424,1,8,0:2:0:0:
251,164,156507,1,4,1:2:0:0:
324,303,156674,5,2,1:2:0:0:
512,178,156841,1,10,0:2:0:0:
495,151,156924,1,8,0:2:0:0:
469,134,157007,1,10,0:2:0:0:
438,130,157091,1,8,0:2:0:0:
408,139,157174,1,4,1:2:0:0:
246,258,157341,5,2,1:2:0:0:
398,353,157507,1,10,0:2:0:0:
403,321,157591,1,8,0:2:0:0:
410,291,157674,1,10,0:2:0:0:
420,261,157757,1,8,0:2:0:0:
432,232,157841,1,4,1:2:0:0:
328,125,158007,5,10,0:2:0:0:
328,125,158091,1,8,0:2:0:0:
328,125,158174,1,8,0:2:0:0:
246,258,158341,1,10,2:3:0:0:
159,154,158507,1,0,1:2:0:0:
118,220,158674,1,6,2:3:0:0:
0,195,158841,2,0,P|39:239|69:322,1,135,10|0,0:2|2:0,2:0:0:0:
66,382,159174,5,6,1:2:0:0:
246,258,159341,1,2,0:2:0:0:
71,157,159507,1,10,0:2:0:0:
171,352,159674,2,0,L|295:377,1,108,2|8,1:2|0:2,2:0:0:0:
66,309,160007,1,2,1:2:0:0:
192,191,160174,1,10,0:2:0:0:
92,51,160341,2,0,L|70:156,1,108,2|8,1:2|0:2,2:0:0:0:
246,258,160674,5,2,1:2:0:0:
313,157,160841,1,10,0:2:0:0:
127,252,161007,1,2,1:2:0:0:
249,376,161174,1,10,0:2:0:0:
331,240,161341,1,2,1:2:0:0:
227,97,161507,2,0,L|250:271,1,162,10|0,0:2|2:0,2:0:0:0:
303,316,161841,5,14,0:2:0:0:
498,229,162007,1,2,1:2:0:0:
313,157,162174,1,10,0:2:0:0:
441,376,162341,2,0,L|419:270,1,108,2|8,1:2|0:2,2:0:0:0:
309,73,162674,1,2,1:2:0:0:
512,144,162841,1,10,0:2:0:0:
353,235,163007,2,0,L|248:257,1,108,2|8,1:2|0:2,2:0:0:0:
94,384,163341,5,2,1:2:0:0:
10,296,163507,1,10,0:2:0:0:
207,185,163674,1,2,1:2:0:0:
123,273,163841,1,10,0:2:0:0:
5,137,164007,1,2,1:2:0:0:
5,137,164091,1,0,1:2:0:0:
5,137,164174,1,10,0:2:0:0:
209,268,164341,1,0,1:2:0:0:
9,384,164507,6,0,L|49:212,1,162,14|0,0:2|2:0,2:0:0:0:
53,215,164841,1,10,0:2:0:0:
261,122,165007,2,0,L|143:92,1,108,2|8,1:2|0:2,2:0:0:0:
1,5,165341,1,2,1:2:0:0:
111,157,165507,1,10,0:2:0:0:
250,35,165674,2,0,L|354:8,1,108,2|8,1:2|0:2,2:0:0:0:
512,166,166007,5,2,1:2:0:0:
332,91,166174,1,10,0:2:0:0:
459,248,166341,1,2,1:2:0:0:
512,73,166507,1,10,0:2:0:0:
279,204,166674,1,2,1:2:0:0:
512,327,166841,1,10,0:2:0:0:
399,174,167007,1,0,1:2:0:0:
217,378,167174,6,0,P|143:347|53:328,1,162,14|0,0:2|2:0,2:0:0:0:
51,329,167507,5,8,0:2:0:0:
0,71,167674,1,0,1:2:0:0:
141,320,167841,1,8,0:2:0:0:
79,10,168007,1,0,1:2:0:0:
2,258,168174,2,0,P|70:243|167:241,1,162,8|0,0:2|2:0,2:0:0:0:
231,208,168507,2,0,P|202:165|144:167,1,108,8|8,0:2|0:2,2:0:0:0:
162,244,168757,1,8,0:2:0:0:
162,244,168841,1,0,1:2:0:0:
294,384,169007,5,8,0:2:0:0:
294,384,169091,1,8,0:2:0:0:
294,384,169174,1,0,1:2:0:0:
343,304,169341,1,8,0:2:0:0:
433,282,169507,1,8,1:2:0:0:
512,330,169674,2,0,P|479:361|442:354,1,72,8|2,0:2|0:0,2:0:0:0:
0,221,171674,6,0,P|15:233|23:252,1,26.9999999999999,2|0,1:2|2:0,2:0:0:0:
3,314,171841,1,8,0:2:0:0:
88,265,172007,1,10,2:3:0:0:
182,291,172174,1,6,2:3:0:0:
230,375,172341,1,2,1:2:0:0:
321,148,172507,5,14,1:2:0:0:
246,171,172674,2,0,P|266:222|302:358,1,180,0|2,1:2|1:2,2:0:0:0:
267,85,173174,5,12,0:2:0:0:
324,138,173341,2,0,P|358:94|458:-5,1,180,0|2,1:2|1:2,2:0:0:0:
235,164,173841,5,12,0:2:0:0:
252,88,174007,2,0,P|196:79|61:43,1,180,0|2,1:2|1:2,2:0:0:0:
303,224,174507,6,0,P|309:241|321:286,1,45,4|0,2:3|2:0,2:0:0:0:
346,384,174674,1,0,1:2:0:0:
346,384,174757,1,0,1:2:0:0:
346,384,174841,2,0,P|389:336|464:349,1,135,14|0,0:2|2:0,2:0:0:0:
512,384,175174,1,0,1:2:0:0:
271,334,175341,5,8,0:2:0:0:
271,334,175424,1,8,0:2:0:0:
271,334,175507,2,0,P|241:321|216:314,1,45,10|0,1:2|2:0,2:0:0:0:
394,307,175674,1,8,0:2:0:0:
394,307,175757,1,8,0:2:0:0:
394,307,175841,2,0,P|406:276|418:253,1,45,10|0,1:2|2:0,2:0:0:0:
235,243,176007,5,8,0:2:0:0:
212,241,176091,1,8,0:2:0:0:
191,251,176174,2,0,P|172:272|159:306,1,45,10|0,1:2|2:0,2:0:0:0:
375,203,176341,1,8,0:2:0:0:
393,189,176424,1,8,0:2:0:0:
417,187,176507,2,0,P|443:195|472:218,1,45,10|0,1:2|2:0,2:0:0:0:
316,264,176674,5,8,0:2:0:0:
316,264,176757,1,8,0:2:0:0:
316,264,176841,2,0,L|301:207,1,45,10|0,1:2|2:0,2:0:0:0:
363,8,177007,1,10,0:2:0:0:
363,8,177091,1,8,0:2:0:0:
363,8,177174,2,8,L|321:49,1,45,8|0,1:2|2:0,2:0:0:0:
118,96,177341,1,8,0:2:0:0:
118,96,177424,1,8,0:2:0:0:
118,96,177507,2,0,L|174:111,1,45,10|0,1:2|2:0,2:0:0:0:
270,136,177674,5,10,0:2:0:0:
241,48,179174,6,0,B|251:-1|192:33|240:48,1,72,10|0,1:2|2:0,2:0:0:0:
357,142,179424,2,0,B|395:176|394:106|357:141,1,72,10|0,1:2|2:0,2:0:0:0:
218,192,179674,2,0,B|168:207|229:241|218:192,1,72,10|0,1:2|2:0,2:0:0:0:
318,68,179841,6,0,B|360:54|308:25|318:68,1,63,10|0,1:2|2:0,2:0:0:0:
298,198,180091,2,0,B|288:242|339:210|298:198,1,63,10|0,1:2|2:0,2:0:0:0:
198,114,180341,2,0,B|165:84|166:144|198:114,1,63,10|0,1:2|2:0,2:0:0:0:
498,152,180674,5,2,1:2:0:0:
498,152,180757,1,0,1:2:0:0:
498,152,180841,2,0,P|452:173|381:298,1,162,14|0,1:2|2:0,2:0:0:0:
365,334,181174,1,0,0:2:0:0:
357,142,181341,1,2,1:2:0:0:
489,252,181507,2,0,P|506:302|513:367,1,108,10|2,0:2|0:0,2:0:0:0:
429,194,181841,5,0,1:2:0:0:
271,357,182007,1,0,1:2:0:0:
205,187,182174,1,8,0:2:0:0:
357,142,182341,2,0,P|340:192|333:257,1,108,0|0,1:2|2:0,2:0:0:0:
325,255,182591,1,8,0:2:0:0:
325,255,182674,1,0,1:2:0:0:
169,384,182841,6,0,P|162:330|145:279,1,108,8|2,0:2|0:2,2:0:0:0:
153,269,183091,1,8,0:2:0:0:
153,269,183174,1,2,1:2:0:0:
349,332,183341,1,0,1:2:0:0:
357,142,183507,2,0,P|303:148|252:165,1,108,10|2,0:2|0:0,2:0:0:0:
188,82,183757,1,10,0:2:0:0:
188,82,183841,2,0,P|239:99|292:105,1,108,0|0,1:2|1:2,2:0:0:0:
512,0,184174,6,0,P|475:62|442:154,1,162,10|0,0:2|2:0,2:0:0:0:
402,210,184507,1,0,1:2:0:0:
334,7,184674,1,0,1:2:0:0:
512,175,184841,1,10,0:2:0:0:
292,245,185007,1,2,1:2:0:0:
292,245,185091,1,8,0:2:0:0:
292,245,185174,2,0,P|312:276|321:305,3,54,0|8|0|0,1:2|0:0|1:2|1:0,2:0:0:0:
399,291,185507,1,10,0:2:0:0:
195,383,185674,5,10,0:2:0:0:
195,383,185757,1,8,0:2:0:0:
195,383,185841,1,4,1:2:0:0:
328,167,186007,1,0,1:2:0:0:
268,350,186174,2,0,P|228:308|172:301,1,108,10|0,0:2|2:0,2:0:0:0:
0,384,186507,2,0,P|56:370|90:325,1,108,2|0,1:2|1:2,2:0:0:0:
90,108,186841,2,0,P|75:189|120:260,1,162,8|0,0:2|2:0,2:0:0:0:
180,301,187174,5,2,1:2:0:0:
329,159,187341,1,0,1:2:0:0:
200,52,187507,1,10,0:2:0:0:
159,170,187674,2,0,P|220:186|269:214,1,108,2|0,1:2|2:0,2:0:0:0:
270,218,187924,1,8,0:2:0:0:
270,218,188007,1,0,1:2:0:0:
412,173,188174,2,0,P|459:149|512:136,1,108,10|2,0:2|1:2,2:0:0:0:
378,4,188507,5,12,1:2:0:0:
355,245,188674,1,0,1:2:0:0:
215,34,188841,1,10,0:2:0:0:
412,174,189007,1,2,1:2:0:0:
159,190,189174,5,8,0:2:0:0:
379,89,189341,1,0,1:2:0:0:
266,316,189507,1,10,0:2:0:0:
288,75,189674,1,2,1:2:0:0:
168,278,189841,6,0,P|179:304|188:340,1,54,8|0,1:2|2:0,2:0:0:0:
328,384,190007,1,4,2:3:0:0:
328,384,190091,1,0,1:2:0:0:
328,384,190174,2,0,P|335:358|345:333,1,54,0|0,1:2|1:2,2:0:0:0:
243,182,190341,2,0,P|239:210|266:248,1,54,8|0,1:2|2:0,2:0:0:0:
422,324,190507,1,0,1:2:0:0:
422,324,190591,1,0,1:2:0:0:
422,324,190674,2,0,P|448:312|467:270,1,54,0|4,1:2|2:3,2:0:0:0:
498,91,190841,5,8,0:2:0:0:
460,70,190924,1,8,0:2:0:0:
417,70,191007,1,8,0:2:0:0:
379,89,191091,1,8,0:2:0:0:
353,123,191174,1,14,1:2:0:0:
484,194,191341,1,2,1:2:0:0:
305,57,191507,6,0,P|244:43|132:32,1,162,10|0,1:2|2:0,2:0:0:0:
59,0,191841,2,0,P|76:52|87:109,1,108,8|2,0:2|1:2,2:0:0:0:
325,227,192174,2,0,P|335:174|352:122,1,108,10|2,0:2|1:2,2:0:0:0:
123,181,192507,1,10,0:2:0:0:
235,227,192674,1,0,1:2:0:0:
86,104,192841,1,8,0:2:0:0:
270,301,193007,1,0,1:2:0:0:
63,234,193174,2,0,L|32:346,1,108,8|2,0:2|1:2,2:0:0:0:
325,227,193507,2,0,L|296:122,1,108,10|2,0:2|1:2,2:0:0:0:
0,0,193841,6,0,P|30:64|122:54,1,162,14|0,1:2|2:0,2:0:0:0:
170,0,194174,2,0,P|217:26|274:40,1,108,10|2,0:2|1:2,2:0:0:0:
512,124,194507,2,0,P|459:137|412:163,1,108,8|0,0:2|1:2,2:0:0:0:
367,0,194841,1,10,0:2:0:0:
325,227,195007,1,2,1:2:0:0:
325,227,195091,1,0,2:0:0:0:
325,227,195174,2,0,P|404:238|496:274,1,162,8|0,0:2|2:0,2:0:0:0:
512,336,195507,6,0,P|486:376|423:370,1,108,10|2,0:2|1:2,2:0:0:0:
250,187,195841,2,0,P|275:146|338:152,1,108,8|0,0:2|1:2,2:0:0:0:
376,316,196174,1,10,0:2:0:0:
512,199,196341,1,2,1:2:0:0:
325,227,196507,2,0,P|294:292|268:384,1,162,8|0,0:2|2:0,2:0:0:0:
269,378,196841,5,10,0:2:0:0:
177,222,197007,1,2,1:2:0:0:
0,326,197174,1,10,0:2:0:0:
119,384,197341,2,0,P|102:323|77:284,1,108,2|10,1:2|0:2,2:0:0:0:
209,106,197674,1,2,1:2:0:0:
255,174,197841,2,0,P|176:186|129:121,1,162,8|0,0:2|2:0,2:0:0:0:
103,56,198174,2,0,P|60:30|-4:16,1,108,8|0,0:2|1:2,2:0:0:0:
331,170,198507,2,0,P|379:182|434:217,1,108,8|2,0:2|1:2,2:0:0:0:
512,332,198841,6,0,L|498:384,1,54,10|0,0:2|2:0,2:0:0:0:
424,366,199007,2,0,L|437:313,1,54,2|2,1:2|1:2,2:0:0:0:
502,150,199174,2,0,P|467:205|409:206,1,108,10|0,0:2|1:2,2:0:0:0:
359,250,199424,2,0,P|293:247|264:197,1,108,2|0,0:2|2:0,2:0:0:0:
259,136,199674,1,2,1:2:0:0:
447,28,199841,2,0,L|427:140,1,108,10|0,0:2|1:2,2:0:0:0:
331,170,200091,2,0,L|349:63,1,108,2|0,0:2|2:0,2:0:0:0:
306,0,200341,1,0,1:2:0:0:
198,192,200507,5,10,0:2:0:0:
428,134,200674,1,0,1:2:0:0:
104,92,200841,1,8,0:2:0:0:
332,156,201007,1,0,1:2:0:0:
16,219,201174,1,8,0:2:0:0:
166,271,201341,2,0,L|153:324,1,54,2|0,1:2|2:0,2:0:0:0:
79,301,201507,2,0,L|93:249,1,54,10|0,0:2|2:0,2:0:0:0:
0,138,201674,5,2,1:2:0:0:
0,138,201757,1,0,1:2:0:0:
0,138,201841,1,10,0:2:0:0:
97,382,202007,1,0,1:2:0:0:
104,92,202174,1,8,0:2:0:0:
7,336,202341,1,2,1:2:0:0:
198,46,202507,5,10,0:2:0:0:
295,290,202674,1,0,1:2:0:0:
302,0,202841,1,8,0:2:0:0:
205,244,203007,1,2,1:2:0:0:
125,16,203174,1,10,0:2:0:0:
125,16,203257,1,8,0:2:0:0:
125,16,203341,1,0,1:2:0:0:
366,64,203507,6,0,B|380:46|400:41|400:41|315:48|300:144,1,189,14|0,1:2|2:0,2:0:0:0:
351,197,203841,1,10,0:2:0:0:
371,206,203924,1,8,0:2:0:0:
393,213,204007,1,8,0:2:0:0:
414,220,204091,1,8,0:2:0:0:
460,233,204174,1,10,0:2:0:0:
415,238,204257,1,8,0:2:0:0:
381,267,204341,1,8,0:2:0:0:
369,309,204424,1,8,0:2:0:0:
381,352,204507,5,14,1:2:0:0:
451,314,204674,1,2,1:2:0:0:
277,217,204841,1,10,0:2:0:0:
431,148,205007,1,10,0:2:0:0:
431,148,205091,1,8,0:2:0:0:
431,148,205174,1,0,1:2:0:0:
460,233,205341,1,2,1:2:0:0:
336,142,205507,2,0,P|320:73|292:14,1,135,10|8,0:2|0:2,2:0:0:0:
286,4,205841,5,2,1:2:0:0:
399,66,206007,1,0,1:2:0:0:
279,214,206174,1,8,0:2:0:0:
285,83,206341,1,8,0:2:0:0:
285,83,206424,1,8,0:2:0:0:
285,83,206507,1,0,1:2:0:0:
431,148,206674,1,0,1:2:0:0:
373,226,206841,2,0,P|350:268|330:317,1,90,8|8,0:2|0:2,2:0:0:0:
282,384,207091,5,8,0:2:0:0:
282,384,207174,2,0,P|264:342|242:303,1,90,0|0,1:2|1:2,2:0:0:0:
175,166,207507,2,0,P|130:160|85:159,1,90,8|0,0:2|1:2,2:0:0:0:
24,201,207757,1,10,0:2:0:0:
24,201,207841,1,2,1:2:0:0:
129,345,208007,1,0,1:2:0:0:
242,227,208174,1,10,0:2:0:0:
175,166,208341,5,2,1:2:0:0:
175,166,208424,1,8,0:2:0:0:
175,166,208507,1,0,1:2:0:0:
81,265,208674,1,2,1:2:0:0:
216,312,208841,2,0,P|227:262|248:213,1,90,8|10,0:2|0:2,2:0:0:0:
264,150,209091,1,8,0:2:0:0:
264,150,209174,2,0,P|249:125|227:105,1,45,0|8,1:2|0:2,2:0:0:0:
137,0,209341,1,2,1:2:0:0:
0,104,209507,1,8,0:2:0:0:
85,132,209674,5,8,0:2:0:0:
85,132,209757,1,8,0:2:0:0:
85,132,209841,2,0,P|102:181|107:237,1,90,6|2,1:2|1:2,2:0:0:0:
216,312,210174,2,0,P|222:267|237:225,1,90,10|2,0:2|1:2,2:0:0:0:
272,160,210424,1,8,0:2:0:0:
272,160,210507,1,0,1:2:0:0:
150,269,210674,1,0,1:2:0:0:
280,358,210841,2,0,P|363:320|419:307,1,135,8|0,0:2|2:0,2:0:0:0:
414,307,211174,5,2,1:2:0:0:
512,384,211341,1,0,1:2:0:0:
452,219,211507,2,0,P|369:181|264:157,1,180,8|0,0:2|1:2,2:0:0:0:
272,160,211924,1,0,1:0:0:0:
272,160,212007,1,0,1:2:0:0:
511,56,212174,2,0,P|521:97|477:131,1,90,8|0,0:2|1:2,2:0:0:0:
480,132,212424,5,8,0:2:0:0:
480,132,212507,1,2,1:2:0:0:
367,54,212674,1,2,1:2:0:0:
272,160,212841,1,10,0:2:0:0:
370,63,213007,2,0,P|384:126|392:215,1,135,2|10,1:2|0:0,2:0:0:0:
393,208,213341,1,2,1:2:0:0:
492,334,213507,2,0,P|522:303|512:260,1,90,10|2,0:2|1:2,2:0:0:0:
315,223,213841,5,12,0:2:0:0:
273,384,214007,1,2,1:2:0:0:
199,177,214174,1,8,0:2:0:0:
341,317,214341,1,2,1:2:0:0:
85,287,214507,1,8,0:2:0:0:
315,223,214674,6,0,P|321:189|329:159,1,45,2|8,1:2|0:2,2:0:0:0:
221,0,214841,1,8,0:2:0:0:
232,29,214924,1,8,0:2:0:0:
243,58,215007,1,8,0:2:0:0:
251,89,215091,1,8,0:2:0:0:
259,119,215174,5,6,1:2:0:0:
410,202,215341,1,2,1:2:0:0:
508,70,215507,1,10,0:2:0:0:
324,55,215674,1,2,1:2:0:0:
324,55,215757,1,8,0:2:0:0:
324,55,215841,1,0,1:2:0:0:
368,127,216007,1,2,1:2:0:0:
512,152,216174,6,0,P|493:200|483:254,1,90,10|2,0:2|0:0,2:0:0:0:
334,314,216507,1,2,1:2:0:0:
368,127,216674,1,0,1:2:0:0:
484,237,216841,1,10,0:2:0:0:
402,258,217007,5,10,0:2:0:0:
402,258,217091,1,8,0:2:0:0:
402,258,217174,1,0,1:2:0:0:
512,155,217341,1,2,1:2:0:0:
491,362,217507,2,0,P|443:343|389:333,1,90,10|2,0:2|0:0,2:0:0:0:
328,204,217841,5,0,1:2:0:0:
304,384,218007,1,0,1:2:0:0:
405,334,218174,1,8,0:2:0:0:
242,219,218341,2,0,L|230:277,1,45,8|10,0:2|0:2,2:0:0:0:
203,339,218507,1,2,1:2:0:0:
120,281,218674,1,0,1:2:0:0:
20,296,218841,1,10,0:2:0:0:
96,384,219007,5,2,1:2:0:0:
96,384,219091,1,8,0:2:0:0:
96,384,219174,1,0,1:2:0:0:
123,273,219341,1,2,1:2:0:0:
149,163,219507,1,8,0:2:0:0:
208,329,219674,5,10,0:2:0:0:
208,329,219757,1,8,0:2:0:0:
208,329,219841,2,0,L|237:275,1,45,0|8,1:2|0:2,2:0:0:0:
6,246,220007,2,0,L|19:295,1,45,2|0,1:2|2:0,2:0:0:0:
95,384,220174,1,8,0:2:0:0:
149,163,220341,5,8,0:2:0:0:
149,163,220424,1,8,0:2:0:0:
149,163,220507,1,2,1:2:0:0:
0,101,220674,1,2,1:2:0:0:
51,169,220841,2,0,P|73:126|78:82,1,90,10|10,0:2|0:2,2:0:0:0:
58,13,221091,1,8,0:2:0:0:
58,13,221174,1,0,1:2:0:0:
228,145,221341,1,2,1:2:0:0:
145,1,221507,2,0,P|151:45|172:84,1,90,10|2,0:2|1:2,2:0:0:0:
276,208,221841,5,2,1:2:0:0:
409,73,222007,1,0,1:2:0:0:
239,0,222174,1,8,0:2:0:0:
228,145,222341,1,8,0:2:0:0:
228,145,222424,1,8,0:2:0:0:
228,145,222507,1,2,1:2:0:0:
388,180,222674,1,0,1:2:0:0:
334,6,222841,2,0,P|314:46|306:109,1,90,8|0,0:2|2:0,2:0:0:0:
197,223,223174,5,2,1:2:0:0:
164,69,223341,1,0,1:2:0:0:
313,165,223507,1,8,0:2:0:0:
282,250,223674,1,8,0:2:0:0:
282,250,223757,1,8,0:2:0:0:
282,250,223841,2,0,P|272:272|261:308,1,45,0|8,1:2|0:2,2:0:0:0:
234,384,224007,1,0,1:2:0:0:
47,335,224174,2,0,P|86:297|132:291,1,90,8|8,0:2|0:2,2:0:0:0:
196,307,224424,5,8,0:2:0:0:
196,307,224507,1,8,1:2:0:0:
363,232,224674,1,0,1:2:0:0:
140,180,224841,2,0,P|157:211|166:244,1,54,14|0,0:2|2:0,2:0:0:0:
234,384,225007,5,8,0:2:0:0:
234,384,225091,1,8,0:2:0:0:
234,384,225174,1,0,1:2:0:0:
263,234,225341,1,0,1:2:0:0:
292,84,225507,1,4,2:3:0:0:
510,6,225841,6,0,P|482:55|429:58,1,108,6|0,1:2|1:3,2:0:0:0:
428,55,226174,1,2,1:2:0:0:
349,18,226341,2,0,P|308:5|268:0,1,72,2|0,1:2|1:2,2:0:0:0:
152,79,226674,1,2,1:2:0:0:
218,126,226841,1,2,1:2:0:0:
185,9,227007,2,0,P|130:4|78:54,1,108,2|0,1:2|2:0,2:0:0:0:
83,42,227341,5,2,0:0:0:0:
16,90,227507,1,2,1:2:0:0:
89,265,227674,1,2,1:2:0:0:
13,299,227841,1,2,1:2:0:0:
53,179,228007,1,14,1:2:0:0:
173,219,228174,1,2,1:2:0:0:
133,339,228341,1,2,1:2:0:0:
255,383,228507,6,0,P|296:362|363:356,1,108,6|0,1:2|1:2,2:0:0:0:
363,359,228841,1,2,1:2:0:0:
470,384,229007,2,0,P|452:346|448:301,1,72,2|0,1:2|1:2,2:0:0:0:
381,206,229341,1,2,1:2:0:0:
335,275,229507,1,2,1:2:0:0:
463,216,229674,2,0,P|456:180|440:148,1,72,2|0,1:2|1:2,2:0:0:0:
512,44,230007,1,2,1:2:0:0:
444,4,230174,6,0,P|395:52|329:44,1,135,2|0,1:2|1:2,2:0:0:0:
326,39,230507,1,0,1:2:0:0:
201,114,230674,1,2,1:2:0:0:
365,210,230841,2,0,P|341:256|330:294,1,72,2|2,1:2|0:0,2:0:0:0:
275,384,231174,5,4,1:2:0:0:
156,351,231341,1,8,0:2:0:0:
174,334,231424,1,8,0:2:0:0:
198,326,231507,1,8,0:2:0:0:
0,330,231674,5,4,1:2:0:0:
88,243,231841,1,8,0:2:0:0:
93,267,231924,1,8,0:2:0:0:
88,292,232007,1,8,0:2:0:0:
184,118,232174,5,4,1:2:0:0:
215,238,232341,1,8,0:2:0:0:
192,230,232424,1,8,0:2:0:0:
173,214,232507,1,8,0:2:0:0:
100,120,232674,2,0,L|87:86,1,36,4|0,1:2|2:0,2:0:0:0:
286,128,232841,2,0,L|240:164,1,36,8|8,0:2|0:2,2:0:0:0:
173,205,233007,1,10,0:2:0:0:
199,36,233174,5,8,3:2:0:0:
374,106,233341,1,0,1:2:0:0:
312,214,233507,1,10,3:2:0:0:
291,131,233674,1,6,2:3:0:0:
512,193,233841,1,4,1:2:0:0:
512,193,234174,5,0,1:0:0:0:
486,278,234341,1,8,1:2:0:0:
312,214,234507,1,8,1:2:0:0:
444,73,234674,1,8,1:2:0:0:
425,341,234841,1,8,1:2:0:0:
238,191,235007,1,10,1:2:0:0:
440,156,235174,5,8,0:0:0:0:
417,180,235257,1,8,2:3:0:0:
400,208,235341,1,4,2:3:0:0:
386,238,235424,1,0,1:2:0:0:
378,270,235507,1,4,1:2:0:0:
378,285,235841,5,0,1:0:0:0:
65,153,236007,1,8,1:2:0:0:
155,375,236174,1,8,1:2:0:0:
287,62,236341,2,0,B|355:61|344:161|344:161|403:80|537:67|581:146|553:248|431:239|421:119,1,540,14|0,1:2|2:0,2:0:0:0:
