osu file format v14

[General]
AudioFilename: audio.mp3
AudioLeadIn: 0
PreviewTime: 234666
Countdown: 0
SampleSet: Soft
StackLeniency: 0.7
Mode: 0
LetterboxInBreaks: 0
WidescreenStoryboard: 0

[Editor]
Bookmarks: 56184,270112
DistanceSpacing: 1.4
BeatDivisor: 4
GridSize: 16
TimelineZoom: 1

[Metadata]
Title:Omoibito
TitleUnicode:想い人
Artist:Ryokuoushoku Shakai
ArtistUnicode:緑黄色社会
Creator:Battle
Version:Hatsukoi
Source:初恋ロスタイム
Tags:singalong jpop japanese pop j-pop ryokushaka リョクシャカ love's loves lost time hatsukoi
BeatmapID:2594075
BeatmapSetID:1248127

[Difficulty]
HPDrainRate:6
CircleSize:4
OverallDifficulty:8
ApproachRate:9
SliderMultiplier:1.5
SliderTickRate:1

[Events]
//Background and Video events
0,0,"uwu bg.jpg",0,0
//Break Periods
2,219286,227772
//Storyboard Layer 0 (Background)
//Storyboard Layer 1 (Fail)
//Storyboard Layer 2 (Pass)
//Storyboard Layer 3 (Foreground)
//Storyboard Layer 4 (Overlay)
//Storyboard Sound Samples

[TimingPoints]
515,714.285714285714,4,2,1,60,1,0
1943,-76.9230769230769,4,2,1,40,0,0
3372,-90.9090909090909,4,2,1,40,0,0
14800,-90.9090909090909,4,2,1,45,0,0
17657,-76.9230769230769,4,2,1,45,0,0
23372,-58.8235294117647,4,2,1,45,0,0
28372,-50,4,2,1,45,0,0
28639,-50,4,2,1,5,0,0
28729,-50,4,2,1,45,0,0
38996,-50,4,2,1,5,0,0
39086,-50,4,2,1,45,0,0
40067,-50,4,2,1,5,0,0
40157,-50,4,2,1,45,0,0
40514,-50,4,2,1,45,0,0
44800,-66.6666666666667,4,2,1,55,0,0
45514,-66.6666666666667,4,2,1,70,0,0
46229,-50,4,2,1,65,0,1
55781,-50,4,2,1,5,0,1
55872,-50,4,2,1,65,0,1
60781,-50,4,2,1,5,0,1
60872,-50,4,2,1,65,0,1
62567,-50,4,2,1,5,0,1
62657,-50,4,2,1,65,0,1
63281,-50,4,2,1,5,0,1
63372,-50,4,2,1,65,0,1
68639,-50,4,2,1,5,0,1
68729,-50,4,2,1,75,0,1
72924,-50,4,2,1,5,0,1
73014,-50,4,2,1,65,0,1
80514,-50,4,2,1,65,0,0
83996,-50,4,2,1,5,0,0
84086,-50,4,2,1,65,0,0
94800,-50,4,2,1,55,0,0
97210,-50,4,2,1,5,0,0
97300,-50,4,2,1,55,0,0
100067,-50,4,2,1,5,0,0
100157,-50,4,2,1,55,0,0
112924,-50,4,2,1,5,0,0
113014,-50,4,2,1,55,0,0
115781,-50,4,2,1,5,0,0
115872,-50,4,2,1,55,0,0
132924,-50,4,2,1,5,0,0
133014,-50,4,2,1,55,0,0
134800,-50,4,2,1,60,0,0
143372,-45.4545454545455,4,2,1,65,0,1
145781,-45.4545454545455,4,2,1,5,0,1
145872,-45.4545454545455,4,2,1,65,0,1
150067,-45.4545454545455,4,2,1,5,0,1
150157,-45.4545454545455,4,2,1,65,0,1
157924,-45.4545454545455,4,2,1,5,0,1
158014,-45.4545454545455,4,2,1,65,0,1
164353,-45.4545454545455,4,2,1,5,0,1
164443,-45.4545454545455,4,2,1,65,0,1
165424,-45.4545454545455,4,2,1,5,0,1
165514,-45.4545454545455,4,2,1,65,0,1
172210,-45.4545454545455,4,2,1,5,0,1
172300,-45.4545454545455,4,2,1,65,0,1
177657,-50,4,2,1,65,0,0
183014,-50,4,2,1,75,0,0
183282,-50,4,2,1,5,0,0
183372,-50,4,2,1,75,0,0
183639,-50,4,2,1,5,0,0
183729,-50,4,2,1,65,0,0
184353,-50,4,2,1,5,0,0
184443,-50,4,2,1,75,0,0
190067,-50,4,2,1,5,0,0
190157,-50,4,2,1,75,0,0
192657,-50,4,2,5,70,0,0
193372,-50,4,2,1,65,0,0
195424,-50,4,2,1,5,0,0
195514,-50,4,2,1,65,0,0
198639,-50,4,2,1,5,0,0
198729,-50,4,2,1,65,0,0
212657,-50,4,2,1,60,0,0
228372,-66.6666666666667,4,2,1,65,0,0
229086,-50,4,2,1,55,0,0
234800,-38.4615384615385,4,2,1,50,0,0
235067,-38.4615384615385,4,2,1,5,0,0
235157,-38.4615384615385,4,2,1,55,0,0
235424,-38.4615384615385,4,2,1,5,0,0
235514,-38.4615384615385,4,2,1,60,0,0
235781,-38.4615384615385,4,2,1,5,0,0
235872,-38.4615384615385,4,2,1,65,0,0
236139,-38.4615384615385,4,2,1,5,0,0
236229,-41.6666666666667,4,2,1,65,0,1
238281,-41.6666666666667,4,2,1,5,0,1
238372,-41.6666666666667,4,2,1,65,0,1
240067,-41.6666666666667,4,2,1,5,0,1
240157,-41.6666666666667,4,2,1,65,0,1
241496,-41.6666666666667,4,2,1,5,0,1
241586,-41.6666666666667,4,2,1,65,0,1
244353,-41.6666666666667,4,2,1,5,0,1
244443,-41.6666666666667,4,2,1,65,0,1
247567,-41.6666666666667,4,2,1,5,0,1
247657,-41.6666666666667,4,2,1,65,0,1
248639,-41.6666666666667,4,2,1,5,0,1
248729,-41.6666666666667,4,2,1,65,0,1
256229,-125,4,2,1,55,0,0
261514,-100,4,2,1,45,0,0
261943,-113.636363636364,4,2,1,45,0,0
263372,-113.636363636364,4,2,1,40,0,0
264800,-113.636363636364,4,2,1,35,0,0
266229,-113.636363636364,4,2,1,30,0,0
267657,-113.636363636364,4,2,1,25,0,0
269086,-113.636363636364,4,2,1,20,0,0
270157,-50,4,2,1,5,0,0

[Colours]
Combo1 : 250,141,239
Combo2 : 51,244,235
Combo3 : 186,143,220
Combo4 : 98,167,223

[HitObjects]
34,384,1943,6,0,P|52:338|115:325,2,97.4999955368044,2|2|2,0:0|0:0|0:0,0:0:0:0:
192,248,3014,1,0,0:0:0:0:
92,161,3372,2,0,B|63:257|131:227|88:337,1,165.000005035401,2|0,0:0|0:0,0:0:0:0:
0,133,4443,1,2,0:0:0:0:
92,161,4622,1,2,0:0:0:0:
70,54,4800,6,0,P|96:47|150:86,1,82.5000025177003,2|0,0:0|0:0,0:0:0:0:
230,156,5514,2,0,P|269:161|303:138,1,82.5000025177003,0|2,0:0|0:0,0:0:0:0:
383,17,6229,1,2,0:0:0:0:
382,175,6586,1,0,0:0:0:0:
287,48,6943,1,0,0:0:0:0:
458,106,7300,1,0,0:0:0:0:
362,266,7657,6,0,P|303:257|275:254,1,82.5000025177003,2|0,0:0|0:0,0:0:0:0:
218,159,8372,2,0,P|159:168|131:171,1,82.5000025177003,2|0,0:0|0:0,0:0:0:0:
38,259,8907,1,2,0:0:0:0:
38,259,9086,2,0,P|32:192|-4:93,1,165.000005035401,2|0,0:0|0:0,0:0:0:0:
249,326,10157,1,2,0:0:0:0:
69,374,10335,1,2,0:0:0:0:
169,384,10514,6,0,P|157:317|187:226,1,165.000005035401,2|0,0:0|0:0,0:0:0:0:
181,27,11586,1,2,0:0:0:0:
234,110,11764,1,2,0:0:0:0:
155,172,11943,2,0,P|110:163|60:162,1,82.5000025177003,2|0,0:0|0:0,0:0:0:0:
263,27,12657,2,0,P|308:36|358:37,1,82.5000025177003
439,122,13193,1,2,0:0:0:0:
439,122,13282,1,2,0:0:0:0:
439,122,13372,5,2,0:0:0:0:
434,14,13729,1,2,0:0:0:0:
344,238,14086,1,2,0:0:0:0:
512,176,14443,1,2,0:0:0:0:
289,163,14800,2,0,B|189:155|241:214|125:202,1,165.000005035401,2|2,0:0|0:0,0:0:0:0:
134,202,16943,2,0,P|109:245|119:287,1,82.5000025177003,2|0,0:0|0:0,0:0:0:0:
12,55,17657,6,0,P|45:111|34:157,1,97.4999955368044,2|0,0:0|0:0,0:0:0:0:
134,202,18193,1,0,0:0:0:0:
53,276,18372,2,0,P|28:271|-5:268,1,48.7499977684022,2|0,0:0|0:0,0:0:0:0:
130,371,18729,2,0,P|154:368|178:363,1,48.7499977684022
339,268,19086,6,0,P|292:243|246:277,1,97.4999955368044,2|0,0:0|0:0,0:0:0:0:
114,189,19622,2,0,P|161:164|207:198,1,97.4999955368044,2|0,0:0|0:0,0:0:0:0:
329,132,20157,2,0,P|322:171|318:194,1,48.7499977684022,2|0,0:0|0:0,0:0:0:0:
236,97,20425,1,0,0:0:0:0:
236,97,20514,6,0,P|220:38|219:-9,1,97.4999955368044,2|0,0:0|0:0,0:0:0:0:
333,41,21050,1,0,0:0:0:0:
333,41,21139,1,0,0:0:0:0:
333,41,21229,2,0,P|387:36|441:28,1,97.4999955368044,2|0,0:0|0:0,0:0:0:0:
502,195,21943,6,0,P|455:144|417:149,1,97.4999955368044,2|0,0:0|0:0,0:0:0:0:
437,374,22657,2,0,P|446:325|408:281,1,97.4999955368044,2|2,0:0|0:0,0:0:0:0:
314,334,23193,1,2,0:0:0:0:
209,292,23372,6,0,P|179:285|139:278,2,63.7500012159348,2|0|0,0:0|0:0|0:0,0:0:0:0:
344,98,23907,1,0,0:0:0:0:
413,186,24086,2,0,P|362:193|271:201,1,127.50000243187,2|0,0:0|0:0,0:0:0:0:
96,61,24622,1,0,0:0:0:0:
200,97,24800,6,0,P|190:60|180:23,1,63.7500012159348,2|0,0:0|0:0,0:0:0:0:
302,138,25157,2,0,P|292:175|282:212,1,63.7500012159348
48,239,25514,2,0,B|130:250|88:202|182:219,1,127.50000243187,2|0,0:0|0:0,0:0:0:0:
16,338,26229,6,0,P|8:266|67:238,1,127.50000243187,2|0,0:0|0:0,0:0:0:0:
204,323,26943,1,2,0:0:0:0:
177,118,27300,1,0,0:0:0:0:
113,189,27479,1,0,0:0:0:0:
113,189,27568,1,0,0:0:0:0:
113,189,27657,5,2,0:0:0:0:
220,206,27836,1,0,0:0:0:0:
275,110,28014,2,0,P|269:68|244:50,1,63.7500012159348,2|0,0:0|0:0,0:0:0:0:
129,298,28372,6,0,P|191:235|235:247,1,112.5,4|0,0:3|2:0,0:0:0:0:
262,254,28729,1,2,0:0:0:0:
246,359,28907,1,2,0:0:0:0:
320,194,29086,6,0,P|347:246|340:280,1,75,2|0,0:0|0:0,0:0:0:0:
439,346,29443,2,0,P|466:294|459:260,1,75,2|0,0:0|0:0,0:0:0:0:
422,185,29800,1,2,1:2:0:0:
500,126,29979,1,0,0:0:0:0:
378,92,30157,1,2,0:0:0:0:
425,8,30336,1,2,0:0:0:0:
285,49,30514,6,0,P|226:37|209:18,1,75,2|0,0:0|0:0,0:0:0:0:
29,148,30872,2,0,P|99:102|165:121,2,150,2|2|0,0:0|1:2|0:0,0:0:0:0:
108,204,31764,1,0,0:0:0:0:
267,112,31943,6,0,B|235:200|284:168|251:267,1,150,2|0,0:0|0:0,0:0:0:0:
154,357,32479,1,0,0:0:0:0:
91,287,32657,2,0,P|130:258|172:263,1,75,2|0,1:2|0:0,0:0:0:0:
245,347,33014,2,0,P|284:366|331:343,1,75,2|0,0:0|0:0,0:0:0:0:
381,283,33282,1,2,0:0:0:0:
381,283,33372,5,2,0:0:0:0:
277,208,33550,1,0,0:0:0:0:
454,163,33729,2,0,L|354:143,1,75,2|0,0:0|0:0,0:0:0:0:
298,92,34086,1,2,1:2:0:0:
320,0,34264,1,0,0:0:0:0:
185,60,34443,1,8,0:3:0:0:
212,167,34621,1,2,0:0:0:0:
333,228,34800,6,0,P|274:246|289:338,1,150,2|8,0:0|0:0,0:0:0:0:
33,313,35336,1,4,0:1:0:0:
33,313,35425,1,4,0:1:0:0:
33,313,35514,2,0,P|88:304|130:305,1,75,4|0,0:1|0:0,0:0:0:0:
180,373,35872,1,2,1:2:0:0:
272,324,36050,1,4,0:3:0:0:
107,144,36229,6,0,P|132:213|196:193,1,150,2|2,1:2|1:2,0:0:0:0:
187,92,36764,1,0,0:0:0:0:
320,7,36943,2,0,P|297:67|307:90,1,75,8|0,0:0|0:0,0:0:0:0:
443,176,37300,2,0,P|413:127|386:124,1,75,2|0,0:0|0:0,0:0:0:0:
320,175,37568,1,0,0:0:0:0:
320,175,37657,6,0,P|310:225|305:263,1,75,2|0,1:2|0:0,0:0:0:0:
198,93,38014,1,10,0:0:0:0:
395,253,38193,1,10,0:0:0:0:
149,199,38372,2,0,L|238:168,1,75,8|0,0:0|0:0,0:0:0:0:
341,0,38729,2,0,B|317:52|317:52|343:114,1,112.5,2|0,0:0|2:0,0:0:0:0:
491,73,39086,6,0,P|459:50|402:58,1,75,2|0,1:2|0:0,0:0:0:0:
467,223,39443,2,0,P|454:177|412:159,1,75,2|0,1:2|0:0,0:0:0:0:
252,242,39800,2,8,B|283:249|283:249|327:239|327:239|368:249,1,112.5,10|0,0:0|2:0,0:0:0:0:
338,337,40157,1,4,0:3:0:0:
270,156,40336,1,2,1:2:0:0:
409,83,40514,6,0,P|363:75|346:40,1,75,8|0,1:0|0:0,0:0:0:0:
247,67,40872,2,0,P|224:1|237:-19,1,75,8|0,1:1|0:0,0:1:0:0:
424,257,41229,6,0,P|397:199|359:190,1,75,8|0,1:1|0:0,0:0:0:0:
292,158,41586,2,0,P|247:168|226:188,1,75,8|0,1:1|0:0,0:0:0:0:
97,310,41943,6,0,P|59:268|57:239,1,75,10|0,1:2|0:0,0:0:0:0:
233,300,42300,2,0,P|277:358|273:386,1,75,10|0,1:2|0:0,0:0:0:0:
144,220,42657,6,0,P|139:168|165:136,1,75,10|0,1:2|0:0,0:0:0:0:
366,310,43014,2,0,P|379:359|358:406,1,75,10|0,1:2|1:1,0:0:0:0:
276,228,43372,5,10,1:2:0:0:
389,207,43550,1,0,1:1:0:0:
211,159,43729,5,12,1:1:0:0:
414,119,43907,1,0,1:1:0:0:
144,103,44086,5,10,1:2:0:0:
353,59,44264,1,0,1:1:0:0:
91,37,44443,5,14,0:0:0:0:
91,37,44800,2,0,B|71:106|114:80|90:163,2,112.500004291535,2|2|8,0:0|0:0|0:1,0:0:0:0:
197,84,45872,1,0,0:0:0:0:
36,246,46229,6,0,P|66:195|157:223,1,150,4|0,1:2|0:0,0:0:0:0:
115,303,46764,1,2,0:0:0:0:
221,114,46943,2,0,P|250:157|289:160,1,75,8|0,0:0|0:0,0:0:0:0:
387,112,47300,1,2,0:0:0:0:
286,0,47479,5,2,0:0:0:0:
292,36,47568,1,8,0:0:0:0:
299,73,47657,1,2,1:2:0:0:
386,130,47836,1,8,0:0:0:0:
507,45,48014,2,0,P|461:21|427:33,1,75,2|0,1:2|0:0,0:0:0:0:
296,190,48372,2,0,B|338:162|338:162|440:178,1,150,8|2,0:0|0:0,0:0:0:0:
388,366,48907,5,2,0:0:0:0:
388,366,48997,1,2,0:0:0:0:
388,366,49086,2,0,P|385:313|411:286,1,75,2|0,1:2|0:0,0:0:0:0:
512,161,49443,2,0,P|515:214|489:241,1,75,2|0,1:2|0:0,0:0:0:0:
271,160,49800,2,0,B|320:181|320:181|361:169|361:169|426:189,1,150,10|2,0:0|0:0,0:0:0:0:
264,337,50336,5,4,0:1:0:0:
264,298,50425,1,12,0:1:0:0:
288,268,50514,1,2,1:2:0:0:
161,206,50693,1,8,0:0:0:0:
271,160,50872,1,2,1:2:0:0:
207,61,51050,1,0,0:0:0:0:
404,69,51229,2,0,P|362:46|327:56,1,75,10|0,0:0|1:0,0:0:0:0:
267,180,51586,1,2,0:0:0:0:
197,35,51764,5,2,0:0:0:0:
197,35,51854,1,0,0:0:0:0:
197,35,51943,2,0,P|151:21|104:17,1,75,6|0,1:2|0:0,0:0:0:0:
93,202,52300,1,2,0:0:0:0:
155,118,52479,1,2,1:2:0:0:
5,38,52657,2,0,P|23:89|32:141,1,75,10|0,0:0|0:0,0:0:0:0:
93,202,53014,2,0,P|77:253|54:301,1,75,2|4,0:0|1:0,0:0:0:0:
22,368,53282,1,12,0:1:0:0:
22,368,53372,5,4,1:1:0:0:
35,267,53550,1,4,0:1:0:0:
212,367,53729,1,2,1:2:0:0:
188,271,53907,2,0,P|119:319|132:396,1,150,2|0,0:0|0:0,0:0:0:0:
297,293,54443,2,0,P|309:259|353:233,1,75,2|2,1:2|0:0,0:0:0:0:
185,131,54711,1,0,0:0:0:0:
185,131,54800,6,0,P|217:165|262:173,1,75,2|0,1:2|0:0,0:0:0:0:
380,149,55157,1,2,1:2:0:0:
306,68,55336,1,0,0:0:0:0:
496,0,55514,2,0,P|462:66|470:123,1,112.5,10|0,0:0|2:0,0:0:0:0:
503,207,55872,2,0,P|499:150|477:117,1,75
404,305,56229,5,2,1:2:0:0:
415,181,56407,1,10,0:0:0:0:
333,109,56586,1,2,0:0:0:0:
313,221,56764,1,10,0:0:0:0:
313,221,56854,1,8,0:0:0:0:
313,221,56943,1,10,0:0:0:0:
424,89,57122,1,4,0:3:0:0:
264,40,57300,1,8,1:3:0:0:
403,179,57479,1,2,1:2:0:0:
260,146,57657,6,0,B|223:227|297:206|243:323,1,150,4|0,0:0|0:0,0:0:0:0:
135,352,58193,1,2,0:0:0:0:
135,352,58282,1,2,0:0:0:0:
135,352,58372,2,0,P|139:295|172:276,1,75,8|0,0:0|0:0,0:0:0:0:
5,176,58729,2,0,P|34:209|35:255,1,75,8|0,0:3|0:3,0:0:0:0:
265,167,59086,5,2,1:2:0:0:
148,178,59264,1,0,0:0:0:0:
70,88,59443,1,2,1:2:0:0:
188,70,59622,1,2,0:0:0:0:
95,249,59800,1,8,0:0:0:0:
140,160,59979,1,2,0:0:0:0:
218,291,60157,2,0,L|196:380,1,75,2|2,0:0|0:0,0:0:0:0:
32,229,60425,1,0,0:0:0:0:
32,229,60514,6,0,B|91:214|91:214|166:238,1,112.5,4|0,0:0|2:0,0:0:0:0:
234,146,60872,2,0,B|195:158|195:158|149:138,1,75,2|0,1:2|0:0,0:0:0:0:
46,24,61229,2,0,P|74:79|57:115,1,75,8|0,0:0|0:0,0:0:0:0:
59,307,61586,1,2,1:2:0:0:
24,197,61764,1,8,0:0:0:0:
159,369,61943,5,6,1:2:0:0:
199,232,62122,1,4,0:3:0:0:
146,74,62300,2,0,P|115:142|136:182,1,112.5,2|0,0:3|2:0,0:0:0:0:
199,232,62657,5,6,1:2:0:0:
279,140,62836,1,4,0:3:0:0:
299,281,63014,2,0,L|424:276,1,112.5,6|0,0:3|2:0,0:0:0:0:
500,172,63372,6,0,B|476:255|533:228|510:318,1,150,6|2,1:2|1:2,0:0:0:0:
407,194,63907,1,0,0:0:0:0:
321,344,64086,2,0,P|343:305|389:301,1,75,8|0,0:0|0:0,0:0:0:0:
231,125,64443,1,2,0:0:0:0:
324,141,64622,5,0,0:0:0:0:
324,141,64711,1,8,0:0:0:0:
324,141,64800,2,0,P|304:201|266:218,1,75,2|12,1:2|0:1,0:0:0:0:
151,293,65157,2,0,P|187:251|225:249,1,75,0|2,1:2|0:0,0:0:0:0:
190,28,65514,1,8,0:0:0:0:
231,125,65693,1,2,0:0:0:0:
84,72,65872,1,2,0:0:0:0:
132,172,66050,1,4,0:1:0:0:
132,172,66139,1,12,0:1:0:0:
132,172,66229,6,0,P|71:166|41:165,1,75,2|0,1:2|0:0,0:0:0:0:
10,294,66586,2,0,P|71:288|101:287,1,75,2|0,1:2|0:0,0:0:0:0:
214,383,66943,2,8,B|196:332|196:332|233:230,1,150,10|0,0:0|0:0,0:0:0:0:
121,118,67479,1,4,0:1:0:0:
99,152,67568,1,12,0:1:0:0:
117,193,67657,5,2,1:2:0:0:
209,133,67836,1,8,0:0:0:0:
302,254,68014,2,0,L|228:241,1,75,2|0,1:2|0:0,0:0:0:0:
146,62,68372,2,0,P|208:27|259:56,1,112.5,8|0,0:0|2:0,0:0:0:0:
304,101,68729,1,2,0:0:0:0:
389,25,68907,5,2,0:0:0:0:
389,25,68997,1,2,0:0:0:0:
389,25,69086,2,0,P|446:17|497:10,1,75,4|0,1:2|0:0,0:0:0:0:
417,225,69443,1,2,0:0:0:0:
479,134,69622,1,2,0:0:0:0:
319,86,69800,2,0,P|336:143|339:177,1,75,8|0,0:0|0:0,0:0:0:0:
417,225,70157,2,0,P|404:260|398:297,1,75,2|8,0:0|0:0,0:0:0:0:
319,374,70425,1,8,0:0:0:0:
319,374,70514,5,2,1:2:0:0:
219,303,70693,1,8,0:0:0:0:
308,209,70872,1,2,1:2:0:0:
114,115,71050,2,0,P|148:195|207:184,1,150,2|0,0:0|0:0,0:0:0:0:
368,127,71586,2,0,P|318:101|285:109,1,75,2|4,0:0|0:1,0:0:0:0:
206,77,71854,1,4,0:1:0:0:
206,77,71943,5,2,1:2:0:0:
307,205,72122,1,0,0:0:0:0:
301,102,72300,1,2,1:2:0:0:
198,189,72479,1,0,0:0:0:0:
424,133,72657,2,0,B|405:189|405:189|433:267,1,112.5,10|0,0:0|2:0,0:0:0:0:
405,347,73014,2,0,B|412:313|412:313|389:265,1,75
271,223,73372,5,2,1:2:0:0:
313,333,73550,1,10,0:0:0:0:
342,154,73729,1,10,0:3:0:0:
167,221,73907,1,8,0:0:0:0:
203,227,73996,1,8,0:0:0:0:
240,233,74085,1,10,0:0:0:0:
379,151,74264,1,10,0:0:0:0:
242,20,74443,1,2,0:0:0:0:
276,132,74622,1,4,0:3:0:0:
499,38,74800,6,0,B|450:29|450:29|407:43|407:43|344:32,1,150,6|0,1:2|0:0,0:0:0:0:
215,135,75336,1,0,0:0:0:0:
143,69,75514,2,0,P|188:35|235:45,1,75,10|0,0:0|0:0,0:0:0:0:
308,125,75872,2,0,P|303:183|280:204,1,75,0|8,0:0|0:0,0:0:0:0:
223,142,76139,1,8,0:0:0:0:
223,142,76229,5,2,1:2:0:0:
347,342,76407,2,0,P|295:294|207:317,1,150,10|2,0:0|0:0,0:0:0:0:
53,325,76943,1,8,0:0:0:0:
180,204,77122,1,2,0:0:0:0:
158,384,77300,1,2,0:0:0:0:
93,206,77479,5,2,0:0:0:0:
93,206,77568,1,2,0:0:0:0:
93,206,77657,2,0,B|92:129|38:140|39:66,1,150,2|0,1:2|1:2,0:0:0:0:
0,207,78193,1,0,0:0:0:0:
190,228,78372,2,0,B|189:305|135:294|136:368,1,150,10|0,0:0|0:0,0:0:0:0:
137,148,78907,5,10,0:0:0:0:
171,129,78996,1,10,0:0:0:0:
212,134,79086,1,10,0:0:0:0:
265,231,79264,1,2,0:0:0:0:
320,39,79443,5,10,0:3:0:0:
311,144,79622,1,6,0:3:0:0:
466,1,79800,5,8,0:0:0:0:
401,95,79979,1,10,0:0:0:0:
474,268,80157,1,10,0:0:0:0:
511,156,80336,1,0,3:0:0:0:
511,156,80425,1,0,3:0:0:0:
511,156,80514,6,0,B|410:134|462:211|342:182,1,150,4|0,1:2|0:0,0:0:0:0:
288,139,81050,1,0,0:0:0:0:
350,30,81229,2,0,P|378:70|356:121,1,75,8|0,0:0|0:0,0:0:0:0:
206,193,81586,1,4,0:1:0:0:
185,161,81675,1,4,0:1:0:0:
180,124,81764,1,4,0:1:0:0:
191,89,81853,1,4,0:1:0:0:
215,61,81943,5,4,1:2:0:0:
288,139,82122,1,8,0:0:0:0:
158,285,82300,2,0,P|208:258|243:269,1,75,2|0,1:2|0:0,0:0:0:0:
311,384,82657,1,10,0:0:0:0:
292,339,82747,1,2,0:0:0:0:
321,293,82835,1,2,0:0:0:0:
399,234,83014,1,2,0:0:0:0:
502,299,83193,5,4,0:1:0:0:
502,299,83282,1,12,0:1:0:0:
502,299,83372,2,0,P|498:235|514:206,1,75,2|0,1:2|0:0,0:0:0:0:
387,55,83729,2,0,P|420:134|410:178,1,112.5,2|0,0:0|2:0,0:0:0:0:
395,190,84086,2,0,P|340:182|298:181,1,75,10|0,0:0|0:0,0:0:0:0:
217,115,84443,1,2,0:0:0:0:
306,68,84622,1,8,0:0:0:0:
136,142,84800,6,0,P|131:86|165:59,1,75,2|8,1:2|0:0,0:0:0:0:
243,183,85157,2,0,P|229:220|217:266,1,75,2|0,1:2|0:0,0:0:0:0:
54,382,85514,2,0,P|100:370|202:352,1,150,8|2,0:0|0:0,0:0:0:0:
385,313,86050,1,0,0:0:0:0:
288,303,86229,6,0,P|298:340|308:407,1,75,2|0,1:2|0:0,0:0:0:0:
441,380,86586,1,2,0:0:0:0:
385,284,86764,1,2,0:0:0:0:
494,285,86943,1,8,0:0:0:0:
512,183,87122,1,2,0:0:0:0:
403,71,87300,1,4,0:1:0:0:
420,107,87389,1,4,0:1:0:0:
408,146,87478,1,4,0:1:0:0:
373,169,87567,1,4,0:1:0:0:
332,163,87657,5,2,1:2:0:0:
313,51,87836,1,8,0:0:0:0:
494,285,88014,2,0,P|469:237|429:229,1,75,2|0,1:2|0:0,0:0:0:0:
284,291,88372,2,0,P|362:333|344:407,1,150,10|0,0:0|0:0,0:0:0:0:
347,148,88907,5,8,0:0:0:0:
347,148,88997,1,8,0:0:0:0:
347,148,89086,2,0,P|299:183|259:179,1,75,2|0,1:2|0:0,0:0:0:0:
124,86,89443,2,0,P|179:86|206:108,1,75,2|0,1:2|0:0,0:0:0:0:
284,291,89800,2,0,P|229:276|210:257,1,75,10|0,0:0|0:0,0:0:0:0:
82,184,90157,2,0,P|104:234|113:273,1,75,2|0,0:0|0:0,0:0:0:0:
88,375,90514,5,2,1:2:0:0:
3,349,90693,1,2,0:0:0:0:
157,321,90872,1,2,0:0:0:0:
80,257,91050,1,12,0:1:0:0:
228,264,91229,1,10,0:0:0:0:
178,186,91407,1,2,0:0:0:0:
301,198,91586,2,0,P|353:189|374:185,1,75,10|8,0:0|0:3,0:0:0:0:
435,2,91943,6,0,P|414:47|434:88,1,75,6|8,0:0|0:0,0:0:0:0:
420,70,92211,1,8,0:0:0:0:
420,70,92300,1,8,0:0:0:0:
424,292,92479,1,8,0:0:0:0:
483,197,92657,2,0,L|398:185,1,75,8|0,0:0|0:0,0:0:0:0:
262,66,93014,1,10,0:3:0:0:
307,182,93193,1,2,1:2:0:0:
372,73,93372,5,10,0:0:0:0:
157,199,93550,2,0,B|203:193|203:193|251:212|251:212|309:202,1,150,8|8,0:3|0:0,0:0:0:0:
267,122,94086,5,8,0:0:0:0:
182,291,94264,1,8,0:0:0:0:
173,95,94443,5,4,0:3:0:0:
242,229,94622,1,4,0:3:0:0:
46,106,94800,6,0,P|35:56|123:13,1,150,6|0,1:2|0:0,0:0:0:0:
248,211,95336,2,0,P|182:162|122:195,1,150,2|0,0:0|0:0,0:0:0:0:
39,279,95872,2,0,B|43:310|43:310|55:327|55:327|62:361,1,75,2|4,0:0|0:1,0:0:0:0:
217,294,96139,1,12,0:1:0:0:
217,294,96229,2,0,P|175:289|134:286,1,75,2|0,1:2|0:0,0:0:0:0:
176,369,96586,1,2,1:2:0:0:
87,215,96764,1,2,0:2:0:0:
224,116,96943,2,0,B|245:167|245:167|222:243,1,112.5,10|0,0:0|2:0,0:0:0:0:
87,215,97300,2,0,P|133:186|165:195,1,75,2|0,0:0|0:0,0:0:0:0:
127,363,97657,6,0,P|157:296|249:321,1,150,2|0,1:2|0:0,0:0:0:0:
396,202,98193,1,2,0:0:0:0:
396,202,98282,1,2,0:0:0:0:
396,202,98372,2,0,P|336:205|312:181,1,75,8|0,0:0|0:0,0:0:0:0:
308,384,98729,2,0,P|312:325|333:305,1,75,2|4,0:0|0:1,0:0:0:0:
408,366,98997,1,12,0:1:0:0:
408,366,99086,5,2,1:2:0:0:
493,294,99264,1,2,0:0:0:0:
343,200,99443,1,2,1:2:0:0:
410,279,99622,1,0,0:0:0:0:
512,133,99800,2,0,B|472:153|472:153|393:127,1,112.5,10|0,0:0|2:0,0:0:0:0:
315,71,100157,1,2,0:0:0:0:
392,37,100336,1,2,0:2:0:0:
224,112,100514,6,0,P|213:61|236:26,2,75,2|2|2,0:0|0:0|1:2,0:0:0:0:
339,274,101050,1,2,0:0:0:0:
360,179,101229,2,0,B|265:164|307:228|189:207,1,150,10|0,0:0|0:0,0:0:0:0:
93,89,101764,5,4,0:1:0:0:
124,107,101853,1,4,0:1:0:0:
138,141,101942,1,2,1:2:0:0:
77,280,102122,1,8,0:0:0:0:
43,189,102300,1,2,1:2:0:0:
158,344,102479,1,0,0:0:0:0:
169,225,102657,2,0,B|232:259|232:259|324:227,1,150,10|2,0:0|0:0,0:0:0:0:
235,151,103193,1,2,0:0:0:0:
360,33,103372,6,0,P|342:108|351:122,1,75,2|0,1:2|0:0,0:0:0:0:
489,194,103729,2,0,P|454:169|408:174,1,75,2|0,1:2|0:0,0:0:0:0:
392,357,104086,1,10,0:0:0:0:
434,268,104264,1,0,0:0:0:0:
308,189,104443,2,0,P|329:250|333:281,1,75,2|0,0:0|0:0,0:0:0:0:
215,363,104711,1,4,0:1:0:0:
215,363,104800,5,2,1:2:0:0:
240,256,104979,1,8,0:0:0:0:
170,184,105157,2,0,P|132:177|84:171,1,75,2|0,0:0|0:0,0:0:0:0:
18,233,105424,1,0,0:0:0:0:
18,233,105514,1,8,0:0:0:0:
103,71,105693,1,8,0:0:0:0:
120,269,105872,1,10,0:0:0:0:
0,132,106050,1,2,0:0:0:0:
218,128,106229,6,0,P|207:161|222:209,1,75,6|0,1:2|0:0,0:0:0:0:
338,16,106586,2,0,P|349:49|334:97,1,75,2|0,0:0|0:0,0:0:0:0:
318,268,106943,1,10,0:0:0:0:
311,176,107122,1,2,0:0:0:0:
394,329,107300,1,2,0:0:0:0:
426,238,107479,5,8,0:0:0:0:
426,238,107568,1,12,0:1:0:0:
426,238,107657,2,0,P|473:227|522:217,1,75,2|0,1:2|0:0,0:0:0:0:
260,130,108014,2,0,P|307:141|356:151,1,75,2|0,0:0|0:0,0:0:0:0:
445,0,108372,2,0,B|411:85|473:54|438:165,1,150,8|2,0:0|0:0,0:0:0:0:
344,308,108907,5,4,0:1:0:0:
344,308,108997,1,12,0:1:0:0:
344,308,109086,2,0,P|356:260|395:239,1,75,2|4,1:2|0:1,0:0:0:0:
256,111,109443,2,0,P|276:166|263:194,1,75,2|0,0:0|0:0,0:0:0:0:
501,152,109800,2,0,P|443:173|375:117,1,150,10|2,0:0|0:0,0:0:0:0:
250,20,110336,5,0,0:0:0:0:
250,20,110425,1,2,0:0:0:0:
250,20,110514,2,0,P|291:11|349:-6,1,75,2|0,1:2|0:0,0:0:0:0:
269,140,110872,2,0,P|228:129|182:121,1,75,2|0,1:2|0:0,0:0:0:0:
62,0,111229,2,0,P|90:92|95:153,1,150,10|0,0:0|0:0,0:0:0:0:
7,297,111764,1,4,0:1:0:0:
7,297,111854,1,12,0:1:0:0:
7,297,111943,6,0,P|53:258|88:254,1,75,2|4,1:2|0:1,0:0:0:0:
194,296,112300,1,2,0:0:0:0:
106,352,112479,1,0,0:0:0:0:
157,184,112657,2,0,P|225:218|273:207,1,112.5,8|0,0:0|2:0,0:0:0:0:
342,203,113014,2,0,P|333:145|331:111,1,75,2|4,0:0|0:1,0:0:0:0:
335,29,113282,1,12,0:1:0:0:
335,29,113372,6,0,P|384:0|428:5,1,75,2|4,1:2|0:1,0:0:0:0:
512,168,113729,2,0,P|489:137|433:125,1,75,2|0,1:2|0:0,0:0:0:0:
286,253,114086,2,0,B|374:261|333:206|440:218,1,150,10|2,0:0|0:0,0:0:0:0:
410,383,114622,5,2,0:0:0:0:
395,346,114711,1,2,0:0:0:0:
413,311,114800,1,2,1:2:0:0:
221,239,114979,1,4,0:1:0:0:
307,193,115157,2,0,P|319:246|305:271,1,75,4|0,0:1|0:0,0:0:0:0:
99,143,115514,2,0,B|142:158|142:158|214:138,1,112.5,8|0,1:2|2:0,0:0:0:0:
271,66,115872,2,0,P|243:14|206:14,1,75,2|0,0:0|0:0,0:0:0:0:
221,239,116229,5,2,1:2:0:0:
206,140,116407,1,8,0:0:0:0:
325,208,116586,1,8,0:0:0:0:
287,323,116764,1,10,0:3:0:0:
310,122,116943,2,0,B|414:115|359:179|468:162,1,150,6|4,0:3|0:3,0:0:0:0:
310,122,117657,6,0,P|294:49|373:22,1,150,4|2,0:0|0:2,0:0:0:0:
231,299,118193,2,0,P|247:214|194:183,1,150,2|0,0:2|0:0,0:0:0:0:
214,31,118729,2,0,P|163:59|130:54,1,75,2|4,1:2|0:1,0:0:0:0:
22,172,118997,1,12,0:1:0:0:
22,172,119086,6,0,P|78:144|113:157,2,75,2|0|2,1:2|0:0|0:2,0:0:0:0:
81,382,119622,2,0,B|60:334|60:334|89:233,1,150,2|0,0:2|0:0,0:0:0:0:
246,312,120157,2,0,L|166:325,1,75,2|8,0:0|0:0,0:0:0:0:
148,177,120425,1,8,0:0:0:0:
148,177,120514,6,0,P|212:217|172:149,1,200,2|2,1:2|0:0,0:0:0:0:
296,29,121110,1,2,0:0:0:0:
291,40,121229,2,0,B|271:72|271:72|285:122,1,75,10|0,0:0|0:0,0:0:0:0:
433,194,121586,2,0,B|443:158|443:158|423:126,1,75,2|4,0:0|0:1,0:0:0:0:
339,174,121854,1,12,0:1:0:0:
339,174,121943,5,2,1:2:0:0:
402,274,122122,1,4,0:1:0:0:
302,288,122300,1,2,1:2:0:0:
365,371,122479,1,2,0:0:0:0:
511,239,122657,2,0,P|471:311|498:379,1,150,10|2,0:0|0:0,0:0:0:0:
327,197,123193,1,2,0:0:0:0:
396,140,123372,6,0,P|421:190|412:221,1,75,2|8,1:2|0:0,0:0:0:0:
362,364,123729,2,0,P|369:311|395:288,1,75,2|0,0:0|0:0,0:0:0:0:
221,139,124086,2,0,P|297:137|322:216,1,150,10|0,0:0|0:0,0:0:0:0:
213,317,124622,1,4,0:1:0:0:
213,317,124711,1,12,0:1:0:0:
213,317,124800,6,0,P|223:260|262:243,1,75,2|4,1:2|0:1,0:0:0:0:
118,123,125157,2,0,P|138:182|131:204,1,75,2|0,1:2|0:0,0:0:0:0:
316,169,125514,2,0,P|265:161|221:154,1,75,10|0,0:0|0:0,0:0:0:0:
192,70,125872,1,2,0:0:0:0:
273,15,126050,1,2,0:0:0:0:
99,1,126229,6,0,P|112:50|113:90,1,75,2|0,1:2|0:0,0:0:0:0:
0,221,126586,2,0,P|-4:148|11:64,2,150,2|8|2,0:0|0:0|0:0,0:0:0:0:
92,154,127479,1,0,0:0:0:0:
189,273,127657,6,0,P|149:235|112:238,1,75,2|0,1:2|0:0,0:0:0:0:
0,345,128014,2,0,P|40:383|77:380,1,75,2|8,1:2|0:0,0:0:0:0:
113,316,128282,1,8,0:0:0:0:
113,316,128372,1,8,0:0:0:0:
47,227,128550,1,8,0:3:0:0:
167,103,128729,1,10,0:0:0:0:
141,204,128907,1,8,0:0:0:0:
3,147,129086,6,0,P|57:130|99:123,1,75,6|0,1:2|0:0,0:0:0:0:
148,3,129443,2,0,P|202:20|244:27,1,75,2|0,1:2|0:0,0:0:0:0:
173,154,129800,1,10,0:0:0:0:
259,133,129979,1,2,0:0:0:0:
317,35,130157,1,2,0:0:0:0:
410,60,130336,1,4,0:1:0:0:
410,60,130425,1,12,0:1:0:0:
410,60,130514,6,0,P|459:69|509:75,1,75,2|0,1:2|0:0,0:0:0:0:
494,238,130872,2,0,P|438:171|362:184,1,150,2|8,1:2|0:0,0:0:0:0:
484,351,131407,1,0,0:0:0:0:
291,292,131586,1,2,0:0:0:0:
407,277,131764,5,2,0:0:0:0:
407,277,131854,1,2,0:0:0:0:
407,277,131943,2,0,P|383:332|379:364,1,75,2|0,1:2|0:0,0:0:0:0:
261,140,132300,2,0,P|285:195|289:227,1,75,2|0,1:2|0:0,0:0:0:0:
494,173,132657,2,0,P|443:179|366:140,1,112.5,10|0,0:0|2:0,0:0:0:0:
333,79,133014,2,0,P|306:55|270:50,1,75,2|2,0:0|0:0,0:0:0:0:
53,70,133372,6,0,P|124:108|182:80,2,150,2|2|8,1:2|1:2|0:0,0:0:0:0:
123,18,134264,1,2,0:0:0:0:
91,140,134443,1,6,0:3:0:0:
159,232,134622,1,2,0:0:0:0:
35,384,134800,6,0,P|16:314|95:302,2,150,4|0|8,1:2|1:2|0:0,0:0:0:0:
124,170,135872,2,0,P|158:223|175:226,1,75,2|0,0:0|0:0,0:0:0:0:
273,12,136229,2,0,B|242:95|297:72|260:180,2,150,2|2|8,1:2|1:2|0:0,0:0:0:0:
223,286,137300,2,0,P|266:253|306:259,1,75,2|0,1:2|0:0,0:0:0:0:
394,384,137657,6,0,P|392:298|463:270,1,150,2|0,1:2|1:2,0:0:0:0:
483,353,138193,1,0,0:0:0:0:
392,115,138372,2,0,P|399:172|382:198,1,75,8|0,0:0|0:0,0:0:0:0:
282,96,138729,2,0,P|275:39|292:13,1,75,2|0,1:2|0:0,0:0:0:0:
406,285,139086,6,0,P|376:228|288:225,1,150,6|8,1:2|0:3,0:0:0:0:
239,334,139622,1,4,0:3:0:0:
327,295,139800,1,8,0:3:0:0:
198,216,139979,1,4,0:3:0:0:
237,370,140157,1,4,0:3:0:0:
319,149,140336,1,4,0:3:0:0:
126,312,140514,6,0,P|67:308|16:304,1,75,12|0,0:0|0:0,0:0:0:0:
189,219,140872,2,0,P|130:215|79:211,1,75,8|0,0:0|0:0,0:0:0:0:
14,23,141229,6,0,P|52:20|89:17,1,75,12|0,0:0|0:0,0:0:0:0:
77,116,141587,2,0,P|115:113|152:110,1,75,12|0,0:0|0:0,0:0:0:0:
225,190,141854,1,8,0:0:0:0:
225,190,141943,5,8,0:0:0:0:
342,20,142122,2,0,P|259:-2|211:55,1,150,8|8,0:3|0:0,0:0:0:0:
289,214,142657,1,8,0:0:0:0:
315,107,142836,1,4,0:3:0:0:
211,325,143014,1,12,0:0:0:0:
164,210,143193,1,4,0:3:0:0:
322,354,143372,6,0,B|422:369|376:306|478:316,1,165.000005035401,6|0,1:2|0:0,0:0:0:0:
408,221,143907,1,0,0:0:0:0:
511,130,144086,2,0,B|508:161|494:174|494:174|505:187|501:228,1,82.5000025177003,8|0,0:0|0:0,0:0:0:0:
371,16,144443,1,2,0:0:0:0:
325,122,144622,5,0,0:0:0:0:
366,125,144711,1,8,0:0:0:0:
407,129,144800,1,2,1:2:0:0:
371,16,144979,1,8,0:0:0:0:
238,0,145157,2,0,P|218:54|232:91,1,82.5000025177003,2|0,1:2|0:0,0:0:0:0:
269,300,145514,2,0,P|286:215|247:162,1,123.75000377655,8|0,0:0|2:0,0:0:0:0:
136,63,145872,2,0,P|150:138|170:158,1,82.5000025177003,2|0,0:0|0:0,0:0:0:0:
196,243,146139,1,0,0:0:0:0:
196,243,146229,6,0,P|136:212|93:228,1,82.5000025177003,2|0,1:2|0:0,0:0:0:0:
57,15,146586,2,0,P|35:64|46:106,1,82.5000025177003,2|0,1:2|0:0,0:0:0:0:
47,320,146943,1,10,0:0:0:0:
91,234,147122,1,0,0:0:0:0:
19,180,147300,1,2,0:0:0:0:
129,383,147479,5,4,0:1:0:0:
129,383,147568,1,12,0:1:0:0:
129,383,147657,2,0,P|150:326|203:319,1,82.5000025177003,2|4,1:2|0:1,0:0:0:0:
351,280,148014,2,0,P|299:310|260:303,1,82.5000025177003,2|0,1:2|0:0,0:0:0:0:
157,149,148372,1,8,0:0:0:0:
220,243,148550,1,0,0:0:0:0:
316,55,148729,1,0,0:0:0:0:
261,140,148907,5,2,0:0:0:0:
261,140,148997,1,2,0:0:0:0:
261,140,149086,2,0,B|298:163|298:163|371:143,1,82.5000025177003,4|0,1:2|0:0,0:0:0:0:
512,134,149443,1,0,1:0:0:0:
439,13,149622,1,2,0:0:0:0:
439,13,149711,1,2,0:0:0:0:
439,13,149800,2,0,B|426:59|426:59|432:95|432:95|423:162,1,123.75000377655,14|0,0:0|2:0,0:0:0:0:
309,271,150157,2,0,P|350:238|391:246,1,82.5000025177003,2|4,0:0|0:1,0:0:0:0:
467,277,150425,1,12,0:1:0:0:
467,277,150514,5,2,1:2:0:0:
373,345,150693,1,8,0:0:0:0:
273,202,150872,1,2,1:2:0:0:
377,239,151050,1,2,0:0:0:0:
257,348,151229,2,0,P|218:305|163:301,1,82.5000025177003,8|0,0:0|0:0,0:0:0:0:
115,354,151586,1,2,0:0:0:0:
13,200,151764,5,2,0:0:0:0:
38,231,151853,1,8,0:0:0:0:
78,238,151942,1,2,1:2:0:0:
174,187,152122,1,4,0:1:0:0:
98,101,152300,1,2,1:2:0:0:
176,286,152479,1,0,0:0:0:0:
268,136,152657,2,0,B|356:157|326:95|436:126,1,165.000005035401,10|0,0:0|0:0,0:0:0:0:
383,290,153193,5,4,0:1:0:0:
364,250,153282,1,12,0:1:0:0:
380,209,153371,1,2,1:2:0:0:
512,377,153550,2,0,L|409:362,1,82.5000025177003,10|0,0:0|0:0,0:0:0:0:
278,303,153907,1,2,0:0:0:0:
297,343,153996,1,2,0:0:0:0:
281,384,154086,1,12,1:2:0:0:
190,347,154264,1,0,1:0:0:0:
285,221,154443,1,10,0:0:0:0:
173,160,154622,1,8,0:0:0:0:
339,28,154800,6,0,B|298:50|282:85|282:85|266:44|214:22,1,165.000005035401,4|0,0:0|0:0,0:0:0:0:
98,228,155336,1,0,0:0:0:0:
45,142,155514,2,4,P|110:107|174:169,1,165.000005035401,10|4,0:0|0:1,0:1:0:0:
148,377,156050,5,4,0:1:0:0:
140,337,156139,1,12,0:1:0:0:
156,300,156228,1,2,1:2:0:0:
244,352,156407,1,8,0:0:0:0:
179,184,156586,1,2,1:2:0:0:
239,263,156764,1,0,0:1:0:0:
266,75,156943,1,10,0:0:0:0:
278,169,157122,1,0,0:1:0:0:
453,126,157300,2,0,P|411:118|352:113,1,82.5000025177003,10|8,0:0|0:0,0:0:0:0:
142,46,157657,6,0,P|201:38|264:19,1,82.5000025177003,4|0,0:0|2:0,0:0:0:0:
332,0,158014,1,8,0:3:0:0:
292,119,158193,1,8,0:0:0:0:
292,119,158282,1,8,0:0:0:0:
292,119,158372,1,8,0:0:0:0:
378,210,158550,1,8,0:3:0:0:
343,324,158729,2,0,P|296:307|256:307,1,82.5000025177003,4|8,0:3|0:0,0:0:0:0:
131,224,159086,5,6,1:2:0:0:
167,370,159264,1,0,0:0:0:0:
215,162,159443,1,6,1:3:0:0:
0,290,159622,1,8,0:0:0:0:
41,293,159711,1,8,0:0:0:0:
82,297,159800,1,10,1:2:0:0:
207,247,159979,1,8,0:3:0:0:
102,82,160157,2,0,B|81:117|81:117|93:159,1,82.5000025177003,6|0,1:3|0:0,0:0:0:0:
220,379,160514,6,0,B|235:301|235:301|192:217,1,165.000005035401,6|2,0:0|1:2,0:0:0:0:
127,310,161050,1,0,0:0:0:0:
373,232,161229,2,0,P|319:231|295:205,1,82.5000025177003,8|0,0:0|0:0,0:0:0:0:
245,131,161586,1,2,1:2:0:0:
331,65,161764,1,4,0:1:0:0:
244,10,161943,6,0,P|201:4|153:-1,1,82.5000025177003,2|8,1:2|1:2,0:0:0:0:
130,178,162300,1,2,1:2:0:0:
195,105,162479,1,0,0:0:0:0:
41,11,162657,2,0,P|58:57|60:93,1,82.5000025177003,10|0,0:0|0:0,0:0:0:0:
130,178,163014,2,0,P|113:224|111:260,1,82.5000025177003,2|4,0:0|0:1,0:0:0:0:
168,361,163282,1,12,0:1:0:0:
168,361,163371,5,2,1:2:0:0:
269,334,163550,1,8,0:0:0:0:
104,278,163729,1,2,1:2:0:0:
205,251,163908,1,0,0:0:0:0:
0,206,164086,2,0,B|71:213|30:170|134:180,1,123.75000377655,10|0,0:0|2:0,0:0:0:0:
190,101,164443,2,0,P|172:48|189:18,1,82.5000025177003,8|4,0:0|0:1,0:0:0:0:
276,56,164711,1,12,0:1:0:0:
276,56,164800,5,2,1:2:0:0:
268,279,164979,1,8,0:0:0:0:
206,214,165157,2,0,P|243:188|331:217,1,123.75000377655,2|0,1:2|2:0,0:0:0:0:
400,295,165514,2,0,P|370:335|375:391,1,82.5000025177003,8|0,0:0|0:0,0:0:0:0:
485,259,165872,1,2,0:0:0:0:
407,190,166050,1,2,0:0:0:0:
508,91,166229,6,0,P|456:100|422:78,1,82.5000025177003,6|0,1:2|0:0,0:0:0:0:
321,134,166586,1,2,1:2:0:0:
268,55,166764,1,2,0:0:0:0:
301,247,166943,2,0,P|269:207|219:207,1,82.5000025177003,10|0,0:0|0:0,0:0:0:0:
148,378,167300,1,2,1:2:0:0:
217,305,167479,1,4,0:1:0:0:
217,305,167568,1,12,0:1:0:0:
217,305,167657,6,0,P|167:292|123:283,1,82.5000025177003,4|8,1:1|0:0,0:0:0:0:
0,142,168014,1,2,1:2:0:0:
71,36,168193,2,0,P|86:96|98:208,1,165.000005035401,2|0,0:2|0:0,0:0:0:0:
281,84,168729,2,0,P|226:80|171:65,1,82.5000025177003,2|8,0:0|0:0,0:0:0:0:
107,229,168997,1,8,0:0:0:0:
107,229,169086,6,0,P|167:218|215:225,1,82.5000025177003,6|0,1:2|0:0,0:0:0:0:
322,280,169443,1,2,1:2:0:0:
232,359,169622,1,0,1:1:0:0:
312,186,169800,2,0,B|409:172|370:251|497:221,1,165.000005035401,10|2,0:0|1:2,0:0:0:0:
449,119,170336,1,8,0:0:0:0:
321,293,170514,5,2,1:2:0:0:
469,111,170693,1,10,0:0:0:0:
441,248,170872,1,10,1:2:0:0:
325,108,171050,1,8,0:0:0:0:
401,9,171229,1,10,1:3:0:0:
360,203,171407,1,6,0:3:0:0:
237,63,171586,2,0,P|183:52|139:42,1,82.5000025177003,6|0,1:3|1:2,0:0:0:0:
4,202,171943,6,0,P|66:188|158:174,1,123.75000377655,4|0,0:0|2:0,0:0:0:0:
215,252,172300,2,0,P|198:313|197:353,1,82.5000025177003,0|0,1:2|0:0,0:0:0:0:
41,106,172657,2,0,P|69:198|79:297,1,165.000005035401,10|0,0:0|0:0,0:0:0:0:
242,144,173193,1,4,0:1:0:0:
200,141,173282,1,12,0:1:0:0:
161,130,173371,5,2,1:2:0:0:
238,40,173550,1,2,0:0:0:0:
279,241,173729,1,2,1:2:0:0:
242,144,173907,1,12,0:1:0:0:
351,162,174086,1,10,0:0:0:0:
384,56,174264,1,2,0:0:0:0:
512,158,174443,2,0,P|477:139|416:129,1,82.5000025177003,2|0,1:2|0:0,0:0:0:0:
350,202,174711,1,0,0:0:0:0:
350,202,174800,6,0,P|374:285|379:374,1,165.000005035401,4|2,0:0|1:2,0:0:0:0:
463,253,175336,1,8,0:0:0:0:
255,270,175514,1,10,0:0:0:0:
332,145,175693,1,0,0:0:0:0:
379,306,175872,1,8,0:3:0:0:
231,180,176050,1,2,1:2:0:0:
427,69,176229,6,0,L|320:51,1,82.5000025177003,6|4,0:0|0:1,0:0:0:0:
202,283,176586,1,2,1:2:0:0:
141,200,176764,1,2,0:0:0:0:
204,126,176943,2,0,L|285:139,1,82.5000025177003,10|8,0:0|0:3,0:0:0:0:
431,294,177300,1,6,0:3:0:0:
478,188,177479,1,2,1:2:0:0:
342,255,177657,6,0,P|338:334|356:351,1,75,2|0,1:2|0:0,0:0:0:0:
311,150,178014,2,0,P|257:183|252:217,1,75,2|0,1:2|0:0,0:0:0:0:
492,192,178372,2,0,L|405:179,1,75,8|0,0:0|0:0,0:0:0:0:
359,52,178729,2,0,L|446:65,1,75,2|0,0:0|0:0,0:0:0:0:
342,255,179086,5,2,1:2:0:0:
311,150,179264,1,0,0:0:0:0:
417,180,179443,1,2,1:2:0:0:
237,241,179622,1,0,0:0:0:0:
271,8,179800,2,0,L|253:96,1,75,10|0,0:0|0:0,0:0:0:0:
77,141,180157,1,0,0:0:0:0:
144,72,180336,1,2,0:0:0:0:
0,165,180514,6,0,P|1:111|37:85,1,75,2|0,1:2|0:0,0:0:0:0:
264,180,180872,2,0,L|166:159,1,75,2|0,1:2|0:0,0:0:0:0:
92,356,181229,1,10,0:0:0:0:
160,281,181407,1,2,0:0:0:0:
86,224,181586,1,2,0:0:0:0:
21,292,181764,5,8,0:0:0:0:
21,292,181854,1,8,0:0:0:0:
21,292,181943,1,8,1:2:0:0:
171,191,182122,1,8,0:0:0:0:
0,142,182300,2,0,L|86:131,1,75,2|0,1:2|0:0,0:0:0:0:
149,47,182657,2,0,L|230:58,1,75,10|0,0:0|0:0,0:0:0:0:
306,195,183014,2,0,P|264:212|202:189,1,112.5,2|0,1:2|0:0,0:0:0:0:
106,215,183372,6,0,P|159:180|220:205,1,112.5,6|0,1:2|2:0,0:0:0:0:
273,272,183729,2,0,P|262:328|258:366,1,75,2|0,1:2|0:0,0:0:0:0:
377,381,184086,2,0,P|431:382|465:340,1,112.5,10|0,0:0|2:0,0:0:0:0:
453,243,184443,2,0,P|442:187|438:149,1,75,2|0,0:0|0:0,0:0:0:0:
489,75,184711,1,8,0:0:0:0:
489,75,184800,5,10,1:2:0:0:
312,9,184979,1,8,0:3:0:0:
347,172,185157,1,10,1:3:0:0:
430,0,185336,1,2,1:2:0:0:
260,100,185514,2,0,P|216:97|153:90,1,75,10|4,0:3|0:3,0:0:0:0:
361,281,185872,1,2,0:0:0:0:
429,156,186050,1,2,1:2:0:0:
285,193,186229,6,0,B|261:258|261:258|285:347,1,150,4|8,0:0|0:0,0:0:0:0:
361,281,186764,1,0,0:0:0:0:
180,39,186943,2,0,B|204:104|204:104|180:193,1,150,8|8,0:0|0:0,0:0:0:0:
103,102,187479,1,8,0:0:0:0:
384,204,187657,6,0,L|282:179,1,75,6|0,0:0|0:0,0:0:0:0:
410,113,188014,1,2,1:2:0:0:
237,245,188193,6,0,L|169:164,1,75,2|8,0:0|0:0,0:0:0:0:
311,186,188550,1,2,0:0:0:0:
94,192,188729,6,0,L|86:87,1,75,2|8,1:2|0:0,0:0:0:0:
188,187,189086,1,2,1:2:0:0:
0,126,189264,5,8,0:0:0:0:
177,40,189443,2,0,P|145:10|92:10,1,75,2|0,1:2|0:0,0:0:0:0:
0,221,189800,2,0,P|51:205|133:193,1,112.5,10|0,0:0|2:0,0:0:0:0:
205,183,190157,2,0,P|193:239|189:275,1,75,4|8,0:3|0:3,0:0:0:0:
315,372,190514,5,4,0:0:0:0:
279,238,190693,1,8,0:0:0:0:
456,324,190872,1,4,0:3:0:0:
419,143,191050,1,8,0:0:0:0:
368,263,191228,1,8,0:0:0:0:
486,55,191407,1,8,0:0:0:0:
448,60,191496,1,8,0:0:0:0:
411,66,191585,1,8,0:0:0:0:
322,158,191764,1,8,0:0:0:0:
218,67,191943,5,8,0:0:0:0:
275,245,192122,1,4,0:3:0:0:
305,58,192300,5,8,0:3:0:0:
179,329,192479,1,2,1:2:0:0:
123,199,192657,6,0,B|216:198|162:259|275:243,1,150,4|0,1:2|0:0,0:0:0:0:
69,295,193372,6,0,P|62:220|146:211,1,150,4|0,0:0|1:0,0:0:0:0:
235,144,193907,1,0,0:0:0:0:
125,35,194086,2,0,P|146:98|125:123,1,75,8|0,0:0|0:0,0:0:0:0:
199,332,194443,2,0,P|202:273|227:255,1,75,2|2,0:0|0:0,0:0:0:0:
258,269,194711,1,2,0:0:0:0:
306,277,194800,5,4,1:1:0:0:
426,226,194979,1,4,0:1:0:0:
311,125,195157,2,0,P|314:40|346:22,1,112.5,2|0,1:2|2:0,0:0:0:0:
410,119,195514,5,10,0:0:0:0:
231,70,195693,1,2,0:0:0:0:
428,220,195872,5,2,0:0:0:0:
281,175,196050,1,2,0:0:0:0:
429,317,196229,6,0,L|349:290,1,75,2|4,1:2|0:1,0:0:0:0:
235,251,196586,1,2,1:2:0:0:
279,358,196764,1,2,0:0:0:0:
279,358,196854,1,2,0:0:0:0:
279,358,196943,1,8,0:0:0:0:
255,169,197122,1,0,0:0:0:0:
147,294,197300,2,0,P|107:303|64:315,1,75,2|8,1:2|0:0,0:0:0:0:
18,209,197657,5,2,1:2:0:0:
78,116,197836,1,4,0:1:0:0:
0,211,198014,1,2,1:2:0:0:
74,311,198193,1,0,0:0:0:0:
173,119,198372,2,0,B|165:157|165:157|174:196|174:196|160:249,1,112.5,8|0,0:0|2:0,0:0:0:0:
165,228,198729,1,2,1:2:0:0:
79,153,198907,1,2,1:2:0:0:
232,11,199086,6,0,P|259:44|315:47,1,75,6|0,0:0|0:0,0:0:0:0:
354,140,199443,2,0,P|417:96|491:107,1,150,2|8,0:0|0:0,0:0:0:0:
175,226,199979,1,0,0:0:0:0:
245,157,200157,2,0,P|272:223|274:245,1,75,2|8,1:2|0:0,0:0:0:0:
438,351,200514,5,2,1:2:0:0:
344,371,200693,2,0,P|350:317|363:282,1,75,10|0,0:0|1:1,0:0:0:0:
465,258,201050,1,2,1:2:0:0:
305,162,201229,2,0,P|360:193|418:171,2,112.5,10|2|2,0:0|0:0|0:0,0:0:0:0:
249,14,201854,1,8,0:0:0:0:
249,14,201943,6,0,P|257:67|244:89,1,75,2|8,1:2|0:0,0:0:0:0:
144,172,202300,2,0,P|136:119|149:97,1,75,2|0,1:2|0:0,0:0:0:0:
352,82,202657,1,10,0:0:0:0:
305,162,202836,1,4,0:1:0:0:
64,75,203014,2,0,P|87:37|132:28,1,75,14|0,0:0|0:0,0:0:0:0:
240,248,203372,5,4,1:2:0:0:
144,172,203550,1,8,0:0:0:0:
216,337,203729,1,8,1:3:0:0:
357,189,203907,1,8,0:0:0:0:
319,183,203996,1,8,0:0:0:0:
282,178,204085,1,8,0:0:0:0:
135,257,204264,1,10,0:0:0:0:
310,301,204443,1,10,1:3:0:0:
213,111,204622,1,2,0:0:0:0:
69,346,204800,6,0,B|139:363|99:314|205:338,1,112.5,6|0,0:0|0:0,0:0:0:0:
222,338,205157,1,2,1:2:0:0:
168,227,205336,1,0,0:0:0:0:
275,236,205514,1,12,0:1:0:0:
297,126,205693,1,2,0:0:0:0:
382,219,205872,1,2,1:2:0:0:
208,136,206050,5,4,0:1:0:0:
208,136,206139,1,4,0:1:0:0:
208,136,206229,2,0,P|191:68|188:44,1,75,2|0,1:2|0:0,0:0:0:0:
374,234,206586,2,0,P|366:270|356:306,1,75,2|0,1:2|0:0,0:0:0:0:
150,283,206943,2,0,P|122:193|110:123,1,150,8|0,0:0|1:0,0:0:0:0:
243,233,207479,1,4,0:1:0:0:
126,384,207657,6,0,P|181:360|225:352,2,75,2|2|2,1:2|0:0|1:2,0:0:0:0:
39,301,208193,1,2,0:0:0:0:
232,249,208372,2,0,P|284:278|313:283,1,75,6|0,0:0|0:0,0:0:0:0:
365,382,208729,2,0,P|417:353|446:348,1,75,2|4,1:2|0:1,0:0:0:0:
486,275,208997,1,12,0:1:0:0:
486,275,209086,5,2,1:2:0:0:
365,191,209264,1,8,0:0:0:0:
480,127,209443,1,8,1:3:0:0:
392,286,209622,1,8,0:0:0:0:
286,132,209800,2,0,P|344:94|371:101,1,75,8|8,0:0|0:3,0:0:0:0:
280,259,210157,2,0,L|211:249,1,37.5,6|0,0:3|0:0,0:0:0:0:
138,187,210336,2,0,L|207:177,1,37.5,2|0,0:0|0:0,0:0:0:0:
345,352,210514,6,0,L|180:327,1,150,6|4,1:2|1:0,0:0:0:0:
196,329,211229,1,10,1:2:0:0:
236,208,211407,1,2,0:0:0:0:
81,130,211586,1,10,0:3:0:0:
128,226,211764,1,10,0:3:0:0:
231,97,211943,6,0,B|282:113|282:113|334:99|334:99|397:117,1,150,6|4,1:2|1:2,0:0:0:0:
328,279,212479,1,0,0:0:0:0:
318,243,212568,1,12,0:1:0:0:
333,209,212657,1,4,1:1:0:0:
457,183,212836,1,8,0:3:0:0:
412,268,213014,1,6,1:3:0:0:
373,136,213193,1,2,1:2:0:0:
494,19,213372,6,0,P|441:46|401:28,1,75,6|0,0:0|0:0,0:0:0:0:
236,35,213729,2,0,P|289:8|329:26,1,75,2|0,1:2|0:0,0:0:0:0:
471,135,214086,2,0,P|400:143|381:127,1,75,10|0,0:0|0:0,3:0:0:0:
286,113,214443,1,2,1:2:0:0:
248,211,214622,1,8,0:0:0:0:
299,358,214800,5,6,0:3:0:0:
339,262,214979,1,2,1:2:0:0:
157,284,215157,2,0,B|194:297|194:297|245:280,1,75,14|8,0:0|0:0,0:0:0:0:
237,254,215425,1,8,0:0:0:0:
247,221,215514,1,10,0:0:0:0:
339,262,215693,1,8,0:3:0:0:
134,71,215872,2,0,L|160:167,1,75,6|2,1:3|1:2,0:0:0:0:
373,159,216229,5,14,0:0:0:0:
256,109,216407,1,2,0:0:0:0:
403,43,216586,5,10,1:2:0:0:
295,210,216764,1,2,0:0:0:0:
503,227,216943,6,0,P|492:176|456:158,1,75,12|2,0:0|0:0,0:0:0:0:
367,317,217300,2,0,P|378:368|414:386,1,75,12|2,0:0|0:0,0:0:0:0:
425,247,217657,5,12,0:0:0:0:
320,132,217836,1,4,0:3:0:0:
212,252,218014,5,12,0:0:0:0:
317,114,218193,1,4,0:3:0:0:
101,114,218372,5,12,0:0:0:0:
215,273,218550,1,4,0:3:0:0:
0,256,218729,5,12,0:0:0:0:
101,95,218907,1,4,0:3:0:0:
103,208,219086,5,2,0:0:0:0:
50,29,228372,6,0,B|85:34|85:34|121:25|121:25|171:32,1,112.500004291535,4|0,0:0|0:0,0:0:0:0:
160,30,229443,2,0,P|128:72|155:140,1,112.5
310,117,229800,2,0,B|347:107|320:57|259:49|221:98,1,150,12|0,1:2|0:0,0:0:0:0:
33,378,230514,6,0,P|78:326|151:365,1,150,6|8,1:2|1:0,0:0:0:0:
59,285,231050,1,0,0:0:0:0:
170,235,231229,2,0,P|215:260|247:251,1,75,2|8,1:2|0:0,0:0:0:0:
379,335,231586,2,0,P|342:334|312:356,1,75,2|0,1:2|0:0,0:0:0:0:
219,161,231943,5,10,1:2:0:0:
331,281,232122,2,0,B|341:236|341:236|330:180|330:180|347:117,1,150,2|8,0:0|0:3,0:0:0:0:
426,189,232568,1,4,0:3:0:0:
426,189,232657,1,6,0:3:0:0:
257,94,232836,1,2,1:2:0:0:
462,19,233014,2,0,P|428:68|393:72,1,75,10|4,0:0|0:3,0:0:0:0:
176,127,233372,5,4,1:2:0:0:
295,0,233550,1,4,0:1:0:0:
286,36,233639,1,4,0:1:0:0:
278,73,233728,1,8,0:0:0:0:
216,235,233907,1,10,0:3:0:0:
182,52,234086,1,4,1:3:0:0:
319,182,234264,1,2,1:2:0:0:
117,213,234443,1,6,1:2:0:0:
117,213,234800,6,0,B|148:278|196:240|200:323,1,146.249993305207,2|0,0:0|2:0,0:0:0:0:
205,119,235157,2,0,P|136:117|107:180,1,146.249993305207,2|0,0:0|2:0,0:0:0:0:
344,177,235514,2,0,P|315:114|246:116,1,146.249993305207,2|0,0:0|2:0,0:0:0:0:
256,324,235872,2,0,B|260:241|308:279|340:214,1,146.249993305207,2|0,0:0|2:0,0:0:0:0:
312,94,236229,6,0,P|331:35|438:48,1,179.999994506836,4|0,1:2|1:0,0:0:0:0:
403,134,236764,1,0,0:0:0:0:
249,185,236943,2,0,P|281:237|265:284,1,89.9999972534181,8|0,0:0|0:0,0:0:0:0:
188,255,237300,1,2,1:2:0:0:
403,290,237479,5,4,0:1:0:0:
374,323,237568,1,12,0:1:0:0:
374,368,237657,1,2,1:2:0:0:
468,353,237836,1,8,0:0:0:0:
223,189,238014,2,0,P|289:216|349:189,1,134.999995880127,2|0,1:2|2:0,0:0:0:0:
508,122,238372,2,0,P|447:127|412:102,1,89.9999972534181,8|0,0:0|0:0,0:0:0:0:
225,47,238729,1,2,1:2:0:0:
311,130,238907,5,4,0:1:0:0:
311,130,238997,1,4,0:1:0:0:
311,130,239086,2,0,P|292:194|288:240,1,89.9999972534181,2|0,1:2|0:0,0:0:0:0:
163,23,239443,2,0,P|182:87|186:133,1,89.9999972534181,2|0,1:2|0:0,0:0:0:0:
312,312,239800,2,0,P|277:260|198:272,1,134.999995880127,10|0,0:0|2:0,0:0:0:0:
235,354,240157,1,0,1:2:0:0:
302,180,240336,5,4,0:1:0:0:
302,180,240425,1,12,0:1:0:0:
302,180,240514,1,2,1:2:0:0:
210,262,240693,1,8,0:0:0:0:
398,74,240872,2,0,P|388:137|380:181,1,89.9999972534181,2|0,1:2|0:0,0:0:0:0:
353,343,241229,2,0,P|390:288|473:302,1,134.999995880127,8|0,0:0|2:0,0:0:0:0:
431,376,241586,1,2,0:0:0:0:
183,226,241764,5,4,0:1:0:0:
183,226,241854,1,12,0:1:0:0:
183,226,241943,2,0,P|232:252|271:239,1,89.9999972534181,4|8,1:2|0:0,0:0:0:0:
237,144,242300,1,2,1:2:0:0:
467,140,242479,2,0,P|418:166|379:153,1,89.9999972534181,2|8,0:0|0:0,0:0:0:0:
413,58,242836,1,0,0:0:0:0:
357,354,243014,1,2,1:2:0:0:
362,309,243104,1,2,0:0:0:0:
344,269,243192,1,10,0:0:0:0:
307,245,243282,1,12,0:1:0:0:
262,243,243371,5,2,1:2:0:0:
279,332,243550,1,8,0:0:0:0:
342,124,243729,1,2,1:2:0:0:
160,234,243907,1,2,0:0:0:0:
75,142,244086,2,0,B|123:149|123:149|155:140|155:140|241:162,1,134.999995880127,10|0,0:0|2:0,0:0:0:0:
328,120,244443,1,10,1:2:0:0:
238,28,244622,1,10,0:0:0:0:
277,231,244800,5,2,1:2:0:0:
327,15,244979,1,8,1:3:0:0:
431,175,245157,1,4,0:3:0:0:
241,111,245336,1,2,1:2:0:0:
229,316,245514,2,0,B|131:301|163:380|62:364,1,179.999994506836,6|0,0:0|1:0,0:0:0:0:
64,364,246050,1,0,0:0:0:0:
161,199,246229,5,6,1:2:0:0:
53,183,246407,2,0,P|72:247|81:284,1,89.9999972534181,2|8,0:0|1:3,0:0:0:0:
241,111,246764,1,8,0:0:0:0:
197,98,246853,1,8,0:0:0:0:
154,86,246942,1,8,1:2:0:0:
161,199,247122,1,10,0:3:0:0:
364,16,247300,2,0,P|325:88|338:138,1,134.999995880127,6|0,1:3|2:0,0:0:0:0:
512,106,247657,6,0,L|400:91,1,89.9999972534181,4|0,1:2|0:0,0:0:0:0:
325,261,248014,2,0,L|235:272,1,89.9999972534181,0|2,1:2|0:2,0:0:0:0:
497,197,248282,1,2,1:2:0:0:
497,197,248372,2,4,P|416:185|351:174,1,134.999995880127,12|0,0:1|2:0,0:1:0:0:
252,122,248729,1,4,1:1:0:0:
326,2,248907,5,4,0:1:0:0:
349,39,248996,1,4,0:1:0:0:
343,83,249085,1,2,1:2:0:0:
193,202,249264,1,10,0:0:0:0:
421,206,249443,5,2,1:2:0:0:
252,122,249622,1,0,0:0:0:0:
430,121,249800,5,10,0:0:0:0:
287,244,249979,1,10,0:3:0:0:
512,191,250157,5,6,1:3:0:0:
331,52,250336,1,8,0:0:0:0:
431,323,250514,6,0,P|444:269|418:233,1,89.9999972534181,4|0,1:2|0:0,0:0:0:0:
318,64,250872,2,0,P|305:118|331:154,1,89.9999972534181,2|8,1:2|0:0,0:0:0:0:
323,368,251229,2,0,P|317:278|230:285,1,179.999994506836,10|8,0:3|1:3,0:0:0:0:
211,377,251764,1,8,0:3:0:0:
228,154,251943,6,0,P|193:194|147:198,1,89.9999972534181,6|0,0:0|0:0,0:0:0:0:
48,375,252300,1,6,1:3:0:0:
118,303,252479,1,10,0:0:0:0:
80,272,252568,1,8,0:0:0:0:
33,280,252657,1,8,0:0:0:0:
209,384,252836,1,10,0:3:0:0:
317,227,253014,2,0,P|308:298|305:333,1,89.9999972534181,6|2,1:3|1:2,0:0:0:0:
101,139,253372,6,0,P|153:186|252:119,2,179.999994506836,4|2|8,0:0|1:2|0:0,0:0:0:0:
179,82,254264,1,0,0:0:0:0:
252,283,254443,2,0,P|307:246|345:257,1,89.9999972534181,8|8,1:2|0:0,0:0:0:0:
455,180,254800,5,2,0:0:0:0:
349,94,254979,1,8,0:0:0:0:
456,26,255157,1,10,1:3:0:0:
354,199,255336,1,4,0:3:0:0:
354,199,255425,1,4,0:3:0:0:
354,199,255514,1,10,0:0:0:0:
258,13,255693,1,8,0:3:0:0:
366,105,255872,2,0,P|314:100|268:95,1,89.9999972534181,6|2,1:3|1:2,0:0:0:0:
164,22,256229,6,0,B|134:71|170:120|170:120|210:167|172:225,1,210,4|0,0:0|0:0,0:0:0:0:
19,334,257657,6,0,B|1:256|94:240|117:300|117:300|150:319|148:353|148:353|176:321|221:349|221:349|274:321|260:383|373:366|411:253|295:184|256:241,1,600,4|0,0:0|0:0,0:0:0:0:
182,156,261586,6,0,L|179:181,2,25,2|2|0,2:0|0:0|0:0,0:0:0:0:
140,134,261943,6,0,B|74:96|98:32|98:32|131:31|131:31|149:1|149:1|217:10|219:86|219:86|236:12|304:15|304:15|315:47|315:47|350:54|350:54|362:121|289:148|289:148|366:140|385:206|385:206|358:227|358:227|361:260|361:260|301:293|253:233|253:233|284:303|227:340|227:340|199:322|199:322|168:337|168:337|118:290|161:226|161:226|103:278|49:235|49:235|58:203|58:203|35:177|35:177|56:137|95:137,1,1518.00004632568,2|2,0:0|0:0,0:0:0:0:
