osu file format v14

[General]
AudioFilename: audio.mp3
AudioLeadIn: 0
PreviewTime: 121714
Countdown: 0
SampleSet: Soft
StackLeniency: 0.4
Mode: 0
LetterboxInBreaks: 0
EpilepsyWarning: 1
WidescreenStoryboard: 1

[Editor]
Bookmarks: 45534,77893,110253,122388,141264,152051,162837,173624,207332,239691,260927
DistanceSpacing: 1.4
BeatDivisor: 4
GridSize: 32
TimelineZoom: 3.199999

[Metadata]
Title:Natsu o Ikiru
TitleUnicode:夏を生きる
Artist:Ryokuoushoku Shakai
ArtistUnicode:緑黄色社会
Creator:Haruto
Version:Haruto x Kibbleru's Brilliance
Source:
Tags:haruto_aizawa wo jpop japanese pop kibbleru kudosu irohas Sarawatlism Stratos Lasse ajisai- Grindle Hoshimiya Toto live in summer collab collaboration リョクシャカ ryokushaka 長屋晴子 haruko nagaya 小林壱誓 issei kobayashi 穴見真吾 shingo anami [_lost_] conner c_o_n_n_e_r so0p mugiwarasekai MRL
BeatmapID:2596779
BeatmapSetID:1249436

[Difficulty]
HPDrainRate:6
CircleSize:4.3
OverallDifficulty:9
ApproachRate:9.2
SliderMultiplier:1.65
SliderTickRate:1

[Events]
//Background and Video events
0,0,"natsu.jpg",0,0
//Break Periods
//Storyboard Layer 0 (Background)
//Storyboard Layer 1 (Fail)
//Storyboard Layer 2 (Pass)
//Storyboard Layer 3 (Foreground)
Sprite,Foreground,Centre,"sb\ball.png",90,120 C,0,890,,96,156,219 S,0,890,1040,0,1.5 F,0,890,12584,1
Sprite,Foreground,Centre,"sb\ball.png",500,100 C,0,7631,,92,94,214 S,0,7631,7781,0,0.9 F,0,7631,12584,1
Sprite,Foreground,Centre,"sb\ball.png",120,350 C,0,3586,,95,168,217 S,0,3586,3736,0,1.3 F,0,3586,12584,1
Sprite,Foreground,Centre,"sb\ball.png",520,300 C,0,4597,,207,95,95 S,0,4597,4747,0,1.3 F,0,4597,12584,1
Sprite,Foreground,Centre,"sb\ball.png",300,140 C,0,6283,,247,119,119 S,0,6283,6433,0,1.1 F,0,6283,12584,1
Sprite,Foreground,Centre,"sb\credits\_000.png",90,120 S,0,1040,,0.35 F,0,1040,1140,0,1 C,0,1040,12584,247,234,195
Sprite,Foreground,Centre,"sb\credits\0048.png",0,0 S,0,1040,,0.5 C,0,1040,,245,202,103 M,0,1040,1240,175,120,173.1425,137.6725 R,0,1040,7040,-1.570796,4.712389 C,0,1240,,245,202,103 M,0,1240,1440,173.1425,137.6725,167.6514,154.5726 C,0,1440,,245,202,103 M,0,1440,1640,167.6514,154.5726,158.7664,169.9617 C,0,1640,,245,202,103 M,0,1640,1840,158.7664,169.9617,146.8761,183.1673 C,0,1840,,245,202,103 M,0,1840,2040,146.8761,183.1673,132.5,193.6122 C,0,2040,,245,202,103 M,0,2040,2240,132.5,193.6122,116.2664,200.8398 C,0,2240,,245,202,103 M,0,2240,2440,116.2664,200.8398,98.88492,204.5344 C,0,2440,,245,202,103 M,0,2440,2640,98.88492,204.5344,81.11508,204.5344 C,0,2640,,245,202,103 M,0,2640,2840,81.11508,204.5344,63.73355,200.8398 C,0,2840,,245,202,103 M,0,2840,3040,63.73355,200.8398,47.5,193.6122 C,0,3040,,245,202,103 M,0,3040,3240,47.5,193.6122,33.1239,183.1673 C,0,3240,,245,202,103 M,0,3240,3440,33.1239,183.1673,21.23355,169.9617 C,0,3440,,245,202,103 M,0,3440,3640,21.23355,169.9617,12.34864,154.5726 C,0,3640,,245,202,103 M,0,3640,3840,12.34864,154.5726,6.857452,137.6725 C,0,3840,,245,202,103 M,0,3840,4040,6.857452,137.6725,5,120 C,0,4040,,245,202,103 M,0,4040,4240,5,120,6.857452,102.3275 C,0,4240,,245,202,103 M,0,4240,4440,6.857452,102.3275,12.34864,85.42738 C,0,4440,,245,202,103 M,0,4440,4640,12.34864,85.42738,21.23355,70.03825 C,0,4640,,245,202,103 M,0,4640,4840,21.23355,70.03825,33.1239,56.83269 C,0,4840,,245,202,103 M,0,4840,5040,33.1239,56.83269,47.5,46.38784 C,0,5040,,245,202,103 M,0,5040,5240,47.5,46.38784,63.73355,39.16019 C,0,5240,,245,202,103 M,0,5240,5440,63.73355,39.16019,81.11508,35.46564 C,0,5440,,245,202,103 M,0,5440,5640,81.11508,35.46564,98.88492,35.46564 C,0,5640,,245,202,103 M,0,5640,5840,98.88492,35.46564,116.2664,39.16019 C,0,5840,,245,202,103 M,0,5840,6040,116.2664,39.16019,132.5,46.38784 C,0,6040,,245,202,103 M,0,6040,6240,132.5,46.38784,146.8761,56.83269 C,0,6240,,245,202,103 M,0,6240,6440,146.8761,56.83269,158.7664,70.03825 C,0,6440,,245,202,103 M,0,6440,6640,158.7664,70.03825,167.6514,85.42738 C,0,6640,,245,202,103 M,0,6640,6840,167.6514,85.42738,173.1425,102.3275 C,0,6840,,245,202,103 M,0,6840,7040,173.1425,102.3275,175,120 C,0,7040,,245,202,103 M,0,7040,7240,175,120,173.1425,137.6725 R,0,7040,13040,-1.570796,4.712389 C,0,7240,,245,202,103 M,0,7240,7440,173.1425,137.6725,167.6514,154.5726 C,0,7440,,245,202,103 M,0,7440,7640,167.6514,154.5726,158.7664,169.9617 C,0,7640,,245,202,103 M,0,7640,7840,158.7664,169.9617,146.8761,183.1673 C,0,7840,,245,202,103 M,0,7840,8040,146.8761,183.1673,132.5,193.6122 C,0,8040,,245,202,103 M,0,8040,8240,132.5,193.6122,116.2664,200.8398 C,0,8240,,245,202,103 M,0,8240,8440,116.2664,200.8398,98.88492,204.5344 C,0,8440,,245,202,103 M,0,8440,8640,98.88492,204.5344,81.11508,204.5344 C,0,8640,,245,202,103 M,0,8640,8840,81.11508,204.5344,63.73355,200.8398 C,0,8840,,245,202,103 M,0,8840,9040,63.73355,200.8398,47.5,193.6122 C,0,9040,,245,202,103 M,0,9040,9240,47.5,193.6122,33.1239,183.1673 C,0,9240,,245,202,103 M,0,9240,9440,33.1239,183.1673,21.23355,169.9617 C,0,9440,,245,202,103 M,0,9440,9640,21.23355,169.9617,12.34864,154.5726 C,0,9640,,245,202,103 M,0,9640,9840,12.34864,154.5726,6.857452,137.6725 C,0,9840,,245,202,103 M,0,9840,10040,6.857452,137.6725,5,120 C,0,10040,,245,202,103 M,0,10040,10240,5,120,6.857452,102.3275 C,0,10240,,245,202,103 M,0,10240,10440,6.857452,102.3275,12.34864,85.42738 C,0,10440,,245,202,103 M,0,10440,10640,12.34864,85.42738,21.23355,70.03825 C,0,10640,,245,202,103 M,0,10640,10840,21.23355,70.03825,33.1239,56.83269 C,0,10840,,245,202,103 M,0,10840,11040,33.1239,56.83269,47.5,46.38784 C,0,11040,,245,202,103 M,0,11040,11240,47.5,46.38784,63.73355,39.16019 C,0,11240,,245,202,103 M,0,11240,11440,63.73355,39.16019,81.11508,35.46564 C,0,11440,,245,202,103 M,0,11440,11640,81.11508,35.46564,98.88492,35.46564 C,0,11640,,245,202,103 M,0,11640,11840,98.88492,35.46564,116.2664,39.16019 C,0,11840,,245,202,103 M,0,11840,12040,116.2664,39.16019,132.5,46.38784 C,0,12040,,245,202,103 M,0,12040,12240,132.5,46.38784,146.8761,56.83269 C,0,12240,,245,202,103 M,0,12240,12440,146.8761,56.83269,158.7664,70.03825 C,0,12440,,245,202,103 M,0,12440,12640,158.7664,70.03825,167.6514,85.42738 C,0,12640,,245,202,103 M,0,12640,12840,167.6514,85.42738,173.1425,102.3275 C,0,12840,,245,202,103 M,0,12840,13040,173.1425,102.3275,175,120
Sprite,Foreground,Centre,"sb\credits\0061.png",0,0 S,0,1340,,0.5 C,0,1340,,245,202,103 M,0,1340,1540,175,120,173.1425,137.6725 R,0,1340,7340,-1.570796,4.712389 C,0,1540,,245,202,103 M,0,1540,1740,173.1425,137.6725,167.6514,154.5726 C,0,1740,,245,202,103 M,0,1740,1940,167.6514,154.5726,158.7664,169.9617 C,0,1940,,245,202,103 M,0,1940,2140,158.7664,169.9617,146.8761,183.1673 C,0,2140,,245,202,103 M,0,2140,2340,146.8761,183.1673,132.5,193.6122 C,0,2340,,245,202,103 M,0,2340,2540,132.5,193.6122,116.2664,200.8398 C,0,2540,,245,202,103 M,0,2540,2740,116.2664,200.8398,98.88492,204.5344 C,0,2740,,245,202,103 M,0,2740,2940,98.88492,204.5344,81.11508,204.5344 C,0,2940,,245,202,103 M,0,2940,3140,81.11508,204.5344,63.73355,200.8398 C,0,3140,,245,202,103 M,0,3140,3340,63.73355,200.8398,47.5,193.6122 C,0,3340,,245,202,103 M,0,3340,3540,47.5,193.6122,33.1239,183.1673 C,0,3540,,245,202,103 M,0,3540,3740,33.1239,183.1673,21.23355,169.9617 C,0,3740,,245,202,103 M,0,3740,3940,21.23355,169.9617,12.34864,154.5726 C,0,3940,,245,202,103 M,0,3940,4140,12.34864,154.5726,6.857452,137.6725 C,0,4140,,245,202,103 M,0,4140,4340,6.857452,137.6725,5,120 C,0,4340,,245,202,103 M,0,4340,4540,5,120,6.857452,102.3275 C,0,4540,,245,202,103 M,0,4540,4740,6.857452,102.3275,12.34864,85.42738 C,0,4740,,245,202,103 M,0,4740,4940,12.34864,85.42738,21.23355,70.03825 C,0,4940,,245,202,103 M,0,4940,5140,21.23355,70.03825,33.1239,56.83269 C,0,5140,,245,202,103 M,0,5140,5340,33.1239,56.83269,47.5,46.38784 C,0,5340,,245,202,103 M,0,5340,5540,47.5,46.38784,63.73355,39.16019 C,0,5540,,245,202,103 M,0,5540,5740,63.73355,39.16019,81.11508,35.46564 C,0,5740,,245,202,103 M,0,5740,5940,81.11508,35.46564,98.88492,35.46564 C,0,5940,,245,202,103 M,0,5940,6140,98.88492,35.46564,116.2664,39.16019 C,0,6140,,245,202,103 M,0,6140,6340,116.2664,39.16019,132.5,46.38784 C,0,6340,,245,202,103 M,0,6340,6540,132.5,46.38784,146.8761,56.83269 C,0,6540,,245,202,103 M,0,6540,6740,146.8761,56.83269,158.7664,70.03825 C,0,6740,,245,202,103 M,0,6740,6940,158.7664,70.03825,167.6514,85.42738 C,0,6940,,245,202,103 M,0,6940,7140,167.6514,85.42738,173.1425,102.3275 C,0,7140,,245,202,103 M,0,7140,7340,173.1425,102.3275,175,120 C,0,7340,,245,202,103 M,0,7340,7540,175,120,173.1425,137.6725 R,0,7340,13340,-1.570796,4.712389 C,0,7540,,245,202,103 M,0,7540,7740,173.1425,137.6725,167.6514,154.5726 C,0,7740,,245,202,103 M,0,7740,7940,167.6514,154.5726,158.7664,169.9617 C,0,7940,,245,202,103 M,0,7940,8140,158.7664,169.9617,146.8761,183.1673 C,0,8140,,245,202,103 M,0,8140,8340,146.8761,183.1673,132.5,193.6122 C,0,8340,,245,202,103 M,0,8340,8540,132.5,193.6122,116.2664,200.8398 C,0,8540,,245,202,103 M,0,8540,8740,116.2664,200.8398,98.88492,204.5344 C,0,8740,,245,202,103 M,0,8740,8940,98.88492,204.5344,81.11508,204.5344 C,0,8940,,245,202,103 M,0,8940,9140,81.11508,204.5344,63.73355,200.8398 C,0,9140,,245,202,103 M,0,9140,9340,63.73355,200.8398,47.5,193.6122 C,0,9340,,245,202,103 M,0,9340,9540,47.5,193.6122,33.1239,183.1673 C,0,9540,,245,202,103 M,0,9540,9740,33.1239,183.1673,21.23355,169.9617 C,0,9740,,245,202,103 M,0,9740,9940,21.23355,169.9617,12.34864,154.5726 C,0,9940,,245,202,103 M,0,9940,10140,12.34864,154.5726,6.857452,137.6725 C,0,10140,,245,202,103 M,0,10140,10340,6.857452,137.6725,5,120 C,0,10340,,245,202,103 M,0,10340,10540,5,120,6.857452,102.3275 C,0,10540,,245,202,103 M,0,10540,10740,6.857452,102.3275,12.34864,85.42738 C,0,10740,,245,202,103 M,0,10740,10940,12.34864,85.42738,21.23355,70.03825 C,0,10940,,245,202,103 M,0,10940,11140,21.23355,70.03825,33.1239,56.83269 C,0,11140,,245,202,103 M,0,11140,11340,33.1239,56.83269,47.5,46.38784 C,0,11340,,245,202,103 M,0,11340,11540,47.5,46.38784,63.73355,39.16019 C,0,11540,,245,202,103 M,0,11540,11740,63.73355,39.16019,81.11508,35.46564 C,0,11740,,245,202,103 M,0,11740,11940,81.11508,35.46564,98.88492,35.46564 C,0,11940,,245,202,103 M,0,11940,12140,98.88492,35.46564,116.2664,39.16019 C,0,12140,,245,202,103 M,0,12140,12340,116.2664,39.16019,132.5,46.38784 C,0,12340,,245,202,103 M,0,12340,12540,132.5,46.38784,146.8761,56.83269 C,0,12540,,245,202,103 M,0,12540,12740,146.8761,56.83269,158.7664,70.03825 C,0,12740,,245,202,103 M,0,12740,12940,158.7664,70.03825,167.6514,85.42738 C,0,12940,,245,202,103 M,0,12940,13140,167.6514,85.42738,173.1425,102.3275 C,0,13140,,245,202,103 M,0,13140,13340,173.1425,102.3275,175,120
Sprite,Foreground,Centre,"sb\credits\0072.png",0,0 S,0,1640,,0.5 C,0,1640,,245,202,103 M,0,1640,1840,175,120,173.1425,137.6725 R,0,1640,7640,-1.570796,4.712389 C,0,1840,,245,202,103 M,0,1840,2040,173.1425,137.6725,167.6514,154.5726 C,0,2040,,245,202,103 M,0,2040,2240,167.6514,154.5726,158.7664,169.9617 C,0,2240,,245,202,103 M,0,2240,2440,158.7664,169.9617,146.8761,183.1673 C,0,2440,,245,202,103 M,0,2440,2640,146.8761,183.1673,132.5,193.6122 C,0,2640,,245,202,103 M,0,2640,2840,132.5,193.6122,116.2664,200.8398 C,0,2840,,245,202,103 M,0,2840,3040,116.2664,200.8398,98.88492,204.5344 C,0,3040,,245,202,103 M,0,3040,3240,98.88492,204.5344,81.11508,204.5344 C,0,3240,,245,202,103 M,0,3240,3440,81.11508,204.5344,63.73355,200.8398 C,0,3440,,245,202,103 M,0,3440,3640,63.73355,200.8398,47.5,193.6122 C,0,3640,,245,202,103 M,0,3640,3840,47.5,193.6122,33.1239,183.1673 C,0,3840,,245,202,103 M,0,3840,4040,33.1239,183.1673,21.23355,169.9617 C,0,4040,,245,202,103 M,0,4040,4240,21.23355,169.9617,12.34864,154.5726 C,0,4240,,245,202,103 M,0,4240,4440,12.34864,154.5726,6.857452,137.6725 C,0,4440,,245,202,103 M,0,4440,4640,6.857452,137.6725,5,120 C,0,4640,,245,202,103 M,0,4640,4840,5,120,6.857452,102.3275 C,0,4840,,245,202,103 M,0,4840,5040,6.857452,102.3275,12.34864,85.42738 C,0,5040,,245,202,103 M,0,5040,5240,12.34864,85.42738,21.23355,70.03825 C,0,5240,,245,202,103 M,0,5240,5440,21.23355,70.03825,33.1239,56.83269 C,0,5440,,245,202,103 M,0,5440,5640,33.1239,56.83269,47.5,46.38784 C,0,5640,,245,202,103 M,0,5640,5840,47.5,46.38784,63.73355,39.16019 C,0,5840,,245,202,103 M,0,5840,6040,63.73355,39.16019,81.11508,35.46564 C,0,6040,,245,202,103 M,0,6040,6240,81.11508,35.46564,98.88492,35.46564 C,0,6240,,245,202,103 M,0,6240,6440,98.88492,35.46564,116.2664,39.16019 C,0,6440,,245,202,103 M,0,6440,6640,116.2664,39.16019,132.5,46.38784 C,0,6640,,245,202,103 M,0,6640,6840,132.5,46.38784,146.8761,56.83269 C,0,6840,,245,202,103 M,0,6840,7040,146.8761,56.83269,158.7664,70.03825 C,0,7040,,245,202,103 M,0,7040,7240,158.7664,70.03825,167.6514,85.42738 C,0,7240,,245,202,103 M,0,7240,7440,167.6514,85.42738,173.1425,102.3275 C,0,7440,,245,202,103 M,0,7440,7640,173.1425,102.3275,175,120 C,0,7640,,245,202,103 M,0,7640,7840,175,120,173.1425,137.6725 R,0,7640,13640,-1.570796,4.712389 C,0,7840,,245,202,103 M,0,7840,8040,173.1425,137.6725,167.6514,154.5726 C,0,8040,,245,202,103 M,0,8040,8240,167.6514,154.5726,158.7664,169.9617 C,0,8240,,245,202,103 M,0,8240,8440,158.7664,169.9617,146.8761,183.1673 C,0,8440,,245,202,103 M,0,8440,8640,146.8761,183.1673,132.5,193.6122 C,0,8640,,245,202,103 M,0,8640,8840,132.5,193.6122,116.2664,200.8398 C,0,8840,,245,202,103 M,0,8840,9040,116.2664,200.8398,98.88492,204.5344 C,0,9040,,245,202,103 M,0,9040,9240,98.88492,204.5344,81.11508,204.5344 C,0,9240,,245,202,103 M,0,9240,9440,81.11508,204.5344,63.73355,200.8398 C,0,9440,,245,202,103 M,0,9440,9640,63.73355,200.8398,47.5,193.6122 C,0,9640,,245,202,103 M,0,9640,9840,47.5,193.6122,33.1239,183.1673 C,0,9840,,245,202,103 M,0,9840,10040,33.1239,183.1673,21.23355,169.9617 C,0,10040,,245,202,103 M,0,10040,10240,21.23355,169.9617,12.34864,154.5726 C,0,10240,,245,202,103 M,0,10240,10440,12.34864,154.5726,6.857452,137.6725 C,0,10440,,245,202,103 M,0,10440,10640,6.857452,137.6725,5,120 C,0,10640,,245,202,103 M,0,10640,10840,5,120,6.857452,102.3275 C,0,10840,,245,202,103 M,0,10840,11040,6.857452,102.3275,12.34864,85.42738 C,0,11040,,245,202,103 M,0,11040,11240,12.34864,85.42738,21.23355,70.03825 C,0,11240,,245,202,103 M,0,11240,11440,21.23355,70.03825,33.1239,56.83269 C,0,11440,,245,202,103 M,0,11440,11640,33.1239,56.83269,47.5,46.38784 C,0,11640,,245,202,103 M,0,11640,11840,47.5,46.38784,63.73355,39.16019 C,0,11840,,245,202,103 M,0,11840,12040,63.73355,39.16019,81.11508,35.46564 C,0,12040,,245,202,103 M,0,12040,12240,81.11508,35.46564,98.88492,35.46564 C,0,12240,,245,202,103 M,0,12240,12440,98.88492,35.46564,116.2664,39.16019 C,0,12440,,245,202,103 M,0,12440,12640,116.2664,39.16019,132.5,46.38784 C,0,12640,,245,202,103 M,0,12640,12840,132.5,46.38784,146.8761,56.83269 C,0,12840,,245,202,103 M,0,12840,13040,146.8761,56.83269,158.7664,70.03825 C,0,13040,,245,202,103 M,0,13040,13240,158.7664,70.03825,167.6514,85.42738 C,0,13240,,245,202,103 M,0,13240,13440,167.6514,85.42738,173.1425,102.3275 C,0,13440,,245,202,103 M,0,13440,13640,173.1425,102.3275,175,120
Sprite,Foreground,Centre,"sb\credits\0075.png",0,0 S,0,1940,,0.5 C,0,1940,,245,202,103 M,0,1940,2140,175,120,173.1425,137.6725 R,0,1940,7940,-1.570796,4.712389 C,0,2140,,245,202,103 M,0,2140,2340,173.1425,137.6725,167.6514,154.5726 C,0,2340,,245,202,103 M,0,2340,2540,167.6514,154.5726,158.7664,169.9617 C,0,2540,,245,202,103 M,0,2540,2740,158.7664,169.9617,146.8761,183.1673 C,0,2740,,245,202,103 M,0,2740,2940,146.8761,183.1673,132.5,193.6122 C,0,2940,,245,202,103 M,0,2940,3140,132.5,193.6122,116.2664,200.8398 C,0,3140,,245,202,103 M,0,3140,3340,116.2664,200.8398,98.88492,204.5344 C,0,3340,,245,202,103 M,0,3340,3540,98.88492,204.5344,81.11508,204.5344 C,0,3540,,245,202,103 M,0,3540,3740,81.11508,204.5344,63.73355,200.8398 C,0,3740,,245,202,103 M,0,3740,3940,63.73355,200.8398,47.5,193.6122 C,0,3940,,245,202,103 M,0,3940,4140,47.5,193.6122,33.1239,183.1673 C,0,4140,,245,202,103 M,0,4140,4340,33.1239,183.1673,21.23355,169.9617 C,0,4340,,245,202,103 M,0,4340,4540,21.23355,169.9617,12.34864,154.5726 C,0,4540,,245,202,103 M,0,4540,4740,12.34864,154.5726,6.857452,137.6725 C,0,4740,,245,202,103 M,0,4740,4940,6.857452,137.6725,5,120 C,0,4940,,245,202,103 M,0,4940,5140,5,120,6.857452,102.3275 C,0,5140,,245,202,103 M,0,5140,5340,6.857452,102.3275,12.34864,85.42738 C,0,5340,,245,202,103 M,0,5340,5540,12.34864,85.42738,21.23355,70.03825 C,0,5540,,245,202,103 M,0,5540,5740,21.23355,70.03825,33.1239,56.83269 C,0,5740,,245,202,103 M,0,5740,5940,33.1239,56.83269,47.5,46.38784 C,0,5940,,245,202,103 M,0,5940,6140,47.5,46.38784,63.73355,39.16019 C,0,6140,,245,202,103 M,0,6140,6340,63.73355,39.16019,81.11508,35.46564 C,0,6340,,245,202,103 M,0,6340,6540,81.11508,35.46564,98.88492,35.46564 C,0,6540,,245,202,103 M,0,6540,6740,98.88492,35.46564,116.2664,39.16019 C,0,6740,,245,202,103 M,0,6740,6940,116.2664,39.16019,132.5,46.38784 C,0,6940,,245,202,103 M,0,6940,7140,132.5,46.38784,146.8761,56.83269 C,0,7140,,245,202,103 M,0,7140,7340,146.8761,56.83269,158.7664,70.03825 C,0,7340,,245,202,103 M,0,7340,7540,158.7664,70.03825,167.6514,85.42738 C,0,7540,,245,202,103 M,0,7540,7740,167.6514,85.42738,173.1425,102.3275 C,0,7740,,245,202,103 M,0,7740,7940,173.1425,102.3275,175,120 C,0,7940,,245,202,103 M,0,7940,8140,175,120,173.1425,137.6725 R,0,7940,13940,-1.570796,4.712389 C,0,8140,,245,202,103 M,0,8140,8340,173.1425,137.6725,167.6514,154.5726 C,0,8340,,245,202,103 M,0,8340,8540,167.6514,154.5726,158.7664,169.9617 C,0,8540,,245,202,103 M,0,8540,8740,158.7664,169.9617,146.8761,183.1673 C,0,8740,,245,202,103 M,0,8740,8940,146.8761,183.1673,132.5,193.6122 C,0,8940,,245,202,103 M,0,8940,9140,132.5,193.6122,116.2664,200.8398 C,0,9140,,245,202,103 M,0,9140,9340,116.2664,200.8398,98.88492,204.5344 C,0,9340,,245,202,103 M,0,9340,9540,98.88492,204.5344,81.11508,204.5344 C,0,9540,,245,202,103 M,0,9540,9740,81.11508,204.5344,63.73355,200.8398 C,0,9740,,245,202,103 M,0,9740,9940,63.73355,200.8398,47.5,193.6122 C,0,9940,,245,202,103 M,0,9940,10140,47.5,193.6122,33.1239,183.1673 C,0,10140,,245,202,103 M,0,10140,10340,33.1239,183.1673,21.23355,169.9617 C,0,10340,,245,202,103 M,0,10340,10540,21.23355,169.9617,12.34864,154.5726 C,0,10540,,245,202,103 M,0,10540,10740,12.34864,154.5726,6.857452,137.6725 C,0,10740,,245,202,103 M,0,10740,10940,6.857452,137.6725,5,120 C,0,10940,,245,202,103 M,0,10940,11140,5,120,6.857452,102.3275 C,0,11140,,245,202,103 M,0,11140,11340,6.857452,102.3275,12.34864,85.42738 C,0,11340,,245,202,103 M,0,11340,11540,12.34864,85.42738,21.23355,70.03825 C,0,11540,,245,202,103 M,0,11540,11740,21.23355,70.03825,33.1239,56.83269 C,0,11740,,245,202,103 M,0,11740,11940,33.1239,56.83269,47.5,46.38784 C,0,11940,,245,202,103 M,0,11940,12140,47.5,46.38784,63.73355,39.16019 C,0,12140,,245,202,103 M,0,12140,12340,63.73355,39.16019,81.11508,35.46564 C,0,12340,,245,202,103 M,0,12340,12540,81.11508,35.46564,98.88492,35.46564 C,0,12540,,245,202,103 M,0,12540,12740,98.88492,35.46564,116.2664,39.16019 C,0,12740,,245,202,103 M,0,12740,12940,116.2664,39.16019,132.5,46.38784 C,0,12940,,245,202,103 M,0,12940,13140,132.5,46.38784,146.8761,56.83269 C,0,13140,,245,202,103 M,0,13140,13340,146.8761,56.83269,158.7664,70.03825 C,0,13340,,245,202,103 M,0,13340,13540,158.7664,70.03825,167.6514,85.42738 C,0,13540,,245,202,103 M,0,13540,13740,167.6514,85.42738,173.1425,102.3275 C,0,13740,,245,202,103 M,0,13740,13940,173.1425,102.3275,175,120
Sprite,Foreground,Centre,"sb\credits\0074.png",0,0 S,0,2240,,0.5 C,0,2240,,245,202,103 M,0,2240,2440,175,120,173.1425,137.6725 R,0,2240,8240,-1.570796,4.712389 C,0,2440,,245,202,103 M,0,2440,2640,173.1425,137.6725,167.6514,154.5726 C,0,2640,,245,202,103 M,0,2640,2840,167.6514,154.5726,158.7664,169.9617 C,0,2840,,245,202,103 M,0,2840,3040,158.7664,169.9617,146.8761,183.1673 C,0,3040,,245,202,103 M,0,3040,3240,146.8761,183.1673,132.5,193.6122 C,0,3240,,245,202,103 M,0,3240,3440,132.5,193.6122,116.2664,200.8398 C,0,3440,,245,202,103 M,0,3440,3640,116.2664,200.8398,98.88492,204.5344 C,0,3640,,245,202,103 M,0,3640,3840,98.88492,204.5344,81.11508,204.5344 C,0,3840,,245,202,103 M,0,3840,4040,81.11508,204.5344,63.73355,200.8398 C,0,4040,,245,202,103 M,0,4040,4240,63.73355,200.8398,47.5,193.6122 C,0,4240,,245,202,103 M,0,4240,4440,47.5,193.6122,33.1239,183.1673 C,0,4440,,245,202,103 M,0,4440,4640,33.1239,183.1673,21.23355,169.9617 C,0,4640,,245,202,103 M,0,4640,4840,21.23355,169.9617,12.34864,154.5726 C,0,4840,,245,202,103 M,0,4840,5040,12.34864,154.5726,6.857452,137.6725 C,0,5040,,245,202,103 M,0,5040,5240,6.857452,137.6725,5,120 C,0,5240,,245,202,103 M,0,5240,5440,5,120,6.857452,102.3275 C,0,5440,,245,202,103 M,0,5440,5640,6.857452,102.3275,12.34864,85.42738 C,0,5640,,245,202,103 M,0,5640,5840,12.34864,85.42738,21.23355,70.03825 C,0,5840,,245,202,103 M,0,5840,6040,21.23355,70.03825,33.1239,56.83269 C,0,6040,,245,202,103 M,0,6040,6240,33.1239,56.83269,47.5,46.38784 C,0,6240,,245,202,103 M,0,6240,6440,47.5,46.38784,63.73355,39.16019 C,0,6440,,245,202,103 M,0,6440,6640,63.73355,39.16019,81.11508,35.46564 C,0,6640,,245,202,103 M,0,6640,6840,81.11508,35.46564,98.88492,35.46564 C,0,6840,,245,202,103 M,0,6840,7040,98.88492,35.46564,116.2664,39.16019 C,0,7040,,245,202,103 M,0,7040,7240,116.2664,39.16019,132.5,46.38784 C,0,7240,,245,202,103 M,0,7240,7440,132.5,46.38784,146.8761,56.83269 C,0,7440,,245,202,103 M,0,7440,7640,146.8761,56.83269,158.7664,70.03825 C,0,7640,,245,202,103 M,0,7640,7840,158.7664,70.03825,167.6514,85.42738 C,0,7840,,245,202,103 M,0,7840,8040,167.6514,85.42738,173.1425,102.3275 C,0,8040,,245,202,103 M,0,8040,8240,173.1425,102.3275,175,120 C,0,8240,,245,202,103 M,0,8240,8440,175,120,173.1425,137.6725 R,0,8240,14240,-1.570796,4.712389 C,0,8440,,245,202,103 M,0,8440,8640,173.1425,137.6725,167.6514,154.5726 C,0,8640,,245,202,103 M,0,8640,8840,167.6514,154.5726,158.7664,169.9617 C,0,8840,,245,202,103 M,0,8840,9040,158.7664,169.9617,146.8761,183.1673 C,0,9040,,245,202,103 M,0,9040,9240,146.8761,183.1673,132.5,193.6122 C,0,9240,,245,202,103 M,0,9240,9440,132.5,193.6122,116.2664,200.8398 C,0,9440,,245,202,103 M,0,9440,9640,116.2664,200.8398,98.88492,204.5344 C,0,9640,,245,202,103 M,0,9640,9840,98.88492,204.5344,81.11508,204.5344 C,0,9840,,245,202,103 M,0,9840,10040,81.11508,204.5344,63.73355,200.8398 C,0,10040,,245,202,103 M,0,10040,10240,63.73355,200.8398,47.5,193.6122 C,0,10240,,245,202,103 M,0,10240,10440,47.5,193.6122,33.1239,183.1673 C,0,10440,,245,202,103 M,0,10440,10640,33.1239,183.1673,21.23355,169.9617 C,0,10640,,245,202,103 M,0,10640,10840,21.23355,169.9617,12.34864,154.5726 C,0,10840,,245,202,103 M,0,10840,11040,12.34864,154.5726,6.857452,137.6725 C,0,11040,,245,202,103 M,0,11040,11240,6.857452,137.6725,5,120 C,0,11240,,245,202,103 M,0,11240,11440,5,120,6.857452,102.3275 C,0,11440,,245,202,103 M,0,11440,11640,6.857452,102.3275,12.34864,85.42738 C,0,11640,,245,202,103 M,0,11640,11840,12.34864,85.42738,21.23355,70.03825 C,0,11840,,245,202,103 M,0,11840,12040,21.23355,70.03825,33.1239,56.83269 C,0,12040,,245,202,103 M,0,12040,12240,33.1239,56.83269,47.5,46.38784 C,0,12240,,245,202,103 M,0,12240,12440,47.5,46.38784,63.73355,39.16019 C,0,12440,,245,202,103 M,0,12440,12640,63.73355,39.16019,81.11508,35.46564 C,0,12640,,245,202,103 M,0,12640,12840,81.11508,35.46564,98.88492,35.46564 C,0,12840,,245,202,103 M,0,12840,13040,98.88492,35.46564,116.2664,39.16019 C,0,13040,,245,202,103 M,0,13040,13240,116.2664,39.16019,132.5,46.38784 C,0,13240,,245,202,103 M,0,13240,13440,132.5,46.38784,146.8761,56.83269 C,0,13440,,245,202,103 M,0,13440,13640,146.8761,56.83269,158.7664,70.03825 C,0,13640,,245,202,103 M,0,13640,13840,158.7664,70.03825,167.6514,85.42738 C,0,13840,,245,202,103 M,0,13840,14040,167.6514,85.42738,173.1425,102.3275 C,0,14040,,245,202,103 M,0,14040,14240,173.1425,102.3275,175,120
Sprite,Foreground,Centre,"sb\credits\006f.png",0,0 S,0,2540,,0.5 C,0,2540,,245,202,103 M,0,2540,2740,175,120,173.1425,137.6725 R,0,2540,8540,-1.570796,4.712389 C,0,2740,,245,202,103 M,0,2740,2940,173.1425,137.6725,167.6514,154.5726 C,0,2940,,245,202,103 M,0,2940,3140,167.6514,154.5726,158.7664,169.9617 C,0,3140,,245,202,103 M,0,3140,3340,158.7664,169.9617,146.8761,183.1673 C,0,3340,,245,202,103 M,0,3340,3540,146.8761,183.1673,132.5,193.6122 C,0,3540,,245,202,103 M,0,3540,3740,132.5,193.6122,116.2664,200.8398 C,0,3740,,245,202,103 M,0,3740,3940,116.2664,200.8398,98.88492,204.5344 C,0,3940,,245,202,103 M,0,3940,4140,98.88492,204.5344,81.11508,204.5344 C,0,4140,,245,202,103 M,0,4140,4340,81.11508,204.5344,63.73355,200.8398 C,0,4340,,245,202,103 M,0,4340,4540,63.73355,200.8398,47.5,193.6122 C,0,4540,,245,202,103 M,0,4540,4740,47.5,193.6122,33.1239,183.1673 C,0,4740,,245,202,103 M,0,4740,4940,33.1239,183.1673,21.23355,169.9617 C,0,4940,,245,202,103 M,0,4940,5140,21.23355,169.9617,12.34864,154.5726 C,0,5140,,245,202,103 M,0,5140,5340,12.34864,154.5726,6.857452,137.6725 C,0,5340,,245,202,103 M,0,5340,5540,6.857452,137.6725,5,120 C,0,5540,,245,202,103 M,0,5540,5740,5,120,6.857452,102.3275 C,0,5740,,245,202,103 M,0,5740,5940,6.857452,102.3275,12.34864,85.42738 C,0,5940,,245,202,103 M,0,5940,6140,12.34864,85.42738,21.23355,70.03825 C,0,6140,,245,202,103 M,0,6140,6340,21.23355,70.03825,33.1239,56.83269 C,0,6340,,245,202,103 M,0,6340,6540,33.1239,56.83269,47.5,46.38784 C,0,6540,,245,202,103 M,0,6540,6740,47.5,46.38784,63.73355,39.16019 C,0,6740,,245,202,103 M,0,6740,6940,63.73355,39.16019,81.11508,35.46564 C,0,6940,,245,202,103 M,0,6940,7140,81.11508,35.46564,98.88492,35.46564 C,0,7140,,245,202,103 M,0,7140,7340,98.88492,35.46564,116.2664,39.16019 C,0,7340,,245,202,103 M,0,7340,7540,116.2664,39.16019,132.5,46.38784 C,0,7540,,245,202,103 M,0,7540,7740,132.5,46.38784,146.8761,56.83269 C,0,7740,,245,202,103 M,0,7740,7940,146.8761,56.83269,158.7664,70.03825 C,0,7940,,245,202,103 M,0,7940,8140,158.7664,70.03825,167.6514,85.42738 C,0,8140,,245,202,103 M,0,8140,8340,167.6514,85.42738,173.1425,102.3275 C,0,8340,,245,202,103 M,0,8340,8540,173.1425,102.3275,175,120 C,0,8540,,245,202,103 M,0,8540,8740,175,120,173.1425,137.6725 R,0,8540,14540,-1.570796,4.712389 C,0,8740,,245,202,103 M,0,8740,8940,173.1425,137.6725,167.6514,154.5726 C,0,8940,,245,202,103 M,0,8940,9140,167.6514,154.5726,158.7664,169.9617 C,0,9140,,245,202,103 M,0,9140,9340,158.7664,169.9617,146.8761,183.1673 C,0,9340,,245,202,103 M,0,9340,9540,146.8761,183.1673,132.5,193.6122 C,0,9540,,245,202,103 M,0,9540,9740,132.5,193.6122,116.2664,200.8398 C,0,9740,,245,202,103 M,0,9740,9940,116.2664,200.8398,98.88492,204.5344 C,0,9940,,245,202,103 M,0,9940,10140,98.88492,204.5344,81.11508,204.5344 C,0,10140,,245,202,103 M,0,10140,10340,81.11508,204.5344,63.73355,200.8398 C,0,10340,,245,202,103 M,0,10340,10540,63.73355,200.8398,47.5,193.6122 C,0,10540,,245,202,103 M,0,10540,10740,47.5,193.6122,33.1239,183.1673 C,0,10740,,245,202,103 M,0,10740,10940,33.1239,183.1673,21.23355,169.9617 C,0,10940,,245,202,103 M,0,10940,11140,21.23355,169.9617,12.34864,154.5726 C,0,11140,,245,202,103 M,0,11140,11340,12.34864,154.5726,6.857452,137.6725 C,0,11340,,245,202,103 M,0,11340,11540,6.857452,137.6725,5,120 C,0,11540,,245,202,103 M,0,11540,11740,5,120,6.857452,102.3275 C,0,11740,,245,202,103 M,0,11740,11940,6.857452,102.3275,12.34864,85.42738 C,0,11940,,245,202,103 M,0,11940,12140,12.34864,85.42738,21.23355,70.03825 C,0,12140,,245,202,103 M,0,12140,12340,21.23355,70.03825,33.1239,56.83269 C,0,12340,,245,202,103 M,0,12340,12540,33.1239,56.83269,47.5,46.38784 C,0,12540,,245,202,103 M,0,12540,12740,47.5,46.38784,63.73355,39.16019 C,0,12740,,245,202,103 M,0,12740,12940,63.73355,39.16019,81.11508,35.46564 C,0,12940,,245,202,103 M,0,12940,13140,81.11508,35.46564,98.88492,35.46564 C,0,13140,,245,202,103 M,0,13140,13340,98.88492,35.46564,116.2664,39.16019 C,0,13340,,245,202,103 M,0,13340,13540,116.2664,39.16019,132.5,46.38784 C,0,13540,,245,202,103 M,0,13540,13740,132.5,46.38784,146.8761,56.83269 C,0,13740,,245,202,103 M,0,13740,13940,146.8761,56.83269,158.7664,70.03825 C,0,13940,,245,202,103 M,0,13940,14140,158.7664,70.03825,167.6514,85.42738 C,0,14140,,245,202,103 M,0,14140,14340,167.6514,85.42738,173.1425,102.3275 C,0,14340,,245,202,103 M,0,14340,14540,173.1425,102.3275,175,120
Sprite,Foreground,Centre,"sb\credits\_001.png",300,140 S,0,6433,,0.4 F,0,6433,6533,0,1 C,0,6433,12584,231,235,136
Sprite,Foreground,Centre,"sb\credits\0047.png",0,0 S,0,6433,,0.35 C,0,6433,,109,213,227 M,0,6433,6633,365,140,363.5796,153.5143 R,0,6433,12433,-1.570796,4.712389 C,0,6633,,109,213,227 M,0,6633,6833,363.5796,153.5143,359.3805,166.4379 C,0,6833,,109,213,227 M,0,6833,7033,359.3805,166.4379,352.5861,178.206 C,0,7033,,109,213,227 M,0,7033,7233,352.5861,178.206,343.4935,188.3044 C,0,7233,,109,213,227 M,0,7233,7433,343.4935,188.3044,332.5,196.2917 C,0,7433,,109,213,227 M,0,7433,7633,332.5,196.2917,320.0861,201.8187 C,0,7633,,109,213,227 M,0,7633,7833,320.0861,201.8187,306.7943,204.6439 C,0,7833,,109,213,227 M,0,7833,8033,306.7943,204.6439,293.2057,204.6439 C,0,8033,,109,213,227 M,0,8033,8233,293.2057,204.6439,279.9139,201.8187 C,0,8233,,109,213,227 M,0,8233,8433,279.9139,201.8187,267.5,196.2917 C,0,8433,,109,213,227 M,0,8433,8633,267.5,196.2917,256.5065,188.3044 C,0,8633,,109,213,227 M,0,8633,8833,256.5065,188.3044,247.4139,178.206 C,0,8833,,109,213,227 M,0,8833,9033,247.4139,178.206,240.6196,166.4379 C,0,9033,,109,213,227 M,0,9033,9233,240.6196,166.4379,236.4204,153.5143 C,0,9233,,109,213,227 M,0,9233,9433,236.4204,153.5143,235,140 C,0,9433,,109,213,227 M,0,9433,9633,235,140,236.4204,126.4857 C,0,9633,,109,213,227 M,0,9633,9833,236.4204,126.4857,240.6196,113.5621 C,0,9833,,109,213,227 M,0,9833,10033,240.6196,113.5621,247.4139,101.794 C,0,10033,,109,213,227 M,0,10033,10233,247.4139,101.794,256.5065,91.69559 C,0,10233,,109,213,227 M,0,10233,10433,256.5065,91.69559,267.5,83.70835 C,0,10433,,109,213,227 M,0,10433,10633,267.5,83.70835,279.9139,78.18133 C,0,10633,,109,213,227 M,0,10633,10833,279.9139,78.18133,293.2057,75.35608 C,0,10833,,109,213,227 M,0,10833,11033,293.2057,75.35608,306.7943,75.35608 C,0,11033,,109,213,227 M,0,11033,11233,306.7943,75.35608,320.0861,78.18133 C,0,11233,,109,213,227 M,0,11233,11433,320.0861,78.18133,332.5,83.70835 C,0,11433,,109,213,227 M,0,11433,11633,332.5,83.70835,343.4935,91.69559 C,0,11633,,109,213,227 M,0,11633,11833,343.4935,91.69559,352.5861,101.794 C,0,11833,,109,213,227 M,0,11833,12033,352.5861,101.794,359.3805,113.5621 C,0,12033,,109,213,227 M,0,12033,12233,359.3805,113.5621,363.5796,126.4857 C,0,12233,,109,213,227 M,0,12233,12433,363.5796,126.4857,365,140 C,0,12433,,109,213,227 M,0,12433,12633,365,140,363.5796,153.5143 R,0,12433,18433,-1.570796,4.712389 C,0,12633,,109,213,227 M,0,12633,12833,363.5796,153.5143,359.3805,166.4379 C,0,12833,,109,213,227 M,0,12833,13033,359.3805,166.4379,352.5861,178.206 C,0,13033,,109,213,227 M,0,13033,13233,352.5861,178.206,343.4935,188.3044 C,0,13233,,109,213,227 M,0,13233,13433,343.4935,188.3044,332.5,196.2917 C,0,13433,,109,213,227 M,0,13433,13633,332.5,196.2917,320.0861,201.8187 C,0,13633,,109,213,227 M,0,13633,13833,320.0861,201.8187,306.7943,204.6439 C,0,13833,,109,213,227 M,0,13833,14033,306.7943,204.6439,293.2057,204.6439 C,0,14033,,109,213,227 M,0,14033,14233,293.2057,204.6439,279.9139,201.8187 C,0,14233,,109,213,227 M,0,14233,14433,279.9139,201.8187,267.5,196.2917 C,0,14433,,109,213,227 M,0,14433,14633,267.5,196.2917,256.5065,188.3044 C,0,14633,,109,213,227 M,0,14633,14833,256.5065,188.3044,247.4139,178.206 C,0,14833,,109,213,227 M,0,14833,15033,247.4139,178.206,240.6196,166.4379 C,0,15033,,109,213,227 M,0,15033,15233,240.6196,166.4379,236.4204,153.5143 C,0,15233,,109,213,227 M,0,15233,15433,236.4204,153.5143,235,140 C,0,15433,,109,213,227 M,0,15433,15633,235,140,236.4204,126.4857 C,0,15633,,109,213,227 M,0,15633,15833,236.4204,126.4857,240.6196,113.5621 C,0,15833,,109,213,227 M,0,15833,16033,240.6196,113.5621,247.4139,101.794 C,0,16033,,109,213,227 M,0,16033,16233,247.4139,101.794,256.5065,91.69559 C,0,16233,,109,213,227 M,0,16233,16433,256.5065,91.69559,267.5,83.70835 C,0,16433,,109,213,227 M,0,16433,16633,267.5,83.70835,279.9139,78.18133 C,0,16633,,109,213,227 M,0,16633,16833,279.9139,78.18133,293.2057,75.35608 C,0,16833,,109,213,227 M,0,16833,17033,293.2057,75.35608,306.7943,75.35608 C,0,17033,,109,213,227 M,0,17033,17233,306.7943,75.35608,320.0861,78.18133 C,0,17233,,109,213,227 M,0,17233,17433,320.0861,78.18133,332.5,83.70835 C,0,17433,,109,213,227 M,0,17433,17633,332.5,83.70835,343.4935,91.69559 C,0,17633,,109,213,227 M,0,17633,17833,343.4935,91.69559,352.5861,101.794 C,0,17833,,109,213,227 M,0,17833,18033,352.5861,101.794,359.3805,113.5621 C,0,18033,,109,213,227 M,0,18033,18233,359.3805,113.5621,363.5796,126.4857 C,0,18233,,109,213,227 M,0,18233,18433,363.5796,126.4857,365,140
Sprite,Foreground,Centre,"sb\credits\0072.png",0,0 S,0,6733,,0.35 C,0,6733,,109,213,227 M,0,6733,6933,365,140,363.5796,153.5143 R,0,6733,12733,-1.570796,4.712389 C,0,6933,,109,213,227 M,0,6933,7133,363.5796,153.5143,359.3805,166.4379 C,0,7133,,109,213,227 M,0,7133,7333,359.3805,166.4379,352.5861,178.206 C,0,7333,,109,213,227 M,0,7333,7533,352.5861,178.206,343.4935,188.3044 C,0,7533,,109,213,227 M,0,7533,7733,343.4935,188.3044,332.5,196.2917 C,0,7733,,109,213,227 M,0,7733,7933,332.5,196.2917,320.0861,201.8187 C,0,7933,,109,213,227 M,0,7933,8133,320.0861,201.8187,306.7943,204.6439 C,0,8133,,109,213,227 M,0,8133,8333,306.7943,204.6439,293.2057,204.6439 C,0,8333,,109,213,227 M,0,8333,8533,293.2057,204.6439,279.9139,201.8187 C,0,8533,,109,213,227 M,0,8533,8733,279.9139,201.8187,267.5,196.2917 C,0,8733,,109,213,227 M,0,8733,8933,267.5,196.2917,256.5065,188.3044 C,0,8933,,109,213,227 M,0,8933,9133,256.5065,188.3044,247.4139,178.206 C,0,9133,,109,213,227 M,0,9133,9333,247.4139,178.206,240.6196,166.4379 C,0,9333,,109,213,227 M,0,9333,9533,240.6196,166.4379,236.4204,153.5143 C,0,9533,,109,213,227 M,0,9533,9733,236.4204,153.5143,235,140 C,0,9733,,109,213,227 M,0,9733,9933,235,140,236.4204,126.4857 C,0,9933,,109,213,227 M,0,9933,10133,236.4204,126.4857,240.6196,113.5621 C,0,10133,,109,213,227 M,0,10133,10333,240.6196,113.5621,247.4139,101.794 C,0,10333,,109,213,227 M,0,10333,10533,247.4139,101.794,256.5065,91.69559 C,0,10533,,109,213,227 M,0,10533,10733,256.5065,91.69559,267.5,83.70835 C,0,10733,,109,213,227 M,0,10733,10933,267.5,83.70835,279.9139,78.18133 C,0,10933,,109,213,227 M,0,10933,11133,279.9139,78.18133,293.2057,75.35608 C,0,11133,,109,213,227 M,0,11133,11333,293.2057,75.35608,306.7943,75.35608 C,0,11333,,109,213,227 M,0,11333,11533,306.7943,75.35608,320.0861,78.18133 C,0,11533,,109,213,227 M,0,11533,11733,320.0861,78.18133,332.5,83.70835 C,0,11733,,109,213,227 M,0,11733,11933,332.5,83.70835,343.4935,91.69559 C,0,11933,,109,213,227 M,0,11933,12133,343.4935,91.69559,352.5861,101.794 C,0,12133,,109,213,227 M,0,12133,12333,352.5861,101.794,359.3805,113.5621 C,0,12333,,109,213,227 M,0,12333,12533,359.3805,113.5621,363.5796,126.4857 C,0,12533,,109,213,227 M,0,12533,12733,363.5796,126.4857,365,140 C,0,12733,,109,213,227 M,0,12733,12933,365,140,363.5796,153.5143 R,0,12733,18733,-1.570796,4.712389 C,0,12933,,109,213,227 M,0,12933,13133,363.5796,153.5143,359.3805,166.4379 C,0,13133,,109,213,227 M,0,13133,13333,359.3805,166.4379,352.5861,178.206 C,0,13333,,109,213,227 M,0,13333,13533,352.5861,178.206,343.4935,188.3044 C,0,13533,,109,213,227 M,0,13533,13733,343.4935,188.3044,332.5,196.2917 C,0,13733,,109,213,227 M,0,13733,13933,332.5,196.2917,320.0861,201.8187 C,0,13933,,109,213,227 M,0,13933,14133,320.0861,201.8187,306.7943,204.6439 C,0,14133,,109,213,227 M,0,14133,14333,306.7943,204.6439,293.2057,204.6439 C,0,14333,,109,213,227 M,0,14333,14533,293.2057,204.6439,279.9139,201.8187 C,0,14533,,109,213,227 M,0,14533,14733,279.9139,201.8187,267.5,196.2917 C,0,14733,,109,213,227 M,0,14733,14933,267.5,196.2917,256.5065,188.3044 C,0,14933,,109,213,227 M,0,14933,15133,256.5065,188.3044,247.4139,178.206 C,0,15133,,109,213,227 M,0,15133,15333,247.4139,178.206,240.6196,166.4379 C,0,15333,,109,213,227 M,0,15333,15533,240.6196,166.4379,236.4204,153.5143 C,0,15533,,109,213,227 M,0,15533,15733,236.4204,153.5143,235,140 C,0,15733,,109,213,227 M,0,15733,15933,235,140,236.4204,126.4857 C,0,15933,,109,213,227 M,0,15933,16133,236.4204,126.4857,240.6196,113.5621 C,0,16133,,109,213,227 M,0,16133,16333,240.6196,113.5621,247.4139,101.794 C,0,16333,,109,213,227 M,0,16333,16533,247.4139,101.794,256.5065,91.69559 C,0,16533,,109,213,227 M,0,16533,16733,256.5065,91.69559,267.5,83.70835 C,0,16733,,109,213,227 M,0,16733,16933,267.5,83.70835,279.9139,78.18133 C,0,16933,,109,213,227 M,0,16933,17133,279.9139,78.18133,293.2057,75.35608 C,0,17133,,109,213,227 M,0,17133,17333,293.2057,75.35608,306.7943,75.35608 C,0,17333,,109,213,227 M,0,17333,17533,306.7943,75.35608,320.0861,78.18133 C,0,17533,,109,213,227 M,0,17533,17733,320.0861,78.18133,332.5,83.70835 C,0,17733,,109,213,227 M,0,17733,17933,332.5,83.70835,343.4935,91.69559 C,0,17933,,109,213,227 M,0,17933,18133,343.4935,91.69559,352.5861,101.794 C,0,18133,,109,213,227 M,0,18133,18333,352.5861,101.794,359.3805,113.5621 C,0,18333,,109,213,227 M,0,18333,18533,359.3805,113.5621,363.5796,126.4857 C,0,18533,,109,213,227 M,0,18533,18733,363.5796,126.4857,365,140
Sprite,Foreground,Centre,"sb\credits\0069.png",0,0 S,0,7033,,0.35 C,0,7033,,109,213,227 M,0,7033,7233,365,140,363.5796,153.5143 R,0,7033,13033,-1.570796,4.712389 C,0,7233,,109,213,227 M,0,7233,7433,363.5796,153.5143,359.3805,166.4379 C,0,7433,,109,213,227 M,0,7433,7633,359.3805,166.4379,352.5861,178.206 C,0,7633,,109,213,227 M,0,7633,7833,352.5861,178.206,343.4935,188.3044 C,0,7833,,109,213,227 M,0,7833,8033,343.4935,188.3044,332.5,196.2917 C,0,8033,,109,213,227 M,0,8033,8233,332.5,196.2917,320.0861,201.8187 C,0,8233,,109,213,227 M,0,8233,8433,320.0861,201.8187,306.7943,204.6439 C,0,8433,,109,213,227 M,0,8433,8633,306.7943,204.6439,293.2057,204.6439 C,0,8633,,109,213,227 M,0,8633,8833,293.2057,204.6439,279.9139,201.8187 C,0,8833,,109,213,227 M,0,8833,9033,279.9139,201.8187,267.5,196.2917 C,0,9033,,109,213,227 M,0,9033,9233,267.5,196.2917,256.5065,188.3044 C,0,9233,,109,213,227 M,0,9233,9433,256.5065,188.3044,247.4139,178.206 C,0,9433,,109,213,227 M,0,9433,9633,247.4139,178.206,240.6196,166.4379 C,0,9633,,109,213,227 M,0,9633,9833,240.6196,166.4379,236.4204,153.5143 C,0,9833,,109,213,227 M,0,9833,10033,236.4204,153.5143,235,140 C,0,10033,,109,213,227 M,0,10033,10233,235,140,236.4204,126.4857 C,0,10233,,109,213,227 M,0,10233,10433,236.4204,126.4857,240.6196,113.5621 C,0,10433,,109,213,227 M,0,10433,10633,240.6196,113.5621,247.4139,101.794 C,0,10633,,109,213,227 M,0,10633,10833,247.4139,101.794,256.5065,91.69559 C,0,10833,,109,213,227 M,0,10833,11033,256.5065,91.69559,267.5,83.70835 C,0,11033,,109,213,227 M,0,11033,11233,267.5,83.70835,279.9139,78.18133 C,0,11233,,109,213,227 M,0,11233,11433,279.9139,78.18133,293.2057,75.35608 C,0,11433,,109,213,227 M,0,11433,11633,293.2057,75.35608,306.7943,75.35608 C,0,11633,,109,213,227 M,0,11633,11833,306.7943,75.35608,320.0861,78.18133 C,0,11833,,109,213,227 M,0,11833,12033,320.0861,78.18133,332.5,83.70835 C,0,12033,,109,213,227 M,0,12033,12233,332.5,83.70835,343.4935,91.69559 C,0,12233,,109,213,227 M,0,12233,12433,343.4935,91.69559,352.5861,101.794 C,0,12433,,109,213,227 M,0,12433,12633,352.5861,101.794,359.3805,113.5621 C,0,12633,,109,213,227 M,0,12633,12833,359.3805,113.5621,363.5796,126.4857 C,0,12833,,109,213,227 M,0,12833,13033,363.5796,126.4857,365,140 C,0,13033,,109,213,227 M,0,13033,13233,365,140,363.5796,153.5143 R,0,13033,19033,-1.570796,4.712389 C,0,13233,,109,213,227 M,0,13233,13433,363.5796,153.5143,359.3805,166.4379 C,0,13433,,109,213,227 M,0,13433,13633,359.3805,166.4379,352.5861,178.206 C,0,13633,,109,213,227 M,0,13633,13833,352.5861,178.206,343.4935,188.3044 C,0,13833,,109,213,227 M,0,13833,14033,343.4935,188.3044,332.5,196.2917 C,0,14033,,109,213,227 M,0,14033,14233,332.5,196.2917,320.0861,201.8187 C,0,14233,,109,213,227 M,0,14233,14433,320.0861,201.8187,306.7943,204.6439 C,0,14433,,109,213,227 M,0,14433,14633,306.7943,204.6439,293.2057,204.6439 C,0,14633,,109,213,227 M,0,14633,14833,293.2057,204.6439,279.9139,201.8187 C,0,14833,,109,213,227 M,0,14833,15033,279.9139,201.8187,267.5,196.2917 C,0,15033,,109,213,227 M,0,15033,15233,267.5,196.2917,256.5065,188.3044 C,0,15233,,109,213,227 M,0,15233,15433,256.5065,188.3044,247.4139,178.206 C,0,15433,,109,213,227 M,0,15433,15633,247.4139,178.206,240.6196,166.4379 C,0,15633,,109,213,227 M,0,15633,15833,240.6196,166.4379,236.4204,153.5143 C,0,15833,,109,213,227 M,0,15833,16033,236.4204,153.5143,235,140 C,0,16033,,109,213,227 M,0,16033,16233,235,140,236.4204,126.4857 C,0,16233,,109,213,227 M,0,16233,16433,236.4204,126.4857,240.6196,113.5621 C,0,16433,,109,213,227 M,0,16433,16633,240.6196,113.5621,247.4139,101.794 C,0,16633,,109,213,227 M,0,16633,16833,247.4139,101.794,256.5065,91.69559 C,0,16833,,109,213,227 M,0,16833,17033,256.5065,91.69559,267.5,83.70835 C,0,17033,,109,213,227 M,0,17033,17233,267.5,83.70835,279.9139,78.18133 C,0,17233,,109,213,227 M,0,17233,17433,279.9139,78.18133,293.2057,75.35608 C,0,17433,,109,213,227 M,0,17433,17633,293.2057,75.35608,306.7943,75.35608 C,0,17633,,109,213,227 M,0,17633,17833,306.7943,75.35608,320.0861,78.18133 C,0,17833,,109,213,227 M,0,17833,18033,320.0861,78.18133,332.5,83.70835 C,0,18033,,109,213,227 M,0,18033,18233,332.5,83.70835,343.4935,91.69559 C,0,18233,,109,213,227 M,0,18233,18433,343.4935,91.69559,352.5861,101.794 C,0,18433,,109,213,227 M,0,18433,18633,352.5861,101.794,359.3805,113.5621 C,0,18633,,109,213,227 M,0,18633,18833,359.3805,113.5621,363.5796,126.4857 C,0,18833,,109,213,227 M,0,18833,19033,363.5796,126.4857,365,140
Sprite,Foreground,Centre,"sb\credits\006e.png",0,0 S,0,7333,,0.35 C,0,7333,,109,213,227 M,0,7333,7533,365,140,363.5796,153.5143 R,0,7333,13333,-1.570796,4.712389 C,0,7533,,109,213,227 M,0,7533,7733,363.5796,153.5143,359.3805,166.4379 C,0,7733,,109,213,227 M,0,7733,7933,359.3805,166.4379,352.5861,178.206 C,0,7933,,109,213,227 M,0,7933,8133,352.5861,178.206,343.4935,188.3044 C,0,8133,,109,213,227 M,0,8133,8333,343.4935,188.3044,332.5,196.2917 C,0,8333,,109,213,227 M,0,8333,8533,332.5,196.2917,320.0861,201.8187 C,0,8533,,109,213,227 M,0,8533,8733,320.0861,201.8187,306.7943,204.6439 C,0,8733,,109,213,227 M,0,8733,8933,306.7943,204.6439,293.2057,204.6439 C,0,8933,,109,213,227 M,0,8933,9133,293.2057,204.6439,279.9139,201.8187 C,0,9133,,109,213,227 M,0,9133,9333,279.9139,201.8187,267.5,196.2917 C,0,9333,,109,213,227 M,0,9333,9533,267.5,196.2917,256.5065,188.3044 C,0,9533,,109,213,227 M,0,9533,9733,256.5065,188.3044,247.4139,178.206 C,0,9733,,109,213,227 M,0,9733,9933,247.4139,178.206,240.6196,166.4379 C,0,9933,,109,213,227 M,0,9933,10133,240.6196,166.4379,236.4204,153.5143 C,0,10133,,109,213,227 M,0,10133,10333,236.4204,153.5143,235,140 C,0,10333,,109,213,227 M,0,10333,10533,235,140,236.4204,126.4857 C,0,10533,,109,213,227 M,0,10533,10733,236.4204,126.4857,240.6196,113.5621 C,0,10733,,109,213,227 M,0,10733,10933,240.6196,113.5621,247.4139,101.794 C,0,10933,,109,213,227 M,0,10933,11133,247.4139,101.794,256.5065,91.69559 C,0,11133,,109,213,227 M,0,11133,11333,256.5065,91.69559,267.5,83.70835 C,0,11333,,109,213,227 M,0,11333,11533,267.5,83.70835,279.9139,78.18133 C,0,11533,,109,213,227 M,0,11533,11733,279.9139,78.18133,293.2057,75.35608 C,0,11733,,109,213,227 M,0,11733,11933,293.2057,75.35608,306.7943,75.35608 C,0,11933,,109,213,227 M,0,11933,12133,306.7943,75.35608,320.0861,78.18133 C,0,12133,,109,213,227 M,0,12133,12333,320.0861,78.18133,332.5,83.70835 C,0,12333,,109,213,227 M,0,12333,12533,332.5,83.70835,343.4935,91.69559 C,0,12533,,109,213,227 M,0,12533,12733,343.4935,91.69559,352.5861,101.794 C,0,12733,,109,213,227 M,0,12733,12933,352.5861,101.794,359.3805,113.5621 C,0,12933,,109,213,227 M,0,12933,13133,359.3805,113.5621,363.5796,126.4857 C,0,13133,,109,213,227 M,0,13133,13333,363.5796,126.4857,365,140 C,0,13333,,109,213,227 M,0,13333,13533,365,140,363.5796,153.5143 R,0,13333,19333,-1.570796,4.712389 C,0,13533,,109,213,227 M,0,13533,13733,363.5796,153.5143,359.3805,166.4379 C,0,13733,,109,213,227 M,0,13733,13933,359.3805,166.4379,352.5861,178.206 C,0,13933,,109,213,227 M,0,13933,14133,352.5861,178.206,343.4935,188.3044 C,0,14133,,109,213,227 M,0,14133,14333,343.4935,188.3044,332.5,196.2917 C,0,14333,,109,213,227 M,0,14333,14533,332.5,196.2917,320.0861,201.8187 C,0,14533,,109,213,227 M,0,14533,14733,320.0861,201.8187,306.7943,204.6439 C,0,14733,,109,213,227 M,0,14733,14933,306.7943,204.6439,293.2057,204.6439 C,0,14933,,109,213,227 M,0,14933,15133,293.2057,204.6439,279.9139,201.8187 C,0,15133,,109,213,227 M,0,15133,15333,279.9139,201.8187,267.5,196.2917 C,0,15333,,109,213,227 M,0,15333,15533,267.5,196.2917,256.5065,188.3044 C,0,15533,,109,213,227 M,0,15533,15733,256.5065,188.3044,247.4139,178.206 C,0,15733,,109,213,227 M,0,15733,15933,247.4139,178.206,240.6196,166.4379 C,0,15933,,109,213,227 M,0,15933,16133,240.6196,166.4379,236.4204,153.5143 C,0,16133,,109,213,227 M,0,16133,16333,236.4204,153.5143,235,140 C,0,16333,,109,213,227 M,0,16333,16533,235,140,236.4204,126.4857 C,0,16533,,109,213,227 M,0,16533,16733,236.4204,126.4857,240.6196,113.5621 C,0,16733,,109,213,227 M,0,16733,16933,240.6196,113.5621,247.4139,101.794 C,0,16933,,109,213,227 M,0,16933,17133,247.4139,101.794,256.5065,91.69559 C,0,17133,,109,213,227 M,0,17133,17333,256.5065,91.69559,267.5,83.70835 C,0,17333,,109,213,227 M,0,17333,17533,267.5,83.70835,279.9139,78.18133 C,0,17533,,109,213,227 M,0,17533,17733,279.9139,78.18133,293.2057,75.35608 C,0,17733,,109,213,227 M,0,17733,17933,293.2057,75.35608,306.7943,75.35608 C,0,17933,,109,213,227 M,0,17933,18133,306.7943,75.35608,320.0861,78.18133 C,0,18133,,109,213,227 M,0,18133,18333,320.0861,78.18133,332.5,83.70835 C,0,18333,,109,213,227 M,0,18333,18533,332.5,83.70835,343.4935,91.69559 C,0,18533,,109,213,227 M,0,18533,18733,343.4935,91.69559,352.5861,101.794 C,0,18733,,109,213,227 M,0,18733,18933,352.5861,101.794,359.3805,113.5621 C,0,18933,,109,213,227 M,0,18933,19133,359.3805,113.5621,363.5796,126.4857 C,0,19133,,109,213,227 M,0,19133,19333,363.5796,126.4857,365,140
Sprite,Foreground,Centre,"sb\credits\0064.png",0,0 S,0,7633,,0.35 C,0,7633,,109,213,227 M,0,7633,7833,365,140,363.5796,153.5143 R,0,7633,13633,-1.570796,4.712389 C,0,7833,,109,213,227 M,0,7833,8033,363.5796,153.5143,359.3805,166.4379 C,0,8033,,109,213,227 M,0,8033,8233,359.3805,166.4379,352.5861,178.206 C,0,8233,,109,213,227 M,0,8233,8433,352.5861,178.206,343.4935,188.3044 C,0,8433,,109,213,227 M,0,8433,8633,343.4935,188.3044,332.5,196.2917 C,0,8633,,109,213,227 M,0,8633,8833,332.5,196.2917,320.0861,201.8187 C,0,8833,,109,213,227 M,0,8833,9033,320.0861,201.8187,306.7943,204.6439 C,0,9033,,109,213,227 M,0,9033,9233,306.7943,204.6439,293.2057,204.6439 C,0,9233,,109,213,227 M,0,9233,9433,293.2057,204.6439,279.9139,201.8187 C,0,9433,,109,213,227 M,0,9433,9633,279.9139,201.8187,267.5,196.2917 C,0,9633,,109,213,227 M,0,9633,9833,267.5,196.2917,256.5065,188.3044 C,0,9833,,109,213,227 M,0,9833,10033,256.5065,188.3044,247.4139,178.206 C,0,10033,,109,213,227 M,0,10033,10233,247.4139,178.206,240.6196,166.4379 C,0,10233,,109,213,227 M,0,10233,10433,240.6196,166.4379,236.4204,153.5143 C,0,10433,,109,213,227 M,0,10433,10633,236.4204,153.5143,235,140 C,0,10633,,109,213,227 M,0,10633,10833,235,140,236.4204,126.4857 C,0,10833,,109,213,227 M,0,10833,11033,236.4204,126.4857,240.6196,113.5621 C,0,11033,,109,213,227 M,0,11033,11233,240.6196,113.5621,247.4139,101.794 C,0,11233,,109,213,227 M,0,11233,11433,247.4139,101.794,256.5065,91.69559 C,0,11433,,109,213,227 M,0,11433,11633,256.5065,91.69559,267.5,83.70835 C,0,11633,,109,213,227 M,0,11633,11833,267.5,83.70835,279.9139,78.18133 C,0,11833,,109,213,227 M,0,11833,12033,279.9139,78.18133,293.2057,75.35608 C,0,12033,,109,213,227 M,0,12033,12233,293.2057,75.35608,306.7943,75.35608 C,0,12233,,109,213,227 M,0,12233,12433,306.7943,75.35608,320.0861,78.18133 C,0,12433,,109,213,227 M,0,12433,12633,320.0861,78.18133,332.5,83.70835 C,0,12633,,109,213,227 M,0,12633,12833,332.5,83.70835,343.4935,91.69559 C,0,12833,,109,213,227 M,0,12833,13033,343.4935,91.69559,352.5861,101.794 C,0,13033,,109,213,227 M,0,13033,13233,352.5861,101.794,359.3805,113.5621 C,0,13233,,109,213,227 M,0,13233,13433,359.3805,113.5621,363.5796,126.4857 C,0,13433,,109,213,227 M,0,13433,13633,363.5796,126.4857,365,140 C,0,13633,,109,213,227 M,0,13633,13833,365,140,363.5796,153.5143 R,0,13633,19633,-1.570796,4.712389 C,0,13833,,109,213,227 M,0,13833,14033,363.5796,153.5143,359.3805,166.4379 C,0,14033,,109,213,227 M,0,14033,14233,359.3805,166.4379,352.5861,178.206 C,0,14233,,109,213,227 M,0,14233,14433,352.5861,178.206,343.4935,188.3044 C,0,14433,,109,213,227 M,0,14433,14633,343.4935,188.3044,332.5,196.2917 C,0,14633,,109,213,227 M,0,14633,14833,332.5,196.2917,320.0861,201.8187 C,0,14833,,109,213,227 M,0,14833,15033,320.0861,201.8187,306.7943,204.6439 C,0,15033,,109,213,227 M,0,15033,15233,306.7943,204.6439,293.2057,204.6439 C,0,15233,,109,213,227 M,0,15233,15433,293.2057,204.6439,279.9139,201.8187 C,0,15433,,109,213,227 M,0,15433,15633,279.9139,201.8187,267.5,196.2917 C,0,15633,,109,213,227 M,0,15633,15833,267.5,196.2917,256.5065,188.3044 C,0,15833,,109,213,227 M,0,15833,16033,256.5065,188.3044,247.4139,178.206 C,0,16033,,109,213,227 M,0,16033,16233,247.4139,178.206,240.6196,166.4379 C,0,16233,,109,213,227 M,0,16233,16433,240.6196,166.4379,236.4204,153.5143 C,0,16433,,109,213,227 M,0,16433,16633,236.4204,153.5143,235,140 C,0,16633,,109,213,227 M,0,16633,16833,235,140,236.4204,126.4857 C,0,16833,,109,213,227 M,0,16833,17033,236.4204,126.4857,240.6196,113.5621 C,0,17033,,109,213,227 M,0,17033,17233,240.6196,113.5621,247.4139,101.794 C,0,17233,,109,213,227 M,0,17233,17433,247.4139,101.794,256.5065,91.69559 C,0,17433,,109,213,227 M,0,17433,17633,256.5065,91.69559,267.5,83.70835 C,0,17633,,109,213,227 M,0,17633,17833,267.5,83.70835,279.9139,78.18133 C,0,17833,,109,213,227 M,0,17833,18033,279.9139,78.18133,293.2057,75.35608 C,0,18033,,109,213,227 M,0,18033,18233,293.2057,75.35608,306.7943,75.35608 C,0,18233,,109,213,227 M,0,18233,18433,306.7943,75.35608,320.0861,78.18133 C,0,18433,,109,213,227 M,0,18433,18633,320.0861,78.18133,332.5,83.70835 C,0,18633,,109,213,227 M,0,18633,18833,332.5,83.70835,343.4935,91.69559 C,0,18833,,109,213,227 M,0,18833,19033,343.4935,91.69559,352.5861,101.794 C,0,19033,,109,213,227 M,0,19033,19233,352.5861,101.794,359.3805,113.5621 C,0,19233,,109,213,227 M,0,19233,19433,359.3805,113.5621,363.5796,126.4857 C,0,19433,,109,213,227 M,0,19433,19633,363.5796,126.4857,365,140
Sprite,Foreground,Centre,"sb\credits\006c.png",0,0 S,0,7933,,0.35 C,0,7933,,109,213,227 M,0,7933,8133,365,140,363.5796,153.5143 R,0,7933,13933,-1.570796,4.712389 C,0,8133,,109,213,227 M,0,8133,8333,363.5796,153.5143,359.3805,166.4379 C,0,8333,,109,213,227 M,0,8333,8533,359.3805,166.4379,352.5861,178.206 C,0,8533,,109,213,227 M,0,8533,8733,352.5861,178.206,343.4935,188.3044 C,0,8733,,109,213,227 M,0,8733,8933,343.4935,188.3044,332.5,196.2917 C,0,8933,,109,213,227 M,0,8933,9133,332.5,196.2917,320.0861,201.8187 C,0,9133,,109,213,227 M,0,9133,9333,320.0861,201.8187,306.7943,204.6439 C,0,9333,,109,213,227 M,0,9333,9533,306.7943,204.6439,293.2057,204.6439 C,0,9533,,109,213,227 M,0,9533,9733,293.2057,204.6439,279.9139,201.8187 C,0,9733,,109,213,227 M,0,9733,9933,279.9139,201.8187,267.5,196.2917 C,0,9933,,109,213,227 M,0,9933,10133,267.5,196.2917,256.5065,188.3044 C,0,10133,,109,213,227 M,0,10133,10333,256.5065,188.3044,247.4139,178.206 C,0,10333,,109,213,227 M,0,10333,10533,247.4139,178.206,240.6196,166.4379 C,0,10533,,109,213,227 M,0,10533,10733,240.6196,166.4379,236.4204,153.5143 C,0,10733,,109,213,227 M,0,10733,10933,236.4204,153.5143,235,140 C,0,10933,,109,213,227 M,0,10933,11133,235,140,236.4204,126.4857 C,0,11133,,109,213,227 M,0,11133,11333,236.4204,126.4857,240.6196,113.5621 C,0,11333,,109,213,227 M,0,11333,11533,240.6196,113.5621,247.4139,101.794 C,0,11533,,109,213,227 M,0,11533,11733,247.4139,101.794,256.5065,91.69559 C,0,11733,,109,213,227 M,0,11733,11933,256.5065,91.69559,267.5,83.70835 C,0,11933,,109,213,227 M,0,11933,12133,267.5,83.70835,279.9139,78.18133 C,0,12133,,109,213,227 M,0,12133,12333,279.9139,78.18133,293.2057,75.35608 C,0,12333,,109,213,227 M,0,12333,12533,293.2057,75.35608,306.7943,75.35608 C,0,12533,,109,213,227 M,0,12533,12733,306.7943,75.35608,320.0861,78.18133 C,0,12733,,109,213,227 M,0,12733,12933,320.0861,78.18133,332.5,83.70835 C,0,12933,,109,213,227 M,0,12933,13133,332.5,83.70835,343.4935,91.69559 C,0,13133,,109,213,227 M,0,13133,13333,343.4935,91.69559,352.5861,101.794 C,0,13333,,109,213,227 M,0,13333,13533,352.5861,101.794,359.3805,113.5621 C,0,13533,,109,213,227 M,0,13533,13733,359.3805,113.5621,363.5796,126.4857 C,0,13733,,109,213,227 M,0,13733,13933,363.5796,126.4857,365,140 C,0,13933,,109,213,227 M,0,13933,14133,365,140,363.5796,153.5143 R,0,13933,19933,-1.570796,4.712389 C,0,14133,,109,213,227 M,0,14133,14333,363.5796,153.5143,359.3805,166.4379 C,0,14333,,109,213,227 M,0,14333,14533,359.3805,166.4379,352.5861,178.206 C,0,14533,,109,213,227 M,0,14533,14733,352.5861,178.206,343.4935,188.3044 C,0,14733,,109,213,227 M,0,14733,14933,343.4935,188.3044,332.5,196.2917 C,0,14933,,109,213,227 M,0,14933,15133,332.5,196.2917,320.0861,201.8187 C,0,15133,,109,213,227 M,0,15133,15333,320.0861,201.8187,306.7943,204.6439 C,0,15333,,109,213,227 M,0,15333,15533,306.7943,204.6439,293.2057,204.6439 C,0,15533,,109,213,227 M,0,15533,15733,293.2057,204.6439,279.9139,201.8187 C,0,15733,,109,213,227 M,0,15733,15933,279.9139,201.8187,267.5,196.2917 C,0,15933,,109,213,227 M,0,15933,16133,267.5,196.2917,256.5065,188.3044 C,0,16133,,109,213,227 M,0,16133,16333,256.5065,188.3044,247.4139,178.206 C,0,16333,,109,213,227 M,0,16333,16533,247.4139,178.206,240.6196,166.4379 C,0,16533,,109,213,227 M,0,16533,16733,240.6196,166.4379,236.4204,153.5143 C,0,16733,,109,213,227 M,0,16733,16933,236.4204,153.5143,235,140 C,0,16933,,109,213,227 M,0,16933,17133,235,140,236.4204,126.4857 C,0,17133,,109,213,227 M,0,17133,17333,236.4204,126.4857,240.6196,113.5621 C,0,17333,,109,213,227 M,0,17333,17533,240.6196,113.5621,247.4139,101.794 C,0,17533,,109,213,227 M,0,17533,17733,247.4139,101.794,256.5065,91.69559 C,0,17733,,109,213,227 M,0,17733,17933,256.5065,91.69559,267.5,83.70835 C,0,17933,,109,213,227 M,0,17933,18133,267.5,83.70835,279.9139,78.18133 C,0,18133,,109,213,227 M,0,18133,18333,279.9139,78.18133,293.2057,75.35608 C,0,18333,,109,213,227 M,0,18333,18533,293.2057,75.35608,306.7943,75.35608 C,0,18533,,109,213,227 M,0,18533,18733,306.7943,75.35608,320.0861,78.18133 C,0,18733,,109,213,227 M,0,18733,18933,320.0861,78.18133,332.5,83.70835 C,0,18933,,109,213,227 M,0,18933,19133,332.5,83.70835,343.4935,91.69559 C,0,19133,,109,213,227 M,0,19133,19333,343.4935,91.69559,352.5861,101.794 C,0,19333,,109,213,227 M,0,19333,19533,352.5861,101.794,359.3805,113.5621 C,0,19533,,109,213,227 M,0,19533,19733,359.3805,113.5621,363.5796,126.4857 C,0,19733,,109,213,227 M,0,19733,19933,363.5796,126.4857,365,140
Sprite,Foreground,Centre,"sb\credits\0065.png",0,0 S,0,8233,,0.35 C,0,8233,,109,213,227 M,0,8233,8433,365,140,363.5796,153.5143 R,0,8233,14233,-1.570796,4.712389 C,0,8433,,109,213,227 M,0,8433,8633,363.5796,153.5143,359.3805,166.4379 C,0,8633,,109,213,227 M,0,8633,8833,359.3805,166.4379,352.5861,178.206 C,0,8833,,109,213,227 M,0,8833,9033,352.5861,178.206,343.4935,188.3044 C,0,9033,,109,213,227 M,0,9033,9233,343.4935,188.3044,332.5,196.2917 C,0,9233,,109,213,227 M,0,9233,9433,332.5,196.2917,320.0861,201.8187 C,0,9433,,109,213,227 M,0,9433,9633,320.0861,201.8187,306.7943,204.6439 C,0,9633,,109,213,227 M,0,9633,9833,306.7943,204.6439,293.2057,204.6439 C,0,9833,,109,213,227 M,0,9833,10033,293.2057,204.6439,279.9139,201.8187 C,0,10033,,109,213,227 M,0,10033,10233,279.9139,201.8187,267.5,196.2917 C,0,10233,,109,213,227 M,0,10233,10433,267.5,196.2917,256.5065,188.3044 C,0,10433,,109,213,227 M,0,10433,10633,256.5065,188.3044,247.4139,178.206 C,0,10633,,109,213,227 M,0,10633,10833,247.4139,178.206,240.6196,166.4379 C,0,10833,,109,213,227 M,0,10833,11033,240.6196,166.4379,236.4204,153.5143 C,0,11033,,109,213,227 M,0,11033,11233,236.4204,153.5143,235,140 C,0,11233,,109,213,227 M,0,11233,11433,235,140,236.4204,126.4857 C,0,11433,,109,213,227 M,0,11433,11633,236.4204,126.4857,240.6196,113.5621 C,0,11633,,109,213,227 M,0,11633,11833,240.6196,113.5621,247.4139,101.794 C,0,11833,,109,213,227 M,0,11833,12033,247.4139,101.794,256.5065,91.69559 C,0,12033,,109,213,227 M,0,12033,12233,256.5065,91.69559,267.5,83.70835 C,0,12233,,109,213,227 M,0,12233,12433,267.5,83.70835,279.9139,78.18133 C,0,12433,,109,213,227 M,0,12433,12633,279.9139,78.18133,293.2057,75.35608 C,0,12633,,109,213,227 M,0,12633,12833,293.2057,75.35608,306.7943,75.35608 C,0,12833,,109,213,227 M,0,12833,13033,306.7943,75.35608,320.0861,78.18133 C,0,13033,,109,213,227 M,0,13033,13233,320.0861,78.18133,332.5,83.70835 C,0,13233,,109,213,227 M,0,13233,13433,332.5,83.70835,343.4935,91.69559 C,0,13433,,109,213,227 M,0,13433,13633,343.4935,91.69559,352.5861,101.794 C,0,13633,,109,213,227 M,0,13633,13833,352.5861,101.794,359.3805,113.5621 C,0,13833,,109,213,227 M,0,13833,14033,359.3805,113.5621,363.5796,126.4857 C,0,14033,,109,213,227 M,0,14033,14233,363.5796,126.4857,365,140 C,0,14233,,109,213,227 M,0,14233,14433,365,140,363.5796,153.5143 R,0,14233,20233,-1.570796,4.712389 C,0,14433,,109,213,227 M,0,14433,14633,363.5796,153.5143,359.3805,166.4379 C,0,14633,,109,213,227 M,0,14633,14833,359.3805,166.4379,352.5861,178.206 C,0,14833,,109,213,227 M,0,14833,15033,352.5861,178.206,343.4935,188.3044 C,0,15033,,109,213,227 M,0,15033,15233,343.4935,188.3044,332.5,196.2917 C,0,15233,,109,213,227 M,0,15233,15433,332.5,196.2917,320.0861,201.8187 C,0,15433,,109,213,227 M,0,15433,15633,320.0861,201.8187,306.7943,204.6439 C,0,15633,,109,213,227 M,0,15633,15833,306.7943,204.6439,293.2057,204.6439 C,0,15833,,109,213,227 M,0,15833,16033,293.2057,204.6439,279.9139,201.8187 C,0,16033,,109,213,227 M,0,16033,16233,279.9139,201.8187,267.5,196.2917 C,0,16233,,109,213,227 M,0,16233,16433,267.5,196.2917,256.5065,188.3044 C,0,16433,,109,213,227 M,0,16433,16633,256.5065,188.3044,247.4139,178.206 C,0,16633,,109,213,227 M,0,16633,16833,247.4139,178.206,240.6196,166.4379 C,0,16833,,109,213,227 M,0,16833,17033,240.6196,166.4379,236.4204,153.5143 C,0,17033,,109,213,227 M,0,17033,17233,236.4204,153.5143,235,140 C,0,17233,,109,213,227 M,0,17233,17433,235,140,236.4204,126.4857 C,0,17433,,109,213,227 M,0,17433,17633,236.4204,126.4857,240.6196,113.5621 C,0,17633,,109,213,227 M,0,17633,17833,240.6196,113.5621,247.4139,101.794 C,0,17833,,109,213,227 M,0,17833,18033,247.4139,101.794,256.5065,91.69559 C,0,18033,,109,213,227 M,0,18033,18233,256.5065,91.69559,267.5,83.70835 C,0,18233,,109,213,227 M,0,18233,18433,267.5,83.70835,279.9139,78.18133 C,0,18433,,109,213,227 M,0,18433,18633,279.9139,78.18133,293.2057,75.35608 C,0,18633,,109,213,227 M,0,18633,18833,293.2057,75.35608,306.7943,75.35608 C,0,18833,,109,213,227 M,0,18833,19033,306.7943,75.35608,320.0861,78.18133 C,0,19033,,109,213,227 M,0,19033,19233,320.0861,78.18133,332.5,83.70835 C,0,19233,,109,213,227 M,0,19233,19433,332.5,83.70835,343.4935,91.69559 C,0,19433,,109,213,227 M,0,19433,19633,343.4935,91.69559,352.5861,101.794 C,0,19633,,109,213,227 M,0,19633,19833,352.5861,101.794,359.3805,113.5621 C,0,19833,,109,213,227 M,0,19833,20033,359.3805,113.5621,363.5796,126.4857 C,0,20033,,109,213,227 M,0,20033,20233,363.5796,126.4857,365,140
Sprite,Foreground,Centre,"sb\credits\_002.png",120,350 S,0,3736,,0.5 F,0,3736,3836,0,1 C,0,3736,12584,245,135,71
Sprite,Foreground,Centre,"sb\credits\0048.png",0,0 S,0,3736,,0.45 C,0,3736,,166,65,65 M,0,3736,3936,195,350,193.3611,365.5934 R,0,3736,9736,-1.570796,4.712389 C,0,3936,,166,65,65 M,0,3936,4136,193.3611,365.5934,188.5159,380.5052 C,0,4136,,166,65,65 M,0,4136,4336,188.5159,380.5052,180.6763,394.0839 C,0,4336,,166,65,65 M,0,4336,4536,180.6763,394.0839,170.1848,405.7359 C,0,4536,,166,65,65 M,0,4536,4736,170.1848,405.7359,157.5,414.9519 C,0,4736,,166,65,65 M,0,4736,4936,157.5,414.9519,143.1763,421.3293 C,0,4936,,166,65,65 M,0,4936,5136,143.1763,421.3293,127.8396,424.5891 C,0,5136,,166,65,65 M,0,5136,5336,127.8396,424.5891,112.1604,424.5891 C,0,5336,,166,65,65 M,0,5336,5536,112.1604,424.5891,96.82372,421.3293 C,0,5536,,166,65,65 M,0,5536,5736,96.82372,421.3293,82.5,414.9519 C,0,5736,,166,65,65 M,0,5736,5936,82.5,414.9519,69.8152,405.7359 C,0,5936,,166,65,65 M,0,5936,6136,69.8152,405.7359,59.32373,394.0839 C,0,6136,,166,65,65 M,0,6136,6336,59.32373,394.0839,51.48409,380.5052 C,0,6336,,166,65,65 M,0,6336,6536,51.48409,380.5052,46.63893,365.5934 C,0,6536,,166,65,65 M,0,6536,6736,46.63893,365.5934,45,350 C,0,6736,,166,65,65 M,0,6736,6936,45,350,46.63893,334.4066 C,0,6936,,166,65,65 M,0,6936,7136,46.63893,334.4066,51.48409,319.4948 C,0,7136,,166,65,65 M,0,7136,7336,51.48409,319.4948,59.32373,305.9161 C,0,7336,,166,65,65 M,0,7336,7536,59.32373,305.9161,69.8152,294.2641 C,0,7536,,166,65,65 M,0,7536,7736,69.8152,294.2641,82.5,285.0481 C,0,7736,,166,65,65 M,0,7736,7936,82.5,285.0481,96.82372,278.6707 C,0,7936,,166,65,65 M,0,7936,8136,96.82372,278.6707,112.1604,275.4109 C,0,8136,,166,65,65 M,0,8136,8336,112.1604,275.4109,127.8396,275.4109 C,0,8336,,166,65,65 M,0,8336,8536,127.8396,275.4109,143.1763,278.6707 C,0,8536,,166,65,65 M,0,8536,8736,143.1763,278.6707,157.5,285.0481 C,0,8736,,166,65,65 M,0,8736,8936,157.5,285.0481,170.1848,294.2641 C,0,8936,,166,65,65 M,0,8936,9136,170.1848,294.2641,180.6763,305.9161 C,0,9136,,166,65,65 M,0,9136,9336,180.6763,305.9161,188.5159,319.4948 C,0,9336,,166,65,65 M,0,9336,9536,188.5159,319.4948,193.3611,334.4066 C,0,9536,,166,65,65 M,0,9536,9736,193.3611,334.4066,195,350 C,0,9736,,166,65,65 M,0,9736,9936,195,350,193.3611,365.5934 R,0,9736,15736,-1.570796,4.712389 C,0,9936,,166,65,65 M,0,9936,10136,193.3611,365.5934,188.5159,380.5052 C,0,10136,,166,65,65 M,0,10136,10336,188.5159,380.5052,180.6763,394.0839 C,0,10336,,166,65,65 M,0,10336,10536,180.6763,394.0839,170.1848,405.7359 C,0,10536,,166,65,65 M,0,10536,10736,170.1848,405.7359,157.5,414.9519 C,0,10736,,166,65,65 M,0,10736,10936,157.5,414.9519,143.1763,421.3293 C,0,10936,,166,65,65 M,0,10936,11136,143.1763,421.3293,127.8396,424.5891 C,0,11136,,166,65,65 M,0,11136,11336,127.8396,424.5891,112.1604,424.5891 C,0,11336,,166,65,65 M,0,11336,11536,112.1604,424.5891,96.82372,421.3293 C,0,11536,,166,65,65 M,0,11536,11736,96.82372,421.3293,82.5,414.9519 C,0,11736,,166,65,65 M,0,11736,11936,82.5,414.9519,69.8152,405.7359 C,0,11936,,166,65,65 M,0,11936,12136,69.8152,405.7359,59.32373,394.0839 C,0,12136,,166,65,65 M,0,12136,12336,59.32373,394.0839,51.48409,380.5052 C,0,12336,,166,65,65 M,0,12336,12536,51.48409,380.5052,46.63893,365.5934 C,0,12536,,166,65,65 M,0,12536,12736,46.63893,365.5934,45,350 C,0,12736,,166,65,65 M,0,12736,12936,45,350,46.63893,334.4066 C,0,12936,,166,65,65 M,0,12936,13136,46.63893,334.4066,51.48409,319.4948 C,0,13136,,166,65,65 M,0,13136,13336,51.48409,319.4948,59.32373,305.9161 C,0,13336,,166,65,65 M,0,13336,13536,59.32373,305.9161,69.8152,294.2641 C,0,13536,,166,65,65 M,0,13536,13736,69.8152,294.2641,82.5,285.0481 C,0,13736,,166,65,65 M,0,13736,13936,82.5,285.0481,96.82372,278.6707 C,0,13936,,166,65,65 M,0,13936,14136,96.82372,278.6707,112.1604,275.4109 C,0,14136,,166,65,65 M,0,14136,14336,112.1604,275.4109,127.8396,275.4109 C,0,14336,,166,65,65 M,0,14336,14536,127.8396,275.4109,143.1763,278.6707 C,0,14536,,166,65,65 M,0,14536,14736,143.1763,278.6707,157.5,285.0481 C,0,14736,,166,65,65 M,0,14736,14936,157.5,285.0481,170.1848,294.2641 C,0,14936,,166,65,65 M,0,14936,15136,170.1848,294.2641,180.6763,305.9161 C,0,15136,,166,65,65 M,0,15136,15336,180.6763,305.9161,188.5159,319.4948 C,0,15336,,166,65,65 M,0,15336,15536,188.5159,319.4948,193.3611,334.4066 C,0,15536,,166,65,65 M,0,15536,15736,193.3611,334.4066,195,350
Sprite,Foreground,Centre,"sb\credits\0061.png",0,0 S,0,4036,,0.45 C,0,4036,,166,65,65 M,0,4036,4236,195,350,193.3611,365.5934 R,0,4036,10036,-1.570796,4.712389 C,0,4236,,166,65,65 M,0,4236,4436,193.3611,365.5934,188.5159,380.5052 C,0,4436,,166,65,65 M,0,4436,4636,188.5159,380.5052,180.6763,394.0839 C,0,4636,,166,65,65 M,0,4636,4836,180.6763,394.0839,170.1848,405.7359 C,0,4836,,166,65,65 M,0,4836,5036,170.1848,405.7359,157.5,414.9519 C,0,5036,,166,65,65 M,0,5036,5236,157.5,414.9519,143.1763,421.3293 C,0,5236,,166,65,65 M,0,5236,5436,143.1763,421.3293,127.8396,424.5891 C,0,5436,,166,65,65 M,0,5436,5636,127.8396,424.5891,112.1604,424.5891 C,0,5636,,166,65,65 M,0,5636,5836,112.1604,424.5891,96.82372,421.3293 C,0,5836,,166,65,65 M,0,5836,6036,96.82372,421.3293,82.5,414.9519 C,0,6036,,166,65,65 M,0,6036,6236,82.5,414.9519,69.8152,405.7359 C,0,6236,,166,65,65 M,0,6236,6436,69.8152,405.7359,59.32373,394.0839 C,0,6436,,166,65,65 M,0,6436,6636,59.32373,394.0839,51.48409,380.5052 C,0,6636,,166,65,65 M,0,6636,6836,51.48409,380.5052,46.63893,365.5934 C,0,6836,,166,65,65 M,0,6836,7036,46.63893,365.5934,45,350 C,0,7036,,166,65,65 M,0,7036,7236,45,350,46.63893,334.4066 C,0,7236,,166,65,65 M,0,7236,7436,46.63893,334.4066,51.48409,319.4948 C,0,7436,,166,65,65 M,0,7436,7636,51.48409,319.4948,59.32373,305.9161 C,0,7636,,166,65,65 M,0,7636,7836,59.32373,305.9161,69.8152,294.2641 C,0,7836,,166,65,65 M,0,7836,8036,69.8152,294.2641,82.5,285.0481 C,0,8036,,166,65,65 M,0,8036,8236,82.5,285.0481,96.82372,278.6707 C,0,8236,,166,65,65 M,0,8236,8436,96.82372,278.6707,112.1604,275.4109 C,0,8436,,166,65,65 M,0,8436,8636,112.1604,275.4109,127.8396,275.4109 C,0,8636,,166,65,65 M,0,8636,8836,127.8396,275.4109,143.1763,278.6707 C,0,8836,,166,65,65 M,0,8836,9036,143.1763,278.6707,157.5,285.0481 C,0,9036,,166,65,65 M,0,9036,9236,157.5,285.0481,170.1848,294.2641 C,0,9236,,166,65,65 M,0,9236,9436,170.1848,294.2641,180.6763,305.9161 C,0,9436,,166,65,65 M,0,9436,9636,180.6763,305.9161,188.5159,319.4948 C,0,9636,,166,65,65 M,0,9636,9836,188.5159,319.4948,193.3611,334.4066 C,0,9836,,166,65,65 M,0,9836,10036,193.3611,334.4066,195,350 C,0,10036,,166,65,65 M,0,10036,10236,195,350,193.3611,365.5934 R,0,10036,16036,-1.570796,4.712389 C,0,10236,,166,65,65 M,0,10236,10436,193.3611,365.5934,188.5159,380.5052 C,0,10436,,166,65,65 M,0,10436,10636,188.5159,380.5052,180.6763,394.0839 C,0,10636,,166,65,65 M,0,10636,10836,180.6763,394.0839,170.1848,405.7359 C,0,10836,,166,65,65 M,0,10836,11036,170.1848,405.7359,157.5,414.9519 C,0,11036,,166,65,65 M,0,11036,11236,157.5,414.9519,143.1763,421.3293 C,0,11236,,166,65,65 M,0,11236,11436,143.1763,421.3293,127.8396,424.5891 C,0,11436,,166,65,65 M,0,11436,11636,127.8396,424.5891,112.1604,424.5891 C,0,11636,,166,65,65 M,0,11636,11836,112.1604,424.5891,96.82372,421.3293 C,0,11836,,166,65,65 M,0,11836,12036,96.82372,421.3293,82.5,414.9519 C,0,12036,,166,65,65 M,0,12036,12236,82.5,414.9519,69.8152,405.7359 C,0,12236,,166,65,65 M,0,12236,12436,69.8152,405.7359,59.32373,394.0839 C,0,12436,,166,65,65 M,0,12436,12636,59.32373,394.0839,51.48409,380.5052 C,0,12636,,166,65,65 M,0,12636,12836,51.48409,380.5052,46.63893,365.5934 C,0,12836,,166,65,65 M,0,12836,13036,46.63893,365.5934,45,350 C,0,13036,,166,65,65 M,0,13036,13236,45,350,46.63893,334.4066 C,0,13236,,166,65,65 M,0,13236,13436,46.63893,334.4066,51.48409,319.4948 C,0,13436,,166,65,65 M,0,13436,13636,51.48409,319.4948,59.32373,305.9161 C,0,13636,,166,65,65 M,0,13636,13836,59.32373,305.9161,69.8152,294.2641 C,0,13836,,166,65,65 M,0,13836,14036,69.8152,294.2641,82.5,285.0481 C,0,14036,,166,65,65 M,0,14036,14236,82.5,285.0481,96.82372,278.6707 C,0,14236,,166,65,65 M,0,14236,14436,96.82372,278.6707,112.1604,275.4109 C,0,14436,,166,65,65 M,0,14436,14636,112.1604,275.4109,127.8396,275.4109 C,0,14636,,166,65,65 M,0,14636,14836,127.8396,275.4109,143.1763,278.6707 C,0,14836,,166,65,65 M,0,14836,15036,143.1763,278.6707,157.5,285.0481 C,0,15036,,166,65,65 M,0,15036,15236,157.5,285.0481,170.1848,294.2641 C,0,15236,,166,65,65 M,0,15236,15436,170.1848,294.2641,180.6763,305.9161 C,0,15436,,166,65,65 M,0,15436,15636,180.6763,305.9161,188.5159,319.4948 C,0,15636,,166,65,65 M,0,15636,15836,188.5159,319.4948,193.3611,334.4066 C,0,15836,,166,65,65 M,0,15836,16036,193.3611,334.4066,195,350
Sprite,Foreground,Centre,"sb\credits\0072.png",0,0 S,0,4336,,0.45 C,0,4336,,166,65,65 M,0,4336,4536,195,350,193.3611,365.5934 R,0,4336,10336,-1.570796,4.712389 C,0,4536,,166,65,65 M,0,4536,4736,193.3611,365.5934,188.5159,380.5052 C,0,4736,,166,65,65 M,0,4736,4936,188.5159,380.5052,180.6763,394.0839 C,0,4936,,166,65,65 M,0,4936,5136,180.6763,394.0839,170.1848,405.7359 C,0,5136,,166,65,65 M,0,5136,5336,170.1848,405.7359,157.5,414.9519 C,0,5336,,166,65,65 M,0,5336,5536,157.5,414.9519,143.1763,421.3293 C,0,5536,,166,65,65 M,0,5536,5736,143.1763,421.3293,127.8396,424.5891 C,0,5736,,166,65,65 M,0,5736,5936,127.8396,424.5891,112.1604,424.5891 C,0,5936,,166,65,65 M,0,5936,6136,112.1604,424.5891,96.82372,421.3293 C,0,6136,,166,65,65 M,0,6136,6336,96.82372,421.3293,82.5,414.9519 C,0,6336,,166,65,65 M,0,6336,6536,82.5,414.9519,69.8152,405.7359 C,0,6536,,166,65,65 M,0,6536,6736,69.8152,405.7359,59.32373,394.0839 C,0,6736,,166,65,65 M,0,6736,6936,59.32373,394.0839,51.48409,380.5052 C,0,6936,,166,65,65 M,0,6936,7136,51.48409,380.5052,46.63893,365.5934 C,0,7136,,166,65,65 M,0,7136,7336,46.63893,365.5934,45,350 C,0,7336,,166,65,65 M,0,7336,7536,45,350,46.63893,334.4066 C,0,7536,,166,65,65 M,0,7536,7736,46.63893,334.4066,51.48409,319.4948 C,0,7736,,166,65,65 M,0,7736,7936,51.48409,319.4948,59.32373,305.9161 C,0,7936,,166,65,65 M,0,7936,8136,59.32373,305.9161,69.8152,294.2641 C,0,8136,,166,65,65 M,0,8136,8336,69.8152,294.2641,82.5,285.0481 C,0,8336,,166,65,65 M,0,8336,8536,82.5,285.0481,96.82372,278.6707 C,0,8536,,166,65,65 M,0,8536,8736,96.82372,278.6707,112.1604,275.4109 C,0,8736,,166,65,65 M,0,8736,8936,112.1604,275.4109,127.8396,275.4109 C,0,8936,,166,65,65 M,0,8936,9136,127.8396,275.4109,143.1763,278.6707 C,0,9136,,166,65,65 M,0,9136,9336,143.1763,278.6707,157.5,285.0481 C,0,9336,,166,65,65 M,0,9336,9536,157.5,285.0481,170.1848,294.2641 C,0,9536,,166,65,65 M,0,9536,9736,170.1848,294.2641,180.6763,305.9161 C,0,9736,,166,65,65 M,0,9736,9936,180.6763,305.9161,188.5159,319.4948 C,0,9936,,166,65,65 M,0,9936,10136,188.5159,319.4948,193.3611,334.4066 C,0,10136,,166,65,65 M,0,10136,10336,193.3611,334.4066,195,350 C,0,10336,,166,65,65 M,0,10336,10536,195,350,193.3611,365.5934 R,0,10336,16336,-1.570796,4.712389 C,0,10536,,166,65,65 M,0,10536,10736,193.3611,365.5934,188.5159,380.5052 C,0,10736,,166,65,65 M,0,10736,10936,188.5159,380.5052,180.6763,394.0839 C,0,10936,,166,65,65 M,0,10936,11136,180.6763,394.0839,170.1848,405.7359 C,0,11136,,166,65,65 M,0,11136,11336,170.1848,405.7359,157.5,414.9519 C,0,11336,,166,65,65 M,0,11336,11536,157.5,414.9519,143.1763,421.3293 C,0,11536,,166,65,65 M,0,11536,11736,143.1763,421.3293,127.8396,424.5891 C,0,11736,,166,65,65 M,0,11736,11936,127.8396,424.5891,112.1604,424.5891 C,0,11936,,166,65,65 M,0,11936,12136,112.1604,424.5891,96.82372,421.3293 C,0,12136,,166,65,65 M,0,12136,12336,96.82372,421.3293,82.5,414.9519 C,0,12336,,166,65,65 M,0,12336,12536,82.5,414.9519,69.8152,405.7359 C,0,12536,,166,65,65 M,0,12536,12736,69.8152,405.7359,59.32373,394.0839 C,0,12736,,166,65,65 M,0,12736,12936,59.32373,394.0839,51.48409,380.5052 C,0,12936,,166,65,65 M,0,12936,13136,51.48409,380.5052,46.63893,365.5934 C,0,13136,,166,65,65 M,0,13136,13336,46.63893,365.5934,45,350 C,0,13336,,166,65,65 M,0,13336,13536,45,350,46.63893,334.4066 C,0,13536,,166,65,65 M,0,13536,13736,46.63893,334.4066,51.48409,319.4948 C,0,13736,,166,65,65 M,0,13736,13936,51.48409,319.4948,59.32373,305.9161 C,0,13936,,166,65,65 M,0,13936,14136,59.32373,305.9161,69.8152,294.2641 C,0,14136,,166,65,65 M,0,14136,14336,69.8152,294.2641,82.5,285.0481 C,0,14336,,166,65,65 M,0,14336,14536,82.5,285.0481,96.82372,278.6707 C,0,14536,,166,65,65 M,0,14536,14736,96.82372,278.6707,112.1604,275.4109 C,0,14736,,166,65,65 M,0,14736,14936,112.1604,275.4109,127.8396,275.4109 C,0,14936,,166,65,65 M,0,14936,15136,127.8396,275.4109,143.1763,278.6707 C,0,15136,,166,65,65 M,0,15136,15336,143.1763,278.6707,157.5,285.0481 C,0,15336,,166,65,65 M,0,15336,15536,157.5,285.0481,170.1848,294.2641 C,0,15536,,166,65,65 M,0,15536,15736,170.1848,294.2641,180.6763,305.9161 C,0,15736,,166,65,65 M,0,15736,15936,180.6763,305.9161,188.5159,319.4948 C,0,15936,,166,65,65 M,0,15936,16136,188.5159,319.4948,193.3611,334.4066 C,0,16136,,166,65,65 M,0,16136,16336,193.3611,334.4066,195,350
Sprite,Foreground,Centre,"sb\credits\0075.png",0,0 S,0,4636,,0.45 C,0,4636,,166,65,65 M,0,4636,4836,195,350,193.3611,365.5934 R,0,4636,10636,-1.570796,4.712389 C,0,4836,,166,65,65 M,0,4836,5036,193.3611,365.5934,188.5159,380.5052 C,0,5036,,166,65,65 M,0,5036,5236,188.5159,380.5052,180.6763,394.0839 C,0,5236,,166,65,65 M,0,5236,5436,180.6763,394.0839,170.1848,405.7359 C,0,5436,,166,65,65 M,0,5436,5636,170.1848,405.7359,157.5,414.9519 C,0,5636,,166,65,65 M,0,5636,5836,157.5,414.9519,143.1763,421.3293 C,0,5836,,166,65,65 M,0,5836,6036,143.1763,421.3293,127.8396,424.5891 C,0,6036,,166,65,65 M,0,6036,6236,127.8396,424.5891,112.1604,424.5891 C,0,6236,,166,65,65 M,0,6236,6436,112.1604,424.5891,96.82372,421.3293 C,0,6436,,166,65,65 M,0,6436,6636,96.82372,421.3293,82.5,414.9519 C,0,6636,,166,65,65 M,0,6636,6836,82.5,414.9519,69.8152,405.7359 C,0,6836,,166,65,65 M,0,6836,7036,69.8152,405.7359,59.32373,394.0839 C,0,7036,,166,65,65 M,0,7036,7236,59.32373,394.0839,51.48409,380.5052 C,0,7236,,166,65,65 M,0,7236,7436,51.48409,380.5052,46.63893,365.5934 C,0,7436,,166,65,65 M,0,7436,7636,46.63893,365.5934,45,350 C,0,7636,,166,65,65 M,0,7636,7836,45,350,46.63893,334.4066 C,0,7836,,166,65,65 M,0,7836,8036,46.63893,334.4066,51.48409,319.4948 C,0,8036,,166,65,65 M,0,8036,8236,51.48409,319.4948,59.32373,305.9161 C,0,8236,,166,65,65 M,0,8236,8436,59.32373,305.9161,69.8152,294.2641 C,0,8436,,166,65,65 M,0,8436,8636,69.8152,294.2641,82.5,285.0481 C,0,8636,,166,65,65 M,0,8636,8836,82.5,285.0481,96.82372,278.6707 C,0,8836,,166,65,65 M,0,8836,9036,96.82372,278.6707,112.1604,275.4109 C,0,9036,,166,65,65 M,0,9036,9236,112.1604,275.4109,127.8396,275.4109 C,0,9236,,166,65,65 M,0,9236,9436,127.8396,275.4109,143.1763,278.6707 C,0,9436,,166,65,65 M,0,9436,9636,143.1763,278.6707,157.5,285.0481 C,0,9636,,166,65,65 M,0,9636,9836,157.5,285.0481,170.1848,294.2641 C,0,9836,,166,65,65 M,0,9836,10036,170.1848,294.2641,180.6763,305.9161 C,0,10036,,166,65,65 M,0,10036,10236,180.6763,305.9161,188.5159,319.4948 C,0,10236,,166,65,65 M,0,10236,10436,188.5159,319.4948,193.3611,334.4066 C,0,10436,,166,65,65 M,0,10436,10636,193.3611,334.4066,195,350 C,0,10636,,166,65,65 M,0,10636,10836,195,350,193.3611,365.5934 R,0,10636,16636,-1.570796,4.712389 C,0,10836,,166,65,65 M,0,10836,11036,193.3611,365.5934,188.5159,380.5052 C,0,11036,,166,65,65 M,0,11036,11236,188.5159,380.5052,180.6763,394.0839 C,0,11236,,166,65,65 M,0,11236,11436,180.6763,394.0839,170.1848,405.7359 C,0,11436,,166,65,65 M,0,11436,11636,170.1848,405.7359,157.5,414.9519 C,0,11636,,166,65,65 M,0,11636,11836,157.5,414.9519,143.1763,421.3293 C,0,11836,,166,65,65 M,0,11836,12036,143.1763,421.3293,127.8396,424.5891 C,0,12036,,166,65,65 M,0,12036,12236,127.8396,424.5891,112.1604,424.5891 C,0,12236,,166,65,65 M,0,12236,12436,112.1604,424.5891,96.82372,421.3293 C,0,12436,,166,65,65 M,0,12436,12636,96.82372,421.3293,82.5,414.9519 C,0,12636,,166,65,65 M,0,12636,12836,82.5,414.9519,69.8152,405.7359 C,0,12836,,166,65,65 M,0,12836,13036,69.8152,405.7359,59.32373,394.0839 C,0,13036,,166,65,65 M,0,13036,13236,59.32373,394.0839,51.48409,380.5052 C,0,13236,,166,65,65 M,0,13236,13436,51.48409,380.5052,46.63893,365.5934 C,0,13436,,166,65,65 M,0,13436,13636,46.63893,365.5934,45,350 C,0,13636,,166,65,65 M,0,13636,13836,45,350,46.63893,334.4066 C,0,13836,,166,65,65 M,0,13836,14036,46.63893,334.4066,51.48409,319.4948 C,0,14036,,166,65,65 M,0,14036,14236,51.48409,319.4948,59.32373,305.9161 C,0,14236,,166,65,65 M,0,14236,14436,59.32373,305.9161,69.8152,294.2641 C,0,14436,,166,65,65 M,0,14436,14636,69.8152,294.2641,82.5,285.0481 C,0,14636,,166,65,65 M,0,14636,14836,82.5,285.0481,96.82372,278.6707 C,0,14836,,166,65,65 M,0,14836,15036,96.82372,278.6707,112.1604,275.4109 C,0,15036,,166,65,65 M,0,15036,15236,112.1604,275.4109,127.8396,275.4109 C,0,15236,,166,65,65 M,0,15236,15436,127.8396,275.4109,143.1763,278.6707 C,0,15436,,166,65,65 M,0,15436,15636,143.1763,278.6707,157.5,285.0481 C,0,15636,,166,65,65 M,0,15636,15836,157.5,285.0481,170.1848,294.2641 C,0,15836,,166,65,65 M,0,15836,16036,170.1848,294.2641,180.6763,305.9161 C,0,16036,,166,65,65 M,0,16036,16236,180.6763,305.9161,188.5159,319.4948 C,0,16236,,166,65,65 M,0,16236,16436,188.5159,319.4948,193.3611,334.4066 C,0,16436,,166,65,65 M,0,16436,16636,193.3611,334.4066,195,350
Sprite,Foreground,Centre,"sb\credits\0074.png",0,0 S,0,4936,,0.45 C,0,4936,,166,65,65 M,0,4936,5136,195,350,193.3611,365.5934 R,0,4936,10936,-1.570796,4.712389 C,0,5136,,166,65,65 M,0,5136,5336,193.3611,365.5934,188.5159,380.5052 C,0,5336,,166,65,65 M,0,5336,5536,188.5159,380.5052,180.6763,394.0839 C,0,5536,,166,65,65 M,0,5536,5736,180.6763,394.0839,170.1848,405.7359 C,0,5736,,166,65,65 M,0,5736,5936,170.1848,405.7359,157.5,414.9519 C,0,5936,,166,65,65 M,0,5936,6136,157.5,414.9519,143.1763,421.3293 C,0,6136,,166,65,65 M,0,6136,6336,143.1763,421.3293,127.8396,424.5891 C,0,6336,,166,65,65 M,0,6336,6536,127.8396,424.5891,112.1604,424.5891 C,0,6536,,166,65,65 M,0,6536,6736,112.1604,424.5891,96.82372,421.3293 C,0,6736,,166,65,65 M,0,6736,6936,96.82372,421.3293,82.5,414.9519 C,0,6936,,166,65,65 M,0,6936,7136,82.5,414.9519,69.8152,405.7359 C,0,7136,,166,65,65 M,0,7136,7336,69.8152,405.7359,59.32373,394.0839 C,0,7336,,166,65,65 M,0,7336,7536,59.32373,394.0839,51.48409,380.5052 C,0,7536,,166,65,65 M,0,7536,7736,51.48409,380.5052,46.63893,365.5934 C,0,7736,,166,65,65 M,0,7736,7936,46.63893,365.5934,45,350 C,0,7936,,166,65,65 M,0,7936,8136,45,350,46.63893,334.4066 C,0,8136,,166,65,65 M,0,8136,8336,46.63893,334.4066,51.48409,319.4948 C,0,8336,,166,65,65 M,0,8336,8536,51.48409,319.4948,59.32373,305.9161 C,0,8536,,166,65,65 M,0,8536,8736,59.32373,305.9161,69.8152,294.2641 C,0,8736,,166,65,65 M,0,8736,8936,69.8152,294.2641,82.5,285.0481 C,0,8936,,166,65,65 M,0,8936,9136,82.5,285.0481,96.82372,278.6707 C,0,9136,,166,65,65 M,0,9136,9336,96.82372,278.6707,112.1604,275.4109 C,0,9336,,166,65,65 M,0,9336,9536,112.1604,275.4109,127.8396,275.4109 C,0,9536,,166,65,65 M,0,9536,9736,127.8396,275.4109,143.1763,278.6707 C,0,9736,,166,65,65 M,0,9736,9936,143.1763,278.6707,157.5,285.0481 C,0,9936,,166,65,65 M,0,9936,10136,157.5,285.0481,170.1848,294.2641 C,0,10136,,166,65,65 M,0,10136,10336,170.1848,294.2641,180.6763,305.9161 C,0,10336,,166,65,65 M,0,10336,10536,180.6763,305.9161,188.5159,319.4948 C,0,10536,,166,65,65 M,0,10536,10736,188.5159,319.4948,193.3611,334.4066 C,0,10736,,166,65,65 M,0,10736,10936,193.3611,334.4066,195,350 C,0,10936,,166,65,65 M,0,10936,11136,195,350,193.3611,365.5934 R,0,10936,16936,-1.570796,4.712389 C,0,11136,,166,65,65 M,0,11136,11336,193.3611,365.5934,188.5159,380.5052 C,0,11336,,166,65,65 M,0,11336,11536,188.5159,380.5052,180.6763,394.0839 C,0,11536,,166,65,65 M,0,11536,11736,180.6763,394.0839,170.1848,405.7359 C,0,11736,,166,65,65 M,0,11736,11936,170.1848,405.7359,157.5,414.9519 C,0,11936,,166,65,65 M,0,11936,12136,157.5,414.9519,143.1763,421.3293 C,0,12136,,166,65,65 M,0,12136,12336,143.1763,421.3293,127.8396,424.5891 C,0,12336,,166,65,65 M,0,12336,12536,127.8396,424.5891,112.1604,424.5891 C,0,12536,,166,65,65 M,0,12536,12736,112.1604,424.5891,96.82372,421.3293 C,0,12736,,166,65,65 M,0,12736,12936,96.82372,421.3293,82.5,414.9519 C,0,12936,,166,65,65 M,0,12936,13136,82.5,414.9519,69.8152,405.7359 C,0,13136,,166,65,65 M,0,13136,13336,69.8152,405.7359,59.32373,394.0839 C,0,13336,,166,65,65 M,0,13336,13536,59.32373,394.0839,51.48409,380.5052 C,0,13536,,166,65,65 M,0,13536,13736,51.48409,380.5052,46.63893,365.5934 C,0,13736,,166,65,65 M,0,13736,13936,46.63893,365.5934,45,350 C,0,13936,,166,65,65 M,0,13936,14136,45,350,46.63893,334.4066 C,0,14136,,166,65,65 M,0,14136,14336,46.63893,334.4066,51.48409,319.4948 C,0,14336,,166,65,65 M,0,14336,14536,51.48409,319.4948,59.32373,305.9161 C,0,14536,,166,65,65 M,0,14536,14736,59.32373,305.9161,69.8152,294.2641 C,0,14736,,166,65,65 M,0,14736,14936,69.8152,294.2641,82.5,285.0481 C,0,14936,,166,65,65 M,0,14936,15136,82.5,285.0481,96.82372,278.6707 C,0,15136,,166,65,65 M,0,15136,15336,96.82372,278.6707,112.1604,275.4109 C,0,15336,,166,65,65 M,0,15336,15536,112.1604,275.4109,127.8396,275.4109 C,0,15536,,166,65,65 M,0,15536,15736,127.8396,275.4109,143.1763,278.6707 C,0,15736,,166,65,65 M,0,15736,15936,143.1763,278.6707,157.5,285.0481 C,0,15936,,166,65,65 M,0,15936,16136,157.5,285.0481,170.1848,294.2641 C,0,16136,,166,65,65 M,0,16136,16336,170.1848,294.2641,180.6763,305.9161 C,0,16336,,166,65,65 M,0,16336,16536,180.6763,305.9161,188.5159,319.4948 C,0,16536,,166,65,65 M,0,16536,16736,188.5159,319.4948,193.3611,334.4066 C,0,16736,,166,65,65 M,0,16736,16936,193.3611,334.4066,195,350
Sprite,Foreground,Centre,"sb\credits\006f.png",0,0 S,0,5236,,0.45 C,0,5236,,166,65,65 M,0,5236,5436,195,350,193.3611,365.5934 R,0,5236,11236,-1.570796,4.712389 C,0,5436,,166,65,65 M,0,5436,5636,193.3611,365.5934,188.5159,380.5052 C,0,5636,,166,65,65 M,0,5636,5836,188.5159,380.5052,180.6763,394.0839 C,0,5836,,166,65,65 M,0,5836,6036,180.6763,394.0839,170.1848,405.7359 C,0,6036,,166,65,65 M,0,6036,6236,170.1848,405.7359,157.5,414.9519 C,0,6236,,166,65,65 M,0,6236,6436,157.5,414.9519,143.1763,421.3293 C,0,6436,,166,65,65 M,0,6436,6636,143.1763,421.3293,127.8396,424.5891 C,0,6636,,166,65,65 M,0,6636,6836,127.8396,424.5891,112.1604,424.5891 C,0,6836,,166,65,65 M,0,6836,7036,112.1604,424.5891,96.82372,421.3293 C,0,7036,,166,65,65 M,0,7036,7236,96.82372,421.3293,82.5,414.9519 C,0,7236,,166,65,65 M,0,7236,7436,82.5,414.9519,69.8152,405.7359 C,0,7436,,166,65,65 M,0,7436,7636,69.8152,405.7359,59.32373,394.0839 C,0,7636,,166,65,65 M,0,7636,7836,59.32373,394.0839,51.48409,380.5052 C,0,7836,,166,65,65 M,0,7836,8036,51.48409,380.5052,46.63893,365.5934 C,0,8036,,166,65,65 M,0,8036,8236,46.63893,365.5934,45,350 C,0,8236,,166,65,65 M,0,8236,8436,45,350,46.63893,334.4066 C,0,8436,,166,65,65 M,0,8436,8636,46.63893,334.4066,51.48409,319.4948 C,0,8636,,166,65,65 M,0,8636,8836,51.48409,319.4948,59.32373,305.9161 C,0,8836,,166,65,65 M,0,8836,9036,59.32373,305.9161,69.8152,294.2641 C,0,9036,,166,65,65 M,0,9036,9236,69.8152,294.2641,82.5,285.0481 C,0,9236,,166,65,65 M,0,9236,9436,82.5,285.0481,96.82372,278.6707 C,0,9436,,166,65,65 M,0,9436,9636,96.82372,278.6707,112.1604,275.4109 C,0,9636,,166,65,65 M,0,9636,9836,112.1604,275.4109,127.8396,275.4109 C,0,9836,,166,65,65 M,0,9836,10036,127.8396,275.4109,143.1763,278.6707 C,0,10036,,166,65,65 M,0,10036,10236,143.1763,278.6707,157.5,285.0481 C,0,10236,,166,65,65 M,0,10236,10436,157.5,285.0481,170.1848,294.2641 C,0,10436,,166,65,65 M,0,10436,10636,170.1848,294.2641,180.6763,305.9161 C,0,10636,,166,65,65 M,0,10636,10836,180.6763,305.9161,188.5159,319.4948 C,0,10836,,166,65,65 M,0,10836,11036,188.5159,319.4948,193.3611,334.4066 C,0,11036,,166,65,65 M,0,11036,11236,193.3611,334.4066,195,350 C,0,11236,,166,65,65 M,0,11236,11436,195,350,193.3611,365.5934 R,0,11236,17236,-1.570796,4.712389 C,0,11436,,166,65,65 M,0,11436,11636,193.3611,365.5934,188.5159,380.5052 C,0,11636,,166,65,65 M,0,11636,11836,188.5159,380.5052,180.6763,394.0839 C,0,11836,,166,65,65 M,0,11836,12036,180.6763,394.0839,170.1848,405.7359 C,0,12036,,166,65,65 M,0,12036,12236,170.1848,405.7359,157.5,414.9519 C,0,12236,,166,65,65 M,0,12236,12436,157.5,414.9519,143.1763,421.3293 C,0,12436,,166,65,65 M,0,12436,12636,143.1763,421.3293,127.8396,424.5891 C,0,12636,,166,65,65 M,0,12636,12836,127.8396,424.5891,112.1604,424.5891 C,0,12836,,166,65,65 M,0,12836,13036,112.1604,424.5891,96.82372,421.3293 C,0,13036,,166,65,65 M,0,13036,13236,96.82372,421.3293,82.5,414.9519 C,0,13236,,166,65,65 M,0,13236,13436,82.5,414.9519,69.8152,405.7359 C,0,13436,,166,65,65 M,0,13436,13636,69.8152,405.7359,59.32373,394.0839 C,0,13636,,166,65,65 M,0,13636,13836,59.32373,394.0839,51.48409,380.5052 C,0,13836,,166,65,65 M,0,13836,14036,51.48409,380.5052,46.63893,365.5934 C,0,14036,,166,65,65 M,0,14036,14236,46.63893,365.5934,45,350 C,0,14236,,166,65,65 M,0,14236,14436,45,350,46.63893,334.4066 C,0,14436,,166,65,65 M,0,14436,14636,46.63893,334.4066,51.48409,319.4948 C,0,14636,,166,65,65 M,0,14636,14836,51.48409,319.4948,59.32373,305.9161 C,0,14836,,166,65,65 M,0,14836,15036,59.32373,305.9161,69.8152,294.2641 C,0,15036,,166,65,65 M,0,15036,15236,69.8152,294.2641,82.5,285.0481 C,0,15236,,166,65,65 M,0,15236,15436,82.5,285.0481,96.82372,278.6707 C,0,15436,,166,65,65 M,0,15436,15636,96.82372,278.6707,112.1604,275.4109 C,0,15636,,166,65,65 M,0,15636,15836,112.1604,275.4109,127.8396,275.4109 C,0,15836,,166,65,65 M,0,15836,16036,127.8396,275.4109,143.1763,278.6707 C,0,16036,,166,65,65 M,0,16036,16236,143.1763,278.6707,157.5,285.0481 C,0,16236,,166,65,65 M,0,16236,16436,157.5,285.0481,170.1848,294.2641 C,0,16436,,166,65,65 M,0,16436,16636,170.1848,294.2641,180.6763,305.9161 C,0,16636,,166,65,65 M,0,16636,16836,180.6763,305.9161,188.5159,319.4948 C,0,16836,,166,65,65 M,0,16836,17036,188.5159,319.4948,193.3611,334.4066 C,0,17036,,166,65,65 M,0,17036,17236,193.3611,334.4066,195,350
Sprite,Foreground,Centre,"sb\credits\_002.png",520,300 S,0,4747,,0.5 F,0,4747,4847,0,1 C,0,4747,12584,97,181,250
Sprite,Foreground,Centre,"sb\credits\004b.png",0,0 S,0,4747,,0.45 C,0,4747,,54,201,167 M,0,4747,4947,595,300,593.3611,315.5934 R,0,4747,10747,-1.570796,4.712389 C,0,4947,,54,201,167 M,0,4947,5147,593.3611,315.5934,588.5159,330.5052 C,0,5147,,54,201,167 M,0,5147,5347,588.5159,330.5052,580.6763,344.0839 C,0,5347,,54,201,167 M,0,5347,5547,580.6763,344.0839,570.1848,355.7359 C,0,5547,,54,201,167 M,0,5547,5747,570.1848,355.7359,557.5,364.9519 C,0,5747,,54,201,167 M,0,5747,5947,557.5,364.9519,543.1763,371.3293 C,0,5947,,54,201,167 M,0,5947,6147,543.1763,371.3293,527.8397,374.5891 C,0,6147,,54,201,167 M,0,6147,6347,527.8397,374.5891,512.1603,374.5891 C,0,6347,,54,201,167 M,0,6347,6547,512.1603,374.5891,496.8237,371.3293 C,0,6547,,54,201,167 M,0,6547,6747,496.8237,371.3293,482.5,364.9519 C,0,6747,,54,201,167 M,0,6747,6947,482.5,364.9519,469.8152,355.7359 C,0,6947,,54,201,167 M,0,6947,7147,469.8152,355.7359,459.3237,344.0839 C,0,7147,,54,201,167 M,0,7147,7347,459.3237,344.0839,451.4841,330.5052 C,0,7347,,54,201,167 M,0,7347,7547,451.4841,330.5052,446.6389,315.5934 C,0,7547,,54,201,167 M,0,7547,7747,446.6389,315.5934,445,300 C,0,7747,,54,201,167 M,0,7747,7947,445,300,446.6389,284.4066 C,0,7947,,54,201,167 M,0,7947,8147,446.6389,284.4066,451.4841,269.4948 C,0,8147,,54,201,167 M,0,8147,8347,451.4841,269.4948,459.3237,255.9161 C,0,8347,,54,201,167 M,0,8347,8547,459.3237,255.9161,469.8152,244.2641 C,0,8547,,54,201,167 M,0,8547,8747,469.8152,244.2641,482.5,235.0481 C,0,8747,,54,201,167 M,0,8747,8947,482.5,235.0481,496.8237,228.6708 C,0,8947,,54,201,167 M,0,8947,9147,496.8237,228.6708,512.1603,225.4109 C,0,9147,,54,201,167 M,0,9147,9347,512.1603,225.4109,527.8397,225.4109 C,0,9347,,54,201,167 M,0,9347,9547,527.8397,225.4109,543.1763,228.6708 C,0,9547,,54,201,167 M,0,9547,9747,543.1763,228.6708,557.5,235.0481 C,0,9747,,54,201,167 M,0,9747,9947,557.5,235.0481,570.1848,244.2641 C,0,9947,,54,201,167 M,0,9947,10147,570.1848,244.2641,580.6763,255.9161 C,0,10147,,54,201,167 M,0,10147,10347,580.6763,255.9161,588.5159,269.4948 C,0,10347,,54,201,167 M,0,10347,10547,588.5159,269.4948,593.3611,284.4066 C,0,10547,,54,201,167 M,0,10547,10747,593.3611,284.4066,595,300 C,0,10747,,54,201,167 M,0,10747,10947,595,300,593.3611,315.5934 R,0,10747,16747,-1.570796,4.712389 C,0,10947,,54,201,167 M,0,10947,11147,593.3611,315.5934,588.5159,330.5052 C,0,11147,,54,201,167 M,0,11147,11347,588.5159,330.5052,580.6763,344.0839 C,0,11347,,54,201,167 M,0,11347,11547,580.6763,344.0839,570.1848,355.7359 C,0,11547,,54,201,167 M,0,11547,11747,570.1848,355.7359,557.5,364.9519 C,0,11747,,54,201,167 M,0,11747,11947,557.5,364.9519,543.1763,371.3293 C,0,11947,,54,201,167 M,0,11947,12147,543.1763,371.3293,527.8397,374.5891 C,0,12147,,54,201,167 M,0,12147,12347,527.8397,374.5891,512.1603,374.5891 C,0,12347,,54,201,167 M,0,12347,12547,512.1603,374.5891,496.8237,371.3293 C,0,12547,,54,201,167 M,0,12547,12747,496.8237,371.3293,482.5,364.9519 C,0,12747,,54,201,167 M,0,12747,12947,482.5,364.9519,469.8152,355.7359 C,0,12947,,54,201,167 M,0,12947,13147,469.8152,355.7359,459.3237,344.0839 C,0,13147,,54,201,167 M,0,13147,13347,459.3237,344.0839,451.4841,330.5052 C,0,13347,,54,201,167 M,0,13347,13547,451.4841,330.5052,446.6389,315.5934 C,0,13547,,54,201,167 M,0,13547,13747,446.6389,315.5934,445,300 C,0,13747,,54,201,167 M,0,13747,13947,445,300,446.6389,284.4066 C,0,13947,,54,201,167 M,0,13947,14147,446.6389,284.4066,451.4841,269.4948 C,0,14147,,54,201,167 M,0,14147,14347,451.4841,269.4948,459.3237,255.9161 C,0,14347,,54,201,167 M,0,14347,14547,459.3237,255.9161,469.8152,244.2641 C,0,14547,,54,201,167 M,0,14547,14747,469.8152,244.2641,482.5,235.0481 C,0,14747,,54,201,167 M,0,14747,14947,482.5,235.0481,496.8237,228.6708 C,0,14947,,54,201,167 M,0,14947,15147,496.8237,228.6708,512.1603,225.4109 C,0,15147,,54,201,167 M,0,15147,15347,512.1603,225.4109,527.8397,225.4109 C,0,15347,,54,201,167 M,0,15347,15547,527.8397,225.4109,543.1763,228.6708 C,0,15547,,54,201,167 M,0,15547,15747,543.1763,228.6708,557.5,235.0481 C,0,15747,,54,201,167 M,0,15747,15947,557.5,235.0481,570.1848,244.2641 C,0,15947,,54,201,167 M,0,15947,16147,570.1848,244.2641,580.6763,255.9161 C,0,16147,,54,201,167 M,0,16147,16347,580.6763,255.9161,588.5159,269.4948 C,0,16347,,54,201,167 M,0,16347,16547,588.5159,269.4948,593.3611,284.4066 C,0,16547,,54,201,167 M,0,16547,16747,593.3611,284.4066,595,300
Sprite,Foreground,Centre,"sb\credits\0069.png",0,0 S,0,5047,,0.45 C,0,5047,,54,201,167 M,0,5047,5247,595,300,593.3611,315.5934 R,0,5047,11047,-1.570796,4.712389 C,0,5247,,54,201,167 M,0,5247,5447,593.3611,315.5934,588.5159,330.5052 C,0,5447,,54,201,167 M,0,5447,5647,588.5159,330.5052,580.6763,344.0839 C,0,5647,,54,201,167 M,0,5647,5847,580.6763,344.0839,570.1848,355.7359 C,0,5847,,54,201,167 M,0,5847,6047,570.1848,355.7359,557.5,364.9519 C,0,6047,,54,201,167 M,0,6047,6247,557.5,364.9519,543.1763,371.3293 C,0,6247,,54,201,167 M,0,6247,6447,543.1763,371.3293,527.8397,374.5891 C,0,6447,,54,201,167 M,0,6447,6647,527.8397,374.5891,512.1603,374.5891 C,0,6647,,54,201,167 M,0,6647,6847,512.1603,374.5891,496.8237,371.3293 C,0,6847,,54,201,167 M,0,6847,7047,496.8237,371.3293,482.5,364.9519 C,0,7047,,54,201,167 M,0,7047,7247,482.5,364.9519,469.8152,355.7359 C,0,7247,,54,201,167 M,0,7247,7447,469.8152,355.7359,459.3237,344.0839 C,0,7447,,54,201,167 M,0,7447,7647,459.3237,344.0839,451.4841,330.5052 C,0,7647,,54,201,167 M,0,7647,7847,451.4841,330.5052,446.6389,315.5934 C,0,7847,,54,201,167 M,0,7847,8047,446.6389,315.5934,445,300 C,0,8047,,54,201,167 M,0,8047,8247,445,300,446.6389,284.4066 C,0,8247,,54,201,167 M,0,8247,8447,446.6389,284.4066,451.4841,269.4948 C,0,8447,,54,201,167 M,0,8447,8647,451.4841,269.4948,459.3237,255.9161 C,0,8647,,54,201,167 M,0,8647,8847,459.3237,255.9161,469.8152,244.2641 C,0,8847,,54,201,167 M,0,8847,9047,469.8152,244.2641,482.5,235.0481 C,0,9047,,54,201,167 M,0,9047,9247,482.5,235.0481,496.8237,228.6708 C,0,9247,,54,201,167 M,0,9247,9447,496.8237,228.6708,512.1603,225.4109 C,0,9447,,54,201,167 M,0,9447,9647,512.1603,225.4109,527.8397,225.4109 C,0,9647,,54,201,167 M,0,9647,9847,527.8397,225.4109,543.1763,228.6708 C,0,9847,,54,201,167 M,0,9847,10047,543.1763,228.6708,557.5,235.0481 C,0,10047,,54,201,167 M,0,10047,10247,557.5,235.0481,570.1848,244.2641 C,0,10247,,54,201,167 M,0,10247,10447,570.1848,244.2641,580.6763,255.9161 C,0,10447,,54,201,167 M,0,10447,10647,580.6763,255.9161,588.5159,269.4948 C,0,10647,,54,201,167 M,0,10647,10847,588.5159,269.4948,593.3611,284.4066 C,0,10847,,54,201,167 M,0,10847,11047,593.3611,284.4066,595,300 C,0,11047,,54,201,167 M,0,11047,11247,595,300,593.3611,315.5934 R,0,11047,17047,-1.570796,4.712389 C,0,11247,,54,201,167 M,0,11247,11447,593.3611,315.5934,588.5159,330.5052 C,0,11447,,54,201,167 M,0,11447,11647,588.5159,330.5052,580.6763,344.0839 C,0,11647,,54,201,167 M,0,11647,11847,580.6763,344.0839,570.1848,355.7359 C,0,11847,,54,201,167 M,0,11847,12047,570.1848,355.7359,557.5,364.9519 C,0,12047,,54,201,167 M,0,12047,12247,557.5,364.9519,543.1763,371.3293 C,0,12247,,54,201,167 M,0,12247,12447,543.1763,371.3293,527.8397,374.5891 C,0,12447,,54,201,167 M,0,12447,12647,527.8397,374.5891,512.1603,374.5891 C,0,12647,,54,201,167 M,0,12647,12847,512.1603,374.5891,496.8237,371.3293 C,0,12847,,54,201,167 M,0,12847,13047,496.8237,371.3293,482.5,364.9519 C,0,13047,,54,201,167 M,0,13047,13247,482.5,364.9519,469.8152,355.7359 C,0,13247,,54,201,167 M,0,13247,13447,469.8152,355.7359,459.3237,344.0839 C,0,13447,,54,201,167 M,0,13447,13647,459.3237,344.0839,451.4841,330.5052 C,0,13647,,54,201,167 M,0,13647,13847,451.4841,330.5052,446.6389,315.5934 C,0,13847,,54,201,167 M,0,13847,14047,446.6389,315.5934,445,300 C,0,14047,,54,201,167 M,0,14047,14247,445,300,446.6389,284.4066 C,0,14247,,54,201,167 M,0,14247,14447,446.6389,284.4066,451.4841,269.4948 C,0,14447,,54,201,167 M,0,14447,14647,451.4841,269.4948,459.3237,255.9161 C,0,14647,,54,201,167 M,0,14647,14847,459.3237,255.9161,469.8152,244.2641 C,0,14847,,54,201,167 M,0,14847,15047,469.8152,244.2641,482.5,235.0481 C,0,15047,,54,201,167 M,0,15047,15247,482.5,235.0481,496.8237,228.6708 C,0,15247,,54,201,167 M,0,15247,15447,496.8237,228.6708,512.1603,225.4109 C,0,15447,,54,201,167 M,0,15447,15647,512.1603,225.4109,527.8397,225.4109 C,0,15647,,54,201,167 M,0,15647,15847,527.8397,225.4109,543.1763,228.6708 C,0,15847,,54,201,167 M,0,15847,16047,543.1763,228.6708,557.5,235.0481 C,0,16047,,54,201,167 M,0,16047,16247,557.5,235.0481,570.1848,244.2641 C,0,16247,,54,201,167 M,0,16247,16447,570.1848,244.2641,580.6763,255.9161 C,0,16447,,54,201,167 M,0,16447,16647,580.6763,255.9161,588.5159,269.4948 C,0,16647,,54,201,167 M,0,16647,16847,588.5159,269.4948,593.3611,284.4066 C,0,16847,,54,201,167 M,0,16847,17047,593.3611,284.4066,595,300
Sprite,Foreground,Centre,"sb\credits\0062.png",0,0 S,0,5347,,0.45 C,0,5347,,54,201,167 M,0,5347,5547,595,300,593.3611,315.5934 R,0,5347,11347,-1.570796,4.712389 C,0,5547,,54,201,167 M,0,5547,5747,593.3611,315.5934,588.5159,330.5052 C,0,5747,,54,201,167 M,0,5747,5947,588.5159,330.5052,580.6763,344.0839 C,0,5947,,54,201,167 M,0,5947,6147,580.6763,344.0839,570.1848,355.7359 C,0,6147,,54,201,167 M,0,6147,6347,570.1848,355.7359,557.5,364.9519 C,0,6347,,54,201,167 M,0,6347,6547,557.5,364.9519,543.1763,371.3293 C,0,6547,,54,201,167 M,0,6547,6747,543.1763,371.3293,527.8397,374.5891 C,0,6747,,54,201,167 M,0,6747,6947,527.8397,374.5891,512.1603,374.5891 C,0,6947,,54,201,167 M,0,6947,7147,512.1603,374.5891,496.8237,371.3293 C,0,7147,,54,201,167 M,0,7147,7347,496.8237,371.3293,482.5,364.9519 C,0,7347,,54,201,167 M,0,7347,7547,482.5,364.9519,469.8152,355.7359 C,0,7547,,54,201,167 M,0,7547,7747,469.8152,355.7359,459.3237,344.0839 C,0,7747,,54,201,167 M,0,7747,7947,459.3237,344.0839,451.4841,330.5052 C,0,7947,,54,201,167 M,0,7947,8147,451.4841,330.5052,446.6389,315.5934 C,0,8147,,54,201,167 M,0,8147,8347,446.6389,315.5934,445,300 C,0,8347,,54,201,167 M,0,8347,8547,445,300,446.6389,284.4066 C,0,8547,,54,201,167 M,0,8547,8747,446.6389,284.4066,451.4841,269.4948 C,0,8747,,54,201,167 M,0,8747,8947,451.4841,269.4948,459.3237,255.9161 C,0,8947,,54,201,167 M,0,8947,9147,459.3237,255.9161,469.8152,244.2641 C,0,9147,,54,201,167 M,0,9147,9347,469.8152,244.2641,482.5,235.0481 C,0,9347,,54,201,167 M,0,9347,9547,482.5,235.0481,496.8237,228.6708 C,0,9547,,54,201,167 M,0,9547,9747,496.8237,228.6708,512.1603,225.4109 C,0,9747,,54,201,167 M,0,9747,9947,512.1603,225.4109,527.8397,225.4109 C,0,9947,,54,201,167 M,0,9947,10147,527.8397,225.4109,543.1763,228.6708 C,0,10147,,54,201,167 M,0,10147,10347,543.1763,228.6708,557.5,235.0481 C,0,10347,,54,201,167 M,0,10347,10547,557.5,235.0481,570.1848,244.2641 C,0,10547,,54,201,167 M,0,10547,10747,570.1848,244.2641,580.6763,255.9161 C,0,10747,,54,201,167 M,0,10747,10947,580.6763,255.9161,588.5159,269.4948 C,0,10947,,54,201,167 M,0,10947,11147,588.5159,269.4948,593.3611,284.4066 C,0,11147,,54,201,167 M,0,11147,11347,593.3611,284.4066,595,300 C,0,11347,,54,201,167 M,0,11347,11547,595,300,593.3611,315.5934 R,0,11347,17347,-1.570796,4.712389 C,0,11547,,54,201,167 M,0,11547,11747,593.3611,315.5934,588.5159,330.5052 C,0,11747,,54,201,167 M,0,11747,11947,588.5159,330.5052,580.6763,344.0839 C,0,11947,,54,201,167 M,0,11947,12147,580.6763,344.0839,570.1848,355.7359 C,0,12147,,54,201,167 M,0,12147,12347,570.1848,355.7359,557.5,364.9519 C,0,12347,,54,201,167 M,0,12347,12547,557.5,364.9519,543.1763,371.3293 C,0,12547,,54,201,167 M,0,12547,12747,543.1763,371.3293,527.8397,374.5891 C,0,12747,,54,201,167 M,0,12747,12947,527.8397,374.5891,512.1603,374.5891 C,0,12947,,54,201,167 M,0,12947,13147,512.1603,374.5891,496.8237,371.3293 C,0,13147,,54,201,167 M,0,13147,13347,496.8237,371.3293,482.5,364.9519 C,0,13347,,54,201,167 M,0,13347,13547,482.5,364.9519,469.8152,355.7359 C,0,13547,,54,201,167 M,0,13547,13747,469.8152,355.7359,459.3237,344.0839 C,0,13747,,54,201,167 M,0,13747,13947,459.3237,344.0839,451.4841,330.5052 C,0,13947,,54,201,167 M,0,13947,14147,451.4841,330.5052,446.6389,315.5934 C,0,14147,,54,201,167 M,0,14147,14347,446.6389,315.5934,445,300 C,0,14347,,54,201,167 M,0,14347,14547,445,300,446.6389,284.4066 C,0,14547,,54,201,167 M,0,14547,14747,446.6389,284.4066,451.4841,269.4948 C,0,14747,,54,201,167 M,0,14747,14947,451.4841,269.4948,459.3237,255.9161 C,0,14947,,54,201,167 M,0,14947,15147,459.3237,255.9161,469.8152,244.2641 C,0,15147,,54,201,167 M,0,15147,15347,469.8152,244.2641,482.5,235.0481 C,0,15347,,54,201,167 M,0,15347,15547,482.5,235.0481,496.8237,228.6708 C,0,15547,,54,201,167 M,0,15547,15747,496.8237,228.6708,512.1603,225.4109 C,0,15747,,54,201,167 M,0,15747,15947,512.1603,225.4109,527.8397,225.4109 C,0,15947,,54,201,167 M,0,15947,16147,527.8397,225.4109,543.1763,228.6708 C,0,16147,,54,201,167 M,0,16147,16347,543.1763,228.6708,557.5,235.0481 C,0,16347,,54,201,167 M,0,16347,16547,557.5,235.0481,570.1848,244.2641 C,0,16547,,54,201,167 M,0,16547,16747,570.1848,244.2641,580.6763,255.9161 C,0,16747,,54,201,167 M,0,16747,16947,580.6763,255.9161,588.5159,269.4948 C,0,16947,,54,201,167 M,0,16947,17147,588.5159,269.4948,593.3611,284.4066 C,0,17147,,54,201,167 M,0,17147,17347,593.3611,284.4066,595,300
Sprite,Foreground,Centre,"sb\credits\0062.png",0,0 S,0,5647,,0.45 C,0,5647,,54,201,167 M,0,5647,5847,595,300,593.3611,315.5934 R,0,5647,11647,-1.570796,4.712389 C,0,5847,,54,201,167 M,0,5847,6047,593.3611,315.5934,588.5159,330.5052 C,0,6047,,54,201,167 M,0,6047,6247,588.5159,330.5052,580.6763,344.0839 C,0,6247,,54,201,167 M,0,6247,6447,580.6763,344.0839,570.1848,355.7359 C,0,6447,,54,201,167 M,0,6447,6647,570.1848,355.7359,557.5,364.9519 C,0,6647,,54,201,167 M,0,6647,6847,557.5,364.9519,543.1763,371.3293 C,0,6847,,54,201,167 M,0,6847,7047,543.1763,371.3293,527.8397,374.5891 C,0,7047,,54,201,167 M,0,7047,7247,527.8397,374.5891,512.1603,374.5891 C,0,7247,,54,201,167 M,0,7247,7447,512.1603,374.5891,496.8237,371.3293 C,0,7447,,54,201,167 M,0,7447,7647,496.8237,371.3293,482.5,364.9519 C,0,7647,,54,201,167 M,0,7647,7847,482.5,364.9519,469.8152,355.7359 C,0,7847,,54,201,167 M,0,7847,8047,469.8152,355.7359,459.3237,344.0839 C,0,8047,,54,201,167 M,0,8047,8247,459.3237,344.0839,451.4841,330.5052 C,0,8247,,54,201,167 M,0,8247,8447,451.4841,330.5052,446.6389,315.5934 C,0,8447,,54,201,167 M,0,8447,8647,446.6389,315.5934,445,300 C,0,8647,,54,201,167 M,0,8647,8847,445,300,446.6389,284.4066 C,0,8847,,54,201,167 M,0,8847,9047,446.6389,284.4066,451.4841,269.4948 C,0,9047,,54,201,167 M,0,9047,9247,451.4841,269.4948,459.3237,255.9161 C,0,9247,,54,201,167 M,0,9247,9447,459.3237,255.9161,469.8152,244.2641 C,0,9447,,54,201,167 M,0,9447,9647,469.8152,244.2641,482.5,235.0481 C,0,9647,,54,201,167 M,0,9647,9847,482.5,235.0481,496.8237,228.6708 C,0,9847,,54,201,167 M,0,9847,10047,496.8237,228.6708,512.1603,225.4109 C,0,10047,,54,201,167 M,0,10047,10247,512.1603,225.4109,527.8397,225.4109 C,0,10247,,54,201,167 M,0,10247,10447,527.8397,225.4109,543.1763,228.6708 C,0,10447,,54,201,167 M,0,10447,10647,543.1763,228.6708,557.5,235.0481 C,0,10647,,54,201,167 M,0,10647,10847,557.5,235.0481,570.1848,244.2641 C,0,10847,,54,201,167 M,0,10847,11047,570.1848,244.2641,580.6763,255.9161 C,0,11047,,54,201,167 M,0,11047,11247,580.6763,255.9161,588.5159,269.4948 C,0,11247,,54,201,167 M,0,11247,11447,588.5159,269.4948,593.3611,284.4066 C,0,11447,,54,201,167 M,0,11447,11647,593.3611,284.4066,595,300 C,0,11647,,54,201,167 M,0,11647,11847,595,300,593.3611,315.5934 R,0,11647,17647,-1.570796,4.712389 C,0,11847,,54,201,167 M,0,11847,12047,593.3611,315.5934,588.5159,330.5052 C,0,12047,,54,201,167 M,0,12047,12247,588.5159,330.5052,580.6763,344.0839 C,0,12247,,54,201,167 M,0,12247,12447,580.6763,344.0839,570.1848,355.7359 C,0,12447,,54,201,167 M,0,12447,12647,570.1848,355.7359,557.5,364.9519 C,0,12647,,54,201,167 M,0,12647,12847,557.5,364.9519,543.1763,371.3293 C,0,12847,,54,201,167 M,0,12847,13047,543.1763,371.3293,527.8397,374.5891 C,0,13047,,54,201,167 M,0,13047,13247,527.8397,374.5891,512.1603,374.5891 C,0,13247,,54,201,167 M,0,13247,13447,512.1603,374.5891,496.8237,371.3293 C,0,13447,,54,201,167 M,0,13447,13647,496.8237,371.3293,482.5,364.9519 C,0,13647,,54,201,167 M,0,13647,13847,482.5,364.9519,469.8152,355.7359 C,0,13847,,54,201,167 M,0,13847,14047,469.8152,355.7359,459.3237,344.0839 C,0,14047,,54,201,167 M,0,14047,14247,459.3237,344.0839,451.4841,330.5052 C,0,14247,,54,201,167 M,0,14247,14447,451.4841,330.5052,446.6389,315.5934 C,0,14447,,54,201,167 M,0,14447,14647,446.6389,315.5934,445,300 C,0,14647,,54,201,167 M,0,14647,14847,445,300,446.6389,284.4066 C,0,14847,,54,201,167 M,0,14847,15047,446.6389,284.4066,451.4841,269.4948 C,0,15047,,54,201,167 M,0,15047,15247,451.4841,269.4948,459.3237,255.9161 C,0,15247,,54,201,167 M,0,15247,15447,459.3237,255.9161,469.8152,244.2641 C,0,15447,,54,201,167 M,0,15447,15647,469.8152,244.2641,482.5,235.0481 C,0,15647,,54,201,167 M,0,15647,15847,482.5,235.0481,496.8237,228.6708 C,0,15847,,54,201,167 M,0,15847,16047,496.8237,228.6708,512.1603,225.4109 C,0,16047,,54,201,167 M,0,16047,16247,512.1603,225.4109,527.8397,225.4109 C,0,16247,,54,201,167 M,0,16247,16447,527.8397,225.4109,543.1763,228.6708 C,0,16447,,54,201,167 M,0,16447,16647,543.1763,228.6708,557.5,235.0481 C,0,16647,,54,201,167 M,0,16647,16847,557.5,235.0481,570.1848,244.2641 C,0,16847,,54,201,167 M,0,16847,17047,570.1848,244.2641,580.6763,255.9161 C,0,17047,,54,201,167 M,0,17047,17247,580.6763,255.9161,588.5159,269.4948 C,0,17247,,54,201,167 M,0,17247,17447,588.5159,269.4948,593.3611,284.4066 C,0,17447,,54,201,167 M,0,17447,17647,593.3611,284.4066,595,300
Sprite,Foreground,Centre,"sb\credits\006c.png",0,0 S,0,5947,,0.45 C,0,5947,,54,201,167 M,0,5947,6147,595,300,593.3611,315.5934 R,0,5947,11947,-1.570796,4.712389 C,0,6147,,54,201,167 M,0,6147,6347,593.3611,315.5934,588.5159,330.5052 C,0,6347,,54,201,167 M,0,6347,6547,588.5159,330.5052,580.6763,344.0839 C,0,6547,,54,201,167 M,0,6547,6747,580.6763,344.0839,570.1848,355.7359 C,0,6747,,54,201,167 M,0,6747,6947,570.1848,355.7359,557.5,364.9519 C,0,6947,,54,201,167 M,0,6947,7147,557.5,364.9519,543.1763,371.3293 C,0,7147,,54,201,167 M,0,7147,7347,543.1763,371.3293,527.8397,374.5891 C,0,7347,,54,201,167 M,0,7347,7547,527.8397,374.5891,512.1603,374.5891 C,0,7547,,54,201,167 M,0,7547,7747,512.1603,374.5891,496.8237,371.3293 C,0,7747,,54,201,167 M,0,7747,7947,496.8237,371.3293,482.5,364.9519 C,0,7947,,54,201,167 M,0,7947,8147,482.5,364.9519,469.8152,355.7359 C,0,8147,,54,201,167 M,0,8147,8347,469.8152,355.7359,459.3237,344.0839 C,0,8347,,54,201,167 M,0,8347,8547,459.3237,344.0839,451.4841,330.5052 C,0,8547,,54,201,167 M,0,8547,8747,451.4841,330.5052,446.6389,315.5934 C,0,8747,,54,201,167 M,0,8747,8947,446.6389,315.5934,445,300 C,0,8947,,54,201,167 M,0,8947,9147,445,300,446.6389,284.4066 C,0,9147,,54,201,167 M,0,9147,9347,446.6389,284.4066,451.4841,269.4948 C,0,9347,,54,201,167 M,0,9347,9547,451.4841,269.4948,459.3237,255.9161 C,0,9547,,54,201,167 M,0,9547,9747,459.3237,255.9161,469.8152,244.2641 C,0,9747,,54,201,167 M,0,9747,9947,469.8152,244.2641,482.5,235.0481 C,0,9947,,54,201,167 M,0,9947,10147,482.5,235.0481,496.8237,228.6708 C,0,10147,,54,201,167 M,0,10147,10347,496.8237,228.6708,512.1603,225.4109 C,0,10347,,54,201,167 M,0,10347,10547,512.1603,225.4109,527.8397,225.4109 C,0,10547,,54,201,167 M,0,10547,10747,527.8397,225.4109,543.1763,228.6708 C,0,10747,,54,201,167 M,0,10747,10947,543.1763,228.6708,557.5,235.0481 C,0,10947,,54,201,167 M,0,10947,11147,557.5,235.0481,570.1848,244.2641 C,0,11147,,54,201,167 M,0,11147,11347,570.1848,244.2641,580.6763,255.9161 C,0,11347,,54,201,167 M,0,11347,11547,580.6763,255.9161,588.5159,269.4948 C,0,11547,,54,201,167 M,0,11547,11747,588.5159,269.4948,593.3611,284.4066 C,0,11747,,54,201,167 M,0,11747,11947,593.3611,284.4066,595,300 C,0,11947,,54,201,167 M,0,11947,12147,595,300,593.3611,315.5934 R,0,11947,17947,-1.570796,4.712389 C,0,12147,,54,201,167 M,0,12147,12347,593.3611,315.5934,588.5159,330.5052 C,0,12347,,54,201,167 M,0,12347,12547,588.5159,330.5052,580.6763,344.0839 C,0,12547,,54,201,167 M,0,12547,12747,580.6763,344.0839,570.1848,355.7359 C,0,12747,,54,201,167 M,0,12747,12947,570.1848,355.7359,557.5,364.9519 C,0,12947,,54,201,167 M,0,12947,13147,557.5,364.9519,543.1763,371.3293 C,0,13147,,54,201,167 M,0,13147,13347,543.1763,371.3293,527.8397,374.5891 C,0,13347,,54,201,167 M,0,13347,13547,527.8397,374.5891,512.1603,374.5891 C,0,13547,,54,201,167 M,0,13547,13747,512.1603,374.5891,496.8237,371.3293 C,0,13747,,54,201,167 M,0,13747,13947,496.8237,371.3293,482.5,364.9519 C,0,13947,,54,201,167 M,0,13947,14147,482.5,364.9519,469.8152,355.7359 C,0,14147,,54,201,167 M,0,14147,14347,469.8152,355.7359,459.3237,344.0839 C,0,14347,,54,201,167 M,0,14347,14547,459.3237,344.0839,451.4841,330.5052 C,0,14547,,54,201,167 M,0,14547,14747,451.4841,330.5052,446.6389,315.5934 C,0,14747,,54,201,167 M,0,14747,14947,446.6389,315.5934,445,300 C,0,14947,,54,201,167 M,0,14947,15147,445,300,446.6389,284.4066 C,0,15147,,54,201,167 M,0,15147,15347,446.6389,284.4066,451.4841,269.4948 C,0,15347,,54,201,167 M,0,15347,15547,451.4841,269.4948,459.3237,255.9161 C,0,15547,,54,201,167 M,0,15547,15747,459.3237,255.9161,469.8152,244.2641 C,0,15747,,54,201,167 M,0,15747,15947,469.8152,244.2641,482.5,235.0481 C,0,15947,,54,201,167 M,0,15947,16147,482.5,235.0481,496.8237,228.6708 C,0,16147,,54,201,167 M,0,16147,16347,496.8237,228.6708,512.1603,225.4109 C,0,16347,,54,201,167 M,0,16347,16547,512.1603,225.4109,527.8397,225.4109 C,0,16547,,54,201,167 M,0,16547,16747,527.8397,225.4109,543.1763,228.6708 C,0,16747,,54,201,167 M,0,16747,16947,543.1763,228.6708,557.5,235.0481 C,0,16947,,54,201,167 M,0,16947,17147,557.5,235.0481,570.1848,244.2641 C,0,17147,,54,201,167 M,0,17147,17347,570.1848,244.2641,580.6763,255.9161 C,0,17347,,54,201,167 M,0,17347,17547,580.6763,255.9161,588.5159,269.4948 C,0,17547,,54,201,167 M,0,17547,17747,588.5159,269.4948,593.3611,284.4066 C,0,17747,,54,201,167 M,0,17747,17947,593.3611,284.4066,595,300
Sprite,Foreground,Centre,"sb\credits\0065.png",0,0 S,0,6247,,0.45 C,0,6247,,54,201,167 M,0,6247,6447,595,300,593.3611,315.5934 R,0,6247,12247,-1.570796,4.712389 C,0,6447,,54,201,167 M,0,6447,6647,593.3611,315.5934,588.5159,330.5052 C,0,6647,,54,201,167 M,0,6647,6847,588.5159,330.5052,580.6763,344.0839 C,0,6847,,54,201,167 M,0,6847,7047,580.6763,344.0839,570.1848,355.7359 C,0,7047,,54,201,167 M,0,7047,7247,570.1848,355.7359,557.5,364.9519 C,0,7247,,54,201,167 M,0,7247,7447,557.5,364.9519,543.1763,371.3293 C,0,7447,,54,201,167 M,0,7447,7647,543.1763,371.3293,527.8397,374.5891 C,0,7647,,54,201,167 M,0,7647,7847,527.8397,374.5891,512.1603,374.5891 C,0,7847,,54,201,167 M,0,7847,8047,512.1603,374.5891,496.8237,371.3293 C,0,8047,,54,201,167 M,0,8047,8247,496.8237,371.3293,482.5,364.9519 C,0,8247,,54,201,167 M,0,8247,8447,482.5,364.9519,469.8152,355.7359 C,0,8447,,54,201,167 M,0,8447,8647,469.8152,355.7359,459.3237,344.0839 C,0,8647,,54,201,167 M,0,8647,8847,459.3237,344.0839,451.4841,330.5052 C,0,8847,,54,201,167 M,0,8847,9047,451.4841,330.5052,446.6389,315.5934 C,0,9047,,54,201,167 M,0,9047,9247,446.6389,315.5934,445,300 C,0,9247,,54,201,167 M,0,9247,9447,445,300,446.6389,284.4066 C,0,9447,,54,201,167 M,0,9447,9647,446.6389,284.4066,451.4841,269.4948 C,0,9647,,54,201,167 M,0,9647,9847,451.4841,269.4948,459.3237,255.9161 C,0,9847,,54,201,167 M,0,9847,10047,459.3237,255.9161,469.8152,244.2641 C,0,10047,,54,201,167 M,0,10047,10247,469.8152,244.2641,482.5,235.0481 C,0,10247,,54,201,167 M,0,10247,10447,482.5,235.0481,496.8237,228.6708 C,0,10447,,54,201,167 M,0,10447,10647,496.8237,228.6708,512.1603,225.4109 C,0,10647,,54,201,167 M,0,10647,10847,512.1603,225.4109,527.8397,225.4109 C,0,10847,,54,201,167 M,0,10847,11047,527.8397,225.4109,543.1763,228.6708 C,0,11047,,54,201,167 M,0,11047,11247,543.1763,228.6708,557.5,235.0481 C,0,11247,,54,201,167 M,0,11247,11447,557.5,235.0481,570.1848,244.2641 C,0,11447,,54,201,167 M,0,11447,11647,570.1848,244.2641,580.6763,255.9161 C,0,11647,,54,201,167 M,0,11647,11847,580.6763,255.9161,588.5159,269.4948 C,0,11847,,54,201,167 M,0,11847,12047,588.5159,269.4948,593.3611,284.4066 C,0,12047,,54,201,167 M,0,12047,12247,593.3611,284.4066,595,300 C,0,12247,,54,201,167 M,0,12247,12447,595,300,593.3611,315.5934 R,0,12247,18247,-1.570796,4.712389 C,0,12447,,54,201,167 M,0,12447,12647,593.3611,315.5934,588.5159,330.5052 C,0,12647,,54,201,167 M,0,12647,12847,588.5159,330.5052,580.6763,344.0839 C,0,12847,,54,201,167 M,0,12847,13047,580.6763,344.0839,570.1848,355.7359 C,0,13047,,54,201,167 M,0,13047,13247,570.1848,355.7359,557.5,364.9519 C,0,13247,,54,201,167 M,0,13247,13447,557.5,364.9519,543.1763,371.3293 C,0,13447,,54,201,167 M,0,13447,13647,543.1763,371.3293,527.8397,374.5891 C,0,13647,,54,201,167 M,0,13647,13847,527.8397,374.5891,512.1603,374.5891 C,0,13847,,54,201,167 M,0,13847,14047,512.1603,374.5891,496.8237,371.3293 C,0,14047,,54,201,167 M,0,14047,14247,496.8237,371.3293,482.5,364.9519 C,0,14247,,54,201,167 M,0,14247,14447,482.5,364.9519,469.8152,355.7359 C,0,14447,,54,201,167 M,0,14447,14647,469.8152,355.7359,459.3237,344.0839 C,0,14647,,54,201,167 M,0,14647,14847,459.3237,344.0839,451.4841,330.5052 C,0,14847,,54,201,167 M,0,14847,15047,451.4841,330.5052,446.6389,315.5934 C,0,15047,,54,201,167 M,0,15047,15247,446.6389,315.5934,445,300 C,0,15247,,54,201,167 M,0,15247,15447,445,300,446.6389,284.4066 C,0,15447,,54,201,167 M,0,15447,15647,446.6389,284.4066,451.4841,269.4948 C,0,15647,,54,201,167 M,0,15647,15847,451.4841,269.4948,459.3237,255.9161 C,0,15847,,54,201,167 M,0,15847,16047,459.3237,255.9161,469.8152,244.2641 C,0,16047,,54,201,167 M,0,16047,16247,469.8152,244.2641,482.5,235.0481 C,0,16247,,54,201,167 M,0,16247,16447,482.5,235.0481,496.8237,228.6708 C,0,16447,,54,201,167 M,0,16447,16647,496.8237,228.6708,512.1603,225.4109 C,0,16647,,54,201,167 M,0,16647,16847,512.1603,225.4109,527.8397,225.4109 C,0,16847,,54,201,167 M,0,16847,17047,527.8397,225.4109,543.1763,228.6708 C,0,17047,,54,201,167 M,0,17047,17247,543.1763,228.6708,557.5,235.0481 C,0,17247,,54,201,167 M,0,17247,17447,557.5,235.0481,570.1848,244.2641 C,0,17447,,54,201,167 M,0,17447,17647,570.1848,244.2641,580.6763,255.9161 C,0,17647,,54,201,167 M,0,17647,17847,580.6763,255.9161,588.5159,269.4948 C,0,17847,,54,201,167 M,0,17847,18047,588.5159,269.4948,593.3611,284.4066 C,0,18047,,54,201,167 M,0,18047,18247,593.3611,284.4066,595,300
Sprite,Foreground,Centre,"sb\credits\0072.png",0,0 S,0,6547,,0.45 C,0,6547,,54,201,167 M,0,6547,6747,595,300,593.3611,315.5934 R,0,6547,12547,-1.570796,4.712389 C,0,6747,,54,201,167 M,0,6747,6947,593.3611,315.5934,588.5159,330.5052 C,0,6947,,54,201,167 M,0,6947,7147,588.5159,330.5052,580.6763,344.0839 C,0,7147,,54,201,167 M,0,7147,7347,580.6763,344.0839,570.1848,355.7359 C,0,7347,,54,201,167 M,0,7347,7547,570.1848,355.7359,557.5,364.9519 C,0,7547,,54,201,167 M,0,7547,7747,557.5,364.9519,543.1763,371.3293 C,0,7747,,54,201,167 M,0,7747,7947,543.1763,371.3293,527.8397,374.5891 C,0,7947,,54,201,167 M,0,7947,8147,527.8397,374.5891,512.1603,374.5891 C,0,8147,,54,201,167 M,0,8147,8347,512.1603,374.5891,496.8237,371.3293 C,0,8347,,54,201,167 M,0,8347,8547,496.8237,371.3293,482.5,364.9519 C,0,8547,,54,201,167 M,0,8547,8747,482.5,364.9519,469.8152,355.7359 C,0,8747,,54,201,167 M,0,8747,8947,469.8152,355.7359,459.3237,344.0839 C,0,8947,,54,201,167 M,0,8947,9147,459.3237,344.0839,451.4841,330.5052 C,0,9147,,54,201,167 M,0,9147,9347,451.4841,330.5052,446.6389,315.5934 C,0,9347,,54,201,167 M,0,9347,9547,446.6389,315.5934,445,300 C,0,9547,,54,201,167 M,0,9547,9747,445,300,446.6389,284.4066 C,0,9747,,54,201,167 M,0,9747,9947,446.6389,284.4066,451.4841,269.4948 C,0,9947,,54,201,167 M,0,9947,10147,451.4841,269.4948,459.3237,255.9161 C,0,10147,,54,201,167 M,0,10147,10347,459.3237,255.9161,469.8152,244.2641 C,0,10347,,54,201,167 M,0,10347,10547,469.8152,244.2641,482.5,235.0481 C,0,10547,,54,201,167 M,0,10547,10747,482.5,235.0481,496.8237,228.6708 C,0,10747,,54,201,167 M,0,10747,10947,496.8237,228.6708,512.1603,225.4109 C,0,10947,,54,201,167 M,0,10947,11147,512.1603,225.4109,527.8397,225.4109 C,0,11147,,54,201,167 M,0,11147,11347,527.8397,225.4109,543.1763,228.6708 C,0,11347,,54,201,167 M,0,11347,11547,543.1763,228.6708,557.5,235.0481 C,0,11547,,54,201,167 M,0,11547,11747,557.5,235.0481,570.1848,244.2641 C,0,11747,,54,201,167 M,0,11747,11947,570.1848,244.2641,580.6763,255.9161 C,0,11947,,54,201,167 M,0,11947,12147,580.6763,255.9161,588.5159,269.4948 C,0,12147,,54,201,167 M,0,12147,12347,588.5159,269.4948,593.3611,284.4066 C,0,12347,,54,201,167 M,0,12347,12547,593.3611,284.4066,595,300 C,0,12547,,54,201,167 M,0,12547,12747,595,300,593.3611,315.5934 R,0,12547,18547,-1.570796,4.712389 C,0,12747,,54,201,167 M,0,12747,12947,593.3611,315.5934,588.5159,330.5052 C,0,12947,,54,201,167 M,0,12947,13147,588.5159,330.5052,580.6763,344.0839 C,0,13147,,54,201,167 M,0,13147,13347,580.6763,344.0839,570.1848,355.7359 C,0,13347,,54,201,167 M,0,13347,13547,570.1848,355.7359,557.5,364.9519 C,0,13547,,54,201,167 M,0,13547,13747,557.5,364.9519,543.1763,371.3293 C,0,13747,,54,201,167 M,0,13747,13947,543.1763,371.3293,527.8397,374.5891 C,0,13947,,54,201,167 M,0,13947,14147,527.8397,374.5891,512.1603,374.5891 C,0,14147,,54,201,167 M,0,14147,14347,512.1603,374.5891,496.8237,371.3293 C,0,14347,,54,201,167 M,0,14347,14547,496.8237,371.3293,482.5,364.9519 C,0,14547,,54,201,167 M,0,14547,14747,482.5,364.9519,469.8152,355.7359 C,0,14747,,54,201,167 M,0,14747,14947,469.8152,355.7359,459.3237,344.0839 C,0,14947,,54,201,167 M,0,14947,15147,459.3237,344.0839,451.4841,330.5052 C,0,15147,,54,201,167 M,0,15147,15347,451.4841,330.5052,446.6389,315.5934 C,0,15347,,54,201,167 M,0,15347,15547,446.6389,315.5934,445,300 C,0,15547,,54,201,167 M,0,15547,15747,445,300,446.6389,284.4066 C,0,15747,,54,201,167 M,0,15747,15947,446.6389,284.4066,451.4841,269.4948 C,0,15947,,54,201,167 M,0,15947,16147,451.4841,269.4948,459.3237,255.9161 C,0,16147,,54,201,167 M,0,16147,16347,459.3237,255.9161,469.8152,244.2641 C,0,16347,,54,201,167 M,0,16347,16547,469.8152,244.2641,482.5,235.0481 C,0,16547,,54,201,167 M,0,16547,16747,482.5,235.0481,496.8237,228.6708 C,0,16747,,54,201,167 M,0,16747,16947,496.8237,228.6708,512.1603,225.4109 C,0,16947,,54,201,167 M,0,16947,17147,512.1603,225.4109,527.8397,225.4109 C,0,17147,,54,201,167 M,0,17147,17347,527.8397,225.4109,543.1763,228.6708 C,0,17347,,54,201,167 M,0,17347,17547,543.1763,228.6708,557.5,235.0481 C,0,17547,,54,201,167 M,0,17547,17747,557.5,235.0481,570.1848,244.2641 C,0,17747,,54,201,167 M,0,17747,17947,570.1848,244.2641,580.6763,255.9161 C,0,17947,,54,201,167 M,0,17947,18147,580.6763,255.9161,588.5159,269.4948 C,0,18147,,54,201,167 M,0,18147,18347,588.5159,269.4948,593.3611,284.4066 C,0,18347,,54,201,167 M,0,18347,18547,593.3611,284.4066,595,300
Sprite,Foreground,Centre,"sb\credits\0075.png",0,0 S,0,6847,,0.45 C,0,6847,,54,201,167 M,0,6847,7047,595,300,593.3611,315.5934 R,0,6847,12847,-1.570796,4.712389 C,0,7047,,54,201,167 M,0,7047,7247,593.3611,315.5934,588.5159,330.5052 C,0,7247,,54,201,167 M,0,7247,7447,588.5159,330.5052,580.6763,344.0839 C,0,7447,,54,201,167 M,0,7447,7647,580.6763,344.0839,570.1848,355.7359 C,0,7647,,54,201,167 M,0,7647,7847,570.1848,355.7359,557.5,364.9519 C,0,7847,,54,201,167 M,0,7847,8047,557.5,364.9519,543.1763,371.3293 C,0,8047,,54,201,167 M,0,8047,8247,543.1763,371.3293,527.8397,374.5891 C,0,8247,,54,201,167 M,0,8247,8447,527.8397,374.5891,512.1603,374.5891 C,0,8447,,54,201,167 M,0,8447,8647,512.1603,374.5891,496.8237,371.3293 C,0,8647,,54,201,167 M,0,8647,8847,496.8237,371.3293,482.5,364.9519 C,0,8847,,54,201,167 M,0,8847,9047,482.5,364.9519,469.8152,355.7359 C,0,9047,,54,201,167 M,0,9047,9247,469.8152,355.7359,459.3237,344.0839 C,0,9247,,54,201,167 M,0,9247,9447,459.3237,344.0839,451.4841,330.5052 C,0,9447,,54,201,167 M,0,9447,9647,451.4841,330.5052,446.6389,315.5934 C,0,9647,,54,201,167 M,0,9647,9847,446.6389,315.5934,445,300 C,0,9847,,54,201,167 M,0,9847,10047,445,300,446.6389,284.4066 C,0,10047,,54,201,167 M,0,10047,10247,446.6389,284.4066,451.4841,269.4948 C,0,10247,,54,201,167 M,0,10247,10447,451.4841,269.4948,459.3237,255.9161 C,0,10447,,54,201,167 M,0,10447,10647,459.3237,255.9161,469.8152,244.2641 C,0,10647,,54,201,167 M,0,10647,10847,469.8152,244.2641,482.5,235.0481 C,0,10847,,54,201,167 M,0,10847,11047,482.5,235.0481,496.8237,228.6708 C,0,11047,,54,201,167 M,0,11047,11247,496.8237,228.6708,512.1603,225.4109 C,0,11247,,54,201,167 M,0,11247,11447,512.1603,225.4109,527.8397,225.4109 C,0,11447,,54,201,167 M,0,11447,11647,527.8397,225.4109,543.1763,228.6708 C,0,11647,,54,201,167 M,0,11647,11847,543.1763,228.6708,557.5,235.0481 C,0,11847,,54,201,167 M,0,11847,12047,557.5,235.0481,570.1848,244.2641 C,0,12047,,54,201,167 M,0,12047,12247,570.1848,244.2641,580.6763,255.9161 C,0,12247,,54,201,167 M,0,12247,12447,580.6763,255.9161,588.5159,269.4948 C,0,12447,,54,201,167 M,0,12447,12647,588.5159,269.4948,593.3611,284.4066 C,0,12647,,54,201,167 M,0,12647,12847,593.3611,284.4066,595,300 C,0,12847,,54,201,167 M,0,12847,13047,595,300,593.3611,315.5934 R,0,12847,18847,-1.570796,4.712389 C,0,13047,,54,201,167 M,0,13047,13247,593.3611,315.5934,588.5159,330.5052 C,0,13247,,54,201,167 M,0,13247,13447,588.5159,330.5052,580.6763,344.0839 C,0,13447,,54,201,167 M,0,13447,13647,580.6763,344.0839,570.1848,355.7359 C,0,13647,,54,201,167 M,0,13647,13847,570.1848,355.7359,557.5,364.9519 C,0,13847,,54,201,167 M,0,13847,14047,557.5,364.9519,543.1763,371.3293 C,0,14047,,54,201,167 M,0,14047,14247,543.1763,371.3293,527.8397,374.5891 C,0,14247,,54,201,167 M,0,14247,14447,527.8397,374.5891,512.1603,374.5891 C,0,14447,,54,201,167 M,0,14447,14647,512.1603,374.5891,496.8237,371.3293 C,0,14647,,54,201,167 M,0,14647,14847,496.8237,371.3293,482.5,364.9519 C,0,14847,,54,201,167 M,0,14847,15047,482.5,364.9519,469.8152,355.7359 C,0,15047,,54,201,167 M,0,15047,15247,469.8152,355.7359,459.3237,344.0839 C,0,15247,,54,201,167 M,0,15247,15447,459.3237,344.0839,451.4841,330.5052 C,0,15447,,54,201,167 M,0,15447,15647,451.4841,330.5052,446.6389,315.5934 C,0,15647,,54,201,167 M,0,15647,15847,446.6389,315.5934,445,300 C,0,15847,,54,201,167 M,0,15847,16047,445,300,446.6389,284.4066 C,0,16047,,54,201,167 M,0,16047,16247,446.6389,284.4066,451.4841,269.4948 C,0,16247,,54,201,167 M,0,16247,16447,451.4841,269.4948,459.3237,255.9161 C,0,16447,,54,201,167 M,0,16447,16647,459.3237,255.9161,469.8152,244.2641 C,0,16647,,54,201,167 M,0,16647,16847,469.8152,244.2641,482.5,235.0481 C,0,16847,,54,201,167 M,0,16847,17047,482.5,235.0481,496.8237,228.6708 C,0,17047,,54,201,167 M,0,17047,17247,496.8237,228.6708,512.1603,225.4109 C,0,17247,,54,201,167 M,0,17247,17447,512.1603,225.4109,527.8397,225.4109 C,0,17447,,54,201,167 M,0,17447,17647,527.8397,225.4109,543.1763,228.6708 C,0,17647,,54,201,167 M,0,17647,17847,543.1763,228.6708,557.5,235.0481 C,0,17847,,54,201,167 M,0,17847,18047,557.5,235.0481,570.1848,244.2641 C,0,18047,,54,201,167 M,0,18047,18247,570.1848,244.2641,580.6763,255.9161 C,0,18247,,54,201,167 M,0,18247,18447,580.6763,255.9161,588.5159,269.4948 C,0,18447,,54,201,167 M,0,18447,18647,588.5159,269.4948,593.3611,284.4066 C,0,18647,,54,201,167 M,0,18647,18847,593.3611,284.4066,595,300
Sprite,Foreground,Centre,"sb\credits\_003.png",500,100 S,0,7781,,0.4 F,0,7781,7881,0,1 C,0,7781,12584,255,255,255
Sprite,Foreground,Centre,"sb\credits\004d.png",0,0 S,0,7781,,0.3 C,0,7781,,204,175,90 M,0,7781,7981,555,100,553.7981,111.4351 R,0,7781,13781,-1.570796,4.712389 C,0,7981,,204,175,90 M,0,7981,8181,553.7981,111.4351,550.245,122.3705 C,0,8181,,204,175,90 M,0,8181,8381,550.245,122.3705,544.4959,132.3282 C,0,8381,,204,175,90 M,0,8381,8581,544.4959,132.3282,536.8022,140.873 C,0,8581,,204,175,90 M,0,8581,8781,536.8022,140.873,527.5,147.6314 C,0,8781,,204,175,90 M,0,8781,8981,527.5,147.6314,516.9959,152.3081 C,0,8981,,204,175,90 M,0,8981,9181,516.9959,152.3081,505.7491,154.6987 C,0,9181,,204,175,90 M,0,9181,9381,505.7491,154.6987,494.2509,154.6987 C,0,9381,,204,175,90 M,0,9381,9581,494.2509,154.6987,483.0041,152.3081 C,0,9581,,204,175,90 M,0,9581,9781,483.0041,152.3081,472.5,147.6314 C,0,9781,,204,175,90 M,0,9781,9981,472.5,147.6314,463.1978,140.873 C,0,9981,,204,175,90 M,0,9981,10181,463.1978,140.873,455.5041,132.3282 C,0,10181,,204,175,90 M,0,10181,10381,455.5041,132.3282,449.755,122.3705 C,0,10381,,204,175,90 M,0,10381,10581,449.755,122.3705,446.2019,111.4351 C,0,10581,,204,175,90 M,0,10581,10781,446.2019,111.4351,445,100 C,0,10781,,204,175,90 M,0,10781,10981,445,100,446.2019,88.56486 C,0,10981,,204,175,90 M,0,10981,11181,446.2019,88.56486,449.755,77.62949 C,0,11181,,204,175,90 M,0,11181,11381,449.755,77.62949,455.5041,67.67181 C,0,11381,,204,175,90 M,0,11381,11581,455.5041,67.67181,463.1978,59.12704 C,0,11581,,204,175,90 M,0,11581,11781,463.1978,59.12704,472.5,52.3686 C,0,11781,,204,175,90 M,0,11781,11981,472.5,52.3686,483.0041,47.69189 C,0,11981,,204,175,90 M,0,11981,12181,483.0041,47.69189,494.2509,45.3013 C,0,12181,,204,175,90 M,0,12181,12381,494.2509,45.3013,505.7491,45.3013 C,0,12381,,204,175,90 M,0,12381,12581,505.7491,45.3013,516.9959,47.69189 C,0,12581,,204,175,90 M,0,12581,12781,516.9959,47.69189,527.5,52.3686 C,0,12781,,204,175,90 M,0,12781,12981,527.5,52.3686,536.8022,59.12704 C,0,12981,,204,175,90 M,0,12981,13181,536.8022,59.12704,544.4959,67.67181 C,0,13181,,204,175,90 M,0,13181,13381,544.4959,67.67181,550.245,77.62949 C,0,13381,,204,175,90 M,0,13381,13581,550.245,77.62949,553.7981,88.56486 C,0,13581,,204,175,90 M,0,13581,13781,553.7981,88.56486,555,100 C,0,13781,,204,175,90 M,0,13781,13981,555,100,553.7981,111.4351 R,0,13781,19781,-1.570796,4.712389 C,0,13981,,204,175,90 M,0,13981,14181,553.7981,111.4351,550.245,122.3705 C,0,14181,,204,175,90 M,0,14181,14381,550.245,122.3705,544.4959,132.3282 C,0,14381,,204,175,90 M,0,14381,14581,544.4959,132.3282,536.8022,140.873 C,0,14581,,204,175,90 M,0,14581,14781,536.8022,140.873,527.5,147.6314 C,0,14781,,204,175,90 M,0,14781,14981,527.5,147.6314,516.9959,152.3081 C,0,14981,,204,175,90 M,0,14981,15181,516.9959,152.3081,505.7491,154.6987 C,0,15181,,204,175,90 M,0,15181,15381,505.7491,154.6987,494.2509,154.6987 C,0,15381,,204,175,90 M,0,15381,15581,494.2509,154.6987,483.0041,152.3081 C,0,15581,,204,175,90 M,0,15581,15781,483.0041,152.3081,472.5,147.6314 C,0,15781,,204,175,90 M,0,15781,15981,472.5,147.6314,463.1978,140.873 C,0,15981,,204,175,90 M,0,15981,16181,463.1978,140.873,455.5041,132.3282 C,0,16181,,204,175,90 M,0,16181,16381,455.5041,132.3282,449.755,122.3705 C,0,16381,,204,175,90 M,0,16381,16581,449.755,122.3705,446.2019,111.4351 C,0,16581,,204,175,90 M,0,16581,16781,446.2019,111.4351,445,100 C,0,16781,,204,175,90 M,0,16781,16981,445,100,446.2019,88.56486 C,0,16981,,204,175,90 M,0,16981,17181,446.2019,88.56486,449.755,77.62949 C,0,17181,,204,175,90 M,0,17181,17381,449.755,77.62949,455.5041,67.67181 C,0,17381,,204,175,90 M,0,17381,17581,455.5041,67.67181,463.1978,59.12704 C,0,17581,,204,175,90 M,0,17581,17781,463.1978,59.12704,472.5,52.3686 C,0,17781,,204,175,90 M,0,17781,17981,472.5,52.3686,483.0041,47.69189 C,0,17981,,204,175,90 M,0,17981,18181,483.0041,47.69189,494.2509,45.3013 C,0,18181,,204,175,90 M,0,18181,18381,494.2509,45.3013,505.7491,45.3013 C,0,18381,,204,175,90 M,0,18381,18581,505.7491,45.3013,516.9959,47.69189 C,0,18581,,204,175,90 M,0,18581,18781,516.9959,47.69189,527.5,52.3686 C,0,18781,,204,175,90 M,0,18781,18981,527.5,52.3686,536.8022,59.12704 C,0,18981,,204,175,90 M,0,18981,19181,536.8022,59.12704,544.4959,67.67181 C,0,19181,,204,175,90 M,0,19181,19381,544.4959,67.67181,550.245,77.62949 C,0,19381,,204,175,90 M,0,19381,19581,550.245,77.62949,553.7981,88.56486 C,0,19581,,204,175,90 M,0,19581,19781,553.7981,88.56486,555,100
Sprite,Foreground,Centre,"sb\credits\0052.png",0,0 S,0,8081,,0.3 C,0,8081,,204,175,90 M,0,8081,8281,555,100,553.7981,111.4351 R,0,8081,14081,-1.570796,4.712389 C,0,8281,,204,175,90 M,0,8281,8481,553.7981,111.4351,550.245,122.3705 C,0,8481,,204,175,90 M,0,8481,8681,550.245,122.3705,544.4959,132.3282 C,0,8681,,204,175,90 M,0,8681,8881,544.4959,132.3282,536.8022,140.873 C,0,8881,,204,175,90 M,0,8881,9081,536.8022,140.873,527.5,147.6314 C,0,9081,,204,175,90 M,0,9081,9281,527.5,147.6314,516.9959,152.3081 C,0,9281,,204,175,90 M,0,9281,9481,516.9959,152.3081,505.7491,154.6987 C,0,9481,,204,175,90 M,0,9481,9681,505.7491,154.6987,494.2509,154.6987 C,0,9681,,204,175,90 M,0,9681,9881,494.2509,154.6987,483.0041,152.3081 C,0,9881,,204,175,90 M,0,9881,10081,483.0041,152.3081,472.5,147.6314 C,0,10081,,204,175,90 M,0,10081,10281,472.5,147.6314,463.1978,140.873 C,0,10281,,204,175,90 M,0,10281,10481,463.1978,140.873,455.5041,132.3282 C,0,10481,,204,175,90 M,0,10481,10681,455.5041,132.3282,449.755,122.3705 C,0,10681,,204,175,90 M,0,10681,10881,449.755,122.3705,446.2019,111.4351 C,0,10881,,204,175,90 M,0,10881,11081,446.2019,111.4351,445,100 C,0,11081,,204,175,90 M,0,11081,11281,445,100,446.2019,88.56486 C,0,11281,,204,175,90 M,0,11281,11481,446.2019,88.56486,449.755,77.62949 C,0,11481,,204,175,90 M,0,11481,11681,449.755,77.62949,455.5041,67.67181 C,0,11681,,204,175,90 M,0,11681,11881,455.5041,67.67181,463.1978,59.12704 C,0,11881,,204,175,90 M,0,11881,12081,463.1978,59.12704,472.5,52.3686 C,0,12081,,204,175,90 M,0,12081,12281,472.5,52.3686,483.0041,47.69189 C,0,12281,,204,175,90 M,0,12281,12481,483.0041,47.69189,494.2509,45.3013 C,0,12481,,204,175,90 M,0,12481,12681,494.2509,45.3013,505.7491,45.3013 C,0,12681,,204,175,90 M,0,12681,12881,505.7491,45.3013,516.9959,47.69189 C,0,12881,,204,175,90 M,0,12881,13081,516.9959,47.69189,527.5,52.3686 C,0,13081,,204,175,90 M,0,13081,13281,527.5,52.3686,536.8022,59.12704 C,0,13281,,204,175,90 M,0,13281,13481,536.8022,59.12704,544.4959,67.67181 C,0,13481,,204,175,90 M,0,13481,13681,544.4959,67.67181,550.245,77.62949 C,0,13681,,204,175,90 M,0,13681,13881,550.245,77.62949,553.7981,88.56486 C,0,13881,,204,175,90 M,0,13881,14081,553.7981,88.56486,555,100 C,0,14081,,204,175,90 M,0,14081,14281,555,100,553.7981,111.4351 R,0,14081,20081,-1.570796,4.712389 C,0,14281,,204,175,90 M,0,14281,14481,553.7981,111.4351,550.245,122.3705 C,0,14481,,204,175,90 M,0,14481,14681,550.245,122.3705,544.4959,132.3282 C,0,14681,,204,175,90 M,0,14681,14881,544.4959,132.3282,536.8022,140.873 C,0,14881,,204,175,90 M,0,14881,15081,536.8022,140.873,527.5,147.6314 C,0,15081,,204,175,90 M,0,15081,15281,527.5,147.6314,516.9959,152.3081 C,0,15281,,204,175,90 M,0,15281,15481,516.9959,152.3081,505.7491,154.6987 C,0,15481,,204,175,90 M,0,15481,15681,505.7491,154.6987,494.2509,154.6987 C,0,15681,,204,175,90 M,0,15681,15881,494.2509,154.6987,483.0041,152.3081 C,0,15881,,204,175,90 M,0,15881,16081,483.0041,152.3081,472.5,147.6314 C,0,16081,,204,175,90 M,0,16081,16281,472.5,147.6314,463.1978,140.873 C,0,16281,,204,175,90 M,0,16281,16481,463.1978,140.873,455.5041,132.3282 C,0,16481,,204,175,90 M,0,16481,16681,455.5041,132.3282,449.755,122.3705 C,0,16681,,204,175,90 M,0,16681,16881,449.755,122.3705,446.2019,111.4351 C,0,16881,,204,175,90 M,0,16881,17081,446.2019,111.4351,445,100 C,0,17081,,204,175,90 M,0,17081,17281,445,100,446.2019,88.56486 C,0,17281,,204,175,90 M,0,17281,17481,446.2019,88.56486,449.755,77.62949 C,0,17481,,204,175,90 M,0,17481,17681,449.755,77.62949,455.5041,67.67181 C,0,17681,,204,175,90 M,0,17681,17881,455.5041,67.67181,463.1978,59.12704 C,0,17881,,204,175,90 M,0,17881,18081,463.1978,59.12704,472.5,52.3686 C,0,18081,,204,175,90 M,0,18081,18281,472.5,52.3686,483.0041,47.69189 C,0,18281,,204,175,90 M,0,18281,18481,483.0041,47.69189,494.2509,45.3013 C,0,18481,,204,175,90 M,0,18481,18681,494.2509,45.3013,505.7491,45.3013 C,0,18681,,204,175,90 M,0,18681,18881,505.7491,45.3013,516.9959,47.69189 C,0,18881,,204,175,90 M,0,18881,19081,516.9959,47.69189,527.5,52.3686 C,0,19081,,204,175,90 M,0,19081,19281,527.5,52.3686,536.8022,59.12704 C,0,19281,,204,175,90 M,0,19281,19481,536.8022,59.12704,544.4959,67.67181 C,0,19481,,204,175,90 M,0,19481,19681,544.4959,67.67181,550.245,77.62949 C,0,19681,,204,175,90 M,0,19681,19881,550.245,77.62949,553.7981,88.56486 C,0,19881,,204,175,90 M,0,19881,20081,553.7981,88.56486,555,100
Sprite,Foreground,Centre,"sb\credits\004c.png",0,0 S,0,8381,,0.3 C,0,8381,,204,175,90 M,0,8381,8581,555,100,553.7981,111.4351 R,0,8381,14381,-1.570796,4.712389 C,0,8581,,204,175,90 M,0,8581,8781,553.7981,111.4351,550.245,122.3705 C,0,8781,,204,175,90 M,0,8781,8981,550.245,122.3705,544.4959,132.3282 C,0,8981,,204,175,90 M,0,8981,9181,544.4959,132.3282,536.8022,140.873 C,0,9181,,204,175,90 M,0,9181,9381,536.8022,140.873,527.5,147.6314 C,0,9381,,204,175,90 M,0,9381,9581,527.5,147.6314,516.9959,152.3081 C,0,9581,,204,175,90 M,0,9581,9781,516.9959,152.3081,505.7491,154.6987 C,0,9781,,204,175,90 M,0,9781,9981,505.7491,154.6987,494.2509,154.6987 C,0,9981,,204,175,90 M,0,9981,10181,494.2509,154.6987,483.0041,152.3081 C,0,10181,,204,175,90 M,0,10181,10381,483.0041,152.3081,472.5,147.6314 C,0,10381,,204,175,90 M,0,10381,10581,472.5,147.6314,463.1978,140.873 C,0,10581,,204,175,90 M,0,10581,10781,463.1978,140.873,455.5041,132.3282 C,0,10781,,204,175,90 M,0,10781,10981,455.5041,132.3282,449.755,122.3705 C,0,10981,,204,175,90 M,0,10981,11181,449.755,122.3705,446.2019,111.4351 C,0,11181,,204,175,90 M,0,11181,11381,446.2019,111.4351,445,100 C,0,11381,,204,175,90 M,0,11381,11581,445,100,446.2019,88.56486 C,0,11581,,204,175,90 M,0,11581,11781,446.2019,88.56486,449.755,77.62949 C,0,11781,,204,175,90 M,0,11781,11981,449.755,77.62949,455.5041,67.67181 C,0,11981,,204,175,90 M,0,11981,12181,455.5041,67.67181,463.1978,59.12704 C,0,12181,,204,175,90 M,0,12181,12381,463.1978,59.12704,472.5,52.3686 C,0,12381,,204,175,90 M,0,12381,12581,472.5,52.3686,483.0041,47.69189 C,0,12581,,204,175,90 M,0,12581,12781,483.0041,47.69189,494.2509,45.3013 C,0,12781,,204,175,90 M,0,12781,12981,494.2509,45.3013,505.7491,45.3013 C,0,12981,,204,175,90 M,0,12981,13181,505.7491,45.3013,516.9959,47.69189 C,0,13181,,204,175,90 M,0,13181,13381,516.9959,47.69189,527.5,52.3686 C,0,13381,,204,175,90 M,0,13381,13581,527.5,52.3686,536.8022,59.12704 C,0,13581,,204,175,90 M,0,13581,13781,536.8022,59.12704,544.4959,67.67181 C,0,13781,,204,175,90 M,0,13781,13981,544.4959,67.67181,550.245,77.62949 C,0,13981,,204,175,90 M,0,13981,14181,550.245,77.62949,553.7981,88.56486 C,0,14181,,204,175,90 M,0,14181,14381,553.7981,88.56486,555,100 C,0,14381,,204,175,90 M,0,14381,14581,555,100,553.7981,111.4351 R,0,14381,20381,-1.570796,4.712389 C,0,14581,,204,175,90 M,0,14581,14781,553.7981,111.4351,550.245,122.3705 C,0,14781,,204,175,90 M,0,14781,14981,550.245,122.3705,544.4959,132.3282 C,0,14981,,204,175,90 M,0,14981,15181,544.4959,132.3282,536.8022,140.873 C,0,15181,,204,175,90 M,0,15181,15381,536.8022,140.873,527.5,147.6314 C,0,15381,,204,175,90 M,0,15381,15581,527.5,147.6314,516.9959,152.3081 C,0,15581,,204,175,90 M,0,15581,15781,516.9959,152.3081,505.7491,154.6987 C,0,15781,,204,175,90 M,0,15781,15981,505.7491,154.6987,494.2509,154.6987 C,0,15981,,204,175,90 M,0,15981,16181,494.2509,154.6987,483.0041,152.3081 C,0,16181,,204,175,90 M,0,16181,16381,483.0041,152.3081,472.5,147.6314 C,0,16381,,204,175,90 M,0,16381,16581,472.5,147.6314,463.1978,140.873 C,0,16581,,204,175,90 M,0,16581,16781,463.1978,140.873,455.5041,132.3282 C,0,16781,,204,175,90 M,0,16781,16981,455.5041,132.3282,449.755,122.3705 C,0,16981,,204,175,90 M,0,16981,17181,449.755,122.3705,446.2019,111.4351 C,0,17181,,204,175,90 M,0,17181,17381,446.2019,111.4351,445,100 C,0,17381,,204,175,90 M,0,17381,17581,445,100,446.2019,88.56486 C,0,17581,,204,175,90 M,0,17581,17781,446.2019,88.56486,449.755,77.62949 C,0,17781,,204,175,90 M,0,17781,17981,449.755,77.62949,455.5041,67.67181 C,0,17981,,204,175,90 M,0,17981,18181,455.5041,67.67181,463.1978,59.12704 C,0,18181,,204,175,90 M,0,18181,18381,463.1978,59.12704,472.5,52.3686 C,0,18381,,204,175,90 M,0,18381,18581,472.5,52.3686,483.0041,47.69189 C,0,18581,,204,175,90 M,0,18581,18781,483.0041,47.69189,494.2509,45.3013 C,0,18781,,204,175,90 M,0,18781,18981,494.2509,45.3013,505.7491,45.3013 C,0,18981,,204,175,90 M,0,18981,19181,505.7491,45.3013,516.9959,47.69189 C,0,19181,,204,175,90 M,0,19181,19381,516.9959,47.69189,527.5,52.3686 C,0,19381,,204,175,90 M,0,19381,19581,527.5,52.3686,536.8022,59.12704 C,0,19581,,204,175,90 M,0,19581,19781,536.8022,59.12704,544.4959,67.67181 C,0,19781,,204,175,90 M,0,19781,19981,544.4959,67.67181,550.245,77.62949 C,0,19981,,204,175,90 M,0,19981,20181,550.245,77.62949,553.7981,88.56486 C,0,20181,,204,175,90 M,0,20181,20381,553.7981,88.56486,555,100
Sprite,Foreground,Centre,"sb\basuteiBlur.jpg",320,240 C,0,140764,,255,255,255 F,0,140764,141264,0,1 V,0,141264,,0.7116666,0.7111111 F,0,173624,174124,1,0
Sprite,Foreground,Centre,"sb\s.png",0,0 C,0,140927,,255,255,255 M,0,140927,140969,340,389,363.4027,392.6088 F,2,140927,141779,0.7,0 S,1,140927,141779,1.14,1.9 M,0,140969,141011,363.4027,392.6088,386.9751,390.6761 M,0,141011,141053,386.9751,390.6761,409.7251,384.0145 M,0,141053,141095,409.7251,384.0145,432.6623,378.0879 M,0,141095,141137,432.6623,378.0879,456.3103,377.371 M,0,141137,141179,456.3103,377.371,479.6141,381.6245
Sprite,Foreground,Centre,"sb\s.png",0,0 C,0,141264,,255,255,255 M,0,141264,141306,556,279,559.1243,252.4548 F,2,141264,142116,0.7,0 S,1,141264,142116,1.14,1.9 M,0,141306,141348,559.1243,252.4548,553.6251,226.368 M,0,141348,141390,553.6251,226.368,539.0763,204.0096 M,0,141390,141432,539.0763,204.0096,518.5472,186.8674 M,0,141432,141474,518.5472,186.8674,500.4763,191.6739 M,0,141474,141516,500.4763,191.6739,488,214
Sprite,Foreground,Centre,"sb\s.png",482,231 C,0,141601,,255,255,255 F,2,141601,142201,0.7,0 S,1,141601,142201,1.14,1.9
Sprite,Foreground,Centre,"sb\s.png",0,0 C,0,141770,,255,255,255 M,0,141770,141812,340,389,314.1952,395.9466 F,2,141770,142707,0.7,0 S,1,141770,142707,1.14,1.9 M,0,141812,141854,314.1952,395.9466,287.5093,395.0091 M,0,141854,141896,287.5093,395.0091,262.553,385.5649 M,0,141896,141938,262.553,385.5649,242.4264,368.0806 M,0,141938,141980,242.4264,368.0806,230.2358,344.39 M,0,141980,142022,230.2358,344.39,227.7159,317.8463 M,0,142022,142064,227.7159,317.8463,242.3057,334.1049 M,0,142064,142107,242.3057,334.1049,263.5184,350.39
Sprite,Foreground,Centre,"sb\s.png",0,0 C,0,142275,,255,255,255 M,0,142275,142317,272,194,287.9764,209.8845 F,2,142275,143043,0.7,0 S,1,142275,143043,1.14,1.9 M,0,142317,142359,287.9764,209.8845,298.8369,229.5619 M,0,142359,142401,298.8369,229.5619,303.3138,251.6286 M,0,142401,142443,303.3138,251.6286,301,274
Sprite,Foreground,Centre,"sb\s.png",176,413 C,0,142528,,255,255,255 F,2,142528,143128,0.7,0 S,1,142528,143128,1.14,1.9
Sprite,Foreground,Centre,"sb\s.png",0,0 C,0,142613,,255,255,255 M,0,142613,142655,157,426,135.0928,431.3431 F,2,142613,143381,0.7,0 S,1,142613,143381,1.14,1.9 M,0,142655,142697,135.0928,431.3431,112.5944,430.7893 M,0,142697,142739,112.5944,430.7893,91.10552,423.9641 M,0,142739,142781,91.10552,423.9641,72.38119,411.319
Sprite,Foreground,Centre,"sb\s.png",190,161 C,0,142950,,255,255,255 F,2,142950,143550,0.7,0 S,1,142950,143550,1.14,1.9
Sprite,Foreground,Centre,"sb\s.png",0,0 C,0,143118,,255,255,255 M,0,143118,143160,86,241,107.8617,235.2321 F,2,143118,144055,0.7,0 S,1,143118,144055,1.14,1.9 M,0,143160,143202,107.8617,235.2321,130.4056,233.891 M,0,143202,143244,130.4056,233.891,152.7451,237.3432 M,0,143244,143286,152.7451,237.3432,173.7292,245.7373 M,0,143286,143328,173.7292,245.7373,192.5367,258.2209 M,0,143328,143370,192.5367,258.2209,208.2925,274.4014 M,0,143370,143412,208.2925,274.4014,220.288,293.5619 M,0,143412,143455,220.288,293.5619,227.9603,314.8568
Sprite,Foreground,Centre,"sb\s.png",0,0 C,0,143624,,255,255,255 M,0,143624,143666,386,386,402.3944,364.7837 F,2,143624,144308,0.7,0 S,1,143624,144308,1.14,1.9 M,0,143666,143708,402.3944,364.7837,406.4128,338.4044
Sprite,Foreground,Centre,"sb\s.png",0,0 C,0,143792,,255,255,255 M,0,143792,143834,512,247,512.957,220.2046 F,2,143792,144476,0.7,0 S,1,143792,144476,1.14,1.9 M,0,143834,143876,512.957,220.2046,501.8912,195.9279
Sprite,Foreground,Centre,"sb\s.png",387,121 C,0,143961,,255,255,255 F,2,143961,144561,0.7,0 S,1,143961,144561,1.14,1.9
Sprite,Foreground,Centre,"sb\s.png",337,274 C,0,144129,,255,255,255 F,2,144129,144729,0.7,0 S,1,144129,144729,1.14,1.9
Sprite,Foreground,Centre,"sb\s.png",490,324 C,0,144298,,255,255,255 F,2,144298,144898,0.7,0 S,1,144298,144898,1.14,1.9
Sprite,Foreground,Centre,"sb\s.png",0,0 C,0,144466,,255,255,255 M,0,144466,144508,564,145,535.569,150.0442 F,2,144466,145318,0.7,0 S,1,144466,145318,1.14,1.9 M,0,144508,144550,535.569,150.0442,507.138,155.0884 M,0,144550,144592,507.138,155.0884,486.1745,173.5839 M,0,144592,144634,486.1745,173.5839,463.0127,188.1059 M,0,144634,144676,463.0127,188.1059,434.5732,193.102 M,0,144676,144718,434.5732,193.102,406.1337,198.0981
Sprite,Foreground,Centre,"sb\s.png",387,202 C,0,144804,,255,255,255 F,2,144804,145404,0.7,0 S,1,144804,145404,1.14,1.9
Sprite,Foreground,Centre,"sb\s.png",0,0 C,0,144972,,255,255,255 M,0,144972,145014,88,97,113.2184,82.9359 F,2,144972,145740,0.7,0 S,1,144972,145740,1.14,1.9 M,0,145014,145056,113.2184,82.9359,138.4368,68.8718 M,0,145056,145098,138.4368,68.8718,148.9956,93.54762 M,0,145098,145140,148.9956,93.54762,158.5858,120.7835
Sprite,Foreground,Centre,"sb\s.png",167,208 C,0,145225,,255,255,255 F,2,145225,145825,0.7,0 S,1,145225,145825,1.14,1.9
Sprite,Foreground,Centre,"sb\s.png",0,0 C,0,145309,,255,255,255 M,0,145309,145351,153,224,157.0689,248.4133 F,2,145309,145993,0.7,0 S,1,145309,145993,1.14,1.9 M,0,145351,145393,157.0689,248.4133,161,272
Sprite,Foreground,Centre,"sb\s.png",0,0 C,0,145478,,255,255,255 M,0,145478,145520,237,343,232.4389,367.3261 F,2,145478,146162,0.7,0 S,1,145478,146162,1.14,1.9 M,0,145520,145562,232.4389,367.3261,228,391
Sprite,Foreground,Centre,"sb\s.png",97,362 C,0,145646,,255,255,255 F,2,145646,146246,0.7,0 S,1,145646,146246,1.14,1.9
Sprite,Foreground,Centre,"sb\s.png",307,268 C,0,145815,,255,255,255 F,2,145815,146415,0.7,0 S,1,145815,146415,1.14,1.9
Sprite,Foreground,Centre,"sb\s.png",0,0 C,0,145983,,255,255,255 M,0,145983,146025,231,412,214.8676,385.8615 F,2,145983,146667,0.7,0 S,1,145983,146667,1.14,1.9 M,0,146025,146067,214.8676,385.8615,208.0714,355.8896
Sprite,Foreground,Centre,"sb\s.png",0,0 C,0,146152,,255,255,255 M,0,146152,146194,133,254,139.8052,224.1864 F,2,146152,146836,0.7,0 S,1,146152,146836,1.14,1.9 M,0,146194,146236,139.8052,224.1864,158.2047,199.7292
Sprite,Foreground,Centre,"sb\s.png",0,0 C,0,146320,,255,255,255 M,0,146320,146362,388,206,383.1273,236.0426 F,2,146320,147088,0.7,0 S,1,146320,147088,1.14,1.9 M,0,146362,146404,383.1273,236.0426,364.4108,259.9005 M,0,146404,146446,364.4108,259.9005,336.2028,271.2554 M,0,146446,146488,336.2028,271.2554,306,267
Sprite,Foreground,Centre,"sb\s.png",260,202 C,0,146573,,255,255,255 F,2,146573,147173,0.7,0 S,1,146573,147173,1.14,1.9
Sprite,Foreground,Centre,"sb\s.png",272,183 C,0,146657,,255,255,255 F,2,146657,147257,0.7,0 S,1,146657,147257,1.14,1.9
Sprite,Foreground,Centre,"sb\s.png",441,144 C,0,146826,,255,255,255 F,2,146826,147426,0.7,0 S,1,146826,147426,1.14,1.9
Sprite,Foreground,Centre,"sb\s.png",530,292 C,0,146995,,255,255,255 F,2,146995,147595,0.7,0 S,1,146995,147595,1.14,1.9
Sprite,Foreground,Centre,"sb\s.png",416,422 C,0,147163,,255,255,255 F,2,147163,147763,0.7,0 S,1,147163,147763,1.14,1.9
Sprite,Foreground,Centre,"sb\s.png",0,0 C,0,147332,,255,255,255 M,0,147332,147374,324,283,353.5229,292.2481 F,2,147332,148016,0.7,0 S,1,147332,148016,1.14,1.9 M,0,147374,147416,353.5229,292.2481,383.0458,301.4963
Sprite,Foreground,Centre,"sb\s.png",508,388 C,0,147500,,255,255,255 F,2,147500,148100,0.7,0 S,1,147500,148100,1.14,1.9
Sprite,Foreground,Centre,"sb\s.png",384,206 C,0,147669,,255,255,255 F,2,147669,148269,0.7,0 S,1,147669,148269,1.14,1.9
Sprite,Foreground,Centre,"sb\s.png",0,0 C,0,147837,,255,255,255 M,0,147837,147879,503,302,478.4853,305.4048 F,2,147837,148774,0.7,0 S,1,147837,148774,1.14,1.9 M,0,147879,147921,478.4853,305.4048,453.9706,308.8096 M,0,147921,147963,453.9706,308.8096,429.7469,312.9273 M,0,147963,148005,429.7469,312.9273,409.8518,327.6497 M,0,148005,148047,409.8518,327.6497,389.9567,342.372 M,0,148047,148089,389.9567,342.372,367.5952,351.3405 M,0,148089,148131,367.5952,351.3405,343.2141,355.5975 M,0,148131,148174,343.2141,355.5975,318.8329,359.8546
Sprite,Foreground,Centre,"sb\s.png",219,421 C,0,148343,,255,255,255 F,2,148343,148943,0.7,0 S,1,148343,148943,1.14,1.9
Sprite,Foreground,Centre,"sb\s.png",0,0 C,0,148511,,255,255,255 M,0,148511,148553,102,397,84.46397,382.6854 F,2,148511,149448,0.7,0 S,1,148511,149448,1.14,1.9 M,0,148553,148595,84.46397,382.6854,71.43228,364.2249 M,0,148595,148637,71.43228,364.2249,64.93554,342.5912 M,0,148637,148679,64.93554,342.5912,64.9622,319.9662 M,0,148679,148721,64.9622,319.9662,69.83733,297.8393 M,0,148721,148763,69.83733,297.8393,83.17676,290.3016 M,0,148763,148805,83.17676,290.3016,103.7194,299.931 M,0,148805,148848,103.7194,299.931,124.262,309.5603
Sprite,Foreground,Centre,"sb\s.png",402,308 C,0,149017,,255,255,255 F,2,149017,149617,0.7,0 S,1,149017,149617,1.14,1.9
Sprite,Foreground,Centre,"sb\s.png",435,277 C,0,149101,,255,255,255 F,2,149101,149701,0.7,0 S,1,149101,149701,1.14,1.9
Sprite,Foreground,Centre,"sb\s.png",448,234 C,0,149185,,255,255,255 F,2,149185,149785,0.7,0 S,1,149185,149785,1.14,1.9
Sprite,Foreground,Centre,"sb\s.png",439,191 C,0,149270,,255,255,255 F,2,149270,149870,0.7,0 S,1,149270,149870,1.14,1.9
Sprite,Foreground,Centre,"sb\s.png",0,0 C,0,149354,,255,255,255 M,0,149354,149396,409,157,386.8583,161.9465 F,2,149354,150122,0.7,0 S,1,149354,150122,1.14,1.9 M,0,149396,149438,386.8583,161.9465,364.7166,166.8931 M,0,149438,149480,364.7166,166.8931,342.575,171.8396 M,0,149480,149522,342.575,171.8396,320.4333,176.7862
Sprite,Foreground,Centre,"sb\s.png",134,222 C,0,149607,,255,255,255 F,2,149607,150207,0.7,0 S,1,149607,150207,1.14,1.9
Sprite,Foreground,Centre,"sb\s.png",0,0 C,0,149691,,255,255,255 M,0,149691,149733,148,227,171.5148,234.7213 F,2,149691,150375,0.7,0 S,1,149691,150375,1.14,1.9 M,0,149733,149775,171.5148,234.7213,195.0295,242.4425
Sprite,Foreground,Centre,"sb\s.png",322,275 C,0,149860,,255,255,255 F,2,149860,150460,0.7,0 S,1,149860,150460,1.14,1.9
Sprite,Foreground,Centre,"sb\s.png",286,94 C,0,150028,,255,255,255 F,2,150028,150628,0.7,0 S,1,150028,150628,1.14,1.9
Sprite,Foreground,Centre,"sb\s.png",111,134 C,0,150197,,255,255,255 F,2,150197,150797,0.7,0 S,1,150197,150797,1.14,1.9
Sprite,Foreground,Centre,"sb\s.png",241,165 C,0,150365,,255,255,255 F,2,150365,150965,0.7,0 S,1,150365,150965,1.14,1.9
Sprite,Foreground,Centre,"sb\s.png",380,118 C,0,150534,,255,255,255 F,2,150534,151134,0.7,0 S,1,150534,151134,1.14,1.9
Sprite,Foreground,Centre,"sb\s.png",397,127 C,0,150618,,255,255,255 F,2,150618,151218,0.7,0 S,1,150618,151218,1.14,1.9
Sprite,Foreground,Centre,"sb\s.png",0,0 C,0,150702,,255,255,255 M,0,150702,150744,414,136,436.8009,126.3729 F,2,150702,151470,0.7,0 S,1,150702,151470,1.14,1.9 M,0,150744,150786,436.8009,126.3729,459.625,117.1902 M,0,150786,150828,459.625,117.1902,483.3027,124.3965 M,0,150828,150870,483.3027,124.3965,506.9803,131.6027
Sprite,Foreground,Centre,"sb\s.png",0,0 C,0,151039,,255,255,255 M,0,151039,151081,285,295,262.2647,281.0237 F,2,151039,151723,0.7,0 S,1,151039,151723,1.14,1.9 M,0,151081,151123,262.2647,281.0237,235.4661,281.8882
Sprite,Foreground,Centre,"sb\s.png",0,0 C,0,151208,,255,255,255 M,0,151208,151250,169,212,140.6511,217.4869 F,2,151208,151892,0.7,0 S,1,151208,151892,1.14,1.9 M,0,151250,151292,140.6511,217.4869,120,237
Sprite,Foreground,Centre,"sb\s.png",239,363 C,0,151377,,255,255,255 F,2,151377,151977,0.7,0 S,1,151377,151977,1.14,1.9
Sprite,Foreground,Centre,"sb\s.png",467,276 C,0,151545,,255,255,255 F,2,151545,152145,0.7,0 S,1,151545,152145,1.14,1.9
Sprite,Foreground,Centre,"sb\s.png",393,376 C,0,151714,,255,255,255 F,2,151714,152314,0.7,0 S,1,151714,152314,1.14,1.9
Sprite,Foreground,Centre,"sb\s.png",387,341 C,0,151798,,255,255,255 F,2,151798,152398,0.7,0 S,1,151798,152398,1.14,1.9
Sprite,Foreground,Centre,"sb\s.png",382,307 C,0,151882,,255,255,255 F,2,151882,152482,0.7,0 S,1,151882,152482,1.14,1.9
Sprite,Foreground,Centre,"sb\s.png",377,273 C,0,151966,,255,255,255 F,2,151966,152566,0.7,0 S,1,151966,152566,1.14,1.9
//Storyboard Layer 4 (Overlay)
//Storyboard Sound Samples

[TimingPoints]
702,337.078651685393,4,2,1,50,1,0
1040,337.078651685393,4,2,1,50,1,0
1040,-200,4,2,1,50,0,0
4579,-142.857142857143,4,2,1,50,0,0
6433,-200,4,2,1,50,0,0
7781,-142.857142857143,4,2,1,50,0,0
8792,-200,4,2,1,50,0,0
10478,-153.846153846153,4,2,1,50,0,0
11489,-80,4,2,1,50,0,0
11742,-80,4,2,1,50,0,0
11826,-133.333333333333,4,2,6,60,0,0
13174,-105.263157894737,4,2,6,60,0,0
14523,-133.333333333334,4,2,6,60,0,0
15197,-105.263157894737,4,2,6,60,0,0
15871,-133.333333333334,4,2,6,60,0,0
16545,-125,4,2,6,60,0,0
16882,-100,4,2,6,60,0,0
17051,-125,4,2,6,5,0,0
17219,-133.333333333333,4,2,6,60,0,0
18568,-153.846153846153,4,2,6,60,0,0
19242,-133.333333333333,4,2,6,60,0,0
19916,-95.2380952380951,4,2,6,60,0,0
20422,-250,4,2,6,60,0,0
20927,-133.333333333333,4,2,6,60,0,0
21264,-153.846153846153,4,2,6,60,0,0
22275,-222.222222222221,4,2,6,60,0,0
22528,-222.222222222221,4,2,6,60,0,0
22613,-111.111111111111,4,2,6,60,0,0
24972,-79.9999999999999,4,2,6,60,0,0
25225,-79.9999999999999,4,2,6,60,0,0
25309,-105.263157894737,4,2,6,60,0,0
26320,-133.333333333333,4,2,6,60,0,0
26657,-105.263157894737,4,2,6,60,0,0
27332,-133.333333333333,4,2,6,60,0,0
27669,-117.647058823529,4,2,6,60,0,0
27922,-117.647058823529,4,2,6,60,0,0
28006,-133.333333333333,4,2,6,60,0,0
29354,-133.333333333333,4,2,6,60,0,0
29860,-79.9999999999999,4,2,6,60,0,0
30197,-133.333333333333,4,2,6,60,0,0
30702,-117.647058823529,4,2,6,60,0,0
31208,-133.333333333333,4,2,6,60,0,0
32051,-86.9565217391303,4,2,6,60,0,0
32304,-86.9565217391303,4,2,6,60,0,0
32388,-133.333333333333,4,2,6,60,0,0
32725,-79.9999999999999,4,2,6,60,0,0
32978,-79.9999999999999,4,2,6,60,0,0
33062,-95.238095238095,4,2,6,60,0,0
33315,-95.238095238095,4,2,6,60,0,0
33399,-105.263157894737,4,2,6,65,0,0
34410,-80.0000000000001,4,2,6,65,0,0
34663,-80.0000000000001,4,2,6,65,0,0
34747,-105.263157894737,4,2,6,65,0,0
35759,-86.9565217391306,4,2,6,65,0,0
36011,-86.9565217391306,4,2,6,65,0,0
36096,-181.818181818182,4,2,6,65,0,0
36770,-117.647058823529,4,2,6,65,0,0
37107,-86.9565217391302,4,2,6,65,0,0
37360,-86.9565217391302,4,2,6,65,0,0
37444,-105.263157894737,4,2,6,65,0,0
38455,-74.0740740740741,4,2,6,65,0,0
38708,-74.0740740740741,4,2,6,65,0,0
38792,-181.818181818182,4,2,6,65,0,0
39466,-117.64705882353,4,2,6,65,0,0
39804,-86.9565217391307,4,2,6,65,0,0
40056,-86.9565217391307,4,2,6,65,0,0
40141,-105.263157894737,4,2,6,65,0,0
41152,-86.9565217391304,4,2,6,65,0,0
41405,-86.9565217391304,4,2,6,65,0,0
41489,-86.9565217391304,4,2,6,65,0,0
42837,-434.782608695652,4,2,6,65,0,0
42922,-434.782608695652,4,2,6,50,0,0
44860,-100,4,2,6,65,0,0
45534,-95.2380952380951,4,2,6,70,0,0
61377,-86.9565217391304,4,2,6,70,0,0
61629,-86.9565217391304,4,2,6,70,0,0
61714,-95.2380952380952,4,2,6,70,0,0
65759,-80,4,2,6,70,0,0
66348,-80,4,2,6,70,0,0
66433,-68.9655172413793,4,2,6,70,0,0
67107,-95.2380952380952,4,2,6,70,0,0
81938,-86.9565217391304,4,2,6,70,0,0
82613,-95.2380952380952,4,2,6,70,0,0
84298,-117.647058823529,4,2,6,70,0,0
84635,-153.846153846153,4,2,6,70,0,0
85309,-117.647058823529,4,2,6,70,0,0
85983,-769.230769230769,4,2,6,70,0,0
86068,-769.230769230769,4,2,6,55,0,0
88006,-133.333333333333,4,2,6,55,0,0
88680,-125,4,2,6,60,0,0
89354,-111.111111111111,4,2,6,60,0,0
90028,-125,4,2,6,60,0,0
97444,-111.111111111111,4,2,6,60,0,0
98118,-125,4,2,6,60,0,0
107556,-111.111111111111,4,2,6,60,0,0
108062,-125,4,2,6,60,0,0
108905,-76.9230769230769,4,2,6,60,0,0
109242,-125,4,2,6,60,0,0
110253,-105.263157894737,4,2,6,65,0,0
111264,-80.0000000000001,4,2,6,65,0,0
111601,-105.263157894737,4,2,6,65,0,0
112613,-86.9565217391306,4,2,6,65,0,0
112950,-181.818181818182,4,2,6,65,0,0
113624,-117.647058823529,4,2,6,65,0,0
113961,-86.9565217391302,4,2,6,65,0,0
114298,-105.263157894737,4,2,6,65,0,0
115309,-74.0740740740741,4,2,6,65,0,0
115646,-181.818181818182,4,2,6,65,0,0
116320,-117.64705882353,4,2,6,65,0,0
116657,-86.9565217391307,4,2,6,65,0,0
116995,-105.263157894737,4,2,6,65,0,0
118006,-86.9565217391304,4,2,6,65,0,0
119354,-80,4,2,6,65,0,0
119691,-434.782608695652,4,2,6,65,0,0
119775,-434.782608695652,4,2,6,50,0,0
121714,-100,4,2,6,65,0,0
122388,-95.2380952380951,4,2,6,70,0,0
139916,-153.846153846154,4,2,6,70,0,0
140843,-153.846153846154,4,2,6,70,0,0
140927,-86.9565217391304,4,2,6,70,0,1
141264,-76.9230769230769,4,2,6,75,0,1
142275,-90.9090909090909,4,2,6,75,0,1
143624,-76.9230769230769,4,2,6,75,0,1
144466,-71.4285714285714,4,2,6,75,0,1
145309,-83.3333333333333,4,2,6,75,0,1
145983,-66.6666666666667,4,2,6,75,0,1
147837,-83.3333333333333,4,2,6,75,0,1
148343,-90.9090909090909,4,2,6,75,0,1
149691,-83.3333333333333,4,2,6,75,0,1
151039,-76.9230769230769,4,2,6,75,0,1
151208,-71.4285714285714,4,2,6,75,0,1
152051,-68.9655172413793,4,2,6,65,0,0
152556,-80,4,2,6,65,0,0
153062,-64.5161290322581,4,2,6,65,0,0
153399,-117.647058823529,4,2,6,65,0,0
153905,-86.9565217391302,4,2,6,65,0,0
154747,-80,4,2,6,65,0,0
155253,-68.9655172413793,4,2,6,65,0,0
155759,-100,4,2,6,65,0,0
156096,-76.9230769230769,4,2,6,65,0,0
156770,-100,4,2,6,65,0,0
157950,-90.9090909090909,4,2,6,65,0,0
158792,-100,4,2,6,65,0,0
159298,-83.3333333333333,4,2,6,65,0,0
160141,-76.9230769230769,4,2,6,65,0,0
160646,-90.9090909090909,4,2,6,65,0,0
161152,-83.3333333333333,4,2,6,65,0,0
162669,-200,4,2,6,65,0,0
162837,-90.9090909090909,4,2,6,65,0,0
163343,-83.3333333333333,4,2,6,65,0,0
164691,-90.9090909090909,4,2,6,65,0,0
165534,-83.3333333333333,4,2,6,65,0,0
166882,-90.9090909090909,4,2,6,65,0,0
169579,-83.3333333333333,4,2,6,65,0,0
170927,-90.9090909090909,4,2,6,65,0,0
172275,-83.3333333333333,4,2,6,65,0,0
174298,-100,4,2,6,65,0,0
175983,-83.3333333333333,4,2,6,65,0,0
176320,-100,4,2,6,65,0,0
180365,-83.3333333333333,4,2,6,65,0,0
180871,-100,4,2,6,65,0,0
181714,-90.9090909090909,4,2,6,65,0,0
182725,-76.9230769230769,4,2,6,65,0,0
183062,-90.9090909090909,4,2,6,65,0,0
184073,-111.111111111111,4,2,6,65,0,0
184157,-90.9090909090909,4,2,6,65,0,0
184410,-90.9090909090909,4,2,6,65,0,0
184579,-100,4,2,6,65,0,0
185422,-66.6666666666667,4,2,6,65,0,0
185759,-95.2380952380952,4,2,6,70,0,1
189466,-86.9565217391304,4,2,6,70,0,1
191152,-95.2380952380952,4,2,6,70,0,1
206826,-95.2380952380952,4,2,6,70,0,0
207332,-76.9230769230769,4,2,6,70,0,1
207837,-90.9090909090909,4,2,6,70,0,1
222163,-83.3333333333333,4,2,6,70,0,1
223511,-90.9090909090909,4,2,6,70,0,1
227219,-76.9230769230769,4,2,6,70,0,1
228905,-90.9090909090909,4,2,6,70,0,1
239186,-71.4285714285714,4,2,6,70,0,0
239691,-90.9090909090909,4,2,6,70,0,1
242051,-71.4285714285714,4,2,6,70,0,1
242725,-90.9090909090909,4,2,6,70,0,1
244410,-90.9090909090909,4,2,6,70,0,1
246096,-76.9230769230769,4,2,6,70,0,1
246433,-90.9090909090909,4,2,6,70,0,1
247444,-76.9230769230769,4,2,6,70,0,1
247781,-95.2380952380952,4,2,6,70,0,1
249804,-86.9565217391304,4,2,6,70,0,1
252500,-125,4,2,1,70,0,0
253174,-250,4,2,1,70,0,0
259916,-288.184438040346,4,2,1,5,0,0

[Colours]
Combo1 : 102,188,255
Combo2 : 64,113,200
Combo3 : 250,67,255
Combo4 : 191,41,255

[HitObjects]
84,113,702,53,2,0:0:0:0:
84,113,871,1,2,0:0:0:0:
84,113,1040,2,0,L|64:206,1,82.5,2|0,0:1|0:0,0:0:0:0:
165,182,1714,2,0,L|181:262,1,82.5,2|0,0:0|0:0,0:0:0:0:
88,287,2388,6,0,L|71:367,2,82.5,2|0|2,0:0|0:0|0:0,0:0:0:0:
219,93,3399,2,0,L|207:35,1,41.25
207,35,3652,1,0,0:0:0:0:
204,17,3736,2,0,P|239:55|348:71,1,165,2|2,0:3|0:1,0:0:0:0:
423,126,4579,2,0,P|458:113|478:92,1,57.7499982376099,0|2,0:0|0:3,0:0:0:0:
335,167,4916,38,0,P|317:206|326:279,1,115.49999647522,2|2,0:0|0:0,0:0:0:0:
425,333,5422,2,0,P|435:276|414:223,1,115.49999647522,2|2,0:0|0:0,0:0:0:0:
204,17,6096,1,0,0:0:0:0:
305,9,6264,5,0,0:0:0:0:
305,9,6348,1,0,0:0:0:0:
305,9,6433,2,0,P|287:46|284:87,1,82.5,2|0,0:3|0:0,0:0:0:0:
173,171,7107,2,0,P|170:130|152:93,1,82.5,2|2,0:0|0:0,0:0:0:0:
68,57,7613,1,2,0:0:0:0:
68,57,7781,1,2,0:3:0:0:
195,279,8118,38,0,B|241:266|265:230|265:230|300:254|353:248,1,173.24999471283,2|0,0:0|0:0,0:0:0:0:
436,287,8792,2,0,L|444:231,1,41.25,2|0,0:0|0:0,0:0:0:0:
325,159,9129,6,0,L|311:70,1,82.5,2|2,0:3|0:0,0:0:0:0:
426,90,9804,2,0,L|439:1,1,82.5,2|0,0:0|0:0,0:0:0:0:
242,18,10309,37,2,0:0:0:0:
242,18,10393,1,2,0:0:0:0:
242,18,10478,2,0,P|221:69|220:121,1,107.249995090485,2|2,0:3|0:0,0:0:0:0:
178,252,11152,2,0,P|175:224|166:198,1,53.6249975452424,2|0,0:0|0:0,0:0:0:0:
80,153,11405,5,0,0:0:0:0:
89,160,11489,2,0,P|164:170|220:120,1,154.6875,4|0,0:0|0:0,0:0:0:0:
328,3,11826,38,0,L|338:67,1,61.875002360344,6|2,1:0|0:0,0:0:0:0:
421,113,12163,2,0,L|431:51,1,61.875002360344,2|2,0:0|0:0,0:0:0:0:
341,160,12500,6,0,L|351:221,1,61.875002360344,2|2,0:3|0:0,0:0:0:0:
248,270,12837,2,0,L|258:205,1,61.875002360344,2|2,0:0|0:0,0:0:0:0:
464,374,13174,38,0,P|406:324|329:314,2,156.749995814324,2|2|0,0:1|0:0|0:0,0:0:0:0:
248,270,14186,1,2,1:2:0:0:
327,218,14354,1,2,0:0:0:0:
219,120,14523,6,0,B|117:105|141:173|45:162,1,185.625007081032,2|0,1:0|1:0,0:0:0:0:
147,230,15197,2,0,B|156:267|156:267|147:308,1,78.3749979071618,2|0,0:3|0:0,0:0:0:0:
70,76,15534,2,0,B|61:39|61:39|70:-2,1,78.3749979071618,2|0,1:2|0:0,0:0:0:0:
219,120,15787,37,2,0:0:0:0:
232,123,15871,2,0,L|354:143,1,123.750004720688,2|0,1:0|0:0,0:0:0:0:
354,143,16545,2,0,P|344:176|340:211,1,66,2|0,3:0|0:0,0:0:0:0:
267,294,16882,2,0,P|263:268|242:215,1,82.5
435,64,17219,6,0,P|442:117|468:185,1,123.750004720688,2|2,1:0|0:0,0:0:0:0:
456,291,17725,1,0,0:0:0:0:
456,291,17893,2,0,P|423:281|388:277,1,61.875002360344,2|0,0:3|0:0,0:0:0:0:
293,129,18231,2,0,P|326:139|361:143,1,61.875002360344,2|2,0:0|0:0,0:0:0:0:
179,277,18568,38,0,B|90:264|111:322|25:314,1,160.874992635727,2|0,0:1|0:0,0:0:0:0:
40,188,19242,2,0,L|101:198,1,61.875002360344,2|0,0:3|0:0,0:0:0:0:
161,369,19579,2,0,L|222:359,1,61.875002360344,2|0,1:2|0:0,0:0:0:0:
404,300,19916,6,0,B|393:235|393:235|365:208|365:208|354:140,1,173.24999471283,2|0,1:0|0:0,0:0:0:0:
458,94,20422,2,0,L|445:170,1,66,0|0,1:0|0:0,0:0:0:0:
306,286,20927,2,0,L|318:362,1,61.875002360344,0|0,1:2|0:0,0:0:0:0:
493,351,21264,38,0,P|454:314|402:301,1,107.249995090485,2|10,0:3|0:3,0:0:0:0:
402,301,21938,1,10,1:3:0:0:
222,336,22107,1,8,0:3:0:0:
42,371,22275,2,0,L|51:309,1,55.6874983005524,6|0,1:3|0:0,0:0:0:0:
0,252,22613,6,0,B|56:261|56:261|80:280|80:280|141:290,1,148.49999546814,6|0,1:0|0:0,0:0:0:0:
222,336,23118,1,0,1:0:0:0:
222,336,23287,2,0,P|247:287|242:191,1,148.49999546814,2|0,0:3|0:0,0:0:0:0:
319,128,23792,1,2,0:0:0:0:
118,149,23961,38,0,P|110:222|139:289,1,148.49999546814,10|2,0:2|0:0,0:0:0:0:
409,177,24635,2,0,P|416:103|387:36,1,148.49999546814,2|2,0:3|0:0,0:0:0:0:
313,222,25309,6,0,B|227:233|248:176|164:188,1,156.749995814324,2|0,1:0|0:0,0:0:0:0:
165,187,25815,1,2,1:2:0:0:
87,136,25983,2,0,L|74:215,1,78.3749979071618,2|0,0:3|0:0,0:0:0:0:
214,345,26320,2,0,L|202:271,1,61.875002360344
340,384,26657,38,0,P|287:330|213:344,1,156.749995814324,10|2,0:0|0:3,0:0:0:0:
431,260,27163,1,8,0:3:0:0:
431,260,27332,2,0,P|406:289|403:319,1,61.875002360344,2|0,0:3|0:0,0:0:0:0:
274,224,27669,2,0,P|320:222|365:176,1,105.187502006292,6|0,0:3|0:0,0:0:0:0:
361,184,28006,6,0,L|339:44,1,123.750004720688,2|0,1:0|0:0,0:0:0:0:
250,84,28511,1,2,1:2:0:0:
250,84,28680,2,0,P|198:79|155:22,1,123.750004720688,2|0,0:3|0:0,0:0:0:0:
341,61,29186,1,2,0:0:0:0:
246,177,29354,38,0,B|238:224|238:224|222:245|222:245|213:296,2,123.750004720688,10|2|2,0:0|0:0|0:3,0:0:0:0:
317,351,30365,2,0,L|306:289,1,61.875002360344,2|0,0:0|0:0,0:0:0:0:
176,133,30702,6,0,B|100:123|116:171|41:167,1,140.250002675056,2|0,1:0|0:0,0:0:0:0:
5,56,31208,1,2,1:2:0:0:
5,56,31377,2,0,L|66:66,1,61.875002360344,2|0,0:3|0:0,0:0:0:0:
161,225,31629,1,0,0:0:0:0:
172,222,31714,2,0,L|233:211,1,61.875002360344,2|0,0:0|1:0,0:0:0:0:
189,312,32051,38,0,P|160:270|69:264,1,142.312502714396,8|0,0:0|0:0,0:0:0:0:
74,261,32388,2,0,L|85:322,1,61.875002360344,2|8,0:0|0:3,0:0:0:0:
318,197,32725,6,0,B|349:184|375:187|375:187|399:162|399:162|432:167|460:155,1,154.6875,10|0,1:3|0:0,0:0:0:0:
394,42,33062,38,0,P|337:43|332:111,1,129.937496034622,4|0,0:3|0:0,0:0:0:0:
445,232,33399,6,0,L|458:154,1,78.3749979071618,6|0,1:0|0:0,0:0:0:0:
243,141,33736,1,2,0:0:0:0:
243,141,33905,38,0,L|229:63,1,78.3749979071618,2|2,0:1|0:3,0:0:0:0:
366,189,34242,1,0,1:0:0:0:
381,38,34410,6,0,B|351:112|393:126|365:193,1,154.6875,10|0,0:0|0:0,0:0:0:0:
262,309,34747,2,0,B|270:269|270:269|261:232,1,78.3749979071618,2|0,1:0|0:0,0:0:0:0:
153,106,35084,2,0,B|144:145|144:145|153:182,1,78.3749979071618,0|2,0:0|1:0,0:0:0:0:
95,329,35422,2,0,B|103:289|103:289|94:252,1,78.3749979071618,2|0,0:3|1:0,0:0:0:0:
125,24,35759,38,0,P|160:71|253:84,1,142.312502714396,10|0,0:0|0:0,0:0:0:0:
238,88,36096,6,0,L|254:-5,1,90.7500027694703,6|2,1:0|0:0,0:0:0:0:
253,0,36601,1,2,0:1:0:0:
57,167,36770,2,0,L|40:73,1,70.1250013375282,2|0,0:3|1:0,0:0:0:0:
261,232,37107,38,0,B|339:220|319:271|397:259,1,142.312502714396,10|0,0:0|0:0,0:0:0:0:
396,259,37444,2,0,L|381:341,1,78.3749979071618,2|0,1:0|0:0,0:0:0:0:
481,223,37781,1,0,0:0:0:0:
481,223,37950,2,0,B|489:183|489:183|480:146,1,78.3749979071618,2|2,1:0|0:3,0:0:0:0:
221,312,38287,1,0,1:0:0:0:
396,259,38455,6,0,B|331:270|331:270|302:298|302:298|236:309,1,167.062500637293,10|0,0:0|0:0,0:0:0:0:
168,242,38792,38,0,L|74:225,1,90.7500027694703,6|2,1:0|0:0,0:0:0:0:
78,225,39298,1,2,0:1:0:0:
152,372,39466,2,0,L|82:384,1,70.1250013375282,2|0,0:3|1:0,0:0:0:0:
171,147,39804,2,0,P|222:156|254:254,1,142.312502714396,10|0,0:0|0:0,0:0:0:0:
280,234,40141,6,0,P|279:191|254:154,1,78.3749979071618,2|0,1:0|0:0,0:0:0:0:
97,83,40478,2,0,P|54:87|19:115,1,78.3749979071618,2|0,0:0|1:0,0:0:0:0:
129,278,40815,37,2,0:3:0:0:
170,146,40983,1,0,1:0:0:0:
129,278,41152,6,0,B|138:227|138:227|161:199|161:199|170:144,1,142.312502714396,8|0,0:0|0:0,0:0:0:0:
172,129,41489,37,6,1:2:0:0:
217,298,41657,1,8,0:0:0:0:
280,234,41826,1,2,0:0:0:0:
97,83,41995,1,8,0:3:0:0:
97,83,42079,1,8,0:3:0:0:
97,83,42163,1,10,0:3:0:0:
203,384,42332,1,8,0:3:0:0:
361,264,42500,1,4,0:3:0:0:
129,278,42669,5,6,0:0:0:0:
129,278,42753,1,2,0:0:0:0:
129,278,42837,38,0,B|244:270|202:195|325:192,1,218.212492674752,4|0,1:0|0:0,0:0:0:0:
401,149,44860,6,0,P|406:122|421:99,2,55,10|2|2,0:0|0:0|0:0,0:0:0:0:
343,241,45197,2,0,P|327:218|321:191,2,55,2|2|2,0:3|0:0|0:0,0:0:0:0:
183,118,45534,6,0,P|244:131|332:60,1,173.24999471283,6|8,1:0|0:0,0:0:0:0:
480,304,46039,2,0,B|387:288|412:347|313:334,1,173.24999471283,2|0,1:0|0:0,0:0:0:0:
225,294,46545,2,0,P|211:247|209:189,1,86.6249973564149,10|0,0:0|0:0,0:0:0:0:
400,9,46882,6,0,P|414:56|416:114,1,86.6249973564149,2|0,1:0|0:0,0:0:0:0:
120,209,47219,1,10,0:0:0:0:
228,129,47388,1,2,1:0:0:0:
298,238,47556,2,0,L|402:259,1,86.6249973564149,2|0,0:3|1:0,0:0:0:0:
240,41,47893,2,0,B|175:57|175:57|150:89|150:89|86:104,1,173.24999471283,10|2,0:0|1:0,0:0:0:0:
403,349,48568,38,0,L|318:331,1,86.6249973564149,10|2,0:0|0:1,0:0:0:0:
269,255,48905,1,2,0:3:0:0:
166,320,49073,1,0,1:0:0:0:
5,272,49242,2,0,L|89:254,1,86.6249973564149,10|0,0:0|0:0,0:0:0:0:
89,254,49495,1,8,0:1:0:0:
89,254,49579,1,2,1:0:0:0:
407,61,49916,5,8,0:0:0:0:
330,106,50084,2,0,B|316:62|316:62|328:9,1,86.6249973564149,2|2,1:0|0:3,0:0:0:0:
146,89,50422,1,2,1:2:0:0:
186,159,50590,2,0,B|200:203|200:203|188:256,1,86.6249973564149,10|2,0:0|0:0,0:0:0:0:
185,259,50843,1,8,0:0:0:0:
180,275,50927,38,0,B|249:287|249:287|276:316|276:316|337:330,1,173.24999471283,6|8,1:0|0:0,0:0:0:0:
200,361,51433,1,2,0:1:0:0:
30,237,51601,2,0,P|68:218|110:206,1,86.6249973564149,2|0,0:3|1:0,0:0:0:0:
320,233,51938,1,10,0:0:0:0:
320,233,52023,1,2,0:0:0:0:
320,233,52107,1,2,0:0:0:0:
320,233,52191,1,2,0:0:0:0:
319,233,52275,6,0,P|376:170|379:86,1,173.24999471283,2|8,1:0|0:0,0:0:0:0:
203,30,52781,1,2,1:0:0:0:
132,127,52950,37,2,0:3:0:0:
213,17,53118,1,2,1:2:0:0:
114,34,53287,1,10,0:0:0:0:
230,114,53455,1,2,0:0:0:0:
100,225,53624,6,0,L|124:135,1,86.6249973564149,2|0,1:0|0:0,0:0:0:0:
27,325,53961,1,8,0:0:0:0:
189,218,54129,1,2,0:1:0:0:
11,239,54298,2,0,B|105:246|80:289|169:303,1,173.24999471283,2|8,0:3|0:0,0:0:0:0:
419,304,54804,1,2,0:0:0:0:
419,304,54888,1,8,0:1:0:0:
419,304,54972,38,0,P|377:289|334:284,1,86.6249973564149,2|0,1:0|0:0,0:0:0:0:
269,234,55309,1,8,0:0:0:0:
168,303,55478,1,2,1:0:0:0:
77,159,55646,2,0,P|118:144|161:139,1,86.6249973564149,2|0,0:3|1:0,0:0:0:0:
296,74,55983,2,0,P|310:115|315:158,1,86.6249973564149,8|0,0:0|0:0,0:0:0:0:
179,382,56320,6,0,P|138:328|155:201,1,173.24999471283,6|8,1:0|0:0,0:0:0:0:
447,204,56826,2,0,B|355:194|384:250|281:241,1,173.24999471283,2|0,0:1|1:0,0:0:0:0:
103,141,57332,2,0,P|94:92|83:52,1,86.6249973564149,10|0,0:0|0:0,0:0:0:0:
79,39,57584,1,8,0:1:0:0:
72,22,57669,38,0,L|170:34,1,86.6249973564149,2|0,1:0|0:0,0:0:0:0:
211,177,58006,1,10,0:0:0:0:
97,263,58174,1,2,1:0:0:0:
325,305,58343,2,0,P|333:256|345:216,1,86.6249973564149,2|0,0:3|1:0,0:0:0:0:
423,152,58680,2,0,P|364:143|287:51,1,173.24999471283,10|6,0:0|1:0,0:0:0:0:
93,251,59354,5,10,0:0:0:0:
173,294,59523,1,0,1:0:0:0:
53,327,59691,1,14,0:1:0:0:
207,213,59860,1,0,1:0:0:0:
27,181,60028,1,10,0:0:0:0:
246,364,60197,1,8,0:0:0:0:
246,364,60281,1,8,0:0:0:0:
246,364,60365,1,6,1:0:0:0:
392,29,60702,37,8,0:0:0:0:
313,60,60871,2,0,L|303:146,1,86.6249973564149,2|2,1:0|0:3,0:0:0:0:
173,260,61208,1,0,1:0:0:0:
261,277,61377,2,0,B|246:219|246:219|229:198|229:198|213:139,1,142.312502714396,10|0,0:0|0:0,0:0:0:0:
214,144,61714,6,0,L|128:134,1,86.6249973564149,2|0,1:0|0:0,0:0:0:0:
86,270,62051,2,0,L|172:259,1,86.6249973564149,8|2,0:0|0:1,0:0:0:0:
118,50,62388,1,2,0:3:0:0:
51,178,62556,1,0,1:0:0:0:
295,185,62725,2,0,B|305:140|305:140|294:97,1,86.6249973564149,8|0,0:0|0:0,0:0:0:0:
431,260,63062,38,0,B|421:305|421:305|432:348,1,86.6249973564149,2|0,1:0|0:0,0:0:0:0:
435,361,63315,1,0,0:0:0:0:
440,377,63399,1,10,0:0:0:0:
311,276,63568,2,0,B|255:269|255:269|219:237|219:237|151:229,1,173.24999471283,2|0,1:0|1:0,0:0:0:0:
391,181,64073,2,0,L|484:154,1,86.6249973564149,10|0,0:0|0:0,0:0:0:0:
225,41,64410,6,0,P|209:81|205:124,1,86.6249973564149,2|0,1:0|0:0,0:0:0:0:
288,289,64747,1,8,0:0:0:0:
457,338,64916,2,0,P|412:288|296:281,1,173.24999471283,2|0,0:1|1:0,0:0:0:0:
53,256,65422,1,8,0:0:0:0:
179,199,65590,1,0,0:0:0:0:
81,132,65759,38,0,P|86:157|91:182,1,51.5625,2|0,1:0|0:0,0:0:0:0:
145,281,65927,2,0,P|139:306|134:331,1,51.5625,0|0,1:0|0:0,0:0:0:0:
213,375,66096,2,0,P|230:320|340:277,1,154.6875,14|0,0:0|0:0,0:0:0:0:
310,274,66433,6,0,P|338:284|372:294,1,59.8125018253327,2|0,1:0|0:0,0:0:0:0:
398,132,66601,1,8,0:0:0:0:
380,115,66686,1,8,0:0:0:0:
359,102,66770,2,0,P|330:91|297:82,1,59.8125018253327,10|0,1:2|0:0,0:0:0:0:
252,171,66938,1,8,0:0:0:0:
252,171,67023,1,8,0:0:0:0:
252,171,67107,38,0,B|350:164|318:216|415:215,1,173.24999471283,6|8,1:0|0:0,0:0:0:0:
27,279,67613,2,0,P|22:194|72:126,1,173.24999471283,2|0,1:0|0:0,0:0:0:0:
163,151,68118,2,0,P|170:193|190:232,1,86.6249973564149,10|0,0:0|0:0,0:0:0:0:
398,132,68455,6,0,P|390:89|370:50,1,86.6249973564149,2|0,1:0|0:0,0:0:0:0:
112,265,68792,1,10,0:0:0:0:
245,293,68961,1,2,1:0:0:0:
260,170,69129,2,0,L|272:74,1,86.6249973564149,2|0,0:3|1:0,0:0:0:0:
402,350,69466,2,0,B|340:336|340:336|312:306|312:306|235:291,1,173.24999471283,10|2,0:0|1:0,0:0:0:0:
56,114,70141,38,0,P|99:109|141:101,1,86.6249973564149,10|2,0:0|0:1,0:0:0:0:
204,40,70478,1,2,0:3:0:0:
307,138,70646,1,0,1:0:0:0:
462,90,70815,2,0,P|419:82|376:77,1,86.6249973564149,10|0,0:0|0:0,0:0:0:0:
376,77,71068,1,8,0:1:0:0:
376,77,71152,1,2,1:0:0:0:
334,273,71489,5,8,0:0:0:0:
499,339,71657,2,0,P|440:276|356:261,1,173.24999471283,2|2,1:0|1:2,0:0:0:0:
204,378,72163,2,0,B|190:335|190:335|201:288,1,86.6249973564149,10|2,0:0|0:0,0:0:0:0:
204,278,72416,1,8,0:1:0:0:
209,261,72500,2,0,B|110:258|142:304|42:297,1,173.24999471283,6|8,1:0|0:0,0:0:0:0:
282,322,73006,1,2,0:1:0:0:
285,207,73174,2,0,P|248:183|207:170,1,86.6249973564149,2|0,0:3|1:0,0:0:0:0:
118,372,73511,1,8,0:0:0:0:
367,376,73680,1,0,0:0:0:0:
367,376,73764,1,8,0:1:0:0:
367,375,73848,38,0,P|422:310|423:225,1,173.24999471283,2|8,1:0|0:0,0:0:0:0:
187,95,74354,1,2,1:0:0:0:
113,157,74523,2,0,L|95:61,1,86.6249973564149,2|0,0:3|1:0,0:0:0:0:
165,6,74860,1,10,0:0:0:0:
18,127,75028,1,2,0:0:0:0:
249,192,75197,6,0,B|190:201|190:201|157:234|157:234|122:239|90:246,1,173.24999471283,2|8,1:0|0:0,0:0:0:0:
305,293,75702,1,2,0:1:0:0:
369,234,75871,2,0,P|410:246|461:259,1,86.6249973564149,2|0,0:3|1:0,0:0:0:0:
166,311,76208,38,0,P|112:244|110:159,1,173.24999471283,10|2,0:0|1:0,0:0:0:0:
327,47,76714,1,2,1:2:0:0:
153,72,76882,5,10,0:0:0:0:
314,140,77051,1,0,1:0:0:0:
231,111,77219,2,0,L|213:196,1,86.6249973564149,2|0,0:1|1:0,0:0:0:0:
116,201,77556,37,10,0:2:0:0:
314,140,77725,1,8,0:2:0:0:
512,78,77893,22,0,P|427:79|365:21,1,173.24999471283,6|8,1:0|0:0,0:0:0:0:
213,195,78399,2,0,B|144:206|144:206|115:228|115:228|49:239,1,173.24999471283,2|0,1:0|0:0,0:0:0:0:
188,376,78905,2,0,B|178:335|178:335|186:291,1,86.6249973564149,10|0,0:0|0:0,0:0:0:0:
83,53,79242,2,0,B|92:93|92:93|84:137,1,86.6249973564149,2|0,1:0|0:0,0:0:0:0:
282,265,79579,6,0,L|367:283,1,86.6249973564149,10|2,0:0|1:0,0:0:0:0:
84,138,79916,2,0,L|-1:156,1,86.6249973564149,2|0,0:3|1:0,0:0:0:0:
178,8,80253,2,0,L|263:26,1,86.6249973564149,10|0,0:0|0:0,0:0:0:0:
389,161,80506,37,8,0:0:0:0:
376,156,80590,2,0,B|280:142|303:204|212:195,1,173.24999471283,6|10,1:0|0:0,0:0:0:0:
212,195,81096,1,0,1:0:0:0:
409,0,81264,2,0,P|423:41|427:85,1,86.6249973564149,14|0,0:1|1:0,0:0:0:0:
368,339,81601,2,0,P|354:298|350:254,1,86.6249973564149,10|8,0:0|0:0,0:0:0:0:
224,102,81854,5,8,0:0:0:0:
211,104,81938,2,0,B|169:101|140:71|140:71|145:129|108:174,1,189.750003619194,6|8,1:0|0:0,0:0:0:0:
108,173,82444,1,0,1:0:0:0:
12,39,82613,38,0,L|30:124,1,86.6249973564149,2|2,0:3|1:0,0:0:0:0:
213,214,82950,2,0,L|195:299,1,86.6249973564149,10|0,0:0|0:0,0:0:0:0:
114,77,83287,5,2,1:0:0:0:
396,172,83455,1,0,1:0:0:0:
130,360,83624,1,12,0:0:0:0:
297,174,83792,37,8,0:0:0:0:
304,192,83877,1,8,0:0:0:0:
304,208,83961,1,10,0:0:0:0:
213,214,84129,5,8,0:3:0:0:
304,192,84298,1,4,0:3:0:0:
396,172,84466,1,4,0:3:0:0:
338,321,84635,2,0,B|290:313|270:281|270:281|238:305|194:298,1,160.874992635727,6|0,1:0|0:0,0:0:0:0:
2,255,85309,38,0,P|15:160|118:190,1,210.375004012585,2|0,0:0|0:0,0:0:0:0:
213,214,85899,5,0,0:0:0:0:
211,203,85983,2,0,L|195:117,1,85.7999994763184,2|2,1:0|0:3,0:0:0:0:
419,252,87837,37,8,0:0:0:0:
328,235,88006,2,0,B|279:227|279:227|258:211|258:211|211:203,1,123.750004720688,10|4,0:0|1:3,0:0:0:0:
347,384,88680,6,0,L|362:298,1,66,6|2,1:0|0:0,0:0:0:0:
199,138,89017,2,0,L|214:223,1,66,2|2,0:3|0:0,0:0:0:0:
157,273,89354,2,0,B|74:258|96:310|9:299,1,148.49999546814,10|2,0:0|0:3,0:0:0:0:
15,300,89860,1,2,1:2:0:0:
60,177,90028,38,0,L|124:188,1,66,2|0,1:0|0:0,0:0:0:0:
189,357,90365,2,0,L|253:345,1,66,6|0,1:2|0:0,0:0:0:0:
328,235,90702,2,0,B|378:243|378:243|401:260|401:260|454:269,1,132,8|2,0:0|0:3,0:0:0:0:
210,73,91208,5,0,0:0:0:0:
210,73,91292,1,0,0:0:0:0:
210,73,91377,2,0,L|195:158,1,66,2|0,1:0|0:0,0:0:0:0:
328,235,91714,2,0,L|339:170,1,66,2|0,0:3|1:0,0:0:0:0:
512,102,92051,2,0,B|473:95|456:71|456:71|429:89|390:83,1,132,10|2,0:0|0:3,0:0:0:0:
392,83,92556,1,0,1:0:0:0:
168,240,92725,38,0,P|202:233|235:226,1,66,2|0,1:0|0:0,0:0:0:0:
392,83,93062,2,0,P|358:76|325:69,1,66,4|0,1:2|0:0,0:0:0:0:
381,325,93399,5,10,0:0:0:0:
469,297,93568,1,0,0:0:0:0:
198,137,93736,37,2,0:3:0:0:
110,109,93905,1,0,0:0:0:0:
110,109,93989,1,0,0:0:0:0:
110,109,94073,2,0,P|117:75|124:42,1,66,2|2,1:0|0:0,0:0:0:0:
286,165,94410,2,0,P|279:197|272:229,1,66,2|2,0:3|1:2,0:0:0:0:
193,278,94747,6,0,P|149:233|82:229,1,132,10|2,0:0|0:3,0:0:0:0:
84,229,95253,1,2,1:2:0:0:
314,73,95422,38,0,P|340:54|372:46,1,66,2|0,1:0|0:0,0:0:0:0:
198,137,95759,2,0,P|171:118|139:110,1,66,6|0,1:2|0:0,0:0:0:0:
362,224,96096,6,0,P|383:198|411:183,1,66,10|0,0:0|0:0,0:0:0:0:
243,319,96433,38,0,P|221:293|193:278,1,66,2|0,0:3|0:0,0:0:0:0:
355,384,96686,5,8,0:1:0:0:
355,384,96770,2,0,P|348:351|341:319,1,66,2|0,1:0|3:0,0:0:0:0:
211,72,97107,2,0,P|204:104|197:136,1,66,2|0,0:3|1:0,0:0:0:0:
142,208,97444,38,0,B|59:193|81:245|-6:234,1,148.49999546814,14|2,0:0|0:3,0:0:0:0:
0,234,97950,1,0,3:0:0:0:
293,130,98118,2,0,P|325:136|357:143,1,66,6|0,1:2|3:0,0:0:0:0:
139,8,98455,2,0,P|106:14|74:21,1,66,8|0,1:3|3:0,0:0:0:0:
214,308,98792,5,10,0:0:0:0:
317,243,98961,1,8,0:3:0:0:
233,224,99129,1,4,0:3:0:0:
298,327,99298,1,2,0:0:0:0:
225,211,99466,38,0,P|156:196|90:181,1,132,6|2,1:0|0:3,0:0:0:0:
390,304,99972,1,2,1:2:0:0:
390,304,100141,2,0,P|423:293|461:289,1,66,10|0,0:0|0:0,0:0:0:0:
362,86,100478,2,0,P|357:118|347:149,1,66,2|2,0:3|1:2,0:0:0:0:
129,308,100815,6,0,P|104:247|95:181,1,132,2|2,1:0|1:3,0:0:0:0:
110,196,101236,1,0,0:0:0:0:
110,196,101320,1,0,0:0:0:0:
110,196,101405,1,0,0:0:0:0:
110,196,101489,38,0,P|75:188|42:181,1,66,10|0,0:0|0:0,0:0:0:0:
153,110,101826,2,0,P|120:102|88:95,1,66,2|2,0:3|0:0,0:0:0:0:
0,338,102163,6,0,L|131:307,1,132,2|2,1:0|0:3,0:0:0:0:
128,307,102669,1,2,0:0:0:0:
200,247,102837,2,0,B|250:255|250:255|273:272|273:272|326:281,1,132,10|2,0:0|0:3,0:0:0:0:
324,281,103343,1,0,1:0:0:0:
394,349,103511,38,0,P|426:342|458:334,1,66,2|0,1:0|0:0,0:0:0:0:
275,171,103848,2,0,P|242:164|210:156,1,66,2|0,1:3|0:0,0:0:0:0:
64,321,104186,6,0,P|96:314|128:306,1,66,10|0,0:0|0:0,0:0:0:0:
430,182,104523,2,0,P|397:189|365:196,1,66,2|0,1:3|0:0,0:0:0:0:
275,171,104860,38,0,B|263:102|298:111|286:40,1,132,2|2,1:0|0:3,0:0:0:0:
286,41,105365,1,2,1:2:0:0:
184,147,105534,2,0,B|177:113|177:113|184:81,1,66,10|0,0:0|0:0,0:0:0:0:
365,196,105871,2,0,B|371:162|371:162|365:130,1,66,2|2,0:3|1:2,0:0:0:0:
243,270,106208,6,0,B|192:278|192:278|169:295|169:295|116:304,1,132,2|2,1:0|1:3,0:0:0:0:
133,317,106629,1,0,0:0:0:0:
133,317,106714,1,0,0:0:0:0:
133,317,106798,1,0,0:0:0:0:
133,317,106882,2,0,P|139:349|147:383,1,66,10|0,0:0|0:0,0:0:0:0:
30,305,107219,2,0,P|37:272|45:240,1,66,2|0,0:3|0:0,0:0:0:0:
184,147,107556,38,0,B|267:132|245:184|332:173,1,148.49999546814,2|2,1:0|0:3,0:0:0:0:
326,173,108062,1,2,1:2:0:0:
377,67,108231,2,0,P|344:74|312:81,1,66,14|0,0:0|0:0,0:0:0:0:
202,244,108568,2,0,P|169:236|137:229,1,66,2|0,0:3|3:0,0:0:0:0:
3,47,108905,6,0,B|39:47|69:23|69:23|73:77|103:103,1,160.874992635727,2|8,1:3|0:0,0:0:0:0:
184,147,109242,2,0,P|191:114|198:82,2,66,10|8|10,0:0|0:3|0:3,0:0:0:0:
37,298,109747,37,4,0:3:0:0:
37,298,109832,1,0,0:0:0:0:
37,298,109916,1,6,1:3:0:0:
119,271,110084,1,4,0:3:0:0:
202,244,110253,1,6,1:0:0:0:
503,91,110590,22,0,P|464:84|426:73,1,78.3749979071618,2|2,0:3|1:2,0:0:0:0:
409,195,110927,2,0,P|370:201|332:212,1,78.3749979071618,2|0,0:1|1:0,0:0:0:0:
203,75,111264,2,0,B|296:74|263:114|348:118,1,154.6875,10|0,0:0|0:0,0:0:0:0:
348,118,111601,6,0,P|339:66|342:33,1,78.3749979071618,2|0,1:0|0:0,0:0:0:0:
248,241,111938,2,0,P|256:292|253:325,1,78.3749979071618,2|0,0:3|1:0,0:0:0:0:
214,161,112275,1,2,0:1:0:0:
106,327,112444,1,0,1:0:0:0:
5,201,112613,2,0,P|52:151|124:143,1,142.312502714396,8|0,0:0|0:0,0:0:0:0:
122,142,112950,38,0,L|108:36,1,90.7500027694703,6|2,1:0|0:3,0:0:0:0:
110,52,113455,1,2,0:0:0:0:
339,198,113624,2,0,L|352:98,1,70.1250013375282,2|0,0:1|1:0,0:0:0:0:
156,238,113961,2,0,B|100:250|100:250|75:274|75:274|25:284,1,142.312502714396,10|0,0:0|0:0,0:0:0:0:
10,287,114298,5,2,1:0:0:0:
147,332,114466,2,0,L|235:356,1,78.3749979071618,0|2,0:0|0:3,0:0:0:0:
351,227,114804,1,2,1:2:0:0:
438,253,114972,1,2,0:1:0:0:
412,340,115141,1,0,3:0:0:0:
325,314,115309,38,0,L|299:141,1,167.062500637293,8|0,0:0|0:0,0:0:0:0:
300,148,115646,6,0,L|407:120,1,90.7500027694703,6|2,1:0|0:3,0:0:0:0:
387,125,116152,1,2,1:2:0:0:
153,262,116320,2,0,L|230:283,1,70.1250013375282,2|0,0:1|1:0,0:0:0:0:
190,21,116657,2,0,B|163:63|163:63|183:152,1,142.312502714396,10|0,0:0|0:0,0:0:0:0:
184,153,116995,38,0,P|145:168|109:180,1,78.3749979071618,2|0,1:0|0:0,0:0:0:0:
315,344,117332,2,0,P|320:305|328:266,1,78.3749979071618,2|0,0:3|1:0,0:0:0:0:
167,341,117669,5,2,0:1:0:0:
242,222,117837,1,0,1:0:0:0:
167,341,118006,2,0,B|221:283|195:269|243:221,1,142.312502714396,8|0,0:0|0:0,0:0:0:0:
168,150,118343,2,0,P|121:141|67:124,1,94.8750018095971,6|0,1:2|0:0,0:0:0:0:
123,265,118680,37,0,1:0:0:0:
257,128,118848,1,2,3:2:0:0:
335,263,119017,5,10,1:2:0:0:
145,68,119186,1,8,0:0:0:0:
0,215,119354,38,0,P|23:212|62:204,1,51.5625,8|0,1:2|0:0,0:0:0:0:
308,41,119523,1,10,0:0:0:0:
416,332,119691,6,0,B|301:324|343:249|220:246,1,218.212492674752,6|0,1:0|0:0,0:0:0:0:
139,276,121714,37,10,0:0:0:0:
106,254,121798,1,8,0:1:0:0:
87,217,121882,1,8,0:0:0:0:
87,177,121966,1,8,0:0:0:0:
106,141,122051,1,10,0:2:0:0:
140,118,122135,1,8,0:0:0:0:
181,115,122219,1,8,0:0:0:0:
219,130,122304,1,8,0:0:0:0:
244,161,122388,22,0,P|327:171|388:113,1,173.24999471283,6|8,1:0|0:0,0:0:0:0:
512,178,122893,2,0,B|528:85|469:110|481:12,1,173.24999471283,2|0,1:0|0:0,0:0:0:0:
326,35,123399,2,0,L|232:18,1,86.6249973564149,10|0,0:0|0:0,0:0:0:0:
387,113,123652,5,8,0:1:0:0:
389,124,123736,2,0,L|405:217,1,86.6249973564149,2|0,1:0|0:0,0:0:0:0:
295,351,124073,2,0,L|309:265,1,86.6249973564149,10|2,0:0|1:0,0:0:0:0:
497,314,124410,2,0,B|456:304|456:304|412:313,1,86.6249973564149,2|0,0:3|1:0,0:0:0:0:
159,160,124747,2,0,B|199:169|199:169|243:160,1,86.6249973564149,10|0,0:0|0:0,0:0:0:0:
480,12,125084,37,2,1:0:0:0:
114,324,125422,2,0,B|125:255|125:255|147:226|147:226|158:160,1,173.24999471283,10|2,0:0|0:3,0:0:0:0:
158,159,125927,1,0,1:0:0:0:
28,272,126096,2,0,L|13:186,1,86.6249973564149,10|0,0:0|0:0,0:0:0:0:
217,302,126433,2,0,P|278:285|315:233,1,129.937496034622,2|0,1:0|0:0,0:0:0:0:
319,218,126770,1,8,0:0:0:0:
139,372,126938,5,2,1:0:0:0:
139,372,127107,2,0,P|122:333|121:284,1,86.6249973564149,2|2,0:3|1:2,0:0:0:0:
404,164,127444,2,0,P|421:203|422:252,1,86.6249973564149,10|2,0:0|0:0,0:0:0:0:
350,383,127781,38,0,B|366:290|307:315|319:217,1,173.24999471283,6|8,1:0|0:0,0:0:0:0:
229,211,128287,1,2,0:1:0:0:
229,211,128371,1,8,0:1:0:0:
229,211,128455,2,0,L|143:196,1,86.6249973564149,2|0,0:3|1:0,0:0:0:0:
350,383,128792,2,0,L|435:368,1,86.6249973564149,8|0,0:0|0:0,0:0:0:0:
52,176,129129,5,2,1:0:0:0:
462,361,129466,1,8,0:0:0:0:
229,211,129635,37,2,1:0:0:0:
279,331,129804,1,2,0:3:0:0:
314,246,129972,1,2,1:2:0:0:
194,296,130141,1,10,0:0:0:0:
333,239,130309,1,2,0:0:0:0:
177,99,130478,6,0,P|125:92|52:183,1,173.24999471283,2|8,1:0|0:0,0:0:0:0:
178,381,130983,1,2,0:1:0:0:
178,381,131068,1,8,0:1:0:0:
178,381,131152,2,0,L|193:295,1,86.6249973564149,2|0,0:3|1:0,0:0:0:0:
329,160,131489,2,0,L|313:245,1,86.6249973564149,8|2,0:0|0:0,0:0:0:0:
377,323,131826,37,2,1:0:0:0:
150,210,131995,1,0,1:0:0:0:
329,160,132163,1,14,0:0:0:0:
192,295,132332,1,2,0:0:0:0:
255,90,132500,1,2,1:0:0:0:
312,245,132669,5,8,0:0:0:0:
239,187,132837,1,0,1:0:0:0:
329,160,133006,1,8,0:0:0:0:
192,295,133174,38,0,B|123:306|123:306|94:328|94:328|28:339,1,173.24999471283,6|8,1:0|0:0,0:0:0:0:
329,160,133680,2,0,B|398:171|398:171|427:193|427:193|493:204,1,173.24999471283,2|0,1:0|0:0,0:0:0:0:
255,90,134186,2,0,L|170:106,1,86.6249973564149,10|0,0:0|0:0,0:0:0:0:
393,290,134523,2,0,L|478:306,1,86.6249973564149,2|0,1:0|0:0,0:0:0:0:
445,95,134860,2,0,B|455:54|455:54|446:10,1,86.6249973564149,10|2,0:0|1:0,0:0:0:0:
231,200,135197,2,0,B|221:241|221:241|230:285,1,86.6249973564149,2|0,0:3|1:0,0:0:0:0:
391,374,135534,2,0,B|401:333|401:333|392:289,1,86.6249973564149,10|0,0:0|0:0,0:0:0:0:
374,214,135787,5,8,0:0:0:0:
371,200,135871,1,6,1:0:0:0:
29,339,136208,1,10,0:0:0:0:
107,233,136377,1,0,1:0:0:0:
15,247,136545,1,14,0:1:0:0:
121,325,136714,1,0,1:0:0:0:
1,237,136882,1,10,0:0:0:0:
205,271,137051,37,8,0:0:0:0:
205,271,137135,1,8,0:0:0:0:
205,271,137219,2,0,B|243:273|269:301|269:301|265:248|298:205,1,173.24999471283,6|8,1:0|0:0,0:0:0:0:
366,277,137725,1,2,1:0:0:0:
206,177,137893,2,0,L|190:92,1,86.6249973564149,2|0,0:3|1:0,0:0:0:0:
445,94,138231,2,0,L|461:9,1,86.6249973564149,10|0,0:0|0:0,0:0:0:0:
393,373,138568,5,2,1:0:0:0:
190,92,138736,1,0,1:0:0:0:
461,253,138905,1,14,0:0:0:0:
158,384,139073,1,8,0:0:0:0:
175,378,139157,1,8,0:0:0:0:
192,372,139242,1,10,0:0:0:0:
276,333,139410,37,8,0:0:0:0:
284,241,139579,1,4,1:3:0:0:
292,149,139747,1,0,3:0:0:0:
192,232,139916,6,0,B|99:217|113:298|28:321|0:254|-1:199|60:173|110:220,1,294.937486498833,6|0,1:0|0:0,0:0:0:0:
276,333,140927,38,0,B|340:349|348:307|417:326,1,142.312502714396,2|0,0:1|0:0,0:0:0:0:
492,223,141264,22,0,B|508:159|443:124|443:124|424:158,1,160.874992635727,6|0,1:0|0:0,0:0:0:0:
418,175,141601,1,10,0:0:0:0:
276,333,141770,2,0,B|217:358|157:318|164:259|164:259|178:285|212:301,1,214.49999018097,2|0,0:0|1:0,0:0:0:0:
208,138,142275,2,0,P|235:173|237:218,1,90.7500027694703,10|10,0:0|0:0,0:0:0:0:
112,357,142528,1,8,0:0:0:0:
93,370,142613,6,0,P|48:375|8:355,1,90.7500027694703,6|2,1:0|0:0,0:0:0:0:
126,105,142950,1,10,0:0:0:0:
22,185,143118,38,0,P|109:189|164:259,1,181.500005538941,6|0,1:0|1:0,0:0:0:0:
322,330,143624,2,0,B|339:308|339:308|343:278,1,53.6249975452424,2|0,0:1|0:0,0:0:0:0:
448,191,143792,2,0,B|449:163|449:163|436:136,1,53.6249975452424,10|0,0:0|0:0,0:0:0:0:
323,65,143961,5,6,1:0:0:0:
273,218,144129,1,2,0:0:0:0:
426,268,144298,1,10,0:0:0:0:
500,89,144466,2,0,B|438:100|438:100|411:130|411:130|337:143,1,173.24999471283,6|0,1:0|0:0,0:0:0:0:
323,146,144804,1,0,1:0:0:0:
24,41,144972,2,0,B|76:12|76:12|101:83,1,115.49999647522,10|10,0:0|0:0,0:0:0:0:
103,152,145225,1,8,0:0:0:0:
89,168,145309,38,0,L|97:216,1,49.4999984893799,6|0,1:0|0:0,0:0:0:0:
173,287,145478,2,0,L|164:335,1,49.4999984893799,2|0,0:1|0:0,0:0:0:0:
33,306,145646,1,10,0:0:0:0:
243,212,145815,1,4,1:0:0:0:
167,356,145983,6,0,P|151:331|144:299,1,61.875002360344,2|0,0:3|0:0,0:0:0:0:
69,198,146152,2,0,P|75:169|95:143,1,61.875002360344,2|0,1:0|0:0,0:0:0:0:
324,150,146320,2,0,P|301:204|242:211,1,123.750004720688,10|8,0:0|0:0,0:0:0:0:
196,146,146573,1,8,0:0:0:0:
208,127,146657,37,6,1:0:0:0:
377,88,146826,1,2,0:0:0:0:
466,236,146995,1,10,0:0:0:0:
352,366,147163,1,6,1:0:0:0:
260,227,147332,6,0,L|343:253,1,61.875002360344,2|0,0:3|0:0,0:0:0:0:
444,332,147500,1,2,1:2:0:0:
320,150,147669,1,8,0:0:0:0:
439,246,147837,38,0,B|367:256|367:256|317:293|317:293|254:304,1,197.99999395752,2|2,0:1|1:2,0:0:0:0:
155,365,148343,1,2,0:1:0:0:
38,341,148511,2,0,B|-19:304|10:230|10:230|74:260,1,181.500005538941,8|0,0:0|1:0,0:0:0:0:
338,252,149017,5,10,0:0:0:0:
371,221,149101,1,8,0:0:0:0:
384,178,149185,1,8,0:0:0:0:
375,135,149270,1,8,0:0:0:0:
345,101,149354,38,0,L|251:122,1,90.7500027694703,6|2,1:0|0:0,0:0:0:0:
70,166,149607,1,2,0:0:0:0:
84,171,149691,2,0,L|151:193,1,49.4999984893799,10|0,0:0|0:0,0:0:0:0:
258,219,149860,1,6,1:0:0:0:
222,38,150028,1,2,0:3:0:0:
47,78,150197,1,2,1:2:0:0:
177,109,150365,5,8,0:0:0:0:
316,62,150534,1,2,0:1:0:0:
333,71,150618,1,8,0:1:0:0:
350,80,150702,38,0,B|395:61|395:61|464:82,1,98.9999969787599,4|2,1:0|0:1,0:0:0:0:
221,239,151039,2,0,B|199:225|199:225|168:226,1,53.6249975452424,10|0,0:0|0:0,0:0:0:0:
105,156,151208,2,0,B|74:162|74:162|56:181,1,57.7499982376099,6|0,1:0|0:0,0:0:0:0:
175,307,151377,5,2,0:3:0:0:
403,220,151545,1,10,0:0:0:0:
329,320,151714,37,10,0:0:0:0:
323,285,151798,1,8,0:0:0:0:
318,251,151882,1,4,0:3:0:0:
313,217,151966,1,4,0:3:0:0:
308,182,152051,22,0,B|405:165|379:227|481:209,1,179.437505475998,6|0,1:0|0:0,0:0:0:0:
493,225,152388,1,8,0:0:0:0:
189,43,152556,6,0,B|251:3|251:3|229:134,1,206.25,6|0,1:2|1:0,0:0:0:0:
147,180,153062,2,0,B|29:245|-25:134|79:120|69:180,1,191.812501463413,8|0,0:0|0:0,0:0:0:0:
222,228,153399,38,0,L|206:313,2,70.1250013375282,2|0|0,1:0|0:0|0:0,0:0:0:0:
0,383,153905,2,0,B|71:390|56:341|135:355,1,142.312502714396,8|0,0:0|0:0,0:0:0:0:
150,364,154242,1,0,1:0:0:0:
390,300,154410,2,0,L|297:283,1,94.8750018095971,12|2,0:0|0:0,0:0:0:0:
107,13,154747,6,0,B|120:87|120:87|118:91|118:91|132:165,1,154.6875,6|0,1:0|0:0,0:0:0:0:
147,180,155084,1,10,0:0:0:0:
364,148,155253,2,0,B|300:88|300:88|209:104,1,179.437505475998,6|0,1:2|0:0,0:0:0:0:
209,104,155590,1,0,1:0:0:0:
2,270,155759,2,0,L|95:252,1,82.5,8|0,0:0|0:0,0:0:0:0:
229,348,156096,38,0,B|248:383|248:383|313:348|295:280,1,160.874992635727,6|0,1:2|0:0,0:0:0:0:
290,269,156433,1,10,0:0:0:0:
118,90,156601,1,4,1:0:0:0:
207,23,156770,6,0,B|217:64|217:64|208:103,1,82.5,2|0,0:3|1:0,0:0:0:0:
82,346,157107,1,10,0:0:0:0:
162,301,157275,1,8,0:0:0:0:
83,254,157444,38,0,L|2:270,2,82.5,6|0|8,1:0|0:0|0:0,0:0:0:0:
241,348,157950,2,0,B|332:360|312:294|414:314,1,181.500005538941,6|0,1:0|1:0,0:0:0:0:
209,222,158455,2,0,L|191:132,1,90.7500027694703,2|8,0:0|0:0,0:0:0:0:
413,313,158792,6,0,B|424:253|424:253|422:249|422:249|433:190,1,123.75,6|0,1:0|0:0,0:0:0:0:
435,178,159129,1,8,0:0:0:0:
241,348,159298,38,0,B|190:340|161:300|161:300|115:332|63:324,1,197.99999395752,6|0,1:0|1:0,0:0:0:0:
316,133,159804,2,0,B|348:142|348:142|285:156,1,98.9999969787599,8|8,0:0|0:0,0:0:0:0:
209,222,160056,5,8,0:0:0:0:
201,219,160141,2,0,P|182:188|186:144,1,53.6249975452424,6|0,1:0|0:0,0:0:0:0:
398,36,160309,2,0,P|417:67|412:110,1,53.6249975452424,2|0,0:0|0:0,0:0:0:0:
349,306,160478,37,8,0:0:0:0:
316,133,160646,2,0,B|304:224|366:206|350:306,1,181.500005538941,6|0,1:0|1:0,0:0:0:0:
431,365,161152,2,0,P|484:352|483:270,1,148.49999546814,8|0,0:0|0:0,0:0:0:0:
473,260,161489,1,6,1:0:0:0:
241,348,161657,5,0,0:0:0:0:
220,355,161742,1,8,0:0:0:0:
199,362,161826,1,8,0:0:0:0:
473,260,161995,1,2,1:0:0:0:
148,97,162332,37,12,0:0:0:0:
232,115,162500,1,8,0:0:0:0:
316,133,162669,2,0,L|336:137,1,20.625,2|8,0:0|0:0,0:0:0:0:
482,170,162837,21,10,0:0:0:0:
354,129,163006,2,0,L|264:150,1,90.7500027694703,4|0,1:2|0:0,0:0:0:0:
30,183,163343,2,0,B|95:200|95:200|114:256|114:256|182:277,1,197.99999395752,6|0,1:2|1:0,0:0:0:0:
192,96,163848,2,0,B|172:140|172:140|184:189,1,98.9999969787599,12|2,0:0|0:0,0:0:0:0:
357,367,164186,6,0,B|377:323|377:323|364:273,1,98.9999969787599,14|0,0:0|1:0,0:0:0:0:
229,380,164523,1,0,0:0:0:0:
426,174,164691,2,0,P|372:246|279:249,1,181.500005538941,10|0,0:0|1:0,0:0:0:0:
22,155,165197,2,0,P|61:133|106:130,1,90.7500027694703,8|2,0:0|1:2,0:0:0:0:
325,164,165534,37,14,0:0:0:0:
191,228,165702,1,0,0:0:0:0:
191,228,165787,1,0,0:0:0:0:
191,228,165871,2,0,L|173:329,1,98.9999969787599,2|8,0:0|0:0,0:0:0:0:
374,84,166208,5,2,0:3:0:0:
233,137,166377,1,0,1:0:0:0:
410,206,166545,2,0,L|428:307,1,98.9999969787599,10|0,0:0|1:0,0:0:0:0:
122,336,166882,37,14,0:0:0:0:
78,181,167051,1,0,1:0:0:0:
233,137,167219,1,0,1:0:0:0:
323,285,167388,2,0,B|220:279|263:232|153:232,1,181.500005538941,14|0,0:0|1:0,0:0:0:0:
318,83,167893,2,0,P|328:128|331:173,1,90.7500027694703,8|2,0:0|1:2,0:0:0:0:
103,339,168231,6,0,P|59:260|66:171,1,181.500005538941,14|2,0:0|0:0,0:0:0:0:
378,13,168736,2,0,P|421:91|414:180,1,181.500005538941,10|0,0:0|1:0,0:0:0:0:
104,69,169242,1,10,0:0:0:0:
202,112,169410,1,2,1:2:0:0:
164,211,169579,38,0,P|173:259|181:308,1,98.9999969787599,14|0,0:0|1:0,0:0:0:0:
311,162,169916,2,0,P|301:113|293:64,1,98.9999969787599,0|14,1:0|0:0,0:0:0:0:
441,320,170253,2,0,P|343:323|265:264,1,197.99999395752,2|10,0:3|0:0,0:0:0:0:
74,131,170759,1,0,1:0:0:0:
74,131,170843,1,0,0:0:0:0:
74,131,170927,6,0,P|117:118|168:102,1,90.7500027694703,14|0,0:0|0:0,0:0:0:0:
26,281,171264,1,0,1:0:0:0:
179,203,171433,2,0,B|214:214|246:219|246:219|273:263|273:263|302:269|352:285,1,181.500005538941,14|0,0:0|1:0,0:0:0:0:
334,188,171938,1,8,0:0:0:0:
193,295,172107,1,0,1:0:0:0:
418,244,172275,38,0,L|436:346,1,98.9999969787599,14|0,0:0|1:0,0:0:0:0:
353,87,172613,1,10,0:0:0:0:
128,147,172781,1,2,0:3:0:0:
128,147,172865,1,8,0:1:0:0:
128,147,172950,6,0,L|110:249,1,98.9999969787599,6|8,1:2|0:0,0:0:0:0:
94,271,173202,1,8,0:0:0:0:
133,272,173286,1,10,1:2:0:0:
171,261,173370,1,8,0:0:0:0:
206,243,173454,1,8,0:0:0:0:
245,236,173539,1,8,0:0:0:0:
284,240,173624,6,0,B|317:240|343:260|343:260|373:227|366:166|316:144,1,197.99999395752,6|10,1:0|0:0,0:0:0:0:
193,350,174129,1,2,1:0:0:0:
193,350,174298,2,0,L|283:332,1,82.5,2|0,0:3|1:0,0:0:0:0:
461,157,174635,2,0,L|317:128,1,123.75,10|0,0:0|0:0,0:0:0:0:
320,146,174972,6,0,L|302:56,1,82.5,2|0,1:0|0:0,0:0:0:0:
219,7,175309,2,0,L|202:87,1,82.5,8|2,0:0|1:0,0:0:0:0:
444,237,175646,2,0,L|460:156,1,82.5,2|0,0:3|1:0,0:0:0:0:
245,236,175983,38,0,B|166:218|178:271|103:260,1,148.49999546814,10|0,0:0|0:0,0:0:0:0:
87,271,176320,2,0,L|111:147,1,123.75,6|0,1:0|0:0,0:0:0:0:
114,133,176657,1,10,0:0:0:0:
0,235,176826,1,2,0:1:0:0:
0,235,176995,2,0,B|-8:275|-8:275|0:315,1,82.5,2|0,0:3|1:0,0:0:0:0:
176,384,177332,2,0,B|184:343|184:343|176:304,1,82.5,10|0,0:0|0:0,0:0:0:0:
64,47,177669,6,0,P|84:80|204:100,1,165,2|8,1:0|0:0,0:0:0:0:
293,221,178174,1,10,0:0:0:0:
294,211,178259,1,8,0:0:0:0:
299,202,178343,2,0,P|332:178|372:172,1,82.5,2|0,0:3|1:0,0:0:0:0:
436,72,178680,2,0,P|469:95|510:100,1,82.5,14|0,0:0|0:0,0:0:0:0:
420,335,179017,38,0,L|388:173,1,165,6|10,1:0|0:0,0:0:0:0:
492,230,179523,1,2,1:0:0:0:
316,384,179691,2,0,B|324:343|324:343|316:304,1,82.5,2|0,0:3|1:0,0:0:0:0:
491,149,180028,2,0,B|483:190|483:190|491:229,1,82.5,10|0,0:0|0:0,0:0:0:0:
308,104,180365,6,0,B|228:113|250:61|168:70,1,148.49999546814,2|0,1:0|0:0,0:0:0:0:
150,59,180702,1,10,0:0:0:0:
68,11,180871,2,0,L|52:92,1,82.5,2|2,1:0|0:3,0:0:0:0:
161,240,181208,1,2,1:2:0:0:
161,240,181292,1,0,0:0:0:0:
161,240,181377,2,0,L|176:158,1,82.5,8|2,0:0|0:0,0:0:0:0:
308,104,181714,38,0,B|361:110|396:84|396:84|416:120|468:132,1,181.500005538941,6|8,1:0|0:0,0:0:0:0:
161,240,182219,1,0,0:0:0:0:
284,292,182388,2,0,L|260:171,1,90.7500027694703,2|0,0:1|1:0,0:0:0:0:
106,384,182641,1,2,0:1:0:0:
104,379,182725,2,0,P|145:334|202:337,1,107.249995090485,12|0,0:0|0:0,0:0:0:0:
447,243,183062,6,0,P|402:245|362:224,1,90.7500027694703,6|8,1:0|0:0,0:0:0:0:
277,285,183315,1,8,0:0:0:0:
284,292,183399,38,0,P|297:310|305:331,1,45.3750013847352,8|8,0:0|0:3,0:0:0:0:
376,384,183568,2,0,P|389:366|397:345,1,45.3750013847352,4|4,0:3|0:3,0:0:0:0:
265,185,183736,5,6,1:3:0:0:
242,180,183820,1,8,0:0:0:0:
220,176,183904,1,8,0:0:0:0:
198,172,183988,1,8,0:0:0:0:
175,168,184073,2,0,L|88:150,1,74.2499977340699,4|2,1:2|0:0,0:0:0:0:
481,26,184410,37,8,0:0:0:0:
175,168,184579,2,0,B|185:103|185:103|207:72|207:72|217:8,2,165,0|0|2,1:0|1:0|1:2,0:0:0:0:
404,327,185422,2,0,B|437:327|463:347|463:347|493:314|486:253|432:236,1,185.625007081032,14|0,0:0|0:0,0:0:0:0:
352,249,185759,6,0,B|316:248|288:216|288:216|293:277|256:308,1,173.24999471283,6|8,1:0|0:0,0:0:0:0:
9,214,186264,2,0,B|79:201|79:201|108:181|108:181|174:168,1,173.24999471283,2|0,1:0|1:0,0:0:0:0:
261,128,186770,2,0,B|270:86|270:86|261:43,1,86.6249973564149,10|0,0:0|0:0,0:0:0:0:
172,258,187107,38,0,B|163:300|163:300|172:342,1,86.6249973564149,2|0,1:0|0:0,0:0:0:0:
437,267,187444,2,0,L|350:249,1,86.6249973564149,10|2,0:0|1:0,0:0:0:0:
62,100,187781,2,0,L|146:82,1,86.6249973564149,2|0,0:3|1:0,0:0:0:0:
385,0,188118,2,0,L|367:84,1,86.6249973564149,10|0,0:0|0:0,0:0:0:0:
284,373,188455,6,0,P|225:332|158:352,1,129.937496034622,2|0,1:0|0:0,0:0:0:0:
165,325,188792,2,0,P|124:344|101:388,1,86.6249973564149,10|2,0:0|0:1,0:0:0:0:
352,249,189129,2,0,P|367:206|352:159,1,86.6249973564149,2|0,0:3|1:0,0:0:0:0:
232,61,189466,38,0,B|242:116|242:116|258:140|258:140|271:198,1,142.312502714396,10|0,0:0|0:0,0:0:0:0:
302,328,189804,5,2,1:0:0:0:
373,35,190141,1,8,0:0:0:0:
352,249,190309,37,2,1:0:0:0:
323,114,190478,1,2,0:3:0:0:
270,196,190646,1,2,1:2:0:0:
405,167,190815,1,10,0:0:0:0:
258,199,190983,5,2,0:0:0:0:
246,202,191068,1,8,0:0:0:0:
234,205,191152,38,0,B|184:193|165:159|165:159|132:184|81:178,1,173.24999471283,6|8,1:0|0:0,0:0:0:0:
16,70,191657,1,2,0:1:0:0:
16,70,191742,1,8,0:1:0:0:
16,70,191826,2,0,L|100:87,1,86.6249973564149,2|0,0:3|1:0,0:0:0:0:
141,264,192163,2,0,L|123:348,1,86.6249973564149,8|0,0:0|0:0,0:0:0:0:
323,114,192500,6,0,B|389:99|389:99|414:76|414:76|485:61,1,173.24999471283,2|8,1:0|0:0,0:0:0:0:
484,61,193006,1,2,1:0:0:0:
322,198,193174,2,0,B|313:155|313:155|322:113,1,86.6249973564149,2|2,0:3|1:2,0:0:0:0:
230,36,193511,2,0,B|239:78|239:78|230:120,1,86.6249973564149,10|2,0:0|0:0,0:0:0:0:
363,287,193848,38,0,P|412:248|493:257,1,129.937496034622,2|0,1:0|0:0,0:0:0:0:
494,242,194186,2,0,L|476:326,1,86.6249973564149,8|2,0:0|0:1,0:0:0:0:
152,233,194523,2,0,L|349:192,1,173.24999471283,2|8,0:3|0:0,0:0:0:0:
395,378,195028,5,2,0:0:0:0:
395,378,195113,1,8,0:1:0:0:
395,378,195197,1,2,1:0:0:0:
255,135,195365,1,0,0:0:0:0:
346,110,195534,1,10,0:0:0:0:
273,313,195702,1,2,1:0:0:0:
185,75,195871,1,2,0:3:0:0:
413,173,196039,1,0,1:0:0:0:
59,299,196208,2,0,P|90:245|151:232,1,129.937496034622,12|8,0:0|0:0,0:0:0:0:
151,232,196545,38,0,L|130:133,1,86.6249973564149,6|0,1:0|0:0,0:0:0:0:
47,120,196882,1,8,0:0:0:0:
273,313,197051,2,0,B|306:313|332:333|332:333|362:300|355:239|301:222,1,173.24999471283,2|0,1:0|0:0,0:0:0:0:
59,299,197556,2,0,P|41:342|41:383,1,86.6249973564149,10|0,0:0|0:0,0:0:0:0:
232,172,197893,6,0,P|231:128|213:89,1,86.6249973564149,2|0,1:0|0:0,0:0:0:0:
65,37,198231,2,0,P|47:76|46:119,1,86.6249973564149,10|2,0:0|1:0,0:0:0:0:
306,315,198568,2,0,P|324:276|325:233,1,86.6249973564149,2|0,0:3|1:0,0:0:0:0:
443,58,198905,2,0,P|460:97|461:140,1,86.6249973564149,10|0,0:0|0:0,0:0:0:0:
224,267,199242,38,0,B|130:253|150:311|58:298,1,173.24999471283,6|10,1:0|0:0,0:0:0:0:
412,219,199747,1,2,1:0:0:0:
412,219,199832,1,8,0:1:0:0:
412,219,199916,2,0,L|496:236,1,86.6249973564149,2|0,0:3|1:0,0:0:0:0:
213,89,200253,1,10,0:0:0:0:
366,384,200422,1,8,0:0:0:0:
366,384,200506,1,8,0:0:0:0:
366,384,200590,6,0,B|381:315|381:315|400:286|400:286|412:220,1,173.24999471283,6|8,1:0|0:0,0:0:0:0:
213,89,201096,2,0,P|260:89|315:27,1,129.937496034622,6|0,1:2|0:0,0:0:0:0:
314,19,201433,1,0,1:0:0:0:
404,4,201601,2,0,P|430:39|430:86,1,86.6249973564149,14|0,0:0|0:0,0:0:0:0:
224,267,201938,38,0,B|174:255|155:221|155:221|122:246|71:240,1,173.24999471283,6|8,1:0|0:0,0:0:0:0:
46,345,202444,1,2,0:1:0:0:
46,345,202528,1,8,0:1:0:0:
46,345,202613,2,0,L|130:328,1,86.6249973564149,2|0,0:3|1:0,0:0:0:0:
230,173,202950,2,0,L|213:89,1,86.6249973564149,8|0,0:0|0:0,0:0:0:0:
312,300,203287,5,2,1:0:0:0:
95,147,203455,1,0,0:0:0:0:
95,147,203539,1,0,0:0:0:0:
95,147,203624,1,10,0:0:0:0:
336,35,203792,2,0,B|424:48|407:-12|502:4,1,173.24999471283,2|0,1:0|1:0,0:0:0:0:
468,97,204298,2,0,B|459:139|459:139|468:182,1,86.6249973564149,10|0,0:0|0:0,0:0:0:0:
368,328,204635,38,0,B|386:241|386:241|368:157,1,173.24999471283,6|8,1:0|0:0,0:0:0:0:
475,283,205141,1,2,0:1:0:0:
475,283,205225,1,8,0:1:0:0:
475,283,205309,1,2,0:3:0:0:
230,173,205478,1,0,1:0:0:0:
485,12,205646,2,0,L|468:96,1,86.6249973564149,10|0,0:0|0:0,0:0:0:0:
368,328,205983,5,2,1:0:0:0:
342,325,206067,1,0,0:0:0:0:
316,327,206151,1,2,0:0:0:0:
292,336,206235,1,8,0:0:0:0:
269,349,206320,1,2,1:0:0:0:
245,358,206404,1,0,0:0:0:0:
219,360,206489,2,0,L|204:290,1,43.3124986782074,2|0,0:0|0:0,0:0:0:0:
141,224,206657,2,0,L|132:266,1,43.3124986782074,6|0,1:2|0:0,0:0:0:0:
21,347,206826,2,0,L|64:338,1,43.3124986782074,8|8,0:0|0:0,0:0:0:0:
243,152,206995,37,10,1:2:0:0:
242,144,207080,1,8,0:0:0:0:
240,135,207164,1,4,0:3:0:0:
238,127,207248,1,4,0:3:0:0:
235,112,207332,22,0,B|286:115|318:90|318:90|358:107|363:142,1,160.874992635727,6|0,1:0|0:0,0:0:0:0:
363,160,207669,1,8,0:0:0:0:
179,249,207837,2,0,B|112:262|112:262|77:292|77:292|11:305,1,181.500005538941,2|0,1:0|1:0,0:0:0:0:
290,360,208343,2,0,B|301:315|301:315|289:270,1,90.7500027694703,10|0,0:0|0:0,0:0:0:0:
153,57,208680,6,0,B|142:102|142:102|154:147,1,90.7500027694703,2|0,1:0|0:0,0:0:0:0:
292,182,209017,1,10,0:0:0:0:
407,147,209186,1,2,1:0:0:0:
470,284,209354,2,0,L|366:264,1,90.7500027694703,2|0,0:3|1:0,0:0:0:0:
38,357,209691,2,0,P|108:302|196:310,1,181.500005538941,10|2,0:0|1:0,0:0:0:0:
407,147,210197,37,0,0:0:0:0:
407,147,210281,1,2,0:0:0:0:
407,147,210365,1,10,0:0:0:0:
287,233,210534,2,0,P|287:277|303:350,1,90.7500027694703,2|2,0:1|0:3,0:0:0:0:
116,340,210871,1,0,1:0:0:0:
137,204,211039,2,0,P|144:136|123:63,1,136.125004154205,10|0,0:0|0:0,0:0:0:0:
114,56,211377,5,2,1:0:0:0:
379,270,211714,1,8,0:0:0:0:
309,212,211882,37,2,1:0:0:0:
450,320,212051,1,2,0:3:0:0:
428,201,212219,1,2,1:2:0:0:
325,336,212388,1,10,0:0:0:0:
439,187,212556,1,2,0:0:0:0:
314,351,212725,6,0,B|213:358|242:296|142:311,1,181.500005538941,6|8,1:0|0:0,0:0:0:0:
338,215,213231,1,2,0:1:0:0:
338,215,213315,1,8,0:1:0:0:
338,215,213399,2,0,P|399:207|447:194,1,90.7500027694703,2|0,0:3|1:0,0:0:0:0:
192,106,213736,2,0,P|212:146|223:190,1,90.7500027694703,8|0,0:0|0:0,0:0:0:0:
80,370,214073,38,0,P|27:292|41:201,1,181.500005538941,2|8,1:0|0:0,0:0:0:0:
36,209,214579,1,2,1:0:0:0:
170,334,214747,2,0,P|218:351|255:367,1,90.7500027694703,2|2,0:3|1:2,0:0:0:0:
224,191,215084,2,0,P|184:224|152:248,1,90.7500027694703,10|2,0:0|0:0,0:0:0:0:
282,273,215422,6,0,B|348:267|348:267|389:242|389:242|455:236,1,181.500005538941,2|8,1:0|0:0,0:0:0:0:
224,191,215927,1,2,0:1:0:0:
224,191,216011,1,8,0:1:0:0:
224,191,216096,2,0,L|106:165,1,90.7500027694703,2|0,0:3|1:0,0:0:0:0:
344,39,216433,2,0,B|357:82|357:82|346:126,1,90.7500027694703,8|2,0:0|0:0,0:0:0:0:
41,226,216770,37,2,1:0:0:0:
265,90,216938,1,0,1:0:0:0:
86,103,217107,5,10,0:0:0:0:
224,191,217275,1,2,1:2:0:0:
224,191,217360,1,8,0:0:0:0:
224,191,217444,1,2,0:1:0:0:
97,339,217613,37,0,1:0:0:0:
162,29,217781,1,14,0:0:0:0:
419,217,217950,1,8,0:0:0:0:
188,347,218118,6,0,B|173:282|173:282|135:247|135:247|120:185,1,181.500005538941,6|8,1:0|0:0,0:0:0:0:
298,16,218624,2,0,B|354:52|342:128|342:128|282:110,1,181.500005538941,2|0,1:0|1:0,0:0:0:0:
45,141,219129,2,0,P|78:111|122:100,1,90.7500027694703,10|0,0:0|0:0,0:0:0:0:
337,213,219466,38,0,P|351:261|335:325,1,90.7500027694703,2|0,1:0|0:0,0:0:0:0:
123,189,219804,1,10,0:0:0:0:
264,263,219972,1,2,1:0:0:0:
96,384,220141,2,0,P|69:347|62:303,1,90.7500027694703,2|0,0:3|1:0,0:0:0:0:
362,106,220478,2,0,P|399:130|425:172,1,90.7500027694703,10|0,0:0|0:0,0:0:0:0:
216,360,220815,6,0,P|152:298|148:210,1,181.500005538941,6|10,1:0|0:0,0:0:0:0:
266,129,221320,1,0,1:0:0:0:
80,93,221489,37,14,0:1:0:0:
273,234,221657,1,0,1:0:0:0:
36,291,221826,5,10,0:0:0:0:
333,47,221995,1,8,0:0:0:0:
333,47,222079,1,8,0:0:0:0:
333,47,222163,38,0,P|393:48|462:123,1,148.49999546814,6|0,1:0|0:0,0:0:0:0:
458,126,222500,1,8,0:0:0:0:
296,330,222669,2,0,P|287:282|272:231,1,98.9999969787599,2|2,1:0|0:3,0:0:0:0:
382,367,223006,1,0,1:0:0:0:
175,130,223174,2,0,B|92:131|125:166|33:167,1,148.49999546814,10|0,0:0|0:0,0:0:0:0:
34,167,223511,6,0,L|12:78,1,90.7500027694703,6|0,1:0|0:0,0:0:0:0:
257,156,223848,1,8,0:0:0:0:
196,295,224017,1,2,0:1:0:0:
196,295,224101,1,8,0:1:0:0:
196,295,224186,2,0,L|174:383,1,90.7500027694703,2|0,0:3|1:0,0:0:0:0:
415,191,224523,2,0,L|271:160,1,136.125004154205,8|0,0:0|0:0,0:0:0:0:
257,156,224860,38,0,P|299:141|344:142,1,90.7500027694703,2|0,1:0|0:0,0:0:0:0:
296,256,225197,1,10,0:0:0:0:
157,195,225365,1,2,1:0:0:0:
196,295,225534,2,0,P|211:337|210:382,1,90.7500027694703,2|0,0:3|1:0,0:0:0:0:
38,239,225871,2,0,P|13:188|14:105,1,136.125004154205,10|0,0:0|0:0,0:0:0:0:
12,109,226208,6,0,P|56:100|117:86,1,90.7500027694703,6|0,1:0|0:0,0:0:0:0:
283,102,226545,1,10,0:0:0:0:
362,193,226714,37,2,0:1:0:0:
344,189,226798,1,8,0:0:0:0:
326,186,226882,1,2,0:3:0:0:
138,238,227051,1,0,1:0:0:0:
0,346,227219,6,0,L|107:323,1,107.249995090485,14|0,0:0|3:0,0:0:0:0:
260,300,227472,1,8,0:0:0:0:
268,319,227556,37,10,0:0:0:0:
51,193,227725,1,0,1:0:0:0:
280,49,227893,2,0,B|268:108|268:108|246:139|246:139|233:205,1,160.874992635727,14|0,0:0|0:0,0:0:0:0:
187,376,228231,5,2,1:0:0:0:
326,186,228399,1,8,0:0:0:0:
81,103,228568,1,10,1:2:0:0:
276,338,228736,1,8,0:0:0:0:
468,25,228905,38,0,P|423:35|379:44,1,90.7500027694703,6|0,1:0|0:0,0:0:0:0:
195,180,229242,1,8,0:0:0:0:
257,247,229410,2,0,B|294:241|325:265|325:265|364:214|329:165,1,181.500005538941,2|0,1:0|1:0,0:0:0:0:
222,99,229916,1,10,0:0:0:0:
108,237,230084,1,0,0:0:0:0:
9,109,230253,6,0,P|54:107|95:125,1,90.7500027694703,2|0,1:0|0:0,0:0:0:0:
181,294,230590,2,0,L|166:383,1,90.7500027694703,10|2,0:0|1:0,0:0:0:0:
296,264,230927,1,2,0:3:0:0:
222,99,231096,1,0,1:0:0:0:
432,143,231264,2,0,L|342:157,1,90.7500027694703,10|0,0:0|0:0,0:0:0:0:
324,161,231517,1,8,0:0:0:0:
305,164,231601,38,0,P|319:120|320:75,1,90.7500027694703,2|0,1:0|0:0,0:0:0:0:
150,48,231938,1,10,0:0:0:0:
48,235,232107,2,0,B|110:240|146:210|146:210|187:221|202:267,1,181.500005538941,2|0,0:1|1:0,0:0:0:0:
464,293,232613,2,0,P|419:284|374:275,1,90.7500027694703,10|0,0:0|0:0,0:0:0:0:
357,271,232865,1,8,0:1:0:0:
338,267,232950,5,2,1:0:0:0:
150,48,233287,2,0,L|180:152,1,90.7500027694703,8|2,0:0|1:0,0:0:0:0:
42,287,233624,37,2,0:3:0:0:
218,227,233792,1,2,1:2:0:0:
22,294,233961,1,10,0:0:0:0:
114,363,234129,1,2,0:0:0:0:
114,363,234214,1,2,0:0:0:0:
114,363,234298,6,0,B|130:275|130:275|99:174,1,181.500005538941,6|8,1:0|0:0,0:0:0:0:
238,23,234804,1,2,0:1:0:0:
282,101,234972,2,0,P|320:112|369:125,1,90.7500027694703,2|0,0:3|1:0,0:0:0:0:
219,262,235309,2,0,P|207:217|196:174,1,90.7500027694703,8|0,0:0|0:0,0:0:0:0:
482,201,235646,38,0,B|378:184|406:236|304:221,1,181.500005538941,2|8,1:0|0:0,0:0:0:0:
99,155,236152,1,2,1:0:0:0:
186,85,236320,5,2,0:3:0:0:
85,168,236489,1,2,1:2:0:0:
69,49,236657,1,10,0:0:0:0:
195,221,236826,1,2,0:0:0:0:
25,285,236995,38,0,P|78:215|170:202,1,181.500005538941,6|8,1:0|0:0,0:0:0:0:
316,302,237500,1,2,0:1:0:0:
478,263,237669,2,0,P|433:256|387:239,1,90.7500027694703,2|0,0:3|1:0,0:0:0:0:
229,17,238006,2,0,P|257:78|260:145,1,136.125004154205,10|0,0:0|0:0,0:0:0:0:
195,221,238343,5,2,1:0:0:0:
355,89,238511,1,2,1:2:0:0:
103,73,238680,37,14,0:0:0:0:
393,220,238848,1,0,0:0:0:0:
85,64,239017,1,2,1:0:0:0:
282,17,239186,5,8,0:0:0:0:
275,32,239270,1,8,0:0:0:0:
271,48,239354,2,0,P|265:79|262:115,1,57.7499982376099,10|0,1:2|0:0,0:0:0:0:
124,271,239523,1,8,0:0:0:0:
131,286,239607,1,8,0:0:0:0:
136,302,239691,6,0,B|188:289|207:254|207:254|242:280|295:273,1,181.500005538941,6|8,1:0|0:0,0:0:0:0:
482,171,240197,2,0,P|395:165|354:88,1,181.500005538941,2|0,1:0|1:0,0:0:0:0:
466,0,240702,2,0,L|448:84,1,90.7500027694703,10|0,0:0|0:0,0:0:0:0:
274,170,240955,5,8,0:0:0:0:
277,184,241039,2,0,L|295:272,1,90.7500027694703,2|0,1:0|0:0,0:0:0:0:
460,369,241377,38,0,L|478:281,1,90.7500027694703,10|2,0:0|1:0,0:0:0:0:
189,27,241714,2,0,L|171:115,1,90.7500027694703,2|0,0:3|1:0,0:0:0:0:
10,366,242051,6,0,P|36:308|142:306,1,173.24999471283,10|0,0:0|0:0,0:0:0:0:
148,286,242388,1,6,1:0:0:0:
240,264,242556,1,0,1:0:0:0:
78,127,242725,38,0,P|53:173|56:220,1,90.7500027694703,10|0,0:0|0:0,0:0:0:0:
304,379,243062,2,0,P|329:333|326:286,1,90.7500027694703,6|0,1:0|1:0,0:0:0:0:
452,68,243399,2,0,P|477:114|474:161,1,90.7500027694703,10|8,0:0|0:0,0:0:0:0:
393,203,243652,5,8,0:0:0:0:
381,201,243736,2,0,B|314:188|314:188|279:158|279:158|213:145,1,181.500005538941,6|8,1:0|0:0,0:0:0:0:
213,145,244242,1,0,1:0:0:0:
328,295,244410,38,0,L|416:313,1,90.7500027694703,2|2,0:3|1:0,0:0:0:0:
236,41,244747,2,0,L|148:59,1,90.7500027694703,10|0,0:0|0:0,0:0:0:0:
9,365,245084,6,0,B|-25:348|-34:296|-2:260|-2:260|20:282|51:286,1,181.500005538941,6|8,1:0|0:0,0:0:0:0:
144,334,245590,1,2,0:1:0:0:
144,334,245674,1,8,0:1:0:0:
144,334,245759,2,0,B|153:290|153:290|144:246,1,90.7500027694703,2|0,0:3|1:0,0:0:0:0:
0,63,246096,38,0,P|23:121|113:141,1,160.874992635727,8|0,0:0|0:0,0:0:0:0:
119,158,246433,2,0,P|167:143|191:105,1,90.7500027694703,2|0,1:0|0:0,0:0:0:0:
50,285,246770,2,0,P|26:329|35:373,1,90.7500027694703,8|0,0:0|1:0,0:0:0:0:
299,113,247107,2,0,P|304:68|281:30,1,90.7500027694703,2|0,0:3|1:0,0:0:0:0:
144,246,247444,6,0,B|192:251|223:230|223:230|245:262|289:274,1,160.874992635727,12|0,0:0|0:0,0:0:0:0:
306,286,247781,2,0,L|394:268,1,86.6249973564149,6|0,1:0|0:0,0:0:0:0:
221,44,248118,2,0,L|203:132,1,86.6249973564149,12|0,0:0|0:0,0:0:0:0:
50,285,248455,37,2,1:0:0:0:
330,190,248624,1,8,0:0:0:0:
49,104,248792,1,2,1:0:0:0:
224,337,248961,1,0,1:0:0:0:
221,44,249129,1,10,0:0:0:0:
231,351,249298,1,0,1:0:0:0:
49,104,249466,1,14,0:0:0:0:
224,337,249635,5,0,0:0:0:0:
231,351,249719,1,8,0:1:0:0:
238,365,249804,2,0,L|141:345,1,94.8750018095971,2|0,1:0|0:0,0:0:0:0:
397,109,250141,2,0,P|426:152|429:198,1,94.8750018095971,10|0,0:0|1:0,0:0:0:0:
188,128,250478,2,0,P|193:81|220:43,1,94.8750018095971,14|0,0:0|0:0,0:0:0:0:
408,285,250815,37,0,1:0:0:0:
405,296,250899,1,8,0:0:0:0:
403,307,250983,1,8,0:0:0:0:
400,318,251067,1,8,0:0:0:0:
397,333,251152,5,10,1:2:0:0:
360,343,251236,1,8,0:0:0:0:
317,340,251320,1,8,0:0:0:0:
281,308,251404,1,8,0:0:0:0:
268,263,251489,1,8,1:2:0:0:
245,215,251573,37,8,0:0:0:0:
193,190,251657,5,8,0:0:0:0:
131,200,251742,37,8,0:0:0:0:
84,247,251826,5,4,1:0:0:0:
397,333,252500,2,0,B|449:316|456:255|426:223|426:223|400:242|367:242,1,198,2|0,0:0|0:0,0:0:0:0:
90,125,253174,38,0,B|32:92|53:36|53:36|82:35|82:35|97:9|97:9|156:17|158:83|158:83|173:19|232:21|232:21|241:49|241:49|272:55|272:55|282:113|219:137|219:137|286:130|302:187|302:187|279:205|279:205|281:234|281:234|229:262|188:210|188:210|214:271|165:303|165:303|141:288|141:288|114:301|114:301|70:260|108:204|108:204|57:249|11:212|11:212|18:184|18:184|-1:162|-1:162|17:127|50:127,1,1320,6|0,0:0|0:0,0:0:0:0:
