osu file format v14

[General]
AudioFilename: audio.mp3
AudioLeadIn: 0
PreviewTime: 56338
Countdown: 0
SampleSet: Soft
StackLeniency: 0.4
Mode: 0
LetterboxInBreaks: 0
WidescreenStoryboard: 1

[Editor]
Bookmarks: 1392,15305,29218,43131,57044,84870,98783,112696,126609,142262,155957,173566,187914,208349,222262,236609
DistanceSpacing: 1.3
BeatDivisor: 16
GridSize: 32
TimelineZoom: 2.599999

[Metadata]
Title:Mela!
TitleUnicode:Mela!
Artist:Ryokuoushoku Shakai
ArtistUnicode:緑黄色社会
Creator:Amateurre
Version:Special
Source:
Tags:japanese pop j-pop jpop ryokushaka agatsu airiesu asagi wen bongo koldnoodl dailycare eringira fedora- flake regussy jiysea mnyui nakazawa sagu nantokanaru
BeatmapID:4538473
BeatmapSetID:2153852

[Difficulty]
HPDrainRate:5
CircleSize:4
OverallDifficulty:8.8
ApproachRate:9.4
SliderMultiplier:2.39999990463257
SliderTickRate:1

[Events]
//Background and Video events
0,0,"matse.jpg",0,0
//Break Periods
2,98983,108461
2,173766,179330
//Storyboard Layer 0 (Background)
//Storyboard Layer 1 (Fail)
//Storyboard Layer 2 (Pass)
//Storyboard Layer 3 (Foreground)
//Storyboard Layer 4 (Overlay)
//Storyboard Sound Samples

[TimingPoints]
-5564,434.782608695652,4,2,1,50,1,0
1392,-166.666666666667,4,2,1,50,0,0
8349,-125,4,2,1,60,0,0
11827,-125,4,2,1,70,0,0
12044,-111.111111111111,4,2,1,45,0,0
12262,-100,4,2,1,49,0,0
12479,-90.9090909090909,4,2,1,53,0,0
12696,-83.3333333333333,4,2,1,57,0,0
12914,-83.3333333333333,4,2,1,62,0,0
13131,-83.3333333333333,4,2,1,66,0,0
13349,-83.3333333333333,4,2,1,70,0,0
14870,-55.5555555555556,4,2,1,70,0,0
15305,-55.5555555555556,4,2,1,75,0,0
16175,-71.4285714285714,4,2,1,75,0,0
19218,-55.5555555555556,4,2,1,75,0,0
19653,-71.4285714285714,4,2,1,75,0,0
22696,-55.5555555555556,4,2,1,75,0,0
23131,-71.4285714285714,4,2,1,75,0,0
26175,-55.5555555555556,4,2,1,75,0,0
26610,-71.4285714285714,4,2,1,75,0,0
29218,-125,4,2,1,60,0,0
41175,-83.3333333333333,4,2,1,60,0,0
43131,-250,4,2,1,70,0,0
44001,-166.666666666667,4,2,1,70,0,0
44435,-83.3333333333333,4,2,1,70,0,0
46609,-250,4,2,1,70,0,0
47479,-166.666666666667,4,2,1,70,0,0
47913,-83.3333333333333,4,2,1,70,0,0
48566,-100,4,2,1,70,0,0
50088,-250,4,2,1,70,0,0
50958,-166.666666666667,4,2,1,70,0,0
51392,-83.3333333333333,4,2,1,70,0,0
53783,-83.3333333333333,4,2,1,45,0,0
54001,-83.3333333333333,4,2,1,49,0,0
54218,-83.3333333333333,4,2,1,52,0,0
54435,-83.3333333333333,4,2,1,56,0,0
54653,-83.3333333333333,4,2,1,59,0,0
54870,-83.3333333333333,4,2,1,63,0,0
55088,-83.3333333333333,4,2,1,66,0,0
55305,-83.3333333333333,4,2,1,70,0,0
55414,-125,4,2,1,70,0,0
57044,-500,4,2,1,80,0,0
57479,-55.5555555555556,4,2,1,80,0,0
58240,-71.4285714285714,4,2,1,80,0,0
64001,-500,4,2,1,80,0,0
64435,-55.5555555555556,4,2,1,80,0,0
65196,-71.4285714285714,4,2,1,80,0,0
70957,-500,4,2,1,80,0,0
71392,-55.5555555555556,4,2,1,80,0,0
72153,-71.4285714285714,4,2,1,80,0,0
77914,-500,4,2,1,80,0,0
78349,-55.5555555555556,4,2,1,80,0,0
78783,-71.4285714285714,4,2,1,80,0,0
84870,-71.4285714285714,4,2,1,65,0,0
85088,-125,4,2,1,65,0,0
91827,-125,4,2,1,70,0,0
93349,-100,4,2,1,70,0,0
98783,-100,4,2,1,50,0,0
109001,-100,4,2,1,65,0,0
109653,-100,4,2,1,50,0,0
110305,-100,4,2,1,60,0,0
110740,-125,4,2,1,70,0,0
111175,-83.3333333333333,4,2,1,70,0,0
112696,-250,4,2,1,65,0,0
113566,-166.666666666667,4,2,1,65,0,0
114000,-83.3333333333333,4,2,1,65,0,0
116175,-250,4,2,1,65,0,0
117045,-166.666666666667,4,2,1,65,0,0
117479,-83.3333333333333,4,2,1,65,0,0
118131,-100,4,2,1,65,0,0
119653,-250,4,2,1,65,0,0
120523,-166.666666666667,4,2,1,65,0,0
120957,-83.3333333333333,4,2,1,65,0,0
123131,-83.3333333333333,4,2,1,70,0,0
123349,-83.3333333333333,4,2,1,45,0,0
124653,-66.6666666666667,4,2,1,70,0,0
126609,-76.9230769230769,4,2,1,75,0,0
137044,-66.6666666666667,4,2,1,75,0,0
139218,-133.333333333333,4,2,1,75,0,0
142262,-200,4,2,1,60,0,0
152696,-142.857142857143,4,2,1,60,0,0
155957,-100,4,2,1,65,0,0
169327,-76.9230769230769,4,2,1,65,0,0
169653,-100,4,2,1,65,0,0
171827,-83.3333333333333,4,2,1,65,0,0
173566,-83.3333333333333,4,2,2,50,0,0
180522,-125,4,2,1,55,0,0
184001,-125,4,2,1,60,0,0
185305,-83.3333333333333,4,2,1,60,0,0
185522,-83.3333333333333,4,2,1,70,0,0
187044,-66.6666666666667,4,2,1,70,0,0
187479,-83.3333333333333,4,2,1,70,0,0
187914,-100,4,2,1,80,0,0
188349,-71.4285714285714,4,2,1,80,0,0
188675,-83.3333333333333,4,2,1,80,0,0
189001,-71.4285714285714,4,2,1,80,0,0
194435,-500,4,2,1,80,0,0
194870,-55.5555555555556,4,2,1,80,0,0
195304,-71.4285714285714,4,2,1,80,0,0
201392,-71.4285714285714,4,2,1,60,0,0
202914,-333.333333333333,4,2,1,60,0,0
204001,-333.333333333333,4,2,100,60,0,0
204006,-333.333333333333,4,2,1,60,0,0
204870,-125,4,2,1,80,0,0
206392,-66.6666666666667,4,2,1,80,0,0
208349,-55.5555555555556,4,2,1,75,0,0
209218,-71.4285714285714,4,2,1,75,0,0
213783,-83.3333333333333,4,2,1,75,0,0
215740,-55.5555555555556,4,2,1,75,0,0
216175,-71.4285714285714,4,2,1,75,0,0
222262,-55.5555555555556,4,2,1,75,0,0
223131,-71.4285714285714,4,2,1,75,0,0
226175,-55.5555555555556,4,2,1,75,0,0
226609,-71.4285714285714,4,2,1,75,0,0
236175,-125,4,2,1,50,0,0
236609,-125,4,2,1,65,0,0

[Colours]
Combo1 : 112,187,233
Combo2 : 121,221,242
Combo3 : 141,141,222

[HitObjects]
0,123,740,5,2,0:0:0:0:
0,123,849,1,2,0:0:0:0:
0,123,958,1,2,0:0:0:0:
162,57,1175,1,2,0:0:0:0:
93,0,1392,6,0,P|75:62|76:101,1,71.9999949417116,2|0,3:2|0:0,0:0:0:0:
226,194,1827,2,0,P|224:164|213:123,1,71.9999949417116,0|0,3:2|0:0,0:0:0:0:
135,172,2262,5,2,3:2:0:0:
135,172,2370,1,2,0:0:0:0:
301,137,2588,2,0,P|336:130|372:127,1,71.9999949417116,2|0,0:0|0:0,0:0:0:0:
372,128,2914,1,2,0:0:0:0:
292,112,3131,5,2,3:2:0:0:
463,148,3349,1,2,0:0:0:0:
361,215,3566,1,2,3:2:0:0:
396,45,3784,1,2,0:0:0:0:
361,215,4218,5,2,0:0:0:0:
266,195,4435,1,2,3:2:0:0:
202,295,4653,2,0,P|153:317|125:316,1,71.9999949417116,2|0,0:0|3:2,0:0:0:0:
82,261,5088,1,2,0:0:0:0:
285,319,5305,2,0,P|328:350|341:375,1,71.9999949417116,2|2,3:2|0:0,0:0:0:0:
269,239,5740,2,0,P|274:185|289:161,1,71.9999949417116,2|2,3:2|0:0,0:0:0:0:
290,167,6066,1,2,0:0:0:0:
296,163,6175,1,0,3:2:0:0:
337,365,6392,5,2,0:0:0:0:
457,246,6609,2,0,P|421:250|386:258,1,71.9999949417116,2|0,3:2|0:0,0:0:0:0:
178,371,7044,2,0,P|213:366|249:359,1,71.9999949417116,2|0,3:2|0:0,0:0:0:0:
386,258,7479,5,2,3:2:0:0:
296,281,7696,1,2,0:0:0:0:
249,359,7914,1,2,3:2:0:0:
481,277,8131,5,2,0:0:0:0:
481,277,8240,1,0,0:0:0:0:
481,277,8349,2,0,P|492:228|503:176,1,95.9999961853028,6|2,3:1|0:0,0:0:0:0:
301,160,8783,2,0,P|310:113|321:66,1,95.9999961853028,0|0,3:2|0:0,0:0:0:0:
215,237,9218,5,2,3:2:0:0:
410,163,9435,1,2,0:0:0:0:
320,66,9652,1,2,1:2:0:0:
381,290,9870,6,0,P|422:324|517:333,1,143.999994277954,6|0,3:1|0:0,0:0:0:0:
510,335,10305,1,2,3:2:0:0:
303,272,10522,2,0,P|280:276|255:286,1,47.9999980926514,0|0,1:2|0:0,0:0:0:0:
21,334,10740,5,10,0:3:0:0:
18,343,10849,1,8,0:3:0:0:
15,352,10957,1,6,3:3:0:0:
85,381,11066,1,0,1:2:0:0:
164,370,11175,1,2,3:2:0:0:
227,299,11283,1,0,1:2:0:0:
312,262,11392,1,2,1:2:0:0:
388,277,11501,1,8,0:3:0:0:
428,337,11609,2,0,P|423:360|419:384,1,47.9999980926514,6|0,0:3|0:0,0:0:0:0:
243,112,11827,6,0,P|239:88|235:64,1,47.9999980926514,6|0,1:2|0:0,0:0:0:0:
169,208,12044,2,0,P|142:212|115:216,1,53.9999962062837,6|0,1:3|0:0,0:0:0:0:
269,274,12262,2,0,P|273:303|278:333,1,59.9999976158143,6|0,1:3|0:0,0:0:0:0:
340,179,12479,2,0,P|372:173|405:168,1,65.9999993915558,6|0,1:3|0:0,0:0:0:0:
102,119,12696,5,6,1:3:0:0:
278,333,12914,1,6,1:3:0:0:
386,76,13131,1,6,1:3:0:0:
256,192,13349,6,0,B|379:172|340:258|467:222,1,215.999984825135,6|0,3:2|0:0,0:0:0:0:
477,225,13783,6,0,P|469:189|467:153,1,71.9999949417116,2|0,1:2|0:0,0:0:0:0:
205,247,14001,1,2,3:2:0:0:
162,310,14109,2,0,P|169:345|171:381,1,71.9999949417116,0|2,1:2|0:0,0:0:0:0:
382,202,14327,5,0,3:2:0:0:
298,175,14436,1,2,1:2:0:0:
350,246,14545,1,8,0:3:0:0:
350,158,14654,1,6,0:3:0:0:
298,229,14762,1,4,0:3:0:0:
477,225,14870,6,0,P|328:204|156:178,1,323.999977237702,6|0,1:2|0:0,0:0:0:0:
13,179,15305,5,6,3:1:0:0:
226,96,15522,1,2,0:0:0:0:
13,179,15740,6,0,P|117:190|176:285,1,215.999984825135,2|0,1:2|0:0,0:0:0:0:
175,277,16066,1,0,0:0:0:0:
304,119,16175,2,0,P|303:77|284:40,1,83.9999940986636,0|0,3:2|1:2,0:0:0:0:
156,178,16392,6,0,B|215:187|178:198|239:207,1,83.9999940986636,2|0,3:2|0:0,0:0:0:0:
479,92,16609,2,0,B|420:83|457:72|396:63,1,83.9999940986636,2|0,1:2|0:0,0:0:0:0:
284,40,16827,6,0,P|307:156|461:124,1,251.999982295991,2|0,0:0|0:0,0:0:0:0:
432,162,17262,2,0,P|409:203|404:241,1,83.9999940986636,2|0,0:0|0:0,0:0:0:0:
177,77,17479,2,0,P|200:36|205:-2,1,83.9999940986636,2|0,1:2|0:0,0:0:0:0:
405,249,17696,2,0,P|370:267|324:272,1,83.9999940986636
98,123,17914,5,2,3:2:0:0:
174,71,18022,1,0,1:2:0:0:
254,111,18131,2,0,P|270:148|275:191,1,83.9999940986636,2|0,3:2|0:0,0:0:0:0:
0,379,18349,2,0,P|24:345|59:319,1,83.9999940986636,2|0,1:2|0:0,0:0:0:0:
233,294,18566,2,0,P|191:289|152:272,1,83.9999940986636,2|0,0:0|0:0,0:0:0:0:
16,137,18783,6,0,B|29:198|38:165|45:215,1,83.9999940986636,2|0,3:2|0:0,0:0:0:0:
268,382,19001,2,0,B|254:320|245:353|238:303,1,83.9999940986636,2|0,0:0|0:0,0:0:0:0:
172,190,19218,6,0,P|86:207|59:323,1,215.999984825135,2|0,1:2|0:0,0:0:0:0:
63,328,19508,1,0,0:0:0:0:
70,335,19580,1,0,0:0:0:0:
76,341,19653,2,0,B|137:354|104:363|154:370,1,83.9999940986636,0|0,3:2|1:2,0:0:0:0:
322,291,19870,6,0,P|327:249|338:208,1,83.9999940986636,2|0,3:2|0:0,0:0:0:0:
197,96,20088,2,0,P|191:137|180:178,1,83.9999940986636,2|0,1:2|0:0,0:0:0:0:
256,343,20305,5,2,0:0:0:0:
331,375,20414,1,0,0:0:0:0:
393,329,20522,1,0,3:2:0:0:
172,190,20740,6,0,P|66:186|25:51,1,251.999982295991,2|0,0:0|0:0,0:0:0:0:
27,56,21175,2,0,B|84:52|51:40|107:36,1,83.9999940986636,2|0,0:0|0:0,0:0:0:0:
247,211,21392,1,2,3:2:0:0:
191,267,21501,1,0,1:2:0:0:
111,245,21609,2,0,B|54:249|87:261|30:264,1,83.9999940986636,2|0,3:2|0:0,0:0:0:0:
139,113,21827,6,0,P|160:148|170:188,1,83.9999940986636,2|0,1:2|0:0,0:0:0:0:
306,372,22044,2,0,P|284:336|274:296,1,83.9999940986636,2|0,0:0|0:0,0:0:0:0:
262,136,22262,5,6,3:1:0:0:
203,345,22479,1,2,0:0:0:0:
262,136,22696,6,0,P|411:147|457:217,1,215.999984825135,2|0,1:2|0:0,0:0:0:0:
447,191,23022,1,0,0:0:0:0:
476,61,23131,2,0,P|442:88|403:101,1,83.9999940986636,0|0,3:2|1:2,0:0:0:0:
295,225,23349,6,0,B|352:236|322:247|373:253,1,83.9999940986636,2|0,3:2|0:0,0:0:0:0:
242,47,23566,2,0,B|191:41|218:29|164:19,1,83.9999940986636,2|0,1:2|0:0,0:0:0:0:
0,215,23783,6,0,P|130:207|150:82,1,251.999982295991,2|0,0:0|0:0,0:0:0:0:
157,97,24218,2,0,P|131:131|122:172,1,83.9999940986636,2|0,0:0|0:0,0:0:0:0:
315,377,24435,2,0,P|298:337|267:309,1,83.9999940986636,2|0,1:2|0:0,0:0:0:0:
87,255,24653,2,0,P|129:260|169:247,1,83.9999940986636
367,207,24870,5,2,3:2:0:0:
417,275,24979,1,0,1:2:0:0:
399,353,25088,2,0,B|342:364|372:375|321:381,1,83.9999940986636,2|0,3:2|0:0,0:0:0:0:
267,203,25305,6,0,P|279:162|285:121,1,83.9999940986636,2|0,1:2|0:0,0:0:0:0:
505,302,25522,2,0,P|493:342|487:383,1,83.9999940986636,2|0,0:0|0:0,0:0:0:0:
289,113,25740,6,0,P|320:86|362:78,1,83.9999940986636,2|0,3:2|0:0,0:0:0:0:
268,285,25957,2,0,P|227:277|195:249,1,83.9999940986636,2|0,0:0|0:0,0:0:0:0:
0,173,26175,6,0,P|129:167|166:82,1,215.999984825135,2|0,1:2|0:0,0:0:0:0:
164,91,26464,1,0,0:0:0:0:
161,83,26537,1,0,0:0:0:0:
159,75,26609,1,0,3:2:0:0:
101,216,26827,6,0,P|116:257|115:298,1,83.9999940986636,2|0,3:2|0:0,0:0:0:0:
265,112,27044,2,0,P|250:71|250:29,1,83.9999940986636,2|0,1:2|0:0,0:0:0:0:
77,5,27262,5,6,3:1:0:0:
73,17,27370,1,2,0:0:0:0:
2,51,27479,5,2,0:0:0:0:
59,96,27588,1,2,0:0:0:0:
127,78,27696,1,2,3:2:0:0:
129,68,27805,1,0,0:0:0:0:
144,157,27914,5,2,1:2:0:0:
219,154,28022,1,2,0:0:0:0:
265,94,28131,1,10,0:3:0:0:
260,84,28240,1,0,1:2:0:0:
334,146,28349,5,6,3:3:0:0:
403,104,28457,1,2,1:2:0:0:
394,25,28566,1,6,3:3:0:0:
390,15,28675,1,0,1:2:0:0:
321,158,28783,5,2,1:2:0:0:
290,225,28892,5,2,1:2:0:0:
311,300,29001,5,2,1:2:0:0:
383,350,29109,5,2,1:2:0:0:
480,355,29218,6,0,P|484:310|493:259,1,95.9999961853028,6|0,3:1|0:0,0:0:0:0:
280,230,29653,2,0,P|276:275|266:325,1,95.9999961853028,2|2,3:2|0:0,0:0:0:0:
395,195,30088,2,0,B|383:129|376:166|364:104,1,95.9999961853028,2|2,3:2|0:0,0:0:0:0:
364,104,30414,1,0,0:0:0:0:
364,104,30522,1,2,3:2:0:0:
512,0,30740,6,0,P|470:41|421:34,1,95.9999961853028,2|0,0:0|3:2,0:0:0:0:
332,8,31175,1,2,0:0:0:0:
286,155,31392,1,0,3:2:0:0:
286,155,31501,2,0,P|229:139|211:93,1,95.9999961853028
217,102,31827,1,0,3:2:0:0:
124,181,32044,5,2,0:0:0:0:
124,181,32153,1,0,0:0:0:0:
124,181,32262,1,2,1:2:0:0:
15,146,32479,1,2,0:0:0:0:
224,101,32696,6,0,P|235:54|249:8,1,95.9999961853028,2|0,3:2|0:0,0:0:0:0:
248,8,33022,1,0,0:0:0:0:
248,8,33131,1,2,3:2:0:0:
309,240,33349,2,0,P|289:308|282:340,1,95.9999961853028,2|0,0:0|3:2,0:0:0:0:
218,196,33783,5,2,0:0:0:0:
380,322,34001,1,2,3:2:0:0:
205,381,34218,2,0,P|158:379|117:350,1,95.9999961853028,2|0,0:0|3:2,0:0:0:0:
9,200,34653,5,2,0:0:0:0:
9,200,34762,1,0,0:0:0:0:
9,200,34870,1,0,3:2:0:0:
9,200,34979,2,0,P|61:195|104:186,1,95.9999961853028
103,186,35305,1,0,3:2:0:0:
194,295,35522,1,2,0:0:0:0:
194,295,35631,2,0,P|241:286|288:281,1,95.9999961853028
288,281,35956,1,0,0:0:0:0:
403,247,36175,6,0,P|394:294|390:342,1,95.9999961853028,2|2,3:2|0:0,0:0:0:0:
249,176,36609,2,0,P|257:128|261:80,1,95.9999961853028,2|2,3:2|0:0,0:0:0:0:
500,9,37044,2,0,P|491:56|487:104,1,95.9999961853028,2|0,3:2|0:0,0:0:0:0:
488,104,37370,1,0,0:0:0:0:
488,104,37479,1,2,3:2:0:0:
333,87,37696,6,0,P|369:50|422:50,1,95.9999961853028,2|0,0:0|3:2,0:0:0:0:
506,192,38131,1,2,0:0:0:0:
410,229,38349,1,0,3:2:0:0:
410,229,38457,2,0,P|359:216|333:170,1,95.9999961853028
335,181,38783,1,0,3:2:0:0:
246,252,39001,5,2,0:0:0:0:
246,252,39109,1,0,0:0:0:0:
246,252,39218,1,2,1:2:0:0:
128,212,39435,1,2,0:0:0:0:
0,324,39653,6,0,P|53:339|95:360,1,95.9999961853028,2|0,3:2|0:0,0:0:0:0:
265,162,40088,2,0,P|212:147|170:126,1,95.9999961853028,2|2,3:2|0:0,0:0:0:0:
9,55,40522,1,2,3:2:0:0:
36,211,40740,1,2,0:0:0:0:
36,211,40849,1,0,0:0:0:0:
36,211,40957,1,2,3:2:0:0:
278,158,41175,6,0,P|400:171|468:271,1,215.999984825135,6|0,1:1|0:0,0:0:0:0:
465,245,41609,2,0,P|476:204|491:172,1,71.9999949417116,2|0,1:2|0:0,0:0:0:0:
456,6,41827,2,0,P|447:40|432:73,1,71.9999949417116,6|0,1:2|0:0,0:0:0:0:
342,113,42044,1,2,0:0:0:0:
166,9,42262,6,0,P|138:12|84:118,1,143.999989883423,0|2,1:2|0:0,0:0:0:0:
24,191,42588,1,8,0:3:0:0:
15,199,42696,2,0,P|10:163|0:128,1,71.9999949417116,6|0,3:3|0:0,0:0:0:0:
163,90,42914,2,0,P|167:125|178:160,1,71.9999949417116,4|0,0:3|0:0,0:0:0:0:
247,324,43131,6,0,P|267:283|269:239,1,71.9999971389771,14|0,1:2|0:0,0:0:0:0:
112,202,43566,2,0,P|90:241|88:285,1,71.9999971389771,10|0,1:2|0:0,0:0:0:0:
271,258,44001,6,0,P|256:212|227:181,1,71.9999949417116,8|2,1:2|0:0,0:0:0:0:
112,202,44327,1,8,1:2:0:0:
86,267,44435,2,0,P|98:310|127:342,1,71.9999949417116,2|0,3:2|0:0,0:0:0:0:
241,193,44653,6,0,P|209:174|173:168,1,71.9999949417116,10|0,1:2|0:0,0:0:0:0:
114,331,44870,2,0,P|143:349|180:354,1,71.9999949417116,8|0,3:2|0:0,0:0:0:0:
388,183,45088,5,2,1:2:0:0:
410,130,45196,1,2,0:0:0:0:
386,82,45305,1,10,1:2:0:0:
415,254,45522,1,2,0:0:0:0:
447,297,45630,1,2,0:0:0:0:
500,303,45739,1,10,1:2:0:0:
339,244,45957,1,2,0:0:0:0:
286,250,46065,1,8,1:2:0:0:
254,296,46174,1,2,3:2:0:0:
503,171,46392,5,10,1:2:0:0:
254,296,46609,6,0,P|208:288|172:264,1,71.9999971389771,10|0,1:2|0:0,0:0:0:0:
236,113,47044,2,0,P|280:118|317:142,1,71.9999971389771,10|0,1:2|0:0,0:0:0:0:
186,275,47479,6,0,P|157:236|149:194,1,71.9999949417116,8|2,1:2|0:0,0:0:0:0:
236,113,47805,1,8,1:2:0:0:
304,130,47913,2,0,P|331:165|340:207,1,71.9999949417116,2|0,3:2|0:0,0:0:0:0:
150,214,48131,6,0,P|153:177|170:144,1,71.9999949417116,10|0,1:2|0:0,0:0:0:0:
338,191,48348,2,0,P|335:225|317:259,1,71.9999949417116,8|0,3:2|0:0,0:0:0:0:
89,317,48566,6,0,P|85:287|81:257,1,59.9999976158143,2|0,1:2|0:0,0:0:0:0:
52,187,48783,1,8,1:2:0:0:
0,245,48892,2,0,P|11:304|19:364,1,119.999995231629,2|0,0:0|0:0,0:0:0:0:
168,332,49218,6,0,P|157:273|150:214,1,119.999995231629,10|0,1:2|0:0,0:0:0:0:
201,139,49544,1,10,1:2:0:0:
273,175,49653,2,0,P|302:180|332:184,1,59.9999976158143,0|0,3:2|0:0,0:0:0:0:
163,337,49870,2,0,P|133:332|103:329,1,59.9999976158143,10|0,1:2|0:0,0:0:0:0:
38,104,50088,6,0,P|45:57|69:21,1,71.9999971389771,14|0,1:2|0:0,0:0:0:0:
220,85,50523,2,0,P|214:128|190:166,1,71.9999971389771,10|0,1:2|0:0,0:0:0:0:
56,35,50958,6,0,P|95:5|136:-1,1,71.9999949417116,8|2,1:2|0:0,0:0:0:0:
220,85,51283,1,8,1:2:0:0:
200,152,51392,2,0,P|165:179|123:187,1,71.9999949417116,2|0,3:2|0:0,0:0:0:0:
116,0,51610,6,0,P|153:2|186:19,1,71.9999949417116,10|0,1:2|0:0,0:0:0:0:
138,186,51827,2,0,P|104:183|70:165,1,71.9999949417116,8|0,3:2|0:0,0:0:0:0:
135,91,52044,5,2,1:2:0:0:
284,132,52262,1,10,1:2:0:0:
433,173,52479,1,2,0:0:0:0:
385,43,52696,5,10,1:2:0:0:
212,226,52914,1,2,0:0:0:0:
194,241,53022,1,8,1:2:0:0:
177,254,53131,2,0,P|174:217|166:182,1,71.9999949417116,2|0,3:2|0:0,0:0:0:0:
277,49,53349,2,0,P|280:86|287:120,1,71.9999949417116,10|0,1:2|0:0,0:0:0:0:
338,213,53566,5,4,3:1:0:0:
166,183,53783,1,6,1:3:0:0:
277,49,54000,5,4,1:3:0:0:
225,330,54217,1,6,1:3:0:0:
119,70,54435,6,0,P|165:65|190:59,1,71.9999949417116,4|0,1:3|0:0,0:0:0:0:
393,314,54653,2,0,P|347:319|321:324,1,71.9999949417116,6|0,1:3|0:0,0:0:0:0:
129,384,54870,6,0,P|136:348|139:312,1,71.9999949417116,6|0,1:3|0:0,0:0:0:0:
368,0,55088,2,0,P|361:35|357:71,1,71.9999949417116,2|0,3:2|0:0,0:0:0:0:
198,241,55305,5,2,1:2:0:0:
241,117,55414,1,2,1:2:0:0:
328,216,55522,1,0,3:2:0:0:
256,192,55740,5,0,3:2:0:0:
112,202,55957,5,2,1:2:0:0:
256,192,56066,1,2,1:2:0:0:
399,181,56175,1,0,3:2:0:0:
106,208,56392,6,0,P|113:181|116:161,1,47.9999980926514,2|2,3:2|0:0,0:0:0:0:
250,0,56609,5,2,1:2:0:0:
261,105,56718,5,0,1:2:0:0:
211,195,56827,5,2,1:2:0:0:
110,220,56935,5,0,1:2:0:0:
6,202,57044,6,0,L|1:165,1,35.9999985694886,6|0,3:1|0:0,0:0:0:0:
1,166,57479,6,2,P|131:173|202:350,1,323.999977237702,10|0,1:1|0:1,0:1:0:0:
206,333,57914,1,2,3:2:0:0:
380,285,58022,1,2,1:2:0:0:
242,174,58131,1,0,3:2:0:0:
321,361,58240,2,0,P|391:379|471:319,1,167.999988197327,2|0,0:0|0:0,0:0:0:0:
356,145,58566,2,0,P|328:183|328:226,1,83.9999940986636,2|0,0:0|0:0,0:0:0:0:
199,348,58783,6,0,P|191:295|185:265,1,83.9999940986636,2|0,3:2|0:0,0:0:0:0:
78,133,59001,2,0,P|38:118|0:102,1,83.9999940986636,2|0,0:0|0:0,0:0:0:0:
27,291,59218,6,0,P|60:265|92:238,1,83.9999940986636,10|0,1:1|0:0,0:0:0:0:
158,82,59435,2,0,P|150:29|144:0,1,83.9999940986636,2|0,0:0|0:0,0:0:0:0:
183,259,59653,5,0,3:2:0:0:
161,91,59762,1,0,1:2:0:0:
185,265,59870,2,0,P|193:306|199:348,1,83.9999940986636,2|0,3:2|0:0,0:0:0:0:
171,177,60088,5,8,1:1:0:0:
490,19,60305,6,0,P|503:101|375:179,1,251.999982295991,2|0,0:0|0:0,0:0:0:0:
87,51,60740,2,0,P|123:17|170:12,1,83.9999940986636,2|0,0:0|0:0,0:0:0:0:
377,187,60957,2,0,P|361:225|355:267,1,83.9999940986636,10|0,1:1|0:0,0:0:0:0:
140,171,61175,2,0,P|155:132|161:90,1,83.9999940986636,2|0,0:0|0:0,0:0:0:0:
357,280,61392,5,2,3:2:0:0:
289,336,61501,1,0,1:2:0:0:
206,313,61610,1,2,3:2:0:0:
354,267,61718,6,0,P|407:279|465:393,1,167.999988197327,2|0,0:0|0:0,0:0:0:0:
269,255,62044,2,0,P|264:210|253:172,1,83.9999940986636,2|0,0:0|0:0,0:0:0:0:
510,89,62262,6,0,B|448:99|489:112|418:121,1,83.9999940986636,2|0,3:2|0:0,0:0:0:0:
253,172,62479,2,0,B|191:182|232:195|161:204,1,83.9999940986636,2|0,0:0|0:0,0:0:0:0:
78,81,62696,6,0,B|140:91|99:104|170:113,1,83.9999940986636,10|0,1:1|0:0,0:0:0:0:
364,178,62913,2,0,B|426:188|385:201|456:210,1,83.9999940986636,2|0,0:0|0:0,0:0:0:0:
269,255,63131,5,0,3:2:0:0:
312,95,63240,1,0,1:2:0:0:
267,264,63349,2,0,P|258:301|247:345,1,83.9999940986636,2|0,3:2|0:0,0:0:0:0:
230,137,63566,2,0,P|202:110|168:79,1,83.9999940986636,10|0,1:1|0:0,0:0:0:0:
364,178,63783,2,0,P|400:167|444:153,1,83.9999940986636,2|0,0:0|0:0,0:0:0:0:
48,256,64001,6,0,L|12:266,1,35.9999985694886,6|0,3:1|0:0,0:0:0:0:
14,265,64435,6,2,P|33:171|249:155,1,323.999977237702,10|0,1:1|0:0,0:1:0:0:
231,138,64870,1,2,3:2:0:0:
271,50,64979,1,2,1:2:0:0:
137,149,65088,1,0,3:2:0:0:
295,217,65196,2,0,P|373:228|461:158,1,167.999988197327,2|0,0:0|0:0,0:0:0:0:
193,239,65522,2,0,P|173:271|172:337,1,83.9999940986636,2|0,0:0|0:0,0:0:0:0:
12,215,65740,6,0,B|73:207|40:233|118:215,1,83.9999940986636,2|0,3:2|0:0,0:0:0:0:
260,303,65957,2,0,B|321:295|288:321|366:303,1,83.9999940986636,2|0,0:0|0:0,0:0:0:0:
108,384,66175,6,0,P|88:351|87:286,1,83.9999940986636,10|0,1:1|0:0,0:0:0:0:
304,150,66392,2,0,P|324:182|325:248,1,83.9999940986636,2|0,0:0|0:0,0:0:0:0:
33,126,66609,5,0,3:2:0:0:
9,51,66718,1,0,1:2:0:0:
71,4,66827,2,0,P|113:19|152:27,1,83.9999940986636,2|0,3:2|0:0,0:0:0:0:
329,227,67044,2,0,P|370:235|409:249,1,83.9999940986636,10|0,1:1|0:0,0:0:0:0:
369,83,67262,6,0,P|252:73|214:194,1,251.999982295991,2|0,0:0|0:0,0:0:0:0:
82,306,67696,2,0,B|24:315|58:325|2:329,1,83.9999940986636,2|0,0:0|0:0,0:0:0:0:
210,182,67914,2,0,P|230:219|234:260,1,83.9999940986636,10|0,1:1|0:0,0:0:0:0:
33,126,68131,2,0,P|41:84|49:30,1,83.9999940986636,2|0,0:0|0:0,0:0:0:0:
340,1,68349,5,2,3:2:0:0:
369,83,68457,1,0,1:2:0:0:
298,133,68566,2,0,B|246:125|276:110|215:104,1,83.9999940986636,2|0,3:2|0:0,0:0:0:0:
406,227,68783,2,0,B|461:232|431:247|483:255,1,83.9999940986636,10|0,1:1|0:0,0:0:0:0:
450,130,69001,6,0,P|329:151|302:269,1,251.999982295991,2|0,0:0|0:0,0:0:0:0:
471,338,69435,2,0,P|475:288|482:254,1,83.9999940986636,2|0,0:0|0:0,0:0:0:0:
220,104,69653,2,0,P|216:154|208:187,1,83.9999940986636,6|0,1:1|0:0,0:0:0:0:
142,305,69870,5,2,1:2:0:0:
57,317,69979,1,8,0:3:0:0:
0,379,70088,1,4,3:3:0:0:
12,192,70305,6,0,B|71:210|37:218|86:229,1,83.9999940986636,6|0,3:3|0:0,0:0:0:0:
225,325,70522,2,0,B|284:343|250:351|299:362,1,83.9999940986636,2|0,1:2|0:0,0:0:0:0:
208,186,70740,5,2,1:2:0:0:
114,384,70849,1,0,1:2:0:0:
218,177,70957,6,0,L|225:137,1,35.9999985694886,6|0,3:1|0:0,0:0:0:0:
224,141,71392,6,2,P|75:143|43:292,1,323.999977237702,10|0,1:1|0:0,0:1:0:0:
42,290,71827,1,2,3:2:0:0:
199,384,71935,1,2,1:2:0:0:
114,230,72044,1,0,3:2:0:0:
0,370,72153,6,0,P|88:369|127:276,1,167.999988197327,2|0,0:0|0:0,0:0:0:0:
331,105,72479,2,0,P|309:141|308:193,1,83.9999940986636,2|0,0:0|0:0,0:0:0:0:
415,337,72696,6,0,B|471:349|441:359|492:368,1,83.9999940986636,2|0,3:2|0:0,0:0:0:0:
305,181,72914,2,0,B|249:169|279:159|228:150,1,83.9999940986636,2|0,0:0|0:0,0:0:0:0:
400,49,73131,6,0,P|416:87|415:128,1,83.9999940986636,10|0,1:1|0:0,0:0:0:0:
158,205,73349,2,0,P|141:166|142:125,1,83.9999940986636,2|0,0:0|0:0,0:0:0:0:
396,251,73566,5,0,3:2:0:0:
415,337,73675,1,0,1:2:0:0:
337,384,73783,2,0,P|293:378|254:348,1,83.9999940986636,2|0,3:2|0:0,0:0:0:0:
150,216,74001,1,8,1:1:0:0:
327,301,74218,6,0,P|193:315|86:371,1,251.999982295991,2|0,0:0|0:0,0:0:0:0:
3,232,74653,2,0,B|59:243|25:255|82:266,1,83.9999940986636,2|0,0:0|0:0,0:0:0:0:
183,361,74870,2,0,P|209:330|215:289,1,83.9999940986636,10|0,1:1|0:0,0:0:0:0:
425,194,75088,6,0,P|486:251|482:337,1,167.999988197327,2|0,0:0|3:2,0:0:0:0:
337,190,75414,1,0,1:2:0:0:
298,113,75522,2,0,P|300:71|321:35,1,83.9999940986636,2|0,3:2|0:0,0:0:0:0:
290,260,75740,2,0,P|255:283|213:287,1,83.9999940986636,10|0,1:1|0:0,0:0:0:0:
31,102,75957,6,0,P|120:93|229:218,1,251.999982295991,2|0,0:0|0:0,0:0:0:0:
213,287,76392,1,2,0:0:0:0:
333,25,76609,2,0,B|226:40|293:78|185:96,1,167.999988197327,10|0,1:1|0:0,0:0:0:0:
0,291,77044,5,2,3:2:0:0:
43,359,77153,1,0,1:2:0:0:
120,344,77262,2,0,B|176:355|142:362|198:371,1,83.9999940986636,2|0,3:2|0:0,0:0:0:0:
25,202,77479,2,0,P|3:240|0:283,1,83.9999940986636,10|0,1:1|0:0,0:0:0:0:
204,378,77696,2,0,P|226:340|229:297,1,83.9999940986636,2|0,0:0|0:0,0:0:0:0:
476,102,77914,6,0,L|517:93,1,35.9999985694886,4|0,3:1|0:0,0:0:0:0:
512,95,78349,6,0,P|433:231|292:197,1,323.999977237702,8|0,1:1|0:0,0:1:0:0:
231,134,78783,2,0,P|209:173|206:214,1,83.9999940986636,2|0,3:2|1:2,0:0:0:0:
350,263,79001,2,0,P|372:224|376:182,1,83.9999940986636,2|0,3:2|0:0,0:0:0:0:
315,110,79218,1,10,1:1:0:0:
488,379,79435,6,0,P|420:306|269:321,1,251.999982295991,6|0,3:1|0:0,0:0:0:0:
231,382,79870,2,0,P|203:350|199:309,1,83.9999940986636,2|0,3:2|0:0,0:0:0:0:
20,44,80088,6,0,P|71:114|74:199,1,167.999988197327,8|10,1:1|0:3,0:0:0:0:
14,258,80414,1,0,0:0:0:0:
67,285,80522,1,6,3:3:0:0:
121,275,80631,1,0,0:0:0:0:
161,230,80740,1,6,3:3:0:0:
374,355,80957,6,0,P|383:272|431:203,1,167.999988197327,6|2,1:2|0:0,0:0:0:0:
430,203,81283,1,0,0:0:0:0:
496,269,81392,2,0,P|448:291|413:286,1,83.9999940986636,4|0,3:1|0:0,0:0:0:0:
241,102,81609,6,0,P|230:47|221:6,1,83.9999940986636,2|0,0:0|0:0,0:0:0:0:
344,220,81827,2,0,P|384:233|424:246,1,83.9999940986636,10|0,1:1|0:0,0:0:0:0:
188,253,82044,2,0,P|157:280|126:308,1,83.9999940986636,2|0,0:0|0:0,0:0:0:0:
256,192,82262,1,2,3:2:0:0:
60,0,82479,5,2,0:0:0:0:
6,69,82588,1,0,1:2:0:0:
69,131,82696,2,0,B|126:142|85:149|147:159,1,83.9999940986636,10|0,1:1|0:0,0:0:0:0:
501,286,82914,6,0,P|376:278|290:366,1,251.999982295991,6|0,3:1|0:0,0:0:0:0:
291,362,83349,2,0,P|283:315|274:279,1,83.9999940986636,2|0,3:2|0:0,0:0:0:0:
241,102,83566,1,6,1:2:0:0:
512,10,83783,5,2,0:0:0:0:
469,82,83892,1,0,1:2:0:0:
380,74,84000,2,0,B|323:63|364:56|302:46,1,83.9999940986636,10|0,1:1|0:0,0:0:0:0:
8,170,84218,5,0,1:2:0:0:
36,254,84327,1,0,1:2:0:0:
107,310,84436,1,10,1:1:0:0:
198,317,84544,1,0,1:2:0:0:
274,279,84653,1,0,1:2:0:0:
512,384,84870,5,4,3:1:0:0:
372,221,85088,2,0,P|381:174|394:127,2,95.9999961853028,2|2|2,0:0|1:2|0:0,0:0:0:0:
355,343,85740,1,2,3:2:0:0:
359,359,85849,1,0,1:2:0:0:
363,374,85958,1,2,3:2:0:0:
472,248,86175,1,2,1:2:0:0:
272,180,86392,6,0,P|200:178|139:141,1,143.999994277954,2|0,0:0|0:0,0:0:0:0:
136,131,86827,1,2,0:0:0:0:
134,122,86935,1,2,0:0:0:0:
133,112,87044,1,2,1:2:0:0:
207,290,87262,2,0,P|197:333|189:384,1,95.9999961853028,2|0,0:0|3:2,0:0:0:0:
189,384,87588,1,0,1:2:0:0:
189,384,87696,1,2,3:2:0:0:
117,255,87914,1,2,1:2:0:0:
2,353,88131,2,0,P|12:310|19:258,1,95.9999961853028,2|0,0:0|3:2,0:0:0:0:
77,46,88566,5,2,0:0:0:0:
213,198,88783,1,2,1:2:0:0:
20,259,89001,1,2,0:0:0:0:
92,151,89218,1,2,3:2:0:0:
92,151,89327,1,0,1:2:0:0:
92,151,89435,1,2,3:2:0:0:
207,290,89653,1,2,1:2:0:0:
412,184,89870,6,0,P|457:170|505:168,1,95.9999961853028,2|0,0:0|3:2,0:0:0:0:
312,89,90305,2,0,P|323:42|345:0,1,95.9999961853028,2|2,0:0|1:2,0:0:0:0:
178,105,90740,2,0,P|143:71|118:31,1,95.9999961853028,2|0,0:0|3:2,0:0:0:0:
122,24,91066,1,0,1:2:0:0:
126,17,91175,2,0,L|117:72,1,47.9999980926514,2|0,3:2|1:2,0:0:0:0:
83,269,91392,6,0,L|76:314,7,23.9999990463257,2|2|2|2|8|2|2|2,1:2|0:0|0:0|0:0|0:3|0:0|0:0|0:0,0:0:0:0:
100,182,91827,5,6,3:2:0:0:
164,367,92044,2,0,P|139:370|116:375,1,47.9999980926514
0,251,92262,2,0,P|25:248|47:242,1,47.9999980926514,2|0,1:2|0:0,0:0:0:0:
175,220,92479,1,2,0:0:0:0:
360,298,92696,5,2,3:2:0:0:
406,303,92805,1,0,1:2:0:0:
444,279,92914,1,2,3:2:0:0:
277,369,93131,1,2,1:2:0:0:
386,212,93349,2,0,P|384:140|316:44,1,179.999992847443,2|0,0:0|0:0,0:0:0:0:
327,51,93783,1,2,0:0:0:0:
487,9,94001,6,0,P|472:41|451:57,1,59.9999976158143,2|0,1:2|0:0,0:0:0:0:
260,156,94218,2,0,P|209:122|137:117,1,119.999995231629,2|0,0:0|3:2,0:0:0:0:
148,123,94544,1,0,1:2:0:0:
89,59,94653,2,0,P|98:30|106:1,1,59.9999976158143,2|0,3:2|0:0,0:0:0:0:
243,26,94870,2,0,P|233:54|225:83,1,59.9999976158143,2|0,1:2|0:0,0:0:0:0:
29,279,95088,6,0,L|0:285,6,29.9999988079071,2|2|2|2|0|2|2,0:0|0:0|0:0|0:0|3:2|0:0|0:0,0:0:0:0:
110,264,95522,1,2,0:0:0:0:
320,340,95740,1,2,1:2:0:0:
252,384,95849,1,2,0:0:0:0:
177,361,95957,2,0,P|145:277|161:187,1,179.999992847443,2|0,0:0|1:2,0:0:0:0:
174,181,96392,6,0,P|208:192|244:199,1,59.9999976158143,2|0,3:2|0:0,0:0:0:0:
443,336,96609,2,0,P|472:342|500:352,1,59.9999976158143,2|2,1:2|0:0,0:0:0:0:
370,269,96827,6,0,B|309:281|309:281|274:315|274:315|196:332,1,179.999992847443,6|0,3:1|0:0,0:0:0:0:
193,335,97262,2,0,P|199:301|202:275,1,59.9999976158143,2|0,3:2|0:0,0:0:0:0:
383,270,97479,2,0,P|386:240|392:210,1,59.9999976158143,2|2,1:2|0:0,0:0:0:0:
464,78,97696,5,0,1:2:0:0:
403,37,97805,1,0,1:2:0:0:
341,55,97914,1,2,3:2:0:0:
232,148,98131,1,10,0:3:0:0:
121,171,98349,1,2,3:2:0:0:
82,158,98457,1,6,0:3:0:0:
66,137,98566,1,4,0:3:0:0:
39,57,98783,5,6,3:2:0:0:
260,166,109001,5,10,0:3:0:0:
257,179,109073,1,8,0:3:0:0:
255,192,109146,1,4,0:3:0:0:
252,205,109218,1,2,1:2:0:0:
145,163,110305,5,6,3:3:0:0:
367,210,110522,1,0,1:2:0:0:
135,162,110740,6,0,P|103:213|107:302,1,143.999994277954,6|0,3:2|0:0,0:0:0:0:
94,384,111175,6,0,B|139:377|121:368|163:361,1,71.9999949417116,6|0,1:3|0:0,0:0:0:0:
300,271,111392,2,0,B|314:233|297:244|314:201,1,71.9999949417116,4|0,1:3|0:0,0:0:0:0:
157,235,111609,6,0,B|186:271|184:251|210:282,1,71.9999949417116,6|0,1:3|0:0,0:0:0:0:
379,318,111827,2,0,B|418:311|400:302|446:295,1,71.9999949417116,4|0,1:3|0:0,0:0:0:0:
313,201,112044,5,2,3:2:0:0:
308,177,112153,1,0,1:2:0:0:
302,154,112262,1,2,1:2:0:0:
272,375,112479,1,10,0:3:0:0:
495,221,112696,6,0,P|487:176|462:139,1,71.9999971389771,14|0,1:2|0:0,0:0:0:0:
314,201,113131,2,0,P|319:245|343:282,1,71.9999971389771,10|0,1:2|0:0,0:0:0:0:
474,153,113566,6,0,P|434:124|393:116,1,71.9999949417116,8|2,1:2|0:0,0:0:0:0:
314,201,113892,1,8,1:2:0:0:
331,269,114000,2,0,P|365:296|408:305,1,71.9999949417116,2|0,3:2|0:0,0:0:0:0:
412,117,114218,6,0,P|374:120|342:136,1,71.9999949417116,10|0,1:2|0:0,0:0:0:0:
391,304,114435,2,0,P|425:301|457:283,1,71.9999949417116,8|0,3:2|0:0,0:0:0:0:
401,213,114653,5,2,1:2:0:0:
257,318,114870,1,10,1:2:0:0:
61,265,115088,1,2,0:0:0:0:
141,376,115305,5,10,1:2:0:0:
175,226,115522,1,2,0:0:0:0:
178,214,115631,1,8,1:2:0:0:
181,200,115740,1,2,3:2:0:0:
214,62,115957,1,10,1:2:0:0:
175,226,116175,6,0,P|135:248|91:252,1,71.9999971389771,10|0,1:2|0:0,0:0:0:0:
46,97,116610,2,0,P|83:72|127:68,1,71.9999971389771,10|0,1:2|0:0,0:0:0:0:
109,252,117045,6,0,P|62:239|29:212,1,71.9999949417116,8|2,1:2|0:0,0:0:0:0:
46,97,117371,1,8,1:2:0:0:
109,66,117479,2,0,P|152:75|186:103,1,71.9999949417116,2|0,3:2|0:0,0:0:0:0:
43,226,117697,6,0,P|22:195|14:159,1,71.9999949417116,10|0,1:2|0:0,0:0:0:0:
174,90,117914,2,0,P|193:118|200:154,1,71.9999949417116,8|0,3:2|0:0,0:0:0:0:
305,293,118131,6,0,P|335:289|365:285,1,59.9999976158143,2|0,1:2|0:0,0:0:0:0:
377,204,118348,1,8,1:2:0:0:
377,204,118457,2,0,P|318:215|258:223,1,119.999995231629,2|0,0:0|0:0,0:0:0:0:
290,372,118783,6,0,P|348:361|408:353,1,119.999995231629,10|0,1:2|0:0,0:0:0:0:
488,384,119109,1,10,1:2:0:0:
488,384,119218,2,0,P|491:354|497:324,1,59.9999976158143,0|0,3:2|0:0,0:0:0:0:
384,144,119435,2,0,P|381:174|377:204,1,59.9999976158143,10|0,1:2|0:0,0:0:0:0:
154,340,119653,6,0,P|131:300|127:256,1,71.9999971389771,14|0,1:2|0:0,0:0:0:0:
283,211,120088,2,0,P|307:248|311:292,1,71.9999971389771,10|0,1:2|0:0,0:0:0:0:
126,274,120523,6,0,P|138:227|165:194,1,71.9999949417116,8|2,1:2|0:0,0:0:0:0:
283,211,120849,1,8,1:2:0:0:
311,274,120957,2,0,P|301:317|273:351,1,71.9999949417116,2|0,3:2|0:0,0:0:0:0:
150,207,121175,6,0,P|180:186|216:178,1,71.9999949417116,10|0,1:2|0:0,0:0:0:0:
285,339,121392,2,0,P|256:358|220:365,1,71.9999949417116,8|0,3:2|0:0,0:0:0:0:
19,317,121609,5,2,1:2:0:0:
220,276,121827,1,10,1:2:0:0:
89,127,122044,1,2,0:0:0:0:
138,375,122262,5,10,1:2:0:0:
311,274,122479,1,2,0:0:0:0:
309,263,122588,1,8,1:2:0:0:
308,252,122696,1,2,3:2:0:0:
494,334,122914,1,10,1:2:0:0:
492,22,123131,5,6,3:1:0:0:
465,53,123240,1,0,0:0:0:0:
430,60,123349,1,0,1:2:0:0:
401,53,123457,1,2,1:2:0:0:
336,88,123566,5,0,3:2:0:0:
307,55,123675,1,0,1:2:0:0:
264,38,123783,1,2,1:2:0:0:
221,39,123892,1,0,1:2:0:0:
117,0,124001,5,2,3:2:0:0:
184,57,124109,1,0,1:2:0:0:
166,144,124218,1,0,1:2:0:0:
83,174,124327,1,2,1:2:0:0:
16,114,124435,1,0,1:2:0:0:
33,28,124544,1,0,1:2:0:0:
166,153,124653,6,0,P|83:142|14:297,1,269.999999570847,6|0,3:2|0:0,0:0:0:0:
157,383,125088,2,0,B|152:321|144:360|136:288,1,89.9999998569489,2|0,1:2|0:0,0:0:0:0:
222,94,125305,2,0,B|273:55|236:68|287:33,1,89.9999998569489,2|0,1:2|0:0,0:0:0:0:
329,257,125522,2,0,B|269:231|299:257|243:230,1,89.9999998569489,2|0,3:2|0:0,0:0:0:0:
123,177,125740,6,0,L|90:-8,1,179.999999713898,2|0,1:2|3:2,0:0:0:0:
91,0,126066,1,2,0:0:0:0:
91,0,126175,1,12,0:3:0:0:
329,257,126392,5,2,3:2:0:0:
329,257,126501,1,0,0:0:0:0:
329,257,126609,2,0,P|363:156|434:160,1,155.999986660004,6|0,3:1|0:0,0:0:0:0:
434,68,126935,2,0,P|446:152|464:220,1,155.999986660004,2|0,3:2|0:0,0:0:0:0:
302,164,127262,2,0,P|296:126|284:89,1,77.9999933300022,2|0,3:2|0:0,0:0:0:0:
327,1,127479,6,0,P|264:58|187:40,1,155.999986660004,2|0,1:2|0:0,0:0:0:0:
156,140,127805,2,0,P|81:126|44:61,1,155.999986660004,2|0,1:2|0:0,0:0:0:0:
194,41,128131,6,0,P|175:159|162:279,1,233.999979990007,2|0,3:2|0:0,0:0:0:0:
105,334,128566,1,2,0:0:0:0:
105,334,128675,1,0,3:2:0:0:
105,334,128783,2,0,B|55:348|78:352|32:362,1,77.9999933300022,2|0,1:2|0:0,0:0:0:0:
162,272,129001,2,0,P|187:318|190:361,1,77.9999933300022,2|0,3:2|0:0,0:0:0:0:
10,279,129218,5,2,1:2:0:0:
3,272,129327,2,0,P|10:236|15:195,1,77.9999933300022,0|2,3:2|0:0,0:0:0:0:
215,214,129544,1,0,3:2:0:0:
207,206,129653,2,0,P|212:167|219:129,1,77.9999933300022,2|0,1:2|0:0,0:0:0:0:
22,22,129870,5,0,1:2:0:0:
22,22,129979,1,0,1:2:0:0:
22,22,130088,2,0,P|47:96|121:108,1,155.999986660004,6|0,3:1|0:0,0:0:0:0:
102,200,130414,2,0,P|166:127|244:143,1,155.999986660004,2|0,3:2|0:0,0:0:0:0:
302,69,130740,5,2,3:2:0:0:
302,69,130849,1,0,0:0:0:0:
302,69,130957,2,0,P|268:145|277:224,1,155.999986660004,2|0,1:2|0:0,0:0:0:0:
446,251,131283,2,0,P|480:175|471:96,1,155.999986660004,2|0,1:2|1:2,0:0:0:0:
384,124,131609,2,0,P|377:162|370:200,1,77.9999933300022,2|0,3:2|0:0,0:0:0:0:
435,383,131827,5,0,1:2:0:0:
412,339,131935,1,0,1:2:0:0:
364,329,132044,1,2,3:2:0:0:
307,267,132153,5,0,1:2:0:0:
257,264,132261,1,2,1:2:0:0:
224,301,132370,1,0,1:2:0:0:
149,279,132479,5,10,0:3:0:0:
150,261,132588,1,8,0:3:0:0:
146,241,132696,1,2,3:2:0:0:
292,346,132805,5,0,1:2:0:0:
288,366,132913,1,6,0:3:0:0:
289,384,133022,1,4,0:3:0:0:
307,267,133131,2,0,P|269:264|229:256,1,77.9999933300022,2|0,1:2|3:2,0:0:0:0:
52,361,133349,5,2,1:2:0:0:
52,361,133457,1,0,1:2:0:0:
52,361,133566,2,0,P|129:368|206:383,1,155.999986660004,6|0,3:1|0:0,0:0:0:0:
243,177,133892,2,0,P|166:170|89:155,1,155.999986660004,2|0,3:2|0:0,0:0:0:0:
27,203,134218,1,2,3:2:0:0:
27,203,134327,1,2,0:0:0:0:
105,235,134435,6,0,B|130:143|85:176|106:80,1,155.999986660004,2|2,1:2|0:0,0:0:0:0:
106,81,134762,1,2,1:2:0:0:
90,4,134870,5,2,1:2:0:0:
118,0,134978,1,0,0:0:0:0:
147,7,135087,1,2,0:0:0:0:
169,24,135196,1,2,0:0:0:0:
243,65,135305,5,2,3:2:0:0:
209,100,135414,1,0,1:2:0:0:
195,146,135523,1,2,1:2:0:0:
205,192,135631,1,2,1:2:0:0:
271,247,135740,5,10,3:2:0:0:
329,241,135849,1,8,0:3:0:0:
379,279,135957,1,10,0:3:0:0:
379,341,136066,1,10,0:3:0:0:
312,376,136175,5,6,3:3:0:0:
290,365,136284,1,4,0:3:0:0:
268,360,136393,1,6,0:3:0:0:
244,360,136501,1,6,0:3:0:0:
177,328,136609,5,2,1:2:0:0:
160,336,136718,1,0,3:2:0:0:
144,339,136826,1,2,3:2:0:0:
127,339,136935,1,0,1:2:0:0:
48,384,137044,6,0,B|20:282|81:309|55:209,1,179.999999713898,2|0,3:2|1:2,0:0:0:0:
233,0,137370,2,0,B|261:102|200:75|226:175,1,179.999999713898,2|0,3:2|1:2,0:0:0:0:
231,184,137642,1,0,1:0:0:0:
237,192,137696,6,0,P|192:196|148:206,1,89.9999998569489,6|0,3:1|0:0,0:0:0:0:
0,56,137914,1,0,1:2:0:0:
51,0,138022,2,0,P|117:23|138:130,1,179.999999713898,2|0,3:2|3:2,0:0:0:0:
203,283,138349,6,0,P|239:223|348:224,1,179.999999713898,6|0,1:2|1:2,0:0:0:0:
481,282,138675,1,2,1:2:0:0:
505,342,138783,1,0,1:2:0:0:
470,384,138892,1,8,0:3:0:0:
428,384,139001,1,4,0:3:0:0:
406,366,139109,1,0,3:2:0:0:
404,353,139218,6,0,B|394:310|425:273|447:293|470:238|443:181,2,179.999992847443,6|0|2,1:2|3:2|3:2,0:0:0:0:
512,0,140522,6,0,P|453:90|347:70,1,224.999999642372,6|0,3:1|0:0,0:0:0:0:
349,72,141175,5,10,0:3:0:0:
239,13,141392,5,2,0:0:0:0:
136,36,141609,5,6,0:3:0:0:
64,99,141827,5,6,0:3:0:0:
54,183,142044,5,2,0:0:0:0:
76,259,142262,6,0,P|77:303|59:357,2,89.9999964237214,6|2|2,3:2|0:0|3:2,0:0:0:0:
177,369,143349,2,0,P|177:309|195:252,1,119.999995231629,2|2,0:0|0:0,0:0:0:0:
297,195,144001,6,0,P|341:196|395:178,2,89.9999964237214,2|2|2,3:2|0:0|3:2,0:0:0:0:
212,162,144870,2,0,P|207:125|197:95,1,59.9999976158143,0|2,3:2|0:0,0:0:0:0:
284,282,145305,2,0,P|289:319|299:349,1,59.9999976158143,8|2,0:1|0:0,0:0:0:0:
186,257,145740,5,2,3:2:0:0:
112,296,145957,1,2,0:0:0:0:
32,272,146175,2,0,P|13:210|22:147,1,119.999995231629,2|2,0:0|3:2,0:0:0:0:
63,89,146827,1,2,0:0:0:0:
38,0,147044,2,0,P|62:8|100:15,1,59.9999976158143,10|2,0:1|0:0,0:0:0:0:
241,118,147479,6,0,B|315:111|288:138|364:122,1,119.999995231629,0|0,3:2|0:0,0:0:0:0:
449,101,148131,1,2,3:2:0:0:
487,184,148349,2,0,P|480:213|476:242,1,59.9999976158143,2|10,3:2|0:3,0:0:0:0:
359,122,148783,2,0,P|366:92|370:63,1,59.9999976158143,8|6,0:1|0:3,0:0:0:0:
476,242,149218,6,0,P|408:278|355:267,1,119.999995231629,4|0,3:2|0:0,0:0:0:0:
283,246,149870,2,0,P|279:213|269:182,2,59.9999976158143,2|0|2,3:2|3:2|0:0,0:0:0:0:
355,331,150522,2,0,P|359:298|369:267,1,59.9999976158143,8|2,0:1|0:0,0:0:0:0:
192,230,150957,6,0,P|149:247|99:242,2,89.9999964237214,0|0|2,3:2|3:2|3:2,0:0:0:0:
271,187,151827,1,0,3:2:0:0:
92,11,152262,2,0,P|50:66|49:86,1,89.9999964237214,8|0,0:1|0:0,0:0:0:0:
0,154,152696,6,0,P|56:130|132:134,2,125.999991147995,6|0|2,3:1|3:2|3:2,0:0:0:0:
150,27,153566,2,0,P|188:51|236:55,1,83.9999940986636,2|0,3:2|0:0,0:0:0:0:
233,53,153892,1,0,3:2:0:0:
240,49,154001,1,8,0:1:0:0:
248,45,154109,1,0,3:2:0:0:
216,192,154435,6,0,P|205:253|194:316,2,125.999991147995,2|0|0,3:2|3:2|3:2,0:0:0:0:
150,27,155305,5,2,1:2:0:0:
313,193,155522,1,10,0:3:0:0:
95,257,155740,1,6,0:3:0:0:
291,102,155957,6,0,P|354:109|411:212,1,179.999992847443,6|0,3:2|0:0,0:0:0:0:
411,201,156392,1,10,0:3:0:0:
509,62,156609,2,0,B|469:65|487:70|450:73,1,59.9999976158143,6|4,3:3|0:3,0:0:0:0:
313,193,156827,1,2,0:0:0:0:
313,193,156935,2,0,B|232:199|278:219|197:223,1,119.999995231629,2|0,0:0|0:0,0:0:0:0:
133,177,157262,6,0,P|141:151|145:118,1,59.9999976158143,2|4,0:0|0:3,0:0:0:0:
271,259,157479,2,0,P|257:316|247:397,1,119.999995231629,6|6,3:3|0:3,0:0:0:0:
253,383,157805,1,0,0:0:0:0:
259,384,157914,6,0,P|200:323|104:338,1,179.999992847443,4|4,3:3|0:3,0:0:0:0:
53,383,158349,2,0,P|36:337|38:323,1,59.9999976158143,4|0,3:3|0:0,0:0:0:0:
120,273,158566,2,0,P|113:311|111:332,1,59.9999976158143,4|0,0:3|0:0,0:0:0:0:
0,261,158783,5,6,3:3:0:0:
0,261,158892,2,0,P|13:204|25:138,1,119.999995231629,0|4,1:2|0:3,0:0:0:0:
4,62,159218,2,0,P|33:68|63:71,1,59.9999976158143,6|0,3:3|0:0,0:0:0:0:
172,185,159435,1,6,0:3:0:0:
242,4,159653,6,0,P|180:27|187:100,1,119.999995231629,4|2,3:3|0:0,0:0:0:0:
178,89,159979,1,4,0:3:0:0:
184,98,160088,2,0,P|213:108|237:125,1,59.9999976158143,6|0,3:3|0:0,0:0:0:0:
357,184,160305,1,6,0:3:0:0:
390,196,160414,1,2,0:0:0:0:
431,189,160522,1,4,3:3:0:0:
456,166,160631,2,0,P|447:100|443:46,1,119.999995231629,8|0,0:3|0:0,0:0:0:0:
443,46,160957,1,6,3:3:0:0:
273,203,161175,6,0,P|278:229|284:270,1,59.9999976158143,6|0,0:3|0:0,0:0:0:0:
204,311,161392,2,0,P|271:299|355:374,1,179.999992847443,6|4,3:3|0:3,0:0:0:0:
352,366,161827,1,4,3:3:0:0:
512,245,162044,2,0,P|480:244|440:233,1,59.9999976158143,6|0,0:3|0:0,0:0:0:0:
397,294,162262,1,6,3:3:0:0:
397,294,162370,2,0,B|406:215|384:246|396:174,1,119.999995231629,0|4,1:2|0:3,0:0:0:0:
406,97,162696,5,4,3:3:0:0:
236,286,162914,5,6,0:3:0:0:
71,29,163131,6,0,P|129:35|130:117,1,119.999995231629,6|0,3:2|0:0,0:0:0:0:
139,103,163457,1,6,0:3:0:0:
127,116,163566,2,0,B|90:119|107:127|68:129,1,59.9999976158143,4|0,3:3|0:0,0:0:0:0:
19,199,163783,2,0,P|15:143|-1:81,1,119.999995231629,6|4,0:3|3:3,0:0:0:0:
183,57,164109,2,0,P|187:113|203:175,1,119.999995231629,8|0,0:3|0:0,0:0:0:0:
202,174,164435,1,4,3:3:0:0:
437,20,164653,6,0,P|409:31|380:39,1,59.9999976158143,6|0,0:3|0:0,0:0:0:0:
296,0,164870,2,0,P|331:64|331:110,1,119.999995231629,6|0,3:3|0:0,0:0:0:0:
326,121,165196,1,6,0:3:0:0:
319,130,165305,1,4,3:3:0:0:
430,283,165522,2,0,P|436:250|442:215,1,59.9999976158143,6|0,0:3|0:0,0:0:0:0:
507,162,165740,5,4,3:3:0:0:
498,170,165849,2,0,P|429:187|379:162,1,119.999995231629,0|4,1:2|0:3,0:0:0:0:
317,218,166175,2,0,P|323:247|329:276,1,59.9999976158143,6|0,3:3|0:0,0:0:0:0:
437,102,166392,2,0,P|430:72|424:43,1,59.9999976158143,4|0,0:3|0:0,0:0:0:0:
206,129,166609,6,0,P|177:181|174:240,1,119.999995231629,6|0,3:2|0:0,0:0:0:0:
179,252,166935,1,4,0:3:0:0:
185,262,167044,1,4,3:3:0:0:
10,123,167262,2,0,P|44:119|69:113,1,59.9999976158143,6|0,0:3|0:0,0:0:0:0:
279,39,167479,1,6,3:3:0:0:
279,39,167588,2,0,P|219:29|162:12,1,119.999995231629,8|2,0:3|0:0,0:0:0:0:
162,12,167914,1,4,3:3:0:0:
269,252,168131,2,0,P|298:245|328:241,1,59.9999976158143,6|0,0:3|0:0,0:0:0:0:
493,146,168349,6,0,P|463:73|357:77,1,179.999992847443,6|4,3:3|0:3,0:0:0:0:
275,60,168783,2,0,P|286:88|291:118,1,59.9999976158143,4|0,3:3|0:0,0:0:0:0:
338,250,169001,2,0,P|342:220|353:192,1,59.9999976158143,4|0,0:3|0:0,0:0:0:0:
411,137,169218,5,4,3:3:0:0:
421,234,169327,2,0,B|313:219|368:208|272:194,1,155.999986660004,0|4,1:2|0:3,0:0:0:0:
201,152,169653,2,0,P|192:184|189:210,1,59.9999976158143,4|0,3:3|0:0,0:0:0:0:
11,351,169870,2,0,P|8:321|0:292,1,59.9999976158143,4|0,0:3|0:0,0:0:0:0:
40,216,170088,6,0,P|103:234|104:299,1,119.999995231629,6|0,3:2|0:0,0:0:0:0:
108,291,170414,1,4,0:3:0:0:
103,298,170522,1,4,3:3:0:0:
274,384,170740,2,0,P|266:349|264:319,1,59.9999976158143,6|0,0:3|0:0,0:0:0:0:
218,212,170957,1,4,3:3:0:0:
218,212,171066,2,0,B|211:294|193:244|184:327,1,119.999995231629,0|8,1:2|0:3,0:0:0:0:
182,338,171392,5,6,3:3:0:0:
154,372,171500,1,0,0:0:0:0:
111,384,171609,1,6,0:3:0:0:
62,378,171718,1,4,0:3:0:0:
23,342,171827,2,0,P|36:222|118:202,1,215.999984825135,6|0,3:2|0:0,0:0:0:0:
123,207,172262,5,0,3:2:0:0:
214,39,172479,1,10,0:3:0:0:
41,119,172696,1,2,3:2:0:0:
228,156,172913,1,6,0:3:0:0:
228,156,173022,1,6,0:3:0:0:
228,156,173131,1,6,3:3:0:0:
98,17,173349,1,2,0:0:0:0:
41,119,173566,5,2,3:2:0:0:
300,241,179870,5,2,3:2:0:0:
476,197,180088,1,2,1:2:0:0:
360,74,180305,1,2,0:0:0:0:
379,305,180522,6,0,P|387:257|397:210,1,95.9999961853028,2|0,3:2|0:0,0:0:0:0:
198,262,180957,2,0,P|208:215|216:167,1,95.9999961853028,0|0,1:2|0:0,0:0:0:0:
200,149,181283,1,0,1:2:0:0:
180,137,181392,1,2,3:2:0:0:
157,132,181501,1,2,0:0:0:0:
133,135,181609,1,0,0:0:0:0:
21,1,181827,6,0,P|66:49|108:43,1,95.9999961853028,0|2,1:2|0:0,0:0:0:0:
105,45,182153,1,0,1:2:0:0:
119,39,182262,2,0,P|121:64|125:86,1,47.9999980926514,2|0,3:2|0:0,0:0:0:0:
168,202,182479,2,0,P|147:192|124:185,1,47.9999980926514,2|0,0:0|0:0,0:0:0:0:
1,168,182696,2,0,P|20:155|38:139,1,47.9999980926514,2|0,1:2|0:0,0:0:0:0:
125,86,182914,5,2,0:0:0:0:
137,108,183022,1,0,1:2:0:0:
141,137,183131,1,0,3:2:0:0:
138,163,183240,1,0,1:2:0:0:
124,185,183349,1,2,3:2:0:0:
280,363,183566,6,0,P|285:314|293:253,1,95.9999961853028,2|2,1:2|0:0,0:0:0:0:
290,267,183892,1,0,1:2:0:0:
366,234,184001,2,0,P|415:229|465:221,1,95.9999961853028,0|2,3:2|0:0,0:0:0:0:
220,73,184435,6,0,P|172:77|124:85,1,95.9999961853028,2|2,1:2|0:0,0:0:0:0:
118,95,184762,1,0,1:2:0:0:
112,106,184871,1,2,3:2:0:0:
107,116,184980,1,0,1:2:0:0:
101,127,185088,1,2,3:2:0:0:
301,99,185305,2,0,P|299:63|292:27,1,71.9999949417116,2|0,1:2|0:0,0:0:0:0:
40,66,185522,5,2,0:0:0:0:
36,74,185631,1,0,1:2:0:0:
32,81,185740,1,0,1:2:0:0:
11,156,185849,1,0,1:2:0:0:
73,209,185957,2,0,P|106:212|144:198,1,71.9999949417116,2|0,3:2|0:0,0:0:0:0:
331,358,186175,2,0,P|297:346|261:348,1,71.9999949417116,2|0,3:2|0:0,0:0:0:0:
155,191,186392,5,2,1:2:0:0:
298,260,186501,1,0,1:2:0:0:
172,370,186610,2,0,P|175:334|187:300,1,71.9999949417116,0|0,3:2|0:0,0:0:0:0:
371,209,186827,2,0,P|383:242|386:278,1,71.9999949417116,2|0,3:2|0:0,0:0:0:0:
92,348,187044,6,0,B|35:347|66:325|3:326,1,89.9999998569489,2|0,1:2|1:2,0:0:0:0:
419,144,187262,6,0,B|476:145|445:167|508:166,1,89.9999998569489,2|0,1:2|1:2,0:0:0:0:
281,378,187479,5,2,1:2:0:0:
186,300,187588,5,8,0:3:0:0:
256,220,187696,5,4,0:3:0:0:
205,150,187805,5,0,3:2:0:0:
240,73,187914,6,0,L|247:34,6,29.9999988079071,6|0|0|0|0|0|0,1:2|0:0|0:0|0:0|0:0|0:0|0:0,0:0:0:0:
290,144,188349,5,2,3:2:0:0:
157,80,188457,2,0,P|162:35|184:0,1,83.9999940986636,2|0,1:2|3:2,0:0:0:0:
186,300,188675,2,0,P|115:346|41:324,1,143.999989883423,2|0,0:0|0:0,0:0:0:0:
0,265,189001,2,0,B|59:261|25:248|84:245,1,83.9999940986636,2|0,0:0|0:0,0:0:0:0:
319,358,189218,6,0,B|260:362|294:375|235:378,1,83.9999940986636,2|0,3:2|0:0,0:0:0:0:
209,163,189435,2,0,B|268:159|234:146|293:143,1,83.9999940986636,2|0,0:0|0:0,0:0:0:0:
383,297,189653,6,0,P|407:377|397:404,1,83.9999940986636,8|0,1:1|0:0,0:0:0:0:
124,177,189870,2,0,P|127:135|148:99,1,83.9999940986636,2|0,0:0|0:0,0:0:0:0:
465,0,190088,5,0,3:2:0:0:
504,64,190196,1,0,1:2:0:0:
472,132,190305,2,0,P|430:137|392:121,1,83.9999940986636,2|0,3:2|0:0,0:0:0:0:
270,44,190522,1,8,1:1:0:0:
453,263,190740,6,0,P|436:181|279:149,1,251.999982295991,2|0,0:0|0:0,0:0:0:0:
92,246,191175,2,0,B|147:253|116:269|179:273,1,83.9999940986636,2|0,0:0|0:0,0:0:0:0:
260,345,191392,2,0,P|266:303|277:263,1,83.9999940986636,8|0,1:1|0:0,0:0:0:0:
80,0,191609,6,0,P|28:62|46:141,1,167.999988197327,2|0,0:0|3:2,0:0:0:0:
117,171,191935,1,0,1:2:0:0:
12,295,192044,2,0,P|8:258|-8:195,1,83.9999940986636,2|0,3:2|0:0,0:0:0:0:
198,109,192262,2,0,P|204:154|215:211,1,83.9999940986636,8|0,1:1|0:0,0:0:0:0:
343,365,192479,6,0,P|445:380|501:229,1,251.999982295991,2|0,0:0|0:0,0:0:0:0:
496,186,192914,2,0,B|439:199|473:210|417:222,1,83.9999940986636,2|0,0:0|0:0,0:0:0:0:
254,384,193131,2,0,L|287:219,1,167.999988197327,8|0,1:1|0:0,0:0:0:0:
184,33,193566,5,2,3:2:0:0:
162,111,193675,1,0,1:2:0:0:
237,149,193784,2,0,B|291:143|267:131|319:131,1,83.9999940986636,2|0,3:2|0:0,0:0:0:0:
99,49,194001,2,0,B|42:49|70:60|15:64,1,83.9999940986636,8|0,1:1|0:0,0:0:0:0:
116,300,194218,2,0,L|134:218,1,83.9999940986636,2|0,0:0|0:0,0:0:0:0:
176,68,194435,6,0,L|184:33,1,35.9999985694886,4|0,3:1|0:0,0:0:0:0:
184,32,194870,6,0,P|277:74|277:176,1,215.999984825135,8|0,1:1|0:0,0:0:0:0:
233,253,195196,1,0,0:0:0:0:
292,315,195305,2,0,P|333:322|373:335,1,83.9999940986636,2|0,3:2|1:2,0:0:0:0:
166,198,195522,2,0,P|124:190|84:177,1,83.9999940986636,2|0,3:2|0:0,0:0:0:0:
0,384,195740,2,0,P|39:370|80:361,1,83.9999940986636,8|0,1:1|0:0,0:0:0:0:
373,251,195957,6,0,P|442:237|494:398,1,251.999982295991,2|0,0:0|0:0,0:0:0:0:
292,315,196392,2,0,P|287:275|277:232,1,83.9999940986636,2|0,0:0|0:0,0:0:0:0:
320,124,196609,2,0,P|271:188|189:191,1,167.999988197327,8|2,1:1|0:0,0:0:0:0:
117,132,196935,1,0,0:0:0:0:
203,111,197044,5,2,3:2:0:0:
189,191,197153,1,0,1:2:0:0:
105,221,197262,2,0,B|46:232|88:238|25:248,1,83.9999940986636,2|0,3:2|0:0,0:0:0:0:
54,78,197479,2,0,B|93:125|77:86|117:132,1,83.9999940986636,10|0,1:1|0:0,0:0:0:0:
171,281,197696,2,0,B|151:337|177:304|155:363,1,83.9999940986636,2|0,0:0|0:0,0:0:0:0:
208,100,197914,6,0,L|226:0,1,83.9999940986636,4|0,3:2|0:0,0:0:0:0:
348,144,198131,2,0,L|448:162,1,83.9999940986636,6|0,1:3|0:0,0:0:0:0:
304,284,198349,2,0,L|286:384,1,83.9999940986636,6|0,1:3|0:0,0:0:0:0:
164,240,198566,2,0,L|64:222,1,83.9999940986636,6|0,1:3|0:0,0:0:0:0:
406,74,198783,5,6,1:3:0:0:
289,366,199001,1,6,1:3:0:0:
91,126,199218,1,6,1:3:0:0:
488,33,199435,6,0,P|464:147|348:144,1,251.999982295991,6|0,3:2|0:0,0:0:0:0:
268,104,199870,1,2,3:2:0:0:
288,56,199979,1,0,0:0:0:0:
292,0,200088,1,10,1:1:0:0:
468,194,200305,5,10,0:3:0:0:
453,227,200414,1,8,0:3:0:0:
449,270,200523,1,2,3:2:0:0:
347,143,200740,5,6,0:3:0:0:
235,384,200957,1,10,1:1:0:0:
290,332,201066,1,8,0:3:0:0:
361,304,201175,1,6,0:3:0:0:
437,313,201283,1,0,0:0:0:0:
502,355,201392,1,6,3:2:0:0:
15,248,202914,5,2,0:0:0:0:
15,248,203022,1,0,0:0:0:0:
15,248,203131,2,0,P|85:262|173:205,1,179.999987354279,0|2,0:0|0:0,0:0:0:0:
172,207,204435,1,14,0:3:0:0:
309,384,204870,6,0,P|316:352|322:321,1,47.9999980926514,6|0,3:2|0:0,0:0:0:0:
313,181,205088,5,2,1:2:0:0:
375,194,205196,1,0,1:2:0:0:
332,241,205305,1,2,3:2:0:0:
347,169,205414,5,0,1:2:0:0:
367,230,205522,1,2,1:2:0:0:
305,217,205631,1,0,1:2:0:0:
372,168,205740,5,2,3:2:0:0:
355,251,205848,1,0,1:2:0:0:
292,195,205957,1,2,1:2:0:0:
399,218,206066,5,0,1:2:0:0:
298,250,206174,1,2,1:2:0:0:
321,148,206283,1,0,1:2:0:0:
465,252,206392,6,0,P|311:200|205:180,1,269.999999570847,6|0,3:1|0:0,0:0:0:0:
130,177,206827,2,0,B|91:135|106:174|58:119,1,89.9999998569489,2|0,1:2|0:0,0:0:0:0:
206,180,207044,1,2,3:2:0:0:
164,245,207153,2,0,B|150:298|175:266|151:335,1,89.9999998569489,0|2,1:2|0:0,0:0:0:0:
93,108,207370,5,0,3:2:0:0:
206,180,207479,1,2,1:2:0:0:
85,242,207588,1,8,0:3:0:0:
171,112,207696,5,6,0:3:0:0:
164,245,207805,1,0,3:2:0:0:
51,174,207914,2,0,P|175:153|345:113,1,269.999999570847,6|0,1:2|0:0,0:0:0:0:
453,118,208349,5,6,3:1:0:0:
245,245,208566,1,2,0:0:0:0:
453,118,208783,2,0,P|330:198|354:260,1,215.999984825135,10|0,1:1|0:0,0:0:0:0:
339,239,209109,1,0,0:0:0:0:
236,103,209218,2,0,P|275:122|322:118,1,83.9999940986636,0|0,3:2|1:2,0:0:0:0:
446,200,209435,6,0,B|460:141|439:180|452:117,1,83.9999940986636,2|0,3:2|0:0,0:0:0:0:
243,20,209653,2,0,B|228:78|249:39|236:102,1,83.9999940986636,10|0,1:1|0:0,0:0:0:0:
185,339,209870,2,0,P|66:341|21:231,1,251.999982295991,2|0,0:0|0:0,0:0:0:0:
33,224,210305,6,0,B|96:238|62:244|110:254,1,83.9999940986636,2|0,0:0|0:0,0:0:0:0:
273,232,210522,2,0,B|306:194|294:227|338:179,1,83.9999940986636,10|0,1:1|0:0,0:0:0:0:
171,125,210740,2,0,B|190:186|168:160|183:207,1,83.9999940986636
293,315,210957,5,2,3:2:0:0:
376,341,211066,1,0,1:2:0:0:
433,275,211175,2,0,P|423:234|420:192,1,83.9999940986636,2|0,3:2|0:0,0:0:0:0:
205,295,211392,2,0,P|215:336|217:377,1,83.9999940986636,10|0,1:1|0:0,0:0:0:0:
420,192,211609,2,0,P|378:189|337:179,1,83.9999940986636,2|0,0:0|0:0,0:0:0:0:
134,357,211827,6,0,B|75:356|111:372|51:371,1,83.9999940986636,2|0,3:2|0:0,0:0:0:0:
54,119,212044,2,0,B|113:120|77:104|136:104,1,83.9999940986636,2|0,0:0|0:0,0:0:0:0:
276,246,212262,6,0,P|177:214|118:289,1,167.999988197327,10|0,1:1|0:0,0:0:0:0:
129,254,212551,1,0,0:0:0:0:
127,262,212624,1,0,0:0:0:0:
125,270,212696,2,0,P|127:236|117:186,1,83.9999940986636,0|0,3:2|1:2,0:0:0:0:
0,10,212914,6,0,P|36:29|78:37,1,83.9999940986636,2|0,3:2|0:0,0:0:0:0:
285,161,213131,2,0,P|244:168|208:189,1,83.9999940986636,10|0,1:1|0:0,0:0:0:0:
47,303,213349,1,2,0:0:0:0:
114,352,213458,1,0,0:0:0:0:
190,322,213566,1,0,3:2:0:0:
391,128,213783,6,0,P|498:134|491:252,1,215.999984825135,2|0,0:0|0:0,0:0:0:0:
297,148,214218,2,0,P|304:113|307:76,1,71.9999949417116,2|0,0:0|0:0,0:0:0:0:
512,235,214435,1,2,3:2:0:0:
466,302,214544,1,0,1:2:0:0:
387,283,214653,2,0,B|342:280|366:270|317:268,1,71.9999949417116,2|0,3:2|0:0,0:0:0:0:
471,11,214870,2,0,P|482:45|481:81,1,71.9999949417116,10|0,1:1|0:0,0:0:0:0:
232,289,215088,2,0,P|231:254|243:220,1,71.9999949417116,2|0,0:0|0:0,0:0:0:0:
396,56,215305,5,6,3:1:0:0:
466,302,215522,1,2,0:0:0:0:
396,56,215740,6,0,P|300:126|215:98,1,215.999984825135,10|0,1:1|0:0,0:0:0:0:
215,98,216066,1,0,0:0:0:0:
317,268,216175,2,0,B|375:278|334:290|392:300,1,83.9999940986636,0|0,3:2|1:2,0:0:0:0:
179,356,216392,2,0,P|158:320|156:275,1,83.9999940986636,2|0,3:2|0:0,0:0:0:0:
381,143,216609,2,0,P|402:179|403:223,1,83.9999940986636,10|0,1:1|0:0,0:0:0:0:
278,367,216827,6,0,P|199:275|81:297,1,251.999982295991,2|0,0:0|0:0,0:0:0:0:
12,351,217262,2,0,P|-2:312|2:270,1,83.9999940986636,2|0,0:0|0:0,0:0:0:0:
0,178,217479,2,0,B|58:190|17:193|79:205,1,83.9999940986636,10|0,1:1|0:0,0:0:0:0:
179,356,217696,2,0,B|120:368|161:371|99:383,1,83.9999940986636
275,220,217914,5,2,3:2:0:0:
352,207,218022,1,0,1:2:0:0:
388,276,218131,2,0,P|377:313|369:357,1,83.9999940986636,2|0,3:2|0:0,0:0:0:0:
209,171,218349,2,0,P|192:129|198:87,1,83.9999940986636,10|0,1:1|0:0,0:0:0:0:
456,226,218566,2,0,P|473:268|467:310,1,83.9999940986636,2|0,0:0|0:0,0:0:0:0:
294,301,218783,6,0,P|286:259|274:219,1,83.9999940986636,2|0,3:2|0:0,0:0:0:0:
401,17,219001,2,0,P|408:58|420:98,1,83.9999940986636,2|0,0:0|0:0,0:0:0:0:
512,155,219218,2,0,P|434:131|370:181,1,167.999988197327,10|0,1:1|0:0,0:0:0:0:
372,189,219508,1,0,0:0:0:0:
375,199,219581,1,0,0:0:0:0:
377,209,219653,1,0,3:2:0:0:
244,75,219870,6,0,B|297:80|272:91|326:92,1,83.9999940986636,2|0,3:2|0:0,0:0:0:0:
200,240,220088,2,0,B|147:235|172:224|117:222,1,83.9999940986636,2|0,1:1|0:0,0:0:0:0:
155,54,220305,5,6,3:1:0:0:
158,42,220414,1,2,0:0:0:0:
244,75,220522,5,2,0:0:0:0:
223,113,220631,1,2,0:0:0:0:
187,136,220740,1,2,3:2:0:0:
174,136,220849,1,0,0:0:0:0:
191,224,220957,5,10,1:1:0:0:
142,230,221066,1,2,0:0:0:0:
105,202,221175,1,2,1:2:0:0:
104,186,221283,1,8,0:3:0:0:
39,254,221392,5,2,3:2:0:0:
2,214,221501,1,2,1:2:0:0:
7,168,221610,1,6,3:3:0:0:
21,159,221718,1,0,1:2:0:0:
207,232,221827,5,10,1:1:0:0:
206,310,221935,5,10,0:3:0:0:
149,366,222044,5,6,0:3:0:0:
67,366,222153,5,6,0:3:0:0:
6,319,222262,5,6,3:2:0:0:
227,384,222479,1,2,0:0:0:0:
6,319,222696,2,0,P|24:199|116:167,1,215.999984825135,10|0,1:1|0:0,0:0:0:0:
101,165,223022,1,0,0:0:0:0:
17,85,223131,2,0,P|12:132|4:168,1,83.9999940986636,0|0,3:2|1:2,0:0:0:0:
94,272,223349,6,0,P|141:267|176:245,1,83.9999940986636,2|0,3:2|0:0,0:0:0:0:
256,64,223566,2,0,P|235:100|232:142,1,83.9999940986636,10|0,1:1|0:0,0:0:0:0:
256,291,223783,2,0,P|227:177|110:172,1,251.999982295991,2|0,0:0|0:0,0:0:0:0:
32,328,224218,6,0,P|68:348|110:351,1,83.9999940986636,2|0,0:0|0:0,0:0:0:0:
335,293,224435,2,0,B|332:353|321:314|317:374,1,83.9999940986636,10|0,1:1|0:0,0:0:0:0:
109,171,224653,2,0,B|112:111|123:150|127:90,1,83.9999940986636
393,12,224870,5,2,3:2:0:0:
433,78,224979,1,0,1:2:0:0:
383,137,225088,2,0,P|343:150|301:148,1,83.9999940986636,2|0,3:2|0:0,0:0:0:0:
153,9,225305,2,0,P|184:36|203:73,1,83.9999940986636,10|0,1:1|0:0,0:0:0:0:
169,270,225522,2,0,P|177:229|199:194,1,83.9999940986636,2|0,0:0|0:0,0:0:0:0:
299,68,225740,5,2,3:2:0:0:
303,76,225957,1,2,0:0:0:0:
278,374,226175,6,0,P|243:276|44:239,1,323.999977237702,10|0,1:1|0:0,0:0:0:0:
45,237,226609,2,0,P|39:273|26:319,1,83.9999940986636,2|0,3:2|1:2,0:0:0:0:
188,384,226827,2,0,P|194:348|207:302,1,83.9999940986636,2|0,3:2|0:0,0:0:0:0:
261,164,227044,1,10,1:1:0:0:
450,367,227262,6,0,P|379:380|300:236,1,251.999982295991,6|0,3:1|0:0,0:0:0:0:
346,176,227696,2,0,P|377:215|382:259,1,83.9999940986636,2|0,3:2|0:0,0:0:0:0:
450,367,227914,2,0,P|460:282|472:200,1,167.999988197327,8|2,1:1|0:0,0:0:0:0:
512,124,228240,1,0,0:0:0:0:
464,110,228349,1,2,3:2:0:0:
421,123,228457,1,0,1:2:0:0:
391,168,228566,1,2,3:2:0:0:
254,65,228783,6,0,P|291:82|333:81,1,83.9999940986636,10|0,1:1|0:0,0:0:0:0:
472,200,229001,2,0,P|489:237|488:279,1,83.9999940986636,2|0,1:2|1:2,0:0:0:0:
242,384,229218,5,2,3:2:0:0:
229,360,229327,1,0,1:2:0:0:
223,332,229436,1,2,1:2:0:0:
226,304,229544,1,0,3:2:0:0:
304,327,229653,6,0,P|173:327|153:213,1,251.999982295991,6|0,1:1|0:0,0:0:0:0:
146,228,230088,1,0,3:2:0:0:
0,372,230305,2,0,B|57:357|25:347|82:340,1,83.9999940986636,2|0,3:2|0:0,0:0:0:0:
240,178,230522,2,0,B|195:173|221:155|158:145,1,83.9999940986636,10|0,1:1|0:0,0:0:0:0:
35,233,230740,6,0,P|136:256|276:305,1,251.999982295991,2|0,0:0|0:0,0:0:0:0:
335,242,231175,2,0,B|340:181|354:218|357:162,1,83.9999940986636,2|0,0:0|0:0,0:0:0:0:
275,305,231392,2,0,B|224:330|249:300|194:325,1,83.9999940986636,10|0,1:1|0:0,0:0:0:0:
357,325,231609,2,0,B|406:360|367:353|414:384,1,83.9999940986636
423,119,231827,5,2,3:2:0:0:
380,81,231935,1,0,1:2:0:0:
325,91,232044,1,2,3:2:0:0:
417,233,232262,2,0,P|460:220|499:219,1,83.9999940986636,10|0,1:1|0:0,0:0:0:0:
327,8,232479,2,0,P|284:21|244:21,1,83.9999940986636,2|0,0:0|0:0,0:0:0:0:
99,57,232696,5,2,3:2:0:0:
357,162,232914,1,2,0:0:0:0:
99,57,233131,6,0,P|196:45|261:179,1,251.999982295991,10|0,1:1|0:0,0:0:0:0:
264,165,233566,1,0,3:2:0:0:
432,343,233783,2,0,P|470:327|512:326,1,83.9999940986636,2|0,3:2|0:0,0:0:0:0:
361,288,234001,2,0,P|322:304|280:304,1,83.9999940986636,10|0,1:1|0:0,0:0:0:0:
357,376,234218,5,6,3:1:0:0:
354,384,234327,1,2,0:0:0:0:
432,343,234435,5,2,0:0:0:0:
450,304,234544,1,2,0:0:0:0:
441,250,234653,1,2,3:2:0:0:
397,215,234762,1,0,0:0:0:0:
454,155,234870,5,10,1:1:0:0:
430,113,234979,1,2,0:0:0:0:
378,94,235088,1,2,1:2:0:0:
326,115,235197,1,0,3:2:0:0:
261,59,235305,5,2,0:0:0:0:
212,58,235414,1,2,1:2:0:0:
170,94,235523,1,2,3:2:0:0:
162,149,235632,1,0,0:0:0:0:
129,265,235740,5,10,1:1:0:0:
200,240,235849,5,2,1:2:0:0:
281,245,235957,5,2,1:2:0:0:
344,288,236066,5,2,1:2:0:0:
374,357,236175,6,0,L|376:384,8,23.9999990463257,2|2|2|2|2|2|2|2|2,0:0|0:0|0:0|0:0|0:0|0:0|0:0|0:0|0:0,0:0:0:0:
