osu file format v14

[General]
AudioFilename: audio.mp3
AudioLeadIn: 0
PreviewTime:56338
Countdown: 0
SampleSet: Soft
StackLeniency: 0.4
Mode: 0
LetterboxInBreaks: 0
WidescreenStoryboard: 1

[Editor]
Bookmarks: 1392,15305,29218,43131,57044,70957,84870,98783,112696,126609,142262,155957,173566,194435,208349,222262,236609
DistanceSpacing: 0.7
BeatDivisor: 4
GridSize: 32
TimelineZoom: 2.599999

[Metadata]
Title:Mela!
TitleUnicode:Mela!
Artist:Ryokuoushoku Shakai
ArtistUnicode:緑黄色社会
Creator:Amateurre
Version:Canada Dry Extra Collab
Source:
Tags:japanese pop j-pop jpop ryokushaka agatsu airiesu asagi wen bongo koldnoodl dailycare eringira fedora- flake regussy jiysea mnyui nakazawa sagu nantokanaru
BeatmapID:4572048
BeatmapSetID:2153852

[Difficulty]
HPDrainRate:5
CircleSize:4.2
OverallDifficulty:8.4
ApproachRate:9.2
SliderMultiplier:2.39999990463257
SliderTickRate:1

[Events]
//Background and Video events
0,0,"matse.jpg",0,0
//Break Periods
2,98983,108431
2,173765,179952
//Storyboard Layer 0 (Background)
//Storyboard Layer 1 (Fail)
//Storyboard Layer 2 (Pass)
//Storyboard Layer 3 (Foreground)
//Storyboard Layer 4 (Overlay)
//Storyboard Sound Samples

[TimingPoints]
-5564,434.782608695652,4,2,1,50,1,0
8349,-133.333333333333,4,2,1,60,0,0
11827,-133.333333333333,4,2,1,70,0,0
12044,-133.333333333333,4,2,1,45,0,0
12262,-133.333333333333,4,2,1,49,0,0
12479,-133.333333333333,4,2,1,53,0,0
12696,-133.333333333333,4,2,1,57,0,0
12914,-133.333333333333,4,2,1,62,0,0
13131,-133.333333333333,4,2,1,66,0,0
13349,-100,4,2,1,70,0,0
14870,-76.9230769230769,4,2,1,70,0,0
15305,-100,4,2,1,75,0,0
15740,-90.9090909090909,4,2,1,75,0,0
29218,-100,4,2,1,60,0,0
41175,-90.9090909090909,4,2,1,60,0,0
43131,-100,4,2,1,70,0,0
53783,-100,4,2,1,45,0,0
54001,-100,4,2,1,49,0,0
54218,-100,4,2,1,52,0,0
54435,-100,4,2,1,56,0,0
54653,-100,4,2,1,59,0,0
54870,-83.3333333333333,4,2,1,63,0,0
55088,-83.3333333333333,4,2,1,66,0,0
55305,-83.3333333333333,4,2,1,70,0,0
57044,-100,4,2,1,80,0,0
57479,-76.9230769230769,4,2,1,80,0,0
57914,-83.3333333333333,4,2,1,80,0,0
64001,-100,4,2,1,80,0,0
64435,-76.9230769230769,4,2,1,80,0,0
64870,-83.3333333333333,4,2,1,80,0,0
84870,-125,4,2,1,65,0,0
91392,-166.666666666667,4,2,1,65,0,0
91827,-125,4,2,1,70,0,0
98783,-125,4,2,1,50,0,0
109001,-125,4,2,1,65,0,0
109653,-125,4,2,1,50,0,0
110305,-125,4,2,1,60,0,0
110740,-100,4,2,1,70,0,0
112696,-100,4,2,1,65,0,0
123131,-100,4,2,1,70,0,0
123349,-100,4,2,1,45,0,0
124653,-100,4,2,1,70,0,0
126609,-83.3333333333333,4,2,1,75,0,0
141175,-125,4,2,1,75,0,0
142262,-166.666666666667,4,2,1,60,0,0
154435,-125,4,2,1,60,0,0
155957,-90.9090909090909,4,2,1,65,0,0
172914,-111.111111111111,4,2,1,65,0,0
173131,-500,4,2,1,65,0,0
173566,-500,4,2,2,50,0,0
180522,-166.666666666667,4,2,1,55,0,0
183783,-125,4,2,1,55,0,0
184001,-125,4,2,1,60,0,0
185522,-125,4,2,1,70,0,0
186609,-100,4,2,1,70,0,0
187914,-76.9230769230769,4,2,1,80,0,0
188349,-83.3333333333333,4,2,1,80,0,0
201392,-83.3333333333333,4,2,1,60,0,0
204870,-83.3333333333333,4,2,1,80,0,0
208349,-90.9090909090909,4,2,1,75,0,0
236175,-90.9090909090909,4,2,1,50,0,0
236609,-90.9090909090909,4,2,1,65,0,0

[Colours]
Combo1 : 112,187,233
Combo2 : 121,221,242
Combo3 : 141,141,222

[HitObjects]
57,229,8349,6,0,P|74:276|80:333,1,89.9999998569489,6|2,3:1|0:0,0:0:0:0:
182,198,8783,2,0,P|165:151|159:94,1,89.9999998569489,0|0,3:2|0:0,0:0:0:0:
304,202,9218,1,2,3:2:0:0:
221,357,9435,1,2,0:0:0:0:
415,313,9653,2,0,P|394:302|373:296,1,44.9999999284745,2|0,1:2|0:0,0:0:0:0:
168,286,9870,5,6,3:1:0:0:
256,192,10305,12,2,11392,1:2:0:0:
79,73,11827,6,0,P|54:76|23:99,1,44.9999999284745,6|0,1:2|0:0,0:0:0:0:
58,201,12044,2,0,P|62:179|75:160,1,44.9999999284745,6|0,1:3|0:0,0:0:0:0:
223,146,12262,6,0,P|181:117|130:121,1,89.9999998569489,6|6,1:3|1:3,0:0:0:0:
123,281,12588,1,0,0:0:0:0:
123,281,12696,2,0,P|130:231|171:189,1,89.9999998569489,6|6,1:3|1:3,0:0:0:0:
333,93,13131,2,0,P|319:124|298:141,1,44.9999999284745,6|0,1:3|0:0,0:0:0:0:
153,200,13349,6,0,B|110:212|34:205|19:122|92:122|101:149,1,179.999992847443,6|0,3:2|0:0,0:0:0:0:
298,227,13783,2,0,P|291:318|243:360,1,119.999995231629,2|2,1:2|3:2,0:0:0:0:
231,146,14109,2,0,P|238:55|286:13,1,119.999995231629,0|0,1:2|3:2,0:0:0:0:
452,221,14435,1,2,1:2:0:0:
442,209,14544,1,8,0:3:0:0:
430,197,14653,1,6,0:3:0:0:
420,185,14762,1,4,0:3:0:0:
410,174,14870,6,0,B|338:152|338:152|256:179|256:179|166:147,1,233.999979990007,6|0,1:2|0:0,0:0:0:0:
85,135,15305,6,0,P|204:97|185:17,1,179.999992847443,6|0,3:1|0:0,0:0:0:0:
138,299,15740,6,0,P|86:227|-11:258,1,197.999998174667,2|0,1:2|0:0,0:0:0:0:
58,309,16175,2,0,P|79:354|113:373,1,65.9999993915558,0|0,3:2|1:2,0:0:0:0:
322,247,16392,1,2,3:2:0:0:
322,247,16609,2,0,P|320:196|295:167,1,65.9999993915558,2|0,1:2|0:0,0:0:0:0:
138,299,16827,6,0,B|205:305|240:259|240:259|242:304|286:325,1,197.999998174667,2|0,0:0|0:0,0:0:0:0:
409,242,17262,2,0,L|487:217,1,65.9999993915558,2|0,0:0|0:0,0:0:0:0:
332,384,17479,6,0,P|305:314|348:265,1,131.999998783112,2|0,1:2|0:0,0:0:0:0:
475,109,17805,2,0,P|501:178|459:228,1,131.999998783112,0|0,0:0|1:2,0:0:0:0:
223,199,18131,2,0,P|253:190|303:159,1,65.9999993915558,2|0,3:2|0:0,0:0:0:0:
380,81,18349,1,2,1:2:0:0:
394,297,18566,2,0,P|364:281|333:271,1,65.9999993915558,2|0,0:0|0:0,0:0:0:0:
95,326,18783,6,0,P|198:349|241:268,1,197.999998174667,2|0,3:2|0:0,0:0:0:0:
181,105,19218,2,0,P|136:162|142:218,1,131.999998783112,2|0,1:2|0:0,0:0:0:0:
151,238,19544,1,0,0:0:0:0:
161,256,19653,2,0,L|83:232,1,65.9999993915558,0|0,3:2|1:2,0:0:0:0:
261,186,19870,1,2,3:2:0:0:
337,361,20088,1,2,1:2:0:0:
426,168,20305,5,2,0:0:0:0:
403,179,20414,1,0,0:0:0:0:
392,201,20522,1,0,3:2:0:0:
257,375,20740,2,0,P|274:351|285:302,1,65.9999993915558,2|0,0:0|0:0,0:0:0:0:
201,110,20957,2,0,P|211:148|232:177,1,65.9999993915558,0|0,1:2|0:0,0:0:0:0:
418,220,21175,6,0,B|453:186|410:126|322:153|311:226,1,197.999998174667,2|0,0:0|1:2,0:0:0:0:
325,321,21609,2,0,L|241:295,1,65.9999993915558,2|0,3:2|0:0,0:0:0:0:
94,255,21827,1,2,1:2:0:0:
231,224,21935,6,0,P|199:294|92:268,1,197.999998174667,0|6,0:0|3:1,0:0:0:0:
95,273,22370,1,0,0:0:0:0:
95,273,22479,1,2,0:0:0:0:
426,357,22696,6,0,P|322:307|337:236,1,197.999998174667,2|0,1:2|0:0,0:0:0:0:
408,215,23131,2,0,P|411:248|402:280,1,65.9999993915558,0|0,3:2|1:2,0:0:0:0:
265,47,23349,1,2,3:2:0:0:
265,47,23566,2,0,P|290:77|332:95,1,65.9999993915558,2|0,1:2|0:0,0:0:0:0:
499,131,23783,6,0,B|439:152|392:102|392:102|386:147|326:169,1,197.999998174667,2|0,0:0|0:0,0:0:0:0:
215,247,24218,2,0,P|231:223|250:174,1,65.9999993915558,2|0,0:0|0:0,0:0:0:0:
150,52,24435,6,0,P|126:118|175:180,1,131.999998783112,2|0,1:2|0:0,0:0:0:0:
292,309,24762,2,0,P|337:255|312:180,1,131.999998783112,0|0,0:0|1:2,0:0:0:0:
68,269,25088,2,0,P|117:253|154:231,1,65.9999993915558,2|0,3:2|0:0,0:0:0:0:
300,106,25305,1,2,1:2:0:0:
215,247,25522,1,2,0:0:0:0:
374,364,25740,6,0,P|342:316|354:236,1,131.999998783112,2|2,3:2|0:0,0:0:0:0:
370,164,26066,1,0,0:0:0:0:
391,170,26175,2,0,P|415:192|423:244,1,65.9999993915558,2|0,1:2|0:0,0:0:0:0:
280,358,26392,2,0,B|241:343|241:343|188:352|188:352|154:338,1,131.999998783112,0|0,0:0|3:2,0:0:0:0:
154,338,26718,1,0,1:2:0:0:
154,338,26827,1,2,3:2:0:0:
83,138,27044,2,0,P|105:177|143:197,1,65.9999993915558,2|0,1:2|0:0,0:0:0:0:
281,223,27262,6,0,P|362:158|346:66,1,197.999998174667,6|2,3:1|0:0,0:0:0:0:
276,135,27696,1,2,3:2:0:0:
276,135,27805,1,0,0:0:0:0:
276,135,27914,2,0,P|211:54|119:70,1,197.999998174667,2|0,1:2|1:2,0:0:0:0:
182,142,28349,6,0,P|160:151|131:204,1,65.9999993915558,6|2,3:3|1:2,0:0:0:0:
339,191,28566,6,0,P|351:170|343:110,1,65.9999993915558,6|0,3:3|1:2,0:0:0:0:
234,293,28783,6,0,P|259:317|312:337,1,65.9999993915558,2|2,1:2|1:2,0:0:0:0:
493,189,29001,6,0,P|445:201|410:228,1,65.9999993915558,2|2,1:2|1:2,0:0:0:0:
286,331,29218,6,0,P|202:340|149:265,1,179.999992847443,6|0,3:1|0:0,0:0:0:0:
151,258,29653,1,2,3:2:0:0:
250,100,29870,1,2,0:0:0:0:
250,100,29979,1,0,0:0:0:0:
250,100,30088,2,0,P|262:124|268:170,1,59.9999976158143,2|0,3:2|0:0,0:0:0:0:
239,261,30305,1,2,0:0:0:0:
110,114,30522,1,2,3:2:0:0:
14,228,30740,6,0,P|96:201|213:173,1,179.999992847443,2|0,0:0|0:0,0:0:0:0:
268,156,31175,2,0,P|310:122|286:30,1,119.999995231629,2|0,0:0|3:2,0:0:0:0:
304,44,31501,1,0,0:0:0:0:
289,37,31609,1,2,0:0:0:0:
367,173,31827,1,0,3:2:0:0:
474,24,32044,6,0,L|483:83,1,59.9999976158143,2|0,0:0|0:0,0:0:0:0:
507,182,32262,1,2,1:2:0:0:
381,93,32479,1,2,0:0:0:0:
308,231,32696,6,0,P|332:240|373:250,1,59.9999976158143,2|0,3:2|0:0,0:0:0:0:
496,269,32914,2,0,P|469:280|428:299,1,59.9999976158143
348,384,33131,2,0,P|360:355|369:318,1,59.9999976158143,2|0,3:2|0:0,0:0:0:0:
432,187,33349,6,0,P|388:141|324:152,1,119.999995231629,2|0,0:0|3:2,0:0:0:0:
195,274,33783,1,2,0:0:0:0:
195,274,33892,1,0,0:0:0:0:
195,274,34001,2,0,P|227:269|261:261,1,59.9999976158143,2|0,3:2|0:0,0:0:0:0:
335,144,34218,6,0,P|280:130|197:114,1,119.999995231629,2|0,0:0|3:2,0:0:0:0:
102,226,34653,2,0,P|89:286|124:335,1,119.999995231629,2|0,0:0|3:2,0:0:0:0:
134,343,34979,1,0,0:0:0:0:
261,249,35196,1,0,0:0:0:0:
272,237,35305,2,0,P|279:196|281:155,1,59.9999976158143,0|0,3:2|0:0,0:0:0:0:
215,51,35522,1,2,0:0:0:0:
129,160,35740,6,0,P|157:154|205:139,1,59.9999976158143,2|0,1:2|0:0,0:0:0:0:
359,73,35957,2,0,P|331:67|283:52,1,59.9999976158143
174,39,36175,6,0,B|113:44|79:8|79:8|77:48|27:70,1,179.999992847443,2|0,3:2|0:0,0:0:0:0:
16,69,36609,1,2,3:2:0:0:
115,218,36827,2,0,P|123:190|130:146,1,59.9999976158143,2|0,0:0|0:0,0:0:0:0:
200,29,37044,2,0,P|207:56|216:94,1,59.9999976158143,2|0,3:2|0:0,0:0:0:0:
236,192,37262,1,0,0:0:0:0:
89,88,37479,1,2,3:2:0:0:
263,5,37696,6,0,B|315:15|315:15|366:57|366:57|426:71,1,179.999992847443,2|0,0:0|0:0,0:0:0:0:
512,182,38131,2,0,P|454:216|387:194,1,119.999995231629,2|0,0:0|3:2,0:0:0:0:
306,143,38566,1,2,0:0:0:0:
425,71,38783,2,0,P|421:98|412:136,1,59.9999976158143,0|0,3:2|0:0,0:0:0:0:
294,275,39001,1,2,0:0:0:0:
278,276,39109,1,0,0:0:0:0:
265,272,39218,2,0,P|238:235|253:166,1,119.999995231629,2|2,1:2|0:0,0:0:0:0:
357,211,39653,6,0,B|415:220|457:189|457:189|464:233|502:254,1,179.999992847443,2|0,3:2|0:0,0:0:0:0:
512,259,40088,1,2,3:2:0:0:
347,312,40305,1,2,0:0:0:0:
390,129,40522,6,0,P|400:158|409:191,1,59.9999976158143,2|0,3:2|0:0,0:0:0:0:
496,329,40740,2,0,P|465:321|432:304,1,59.9999976158143,2|0,0:0|0:0,0:0:0:0:
266,276,40957,2,0,P|301:271|344:253,1,59.9999976158143,2|0,3:2|0:0,0:0:0:0:
494,124,41175,6,0,P|437:53|328:74,1,197.999998174667,6|0,1:1|0:0,0:0:0:0:
252,150,41609,2,0,P|258:175|278:223,1,65.9999993915558,2|0,1:2|0:0,0:0:0:0:
194,338,41827,2,0,P|188:313|168:265,1,65.9999993915558,6|0,1:2|0:0,0:0:0:0:
79,168,42044,6,0,P|114:178|152:186,1,65.9999993915558,2|0,0:0|0:0,0:0:0:0:
345,321,42262,1,0,1:2:0:0:
337,314,42370,2,0,P|302:304|264:296,1,65.9999993915558,0|2,0:0|0:0,0:0:0:0:
58,310,42588,5,8,0:3:0:0:
47,302,42696,2,0,P|35:283|34:236,1,65.9999993915558,6|0,3:3|0:0,0:0:0:0:
79,168,42914,2,0,P|88:147|128:122,1,65.9999993915558,4|0,0:3|0:0,0:0:0:0:
212,141,43131,6,0,P|298:119|313:16,1,179.999992847443,14|0,1:2|0:0,0:0:0:0:
486,104,43566,2,0,P|400:126|385:229,1,179.999992847443,10|0,1:2|0:0,0:0:0:0:
426,352,44001,2,0,B|510:371|510:371|454:268,1,179.999992847443,8|8,1:2|1:2,0:0:0:0:
370,282,44435,2,0,B|311:258|316:313|256:289,1,119.999995231629,2|10,3:2|1:2,0:0:0:0:
31,356,44870,5,8,3:2:0:0:
137,297,45088,1,2,1:2:0:0:
158,270,45196,1,2,0:0:0:0:
158,232,45305,1,10,1:2:0:0:
34,111,45522,2,0,P|30:147|47:189,1,59.9999976158143,2|2,0:0|0:0,0:0:0:0:
77,249,45740,6,0,P|163:250|205:167,1,179.999992847443,10|8,1:2|1:2,0:0:0:0:
198,170,46175,2,0,B|236:196|236:196|308:166,1,119.999995231629,2|10,3:2|1:2,0:0:0:0:
512,317,46609,6,0,P|454:268|480:169,1,179.999992847443,10|0,1:2|0:0,0:0:0:0:
321,85,47044,2,0,P|379:134|353:233,1,179.999992847443,10|0,1:2|0:0,0:0:0:0:
318,322,47479,2,0,B|270:285|270:285|156:322,1,179.999992847443,8|8,1:2|1:2,0:0:0:0:
147,328,47914,2,0,P|169:274|144:221,1,119.999995231629,2|10,3:2|1:2,0:0:0:0:
0,99,48349,5,8,3:2:0:0:
64,187,48566,2,0,P|151:183|182:94,1,179.999992847443,2|2,1:2|0:0,0:0:0:0:
177,94,49001,2,0,L|259:120,1,59.9999976158143
324,186,49218,6,0,B|376:166|376:166|443:174|443:174|521:138,1,179.999992847443,10|10,1:2|1:2,0:0:0:0:
483,308,49653,2,0,P|419:300|402:224,1,119.999995231629,0|10,3:2|1:2,0:0:0:0:
314,24,50088,6,0,P|316:99|201:122,1,179.999992847443,14|0,1:2|0:0,0:0:0:0:
142,242,50522,2,0,P|144:167|29:144,1,179.999992847443,10|0,1:2|0:0,0:0:0:0:
21,238,50957,6,0,L|60:361,1,119.999995231629,8|2,1:2|0:0,0:0:0:0:
84,335,51283,1,8,1:2:0:0:
116,316,51392,2,0,B|166:353|166:353|241:332,1,119.999995231629,2|10,3:2|1:2,0:0:0:0:
380,253,51827,5,8,3:2:0:0:
317,370,52044,1,2,1:2:0:0:
317,370,52153,1,0,0:0:0:0:
317,370,52262,1,10,1:2:0:0:
251,163,52479,5,2,0:0:0:0:
275,292,52696,1,10,1:2:0:0:
99,157,52914,5,2,0:0:0:0:
169,268,53131,1,2,3:2:0:0:
256,22,53349,5,10,1:2:0:0:
256,22,53566,2,0,P|261:52|254:81,1,59.9999976158143,4|0,3:1|0:0,0:0:0:0:
203,150,53783,2,0,P|168:162|123:161,1,59.9999976158143,6|0,1:3|0:0,0:0:0:0:
93,69,54001,6,0,P|138:73|170:97,1,59.9999976158143,4|0,1:3|0:0,0:0:0:0:
285,161,54218,2,0,P|299:197|294:243,1,59.9999976158143,6|0,1:3|0:0,0:0:0:0:
213,301,54435,6,0,P|208:258|226:209,1,59.9999976158143,4|0,1:3|0:0,0:0:0:0:
309,80,54653,2,0,P|346:63|386:59,1,59.9999976158143,6|0,1:3|0:0,0:0:0:0:
498,274,54870,6,0,P|388:309|361:158,1,287.999979766847,6|2,1:3|1:2,0:0:0:0:
356,160,55414,1,2,1:2:0:0:
369,151,55522,1,0,3:2:0:0:
233,0,55740,5,0,3:2:0:0:
51,123,55957,5,2,1:2:0:0:
124,165,56066,1,2,1:2:0:0:
177,94,56175,1,0,3:2:0:0:
0,203,56392,6,0,P|8:238|25:277,1,71.9999949417116,2|2,3:2|0:0,0:0:0:0:
39,287,56609,5,2,1:2:0:0:
98,324,56718,1,0,1:2:0:0:
168,313,56827,1,2,1:2:0:0:
212,258,56935,1,0,1:2:0:0:
210,188,57044,6,0,B|168:189|127:169|127:169|107:221|48:234,1,179.999992847443,6|0,3:1|0:0,0:0:0:0:
21,271,57479,6,0,P|128:289|255:313,1,233.999979990007,10|0,1:1|0:0,0:0:0:0:
303,364,57914,5,2,3:2:0:0:
322,350,58022,2,0,P|354:340|403:332,1,71.9999949417116,2|0,1:2|3:2,0:0:0:0:
512,205,58240,1,2,0:0:0:0:
494,221,58349,2,0,P|424:235|364:154,1,143.999989883423,8|2,1:1|0:0,0:0:0:0:
215,44,58783,6,0,P|230:65|275:98,1,71.9999949417116,2|0,3:2|0:0,0:0:0:0:
451,135,59001,2,0,P|412:142|377:171,1,71.9999949417116,2|0,0:0|0:0,0:0:0:0:
261,259,59218,2,0,P|270:226|279:170,1,71.9999949417116,10|0,1:1|0:0,0:0:0:0:
353,0,59435,2,0,P|361:30|370:77,1,71.9999949417116,2|0,0:0|0:0,0:0:0:0:
443,272,59653,5,0,3:2:0:0:
443,272,59762,1,0,1:2:0:0:
443,272,59870,2,0,P|411:265|360:252,1,71.9999949417116,2|0,3:2|0:0,0:0:0:0:
182,200,60088,1,8,1:1:0:0:
68,383,60305,6,0,B|109:373|132:342|132:342|195:359|270:324,1,215.999984825135,2|0,0:0|0:0,0:0:0:0:
285,303,60740,1,2,0:0:0:0:
94,130,60957,2,0,P|75:157|55:201,1,71.9999949417116,10|0,1:1|0:0,0:0:0:0:
208,265,61175,2,0,P|204:240|177:195,1,71.9999949417116,2|0,0:0|0:0,0:0:0:0:
0,282,61392,5,2,3:2:0:0:
16,295,61501,2,0,L|123:312,1,71.9999949417116,0|2,1:2|3:2,0:0:0:0:
267,384,61718,1,2,0:0:0:0:
284,373,61827,2,0,P|324:326|306:235,1,143.999989883423,8|2,1:1|0:0,0:0:0:0:
304,17,62262,6,0,P|322:46|336:90,1,71.9999949417116,2|0,3:2|0:0,0:0:0:0:
315,248,62479,2,0,P|276:242|245:223,1,71.9999949417116,2|0,0:0|0:0,0:0:0:0:
154,89,62696,2,0,P|188:96|233:114,1,71.9999949417116,10|0,1:1|0:0,0:0:0:0:
439,164,62914,2,0,P|405:171|360:189,1,71.9999949417116,2|0,0:0|0:0,0:0:0:0:
220,314,63131,5,0,3:2:0:0:
220,314,63240,1,0,1:2:0:0:
220,314,63349,2,0,L|301:327,1,71.9999949417116,2|0,3:2|0:0,0:0:0:0:
512,252,63566,1,10,1:1:0:0:
319,105,63783,1,2,0:0:0:0:
419,364,64001,6,0,B|384:262|467:293|416:178,1,179.999992847443,6|0,3:1|0:0,0:0:0:0:
437,138,64435,6,0,P|379:218|256:185,1,233.999979990007,10|0,1:1|0:0,0:0:0:0:
222,113,64870,5,2,3:2:0:0:
217,93,64979,2,0,P|223:61|236:13,1,71.9999949417116,2|0,1:2|3:2,0:0:0:0:
0,84,65196,1,2,0:0:0:0:
10,100,65305,2,0,P|80:112|140:60,1,143.999989883423,8|2,1:1|0:0,0:0:0:0:
323,8,65740,6,0,P|310:41|301:89,1,71.9999949417116,2|0,3:2|0:0,0:0:0:0:
178,236,65957,2,0,P|219:233|256:211,1,71.9999949417116,2|0,0:0|0:0,0:0:0:0:
449,137,66175,2,0,P|408:128|371:106,1,71.9999949417116,10|0,1:1|0:0,0:0:0:0:
211,54,66392,2,0,L|233:135,1,71.9999949417116,2|0,0:0|0:0,0:0:0:0:
385,301,66609,5,0,3:2:0:0:
385,301,66718,1,0,1:2:0:0:
385,301,66827,2,0,L|396:218,1,71.9999949417116,2|0,3:2|0:0,0:0:0:0:
463,48,67044,1,10,1:1:0:0:
241,148,67262,6,0,B|182:136|182:136|99:158|99:158|27:142,1,215.999984825135,2|0,0:0|0:0,0:0:0:0:
14,124,67696,1,2,0:0:0:0:
219,0,67914,2,0,P|233:30|241:82,1,71.9999949417116,10|0,1:1|0:0,0:0:0:0:
131,284,68131,2,0,P|121:250|112:192,1,71.9999949417116,2|0,0:0|0:0,0:0:0:0:
41,108,68349,5,2,3:2:0:0:
72,51,68457,1,0,1:2:0:0:
127,21,68566,1,2,3:2:0:0:
190,28,68675,1,0,0:0:0:0:
240,67,68783,2,0,P|237:96|225:155,1,71.9999949417116,10|0,1:1|0:0,0:0:0:0:
304,293,69001,2,0,P|307:264|319:205,1,71.9999949417116,2|0,0:0|0:0,0:0:0:0:
384,101,69218,6,0,P|455:91|513:161,1,143.999989883423,0|2,3:2|0:0,0:0:0:0:
512,159,69544,1,0,0:0:0:0:
383,242,69653,6,0,L|308:219,1,71.9999949417116,6|0,1:1|0:0,0:0:0:0:
206,279,69870,1,2,1:2:0:0:
201,297,69979,1,8,0:3:0:0:
201,316,70088,1,4,3:3:0:0:
205,335,70196,1,0,0:0:0:0:
213,352,70305,6,0,P|247:344|296:326,1,71.9999949417116,6|0,3:3|0:0,0:0:0:0:
444,223,70522,2,0,P|410:215|361:197,1,71.9999949417116,2|0,1:2|0:0,0:0:0:0:
213,125,70740,1,2,1:2:0:0:
213,125,70849,1,0,1:2:0:0:
296,235,70957,6,0,B|261:163|321:167|282:81,1,143.999989883423,6|0,3:1|0:0,0:0:0:0:
288,96,71283,1,0,0:0:0:0:
366,197,71392,6,0,P|250:203|218:97,1,215.999984825135,10|0,1:1|0:0,0:0:0:0:
304,131,71827,1,2,3:2:0:0:
304,131,71935,2,0,P|284:172|223:191,1,71.9999949417116,2|0,1:2|3:2,0:0:0:0:
136,244,72153,2,0,B|92:230|92:230|36:244|36:244|-29:216,1,143.999989883423,2|0,0:0|0:0,0:0:0:0:
0,242,72479,2,0,L|22:331,1,71.9999949417116,2|0,0:0|0:0,0:0:0:0:
217,363,72696,6,0,P|292:363|331:301,1,143.999989883423,2|2,3:2|0:0,0:0:0:0:
391,260,73022,1,0,0:0:0:0:
383,251,73131,2,0,L|460:281,1,71.9999949417116,10|0,1:1|0:0,0:0:0:0:
396,134,73349,2,0,B|337:175|337:175|245:159,1,143.999989883423,2|0,0:0|3:2,0:0:0:0:
268,18,73675,1,0,1:2:0:0:
284,25,73783,2,0,P|309:57|314:108,1,71.9999949417116,2|0,3:2|0:0,0:0:0:0:
269,249,74000,2,0,B|217:291|156:275|116:223|135:185|185:181|198:225,1,215.999984825135,8|0,1:1|0:0,0:0:0:0:
141,333,74435,6,0,P|73:255|100:142,1,215.999984825135,0|0,3:2|0:0,0:0:0:0:
371,51,74870,2,0,P|439:129|412:242,1,215.999984825135,10|0,1:1|0:0,0:0:0:0:
145,226,75305,2,0,P|178:205|248:208,1,71.9999949417116,0|0,3:2|1:2,0:0:0:0:
341,291,75522,2,0,P|306:272|273:210,1,71.9999949417116,2|0,3:2|0:0,0:0:0:0:
300,89,75740,2,0,P|301:128|264:187,1,71.9999949417116,10|0,1:1|0:0,0:0:0:0:
202,289,75957,1,2,0:0:0:0:
144,126,76066,1,0,0:0:0:0:
213,193,76175,6,0,P|305:190|294:84,1,215.999984825135,0|0,3:2|0:0,0:0:0:0:
213,193,76609,6,0,L|254:340,1,143.999989883423,10|0,1:1|0:0,0:0:0:0:
251,331,76935,1,0,0:0:0:0:
151,293,77044,6,0,P|117:317|89:376,2,71.9999949417116,2|0|2,3:2|1:2|3:2,0:0:0:0:
330,293,77370,2,0,P|396:295|450:226,1,143.999989883423
397,131,77696,2,0,P|362:175|360:229,1,71.9999949417116,2|0,0:0|0:0,0:0:0:0:
241,334,77914,6,0,P|234:247|167:222,1,143.999989883423,4|2,3:1|0:0,0:0:0:0:
190,222,78240,1,0,0:0:0:0:
37,339,78349,2,0,B|79:318|79:318|124:324|124:324|198:289,1,143.999989883423,8|0,1:1|0:0,0:0:0:0:
188,310,78675,2,0,P|203:264|207:215,1,71.9999949417116,0|2,0:0|3:2,0:0:0:0:
111,27,78892,2,0,P|56:88|89:167,1,143.999989883423,0|0,1:2|0:0,0:0:0:0:
141,177,79218,2,0,L|218:143,1,71.9999949417116,10|0,1:1|0:0,0:0:0:0:
443,257,79435,6,0,P|389:276|314:208,1,143.999989883423,6|0,3:1|0:0,0:0:0:0:
440,363,79762,5,0,0:0:0:0:
440,363,79870,1,2,3:2:0:0:
440,363,79979,1,0,0:0:0:0:
440,363,80088,2,0,P|394:296|413:167,1,215.999984825135,8|0,1:1|0:0,0:0:0:0:
474,98,80522,6,0,P|498:137|500:172,1,71.9999949417116,6|0,3:3|0:0,0:0:0:0:
335,142,80740,2,0,P|303:181|252:196,1,71.9999949417116,6|0,3:3|0:0,0:0:0:0:
169,96,80957,2,0,P|99:71|69:6,1,143.999989883423,6|2,1:2|0:0,0:0:0:0:
69,11,81392,6,0,P|58:91|34:163,1,143.999989883423,4|2,3:1|0:0,0:0:0:0:
443,373,81827,2,0,P|454:293|478:221,1,143.999989883423,10|2,1:1|0:0,0:0:0:0:
156,101,82262,6,0,P|144:177|117:260,1,143.999989883423,2|2,3:2|0:0,0:0:0:0:
356,283,82588,2,0,P|368:207|395:124,1,143.999989883423,0|0,1:2|0:0,0:0:0:0:
441,300,82914,6,0,B|417:401|330:428|208:352|258:225|262:73|93:66|47:222,1,575.999959533693,6|2,3:1|0:0,0:0:0:0:
79,328,83892,5,0,1:2:0:0:
79,328,84001,2,0,P|125:303|150:248,1,71.9999949417116,10|0,1:1|0:0,0:0:0:0:
358,288,84218,6,0,P|375:245|372:185,1,71.9999949417116,0|0,1:2|1:2,0:0:0:0:
256,16,84435,5,10,1:1:0:0:
256,40,84543,1,0,1:2:0:0:
256,63,84652,1,0,1:2:0:0:
256,87,84761,1,0,1:2:0:0:
256,164,84870,6,0,P|212:156|154:141,1,95.9999961853028,4|2,3:1|0:0,0:0:0:0:
148,128,85305,1,2,1:2:0:0:
61,202,85522,2,0,P|54:244|88:293,1,95.9999961853028,2|2,0:0|3:2,0:0:0:0:
96,300,85849,1,0,1:2:0:0:
110,303,85957,1,2,3:2:0:0:
193,237,86175,1,2,1:2:0:0:
292,292,86392,6,0,P|393:305|457:234,1,191.999992370606,2|2,0:0|0:0,0:0:0:0:
455,233,86935,1,2,0:0:0:0:
454,222,87044,1,2,1:2:0:0:
311,116,87262,2,0,P|305:161|336:209,1,95.9999961853028,2|0,0:0|3:2,0:0:0:0:
342,212,87588,1,0,1:2:0:0:
356,213,87696,1,2,3:2:0:0:
460,115,87914,1,2,1:2:0:0:
363,46,88131,6,0,P|313:40|261:23,1,95.9999961853028,2|0,0:0|3:2,0:0:0:0:
105,147,88566,1,2,0:0:0:0:
158,11,88783,1,2,1:2:0:0:
272,107,89001,2,0,P|278:145|239:203,1,95.9999961853028,2|2,0:0|3:2,0:0:0:0:
238,202,89327,1,0,1:2:0:0:
225,204,89435,1,2,3:2:0:0:
80,224,89653,1,2,1:2:0:0:
96,359,89870,6,0,B|138:338|140:293|140:293|175:339|242:333,1,191.999992370606,2|2,0:0|0:0,0:0:0:0:
247,330,90414,1,2,0:0:0:0:
254,323,90522,1,2,1:2:0:0:
354,223,90740,2,0,P|394:201|453:210,1,95.9999961853028,2|0,0:0|3:2,0:0:0:0:
484,230,91066,1,0,1:2:0:0:
501,274,91175,1,2,3:2:0:0:
482,318,91283,1,0,1:2:0:0:
437,336,91392,2,0,P|389:325|345:315,1,71.9999949417116,2|8,1:2|0:3,0:0:0:0:
266,244,91827,6,0,P|256:184|225:60,1,143.999994277954,6|0,3:2|0:0,0:0:0:0:
304,0,92262,2,0,P|313:43|328:100,1,95.9999961853028,2|2,1:2|0:0,0:0:0:0:
450,184,92696,5,2,3:2:0:0:
450,184,92805,1,0,1:2:0:0:
450,184,92914,2,0,P|456:157|464:117,1,47.9999980926514,2|0,3:2|0:0,0:0:0:0:
512,54,93131,1,2,1:2:0:0:
326,93,93349,6,0,B|218:51|245:140|130:98,1,191.999992370606,2|2,0:0|0:0,0:0:0:0:
12,85,94001,2,0,L|80:68,1,47.9999980926514,2|0,1:2|0:0,0:0:0:0:
136,12,94218,2,0,P|153:56|117:127,1,95.9999961853028,2|0,0:0|3:2,0:0:0:0:
37,208,94544,5,0,1:2:0:0:
37,208,94653,2,0,P|26:190|30:150,1,47.9999980926514,2|0,3:2|0:0,0:0:0:0:
148,186,94870,2,0,B|162:234|162:234|129:274,1,95.9999961853028,2|2,1:2|0:0,0:0:0:0:
35,372,95305,6,0,P|90:356|169:341,1,95.9999961853028,0|2,3:2|0:0,0:0:0:0:
127,347,95740,1,2,1:2:0:0:
257,270,95957,2,0,P|305:284|371:312,1,95.9999961853028,2|0,0:0|3:2,0:0:0:0:
347,300,96392,1,2,3:2:0:0:
470,130,96609,1,2,1:2:0:0:
234,173,96827,6,0,B|194:227|194:227|231:332,1,143.999994277954,6|0,3:1|0:0,0:0:0:0:
245,326,97262,2,0,P|239:352|234:392,1,47.9999980926514,2|0,3:2|0:0,0:0:0:0:
352,279,97479,2,0,P|346:253|341:213,1,47.9999980926514,2|2,1:2|0:0,0:0:0:0:
408,115,97696,1,0,1:2:0:0:
408,115,97805,1,0,1:2:0:0:
500,151,97914,2,0,P|518:191|504:252,1,95.9999961853028,2|10,3:2|0:3,0:0:0:0:
470,324,98349,5,2,3:2:0:0:
435,334,98457,1,6,0:3:0:0:
400,329,98566,1,4,0:3:0:0:
370,310,98675,1,0,0:0:0:0:
352,279,98783,1,6,3:2:0:0:
187,125,109001,6,0,L|196:94,2,31.9999987284343,10|8|4,0:3|0:3|0:3,0:0:0:0:
80,120,109218,6,0,B|144:140|144:140|165:178|165:178|244:197,1,191.999992370606,2|2,1:2|0:0,0:0:0:0:
244,197,110305,2,0,L|260:243,1,47.9999980926514,6|0,3:3|0:0,0:0:0:0:
287,124,110522,1,0,1:2:0:0:
126,337,110740,6,0,P|47:303|38:217,1,179.999992847443,6|0,3:2|0:0,0:0:0:0:
38,216,111175,2,0,P|65:205|89:186,1,59.9999976158143,6|0,1:3|0:0,0:0:0:0:
203,366,111392,2,0,P|206:336|202:306,1,59.9999976158143,4|0,1:3|0:0,0:0:0:0:
414,297,111609,2,0,P|389:279|362:267,1,59.9999976158143,6|0,1:3|0:0,0:0:0:0:
175,194,111827,6,0,P|199:211|226:223,1,59.9999976158143,4|0,1:3|0:0,0:0:0:0:
429,213,112044,1,2,3:2:0:0:
426,133,112153,1,0,1:2:0:0:
351,117,112262,2,0,P|323:128|299:147,1,59.9999976158143,2|0,1:2|0:0,0:0:0:0:
329,307,112480,2,0,P|332:277|328:247,1,59.9999976158143,10|0,0:3|0:0,0:0:0:0:
120,105,112696,6,0,B|88:139|88:139|64:208|106:265,1,179.999992847443,14|0,1:2|0:0,0:0:0:0:
163,360,113131,2,0,P|108:294|22:313,1,179.999992847443,10|0,1:2|0:0,0:0:0:0:
23,312,113566,1,8,1:2:0:0:
251,200,113783,5,2,0:0:0:0:
273,273,113892,1,8,1:2:0:0:
198,258,114001,1,2,3:2:0:0:
330,215,114218,5,10,1:2:0:0:
466,346,114435,1,8,3:2:0:0:
355,289,114653,1,2,1:2:0:0:
437,271,114870,1,10,1:2:0:0:
388,369,115088,5,2,0:0:0:0:
417,196,115305,1,10,1:2:0:0:
231,280,115522,5,2,0:0:0:0:
270,348,115631,1,8,1:2:0:0:
308,280,115740,1,2,3:2:0:0:
192,351,115957,5,10,1:2:0:0:
68,279,116175,2,0,P|36:198|96:131,1,179.999992847443,10|0,1:2|0:0,0:0:0:0:
99,143,116609,2,0,L|91:203,1,59.9999976158143,10|0,1:2|0:0,0:0:0:0:
23,80,116827,1,0,0:0:0:0:
173,187,117044,1,8,1:2:0:0:
177,16,117262,5,2,0:0:0:0:
109,52,117370,1,8,1:2:0:0:
175,93,117479,1,2,3:2:0:0:
376,104,117696,5,10,1:2:0:0:
246,59,117914,1,8,3:2:0:0:
390,112,118131,6,0,P|419:107|447:97,1,59.9999976158143,2|0,1:2|0:0,0:0:0:0:
297,152,118349,1,8,1:2:0:0:
356,200,118457,2,0,P|413:217|461:252,1,119.999995231629,2|0,0:0|0:0,0:0:0:0:
292,295,118783,2,0,L|284:235,1,59.9999976158143,10|0,1:2|0:0,0:0:0:0:
165,113,119001,5,0,0:0:0:0:
130,183,119109,1,10,1:2:0:0:
206,180,119218,1,0,3:2:0:0:
55,237,119435,6,0,P|50:207|40:178,1,59.9999976158143,10|0,1:2|0:0,0:0:0:0:
7,309,119653,2,0,P|86:269|172:291,1,179.999992847443,14|0,1:2|0:0,0:0:0:0:
336,273,120088,2,0,P|257:312|171:290,1,179.999992847443,10|0,1:2|0:0,0:0:0:0:
121,349,120522,1,8,1:2:0:0:
233,149,120740,5,2,0:0:0:0:
291,201,120849,1,8,1:2:0:0:
219,228,120957,1,2,3:2:0:0:
134,101,121175,5,10,1:2:0:0:
38,155,121392,2,0,P|67:160|94:173,1,59.9999976158143,8|0,3:2|0:0,0:0:0:0:
258,300,121609,5,2,1:2:0:0:
162,246,121826,2,0,P|191:240|218:227,1,59.9999976158143,10|0,1:2|0:0,0:0:0:0:
387,97,122044,5,2,0:0:0:0:
291,151,122261,2,0,P|320:156|347:169,1,59.9999976158143,10|0,1:2|0:0,0:0:0:0:
506,301,122479,5,2,0:0:0:0:
410,247,122696,2,0,P|439:241|466:228,1,59.9999976158143,2|0,3:2|0:0,0:0:0:0:
353,313,122914,5,10,1:2:0:0:
479,142,123131,2,0,P|460:86|406:63,1,119.999995231629,6|0,3:1|1:2,0:0:0:0:
343,105,123457,1,2,1:2:0:0:
276,68,123566,2,0,L|283:8,1,59.9999976158143,0|0,3:2|1:2,0:0:0:0:
109,156,123783,5,2,1:2:0:0:
174,114,123892,1,0,1:2:0:0:
240,159,124001,2,0,L|232:218,1,59.9999976158143,2|0,3:2|1:2,0:0:0:0:
67,371,124218,5,0,1:2:0:0:
13,314,124327,1,2,1:2:0:0:
51,246,124435,1,0,1:2:0:0:
127,260,124544,1,0,1:2:0:0:
136,337,124653,6,0,B|242:314|208:367|341:339,1,179.999992847443,6|0,3:2|0:0,0:0:0:0:
373,282,125088,6,0,P|389:307|397:335,1,59.9999976158143,2|0,1:2|0:0,0:0:0:0:
261,239,125305,2,0,P|247:265|226:287,1,59.9999976158143,2|0,1:2|0:0,0:0:0:0:
242,120,125522,2,0,P|212:121|182:114,1,59.9999976158143,2|0,3:2|0:0,0:0:0:0:
1,238,125740,6,0,P|54:212|114:206,1,119.999995231629,2|0,1:2|3:2,0:0:0:0:
304,316,126066,1,2,0:0:0:0:
417,263,126175,2,0,P|387:257|358:248,1,59.9999976158143,12|0,0:3|0:0,0:0:0:0:
95,121,126392,2,0,P|124:126|153:135,1,59.9999976158143,2|0,3:2|0:0,0:0:0:0:
299,160,126609,6,0,P|321:93|336:18,1,143.999989883423,6|0,3:1|0:0,0:0:0:0:
456,0,126935,2,0,P|479:63|416:135,1,143.999989883423,2|0,3:2|0:0,0:0:0:0:
378,179,127262,2,0,P|367:214|356:260,1,71.9999949417116,2|0,3:2|0:0,0:0:0:0:
266,299,127479,6,0,B|226:277|176:282|176:282|125:246,1,143.999989883423,2|0,1:2|0:0,0:0:0:0:
0,203,127805,2,0,B|40:181|90:186|90:186|141:150,1,143.999989883423,2|0,1:2|0:0,0:0:0:0:
214,85,128131,6,0,P|147:14|23:35,1,215.999984825135,2|0,3:2|0:0,0:0:0:0:
35,158,128566,1,2,0:0:0:0:
74,227,128675,1,0,3:2:0:0:
152,232,128783,2,0,P|185:227|223:196,1,71.9999949417116,2|0,1:2|0:0,0:0:0:0:
313,19,129001,2,0,P|297:52|301:105,1,71.9999949417116,2|0,3:2|0:0,0:0:0:0:
369,187,129218,5,2,1:2:0:0:
378,197,129327,2,0,P|392:236|401:278,1,71.9999949417116,0|2,3:2|0:0,0:0:0:0:
304,376,129544,1,0,3:2:0:0:
295,366,129653,2,0,P|281:327|272:285,1,71.9999949417116,2|0,1:2|0:0,0:0:0:0:
216,205,129870,2,0,L|139:184,1,71.9999949417116,0|0,1:2|1:2,0:0:0:0:
0,323,130088,6,0,P|58:351|171:272,2,215.999984825135,6|2|2,3:1|3:2|3:2,0:0:0:0:
63,123,130957,2,0,B|91:172|91:172|74:275,1,143.999989883423,2|0,1:2|0:0,0:0:0:0:
169,359,131283,1,2,1:2:0:0:
181,349,131392,2,0,P|189:316|196:274,1,71.9999949417116,0|0,1:2|1:2,0:0:0:0:
279,167,131609,2,0,P|285:202|295:246,1,71.9999949417116,2|0,3:2|0:0,0:0:0:0:
371,334,131827,5,0,1:2:0:0:
447,351,131935,1,0,1:2:0:0:
504,295,132044,1,2,3:2:0:0:
512,203,132153,5,0,1:2:0:0:
447,201,132262,1,2,1:2:0:0:
405,250,132370,1,0,1:2:0:0:
342,307,132479,5,10,0:3:0:0:
291,307,132588,1,8,0:3:0:0:
253,273,132696,1,2,3:2:0:0:
226,198,132805,5,0,1:2:0:0:
231,162,132914,1,6,0:3:0:0:
255,136,133022,1,4,0:3:0:0:
334,134,133131,6,0,P|370:144|414:155,1,71.9999949417116,2|0,1:2|3:2,0:0:0:0:
484,131,133349,5,2,1:2:0:0:
508,56,133457,1,0,1:2:0:0:
446,5,133566,2,0,P|383:-3|322:58,1,143.999989883423,6|0,3:1|0:0,0:0:0:0:
252,144,133892,2,0,P|272:65|336:48,1,143.999989883423,2|0,3:2|0:0,0:0:0:0:
399,108,134218,5,2,3:2:0:0:
409,127,134327,1,2,0:0:0:0:
413,148,134435,1,2,1:2:0:0:
408,169,134544,1,0,0:0:0:0:
395,249,134653,5,2,0:0:0:0:
369,275,134762,1,2,1:2:0:0:
334,282,134870,1,2,1:2:0:0:
299,270,134979,1,0,0:0:0:0:
218,281,135088,5,2,0:0:0:0:
172,259,135196,1,2,0:0:0:0:
154,211,135305,1,2,3:2:0:0:
165,161,135414,1,0,1:2:0:0:
148,78,135522,5,2,1:2:0:0:
181,22,135631,1,2,1:2:0:0:
243,6,135740,1,10,3:2:0:0:
302,31,135849,1,8,0:3:0:0:
326,117,135957,5,10,0:3:0:0:
326,117,136066,1,10,0:3:0:0:
326,117,136175,1,6,3:3:0:0:
326,117,136283,2,0,P|293:129|246:138,1,71.9999949417116,4|6,0:3|0:3,0:0:0:0:
76,254,136501,5,6,0:3:0:0:
70,236,136609,2,0,P|72:204|88:152,1,71.9999949417116,2|0,1:2|3:2,0:0:0:0:
166,18,136827,5,2,3:2:0:0:
166,18,136935,1,0,1:2:0:0:
204,81,137044,2,0,P|193:164|176:268,1,143.999989883423,2|0,3:2|1:2,0:0:0:0:
270,332,137370,2,0,P|281:249|298:145,1,143.999989883423,2|0,3:2|1:2,0:0:0:0:
362,114,137696,6,0,P|411:69|502:95,1,143.999989883423,6|0,3:1|1:2,0:0:0:0:
512,204,138022,2,0,B|465:195|465:195|417:205|417:205|364:195,1,143.999989883423,2|0,3:2|3:2,0:0:0:0:
270,332,138349,2,0,P|330:344|405:280,1,143.999989883423,6|0,1:2|1:2,0:0:0:0:
370,196,138675,5,2,1:2:0:0:
322,163,138783,1,0,1:2:0:0:
266,157,138892,1,8,0:3:0:0:
213,178,139001,1,4,0:3:0:0:
176,221,139109,1,0,3:2:0:0:
164,277,139218,1,6,1:2:0:0:
222,368,139653,5,0,3:2:0:0:
324,307,140088,5,2,3:2:0:0:
266,157,140522,5,6,3:1:0:0:
73,290,141175,6,0,P|78:346|93:395,2,95.9999961853028,10|2|6,0:3|0:0|0:3,0:0:0:0:
95,210,141827,2,0,P|125:183|183:180,1,95.9999961853028,6|2,0:3|0:0,0:0:0:0:
249,237,142262,6,0,B|294:222|294:222|337:238|337:238|391:222,1,143.999989883423,6|0,3:2|0:0,0:0:0:0:
385,223,142914,1,2,3:2:0:0:
360,79,143131,2,0,L|335:173,1,71.9999949417116,0|2,3:2|0:0,0:0:0:0:
361,335,143566,2,0,P|306:322|276:314,1,71.9999949417116,8|2,0:1|0:0,0:0:0:0:
100,239,144001,6,0,P|162:256|223:204,1,143.999989883423,2|0,3:2|0:0,0:0:0:0:
220,210,144653,1,2,3:2:0:0:
53,364,144870,1,0,3:2:0:0:
53,364,145305,2,0,P|41:325|30:281,1,71.9999949417116,8|2,0:1|0:0,0:0:0:0:
34,85,145740,5,2,3:2:0:0:
85,167,145957,1,2,0:0:0:0:
165,119,146175,1,2,0:0:0:0:
165,119,146609,5,2,3:2:0:0:
233,222,146827,1,2,0:0:0:0:
333,163,147044,1,10,0:1:0:0:
333,163,147480,5,0,3:2:0:0:
379,249,147697,1,0,0:0:0:0:
469,261,147914,1,0,0:0:0:0:
436,167,148132,1,2,3:2:0:0:
291,261,148349,1,2,3:2:0:0:
373,344,148566,1,10,0:3:0:0:
333,162,148783,1,8,0:1:0:0:
384,249,149001,5,6,0:3:0:0:
384,249,149109,1,0,0:0:0:0:
384,249,149218,1,4,3:2:0:0:
286,343,149435,2,0,P|210:355|156:308,1,143.999989883423,2|2,0:0|3:2,0:0:0:0:
160,316,150088,1,0,3:2:0:0:
215,202,150305,2,0,P|222:248|243:289,1,71.9999949417116,2|8,0:0|0:1,0:0:0:0:
368,303,150740,2,0,P|339:273|303:257,1,71.9999949417116,2|0,0:0|3:2,0:0:0:0:
136,245,151175,5,2,0:0:0:0:
136,245,151283,2,0,P|109:187|133:137,1,107.999992412567,0|2,3:2|3:2,0:0:0:0:
122,148,151827,2,0,L|211:171,1,71.9999949417116,0|2,3:2|0:0,0:0:0:0:
289,88,152262,2,0,L|315:157,1,71.9999949417116,8|2,0:1|0:0,0:0:0:0:
395,340,152696,6,0,P|427:302|399:236,1,107.999992412567,6|0,3:1|3:2,0:0:0:0:
415,249,153131,2,0,L|339:227,1,71.9999949417116,0|2,0:0|3:2,0:0:0:0:
254,32,153566,2,0,P|286:70|258:136,1,107.999992412567,2|0,3:2|3:2,0:0:0:0:
274,122,154001,2,0,L|197:144,1,71.9999949417116,8|2,0:1|0:0,0:0:0:0:
30,214,154435,6,0,B|64:215|93:241|93:241|132:212|132:212|165:242|199:236,1,191.999992370606,2|0,3:2|0:0,0:0:0:0:
198,236,155088,1,0,3:2:0:0:
411,322,155305,6,0,P|388:328|365:338,1,47.9999980926514,2|0,1:2|0:0,0:0:0:0:
383,190,155522,2,0,P|400:206|419:220,1,47.9999980926514,10|0,0:3|0:0,0:0:0:0:
282,280,155740,2,0,P|287:256|290:232,1,47.9999980926514,6|0,0:3|0:0,0:0:0:0:
458,76,155957,6,0,P|395:97|330:95,1,131.999998783112,6|0,3:2|0:0,0:0:0:0:
330,95,156392,2,0,L|343:31,1,65.9999993915558,10|0,0:3|0:0,0:0:0:0:
187,171,156609,5,6,3:3:0:0:
238,112,156718,2,0,P|175:91|110:93,1,131.999998783112,4|2,0:3|0:0,0:0:0:0:
49,162,157044,2,0,P|38:130|22:101,1,65.9999993915558,4|0,3:3|0:0,0:0:0:0:
126,233,157262,5,2,0:0:0:0:
167,299,157370,1,4,0:3:0:0:
87,306,157479,2,0,P|113:288|144:272,1,65.9999993915558,6|0,3:3|0:0,0:0:0:0:
309,353,157696,2,0,P|279:338|252:319,1,65.9999993915558,6|0,0:3|0:0,0:0:0:0:
266,80,157914,6,0,P|244:142|236:207,1,131.999998783112,4|2,3:3|0:0,0:0:0:0:
375,257,158240,1,4,0:3:0:0:
375,256,158349,2,0,P|390:226|396:194,1,65.9999993915558,4|0,3:3|0:0,0:0:0:0:
317,201,158566,1,4,0:3:0:0:
204,328,158783,5,6,3:3:0:0:
174,288,158891,1,0,1:2:0:0:
133,261,159000,1,2,0:0:0:0:
85,251,159109,1,4,0:3:0:0:
36,258,159217,1,6,3:3:0:0:
36,258,159435,6,0,L|50:322,1,65.9999993915558,6|0,0:3|0:0,0:0:0:0:
238,236,159653,2,0,P|303:235|361:204,1,131.999998783112,4|2,3:3|0:0,0:0:0:0:
441,350,159979,1,4,0:3:0:0:
495,289,160088,2,0,P|466:273|433:265,1,65.9999993915558,6|0,3:3|0:0,0:0:0:0:
306,148,160305,5,6,0:3:0:0:
306,148,160414,1,2,0:0:0:0:
306,148,160522,2,0,L|315:82,2,65.9999993915558,4|8|2,3:3|0:3|0:0,0:0:0:0:
361,204,160849,1,0,0:0:0:0:
426,155,160957,6,0,P|453:136|484:126,1,65.9999993915558,6|0,3:3|0:0,0:0:0:0:
312,268,161175,2,0,P|284:286|253:296,1,65.9999993915558,6|0,0:3|0:0,0:0:0:0:
54,170,161392,6,0,P|118:166|167:207,1,131.999998783112,6|0,3:3|0:0,0:0:0:0:
148,289,161718,1,4,0:3:0:0:
62,311,161827,2,0,L|77:246,1,65.9999993915558,4|0,3:3|0:0,0:0:0:0:
232,290,162044,2,0,L|216:354,1,65.9999993915558,6|0,0:3|0:0,0:0:0:0:
331,217,162262,5,6,3:3:0:0:
380,224,162370,1,0,1:2:0:0:
428,214,162479,1,0,0:0:0:0:
469,187,162588,1,4,0:3:0:0:
499,147,162696,1,4,3:3:0:0:
288,22,162914,2,0,P|293:54|304:85,1,65.9999993915558,6|0,0:3|0:0,0:0:0:0:
201,242,163131,6,0,P|216:178|227:113,1,131.999998783112,6|0,3:2|0:0,0:0:0:0:
165,64,163457,1,6,0:3:0:0:
82,120,163566,2,0,P|114:125|144:139,1,65.9999993915558,4|0,3:3|0:0,0:0:0:0:
258,308,163783,2,0,P|228:321|195:327,1,65.9999993915558,6|0,0:3|0:0,0:0:0:0:
51,371,164001,5,4,3:3:0:0:
25,329,164109,1,8,0:3:0:0:
28,280,164218,1,2,0:0:0:0:
57,241,164327,1,0,0:0:0:0:
103,224,164435,1,4,3:3:0:0:
103,224,164653,6,0,P|132:239|162:251,1,65.9999993915558,6|0,0:3|0:0,0:0:0:0:
278,362,164870,2,0,P|333:326|398:314,1,131.999998783112,6|0,3:3|0:0,0:0:0:0:
263,274,165196,1,6,0:3:0:0:
347,241,165305,2,0,P|358:210|363:177,1,65.9999993915558,4|0,3:3|0:0,0:0:0:0:
218,104,165522,5,6,0:3:0:0:
175,130,165630,1,0,0:0:0:0:
127,128,165739,1,4,3:3:0:0:
87,99,165848,1,0,1:2:0:0:
72,52,165956,1,2,0:0:0:0:
71,52,166175,6,0,P|104:48|137:43,1,65.9999993915558,6|0,3:3|0:0,0:0:0:0:
318,103,166392,2,0,P|285:106|252:111,1,65.9999993915558,4|0,0:3|0:0,0:0:0:0:
33,225,166609,6,0,B|107:219|90:243|163:232,1,131.999998783112,6|0,3:2|0:0,0:0:0:0:
266,193,166935,1,4,0:3:0:0:
364,273,167044,2,0,P|331:274|299:284,1,65.9999993915558,4|0,3:3|0:0,0:0:0:0:
216,368,167262,2,0,P|218:335|215:302,1,65.9999993915558,6|0,0:3|0:0,0:0:0:0:
348,142,167479,5,6,3:3:0:0:
408,196,167588,2,0,P|431:134|425:69,1,131.999998783112,8|2,0:3|0:0,0:0:0:0:
226,64,167914,2,0,P|258:68|291:71,1,65.9999993915558,4|0,3:3|0:0,0:0:0:0:
261,216,168131,2,0,P|264:183|270:149,1,65.9999993915558,6|0,0:3|0:0,0:0:0:0:
27,151,168349,6,0,P|84:119|149:118,1,131.999998783112,6|0,3:3|0:0,0:0:0:0:
139,209,168675,1,4,0:3:0:0:
139,209,168783,2,0,P|108:222|76:226,1,65.9999993915558,4|0,3:3|0:0,0:0:0:0:
146,364,169001,2,0,P|148:330|159:299,1,65.9999993915558,4|0,0:3|0:0,0:0:0:0:
294,296,169218,5,4,3:3:0:0:
229,348,169327,2,0,B|287:343|287:343|300:348|300:348|359:343,1,131.999998783112,0|4,1:2|0:3,0:0:0:0:
489,128,169653,2,0,P|483:160|477:193,1,65.9999993915558,4|0,3:3|0:0,0:0:0:0:
269,211,169870,2,0,P|274:178|280:145,1,65.9999993915558,4|0,0:3|0:0,0:0:0:0:
396,50,170088,6,0,B|381:114|397:102|379:180,1,131.999998783112,6|0,3:2|0:0,0:0:0:0:
334,260,170414,1,4,0:3:0:0:
457,312,170522,2,0,P|444:281|418:262,1,65.9999993915558,4|0,3:3|0:0,0:0:0:0:
271,305,170740,6,0,P|207:301|162:347,1,131.999998783112,6|4,0:3|3:3,0:0:0:0:
52,330,171066,1,0,1:2:0:0:
46,225,171175,6,0,P|75:239|98:262,1,65.9999993915558,2|8,0:0|0:3,0:0:0:0:
167,118,171392,2,0,P|139:136|108:145,1,65.9999993915558,6|0,3:3|0:0,0:0:0:0:
199,276,171609,2,0,P|196:243|204:211,1,65.9999993915558,6|4,0:3|0:3,0:0:0:0:
266,46,171827,6,0,B|313:73|313:73|346:46|346:46|407:87|518:59,1,263.999997566223,6|0,3:2|3:2,0:0:0:0:
507,61,172479,1,10,0:3:0:0:
338,148,172696,6,0,P|350:178|355:211,1,65.9999993915558,2|0,3:2|0:0,0:0:0:0:
512,231,172914,6,0,P|501:256|495:283,1,53.9999962062837,6|6,0:3|0:3,0:0:0:0:
390,296,173131,6,0,P|403:315|409:338,1,47.9999980926514,6|2,3:3|3:2,0:0:0:0:
182,114,180522,6,0,P|195:153|205:195,1,71.9999949417116,2|0,3:2|0:0,0:0:0:0:
336,248,180957,2,0,P|323:209|313:167,1,71.9999949417116,0|0,1:2|0:0,0:0:0:0:
163,286,181392,6,0,P|202:273|244:263,1,71.9999949417116,2|0,3:2|0:0,0:0:0:0:
347,87,181827,2,0,P|308:100|266:110,1,71.9999949417116,0|2,1:2|0:0,0:0:0:0:
121,144,182262,5,2,3:2:0:0:
256,192,182479,1,2,0:0:0:0:
391,240,182696,1,2,1:2:0:0:
221,308,182914,5,2,0:0:0:0:
221,308,183022,1,0,1:2:0:0:
221,308,183131,1,0,3:2:0:0:
256,192,183349,2,0,P|268:157|281:103,1,71.9999949417116,2|2,3:2|1:2,0:0:0:0:
388,0,183783,6,0,P|423:84|363:163,1,191.999992370606,2|2,0:0|0:0,0:0:0:0:
276,123,184435,2,0,P|271:99|265:58,1,47.9999980926514,2|0,1:2|0:0,0:0:0:0:
209,0,184653,1,2,0:0:0:0:
209,0,184762,1,0,1:2:0:0:
139,44,184870,2,0,P|117:81|136:143,1,95.9999961853028,2|2,3:2|3:2,0:0:0:0:
102,267,185305,1,2,1:2:0:0:
197,191,185522,5,2,0:0:0:0:
235,171,185631,1,0,1:2:0:0:
278,173,185740,1,0,1:2:0:0:
316,193,185849,1,0,1:2:0:0:
339,229,185957,1,2,3:2:0:0:
462,336,186175,1,2,3:2:0:0:
503,158,186392,5,2,1:2:0:0:
503,158,186501,1,0,1:2:0:0:
405,197,186609,2,0,B|441:206|441:206|474:233|474:233|513:246,1,119.999995231629,0|2,3:2|3:2,0:0:0:0:
363,363,187044,5,2,1:2:0:0:
301,339,187153,1,0,1:2:0:0:
270,280,187262,1,2,1:2:0:0:
287,216,187370,1,0,1:2:0:0:
306,140,187479,5,2,1:2:0:0:
338,112,187588,1,8,0:3:0:0:
379,106,187696,1,4,0:3:0:0:
417,123,187805,1,0,3:2:0:0:
464,201,187914,6,0,P|355:223|220:243,1,233.999979990007,6|0,1:2|0:0,0:0:0:0:
196,317,188349,2,0,P|152:263|170:188,1,143.999989883423,2|0,3:2|3:2,0:0:0:0:
164,194,188675,1,2,0:0:0:0:
98,333,188783,2,0,P|79:304|71:252,1,71.9999949417116,8|0,1:1|0:0,0:0:0:0:
82,170,189001,2,0,P|98:139|140:108,1,71.9999949417116,2|0,0:0|0:0,0:0:0:0:
244,150,189218,6,0,P|294:166|335:176,1,71.9999949417116,2|0,3:2|0:0,0:0:0:0:
458,102,189435,2,0,P|408:86|367:76,1,71.9999949417116,2|0,0:0|0:0,0:0:0:0:
325,0,189653,6,0,P|314:33|296:72,1,71.9999949417116,8|0,1:1|0:0,0:0:0:0:
393,251,189870,2,0,P|404:218|422:179,1,71.9999949417116,2|0,0:0|0:0,0:0:0:0:
419,184,190088,5,0,3:2:0:0:
509,51,190196,2,0,P|441:36|384:94,1,143.999989883423,0|0,1:2|0:0,0:0:0:0:
388,81,190522,1,8,1:1:0:0:
232,218,190740,2,0,P|227:198|214:146,1,71.9999949417116,2|0,0:0|0:0,0:0:0:0:
126,86,190957,6,0,B|159:78|159:78|186:59|186:59|228:65|271:47,1,143.999989883423,0|2,3:2|0:0,0:0:0:0:
389,81,191392,1,8,1:1:0:0:
302,231,191609,2,0,L|216:215,1,71.9999949417116,2|0,0:0|0:0,0:0:0:0:
92,346,191827,5,0,3:2:0:0:
108,352,191935,2,0,P|162:366|242:309,1,143.999989883423,0|0,1:2|0:0,0:0:0:0:
316,315,192262,6,0,P|322:348|339:397,1,71.9999949417116,8|0,1:1|0:0,0:0:0:0:
160,277,192479,2,0,P|154:244|137:195,1,71.9999949417116,2|0,0:0|0:0,0:0:0:0:
266,107,192696,6,0,P|312:165|292:243,1,143.999989883423,0|2,3:2|0:0,0:0:0:0:
160,277,193131,2,0,L|8:251,1,143.999989883423,8|0,1:1|0:0,0:0:0:0:
171,101,193566,5,2,3:2:0:0:
176,114,193675,2,0,P|173:149|159:199,1,71.9999949417116,0|2,1:2|3:2,0:0:0:0:
18,252,193892,1,0,0:0:0:0:
13,239,194001,2,0,P|16:204|30:154,1,71.9999949417116,8|0,1:1|0:0,0:0:0:0:
24,60,194218,2,0,P|61:77|98:90,1,71.9999949417116,2|0,0:0|0:0,0:0:0:0:
248,194,194435,6,0,P|327:201|379:149,1,143.999989883423,4|2,3:1|0:0,0:0:0:0:
355,70,194762,1,0,0:0:0:0:
480,133,194870,2,0,P|466:174|455:223,1,71.9999949417116,8|0,1:1|0:0,0:0:0:0:
499,303,195088,2,0,P|462:318|424:347,1,71.9999949417116
281,288,195305,5,2,3:2:0:0:
380,219,195414,2,0,P|365:285|275:276,1,143.999989883423,0|0,1:2|0:0,0:0:0:0:
212,234,195740,2,0,L|189:157,1,71.9999949417116,8|0,1:1|0:0,0:0:0:0:
87,333,195957,2,0,L|115:250,1,71.9999949417116,2|0,0:0|0:0,0:0:0:0:
72,57,196175,6,0,P|44:118|88:171,1,143.999989883423,0|2,3:2|0:0,0:0:0:0:
192,164,196501,1,0,0:0:0:0:
274,94,196609,2,0,P|243:80|203:50,1,71.9999949417116,8|0,1:1|0:0,0:0:0:0:
223,254,196827,2,0,P|274:216|359:181,1,143.999989883423,2|2,0:0|3:2,0:0:0:0:
448,167,197153,1,0,1:2:0:0:
390,33,197262,2,0,P|370:74|360:121,1,71.9999949417116,2|0,3:2|0:0,0:0:0:0:
352,295,197479,6,0,P|402:273|446:251,1,71.9999949417116,10|0,1:1|0:0,0:0:0:0:
288,204,197696,2,0,P|231:232|208:256,1,71.9999949417116,2|0,0:0|0:0,0:0:0:0:
101,357,197914,6,0,P|72:316|69:247,1,107.999992412567,4|0,3:2|0:0,0:0:0:0:
46,242,198131,2,0,P|63:207|91:180,1,71.9999949417116,6|0,1:3|0:0,0:0:0:0:
254,27,198349,6,0,P|232:83|181:115,1,107.999992412567,6|0,1:3|0:0,0:0:0:0:
176,120,198566,2,0,P|132:111|100:95,1,71.9999949417116,6|0,1:3|0:0,0:0:0:0:
184,249,198783,6,0,P|237:211|284:214,1,107.999992412567,6|0,1:3|0:0,0:0:0:0:
306,215,199001,2,0,P|328:263|330:296,1,71.9999949417116,6|0,1:3|0:0,0:0:0:0:
386,126,199218,2,0,P|371:86|367:40,1,71.9999949417116,6|0,1:3|0:0,0:0:0:0:
488,231,199435,6,0,P|427:311|330:281,1,215.999984825135,6|0,3:2|0:0,0:0:0:0:
259,170,199870,1,2,3:2:0:0:
95,304,200088,2,0,P|136:289|179:287,1,71.9999949417116,10|0,1:1|0:0,0:0:0:0:
415,168,200305,1,10,0:3:0:0:
415,168,200414,1,8,0:3:0:0:
415,168,200522,2,0,P|374:183|331:185,1,71.9999949417116,2|0,3:2|0:0,0:0:0:0:
103,88,200740,2,0,P|138:92|171:105,1,71.9999949417116,6|0,0:3|0:0,0:0:0:0:
273,323,200957,2,0,P|259:289|253:254,1,71.9999949417116,10|8,1:1|0:3,0:0:0:0:
377,35,201175,2,0,P|371:70|357:103,1,71.9999949417116,6|0,0:3|0:0,0:0:0:0:
158,212,201392,5,6,3:2:0:0:
256,192,203131,12,14,204435,0:3:0:0:
52,95,204870,6,0,P|87:86|124:69,1,71.9999949417116,6|0,3:2|0:0,0:0:0:0:
218,185,205088,2,0,P|173:156|135:142,1,71.9999949417116,2|0,1:2|1:2,0:0:0:0:
29,240,205305,6,0,P|56:196|77:173,1,71.9999949417116,2|0,3:2|1:2,0:0:0:0:
271,40,205522,2,0,P|236:69|218:98,1,71.9999949417116,2|0,1:2|1:2,0:0:0:0:
175,311,205740,6,0,P|146:265|132:226,1,71.9999949417116,2|0,3:2|1:2,0:0:0:0:
147,44,205957,2,0,P|112:65|69:75,1,71.9999949417116,2|0,1:2|1:2,0:0:0:0:
296,134,206175,2,0,P|341:123|374:101,1,71.9999949417116,2|0,1:2|1:2,0:0:0:0:
139,248,206392,6,0,P|47:237|47:131,1,215.999984825135,6|0,3:1|0:0,0:0:0:0:
203,185,206827,2,0,P|231:233|200:320,1,143.999989883423,2|2,1:2|3:2,0:0:0:0:
297,134,207153,6,0,L|129:75,1,143.999989883423,0|0,1:2|3:2,0:0:0:0:
310,236,207479,5,2,1:2:0:0:
322,213,207588,1,8,0:3:0:0:
425,209,207696,5,6,0:3:0:0:
400,193,207805,1,0,3:2:0:0:
416,110,207914,6,0,P|350:90|296:133,1,143.999989883423,6|0,1:2|0:0,0:0:0:0:
295,133,208240,5,0,0:0:0:0:
179,42,208349,2,0,P|193:71|206:101,1,65.9999993915558,6|0,3:1|0:0,0:0:0:0:
270,31,208566,1,2,0:0:0:0:
21,164,208783,6,0,P|86:157|144:187,1,131.999998783112,10|0,1:1|0:0,0:0:0:0:
97,303,209109,1,0,0:0:0:0:
97,303,209218,2,0,P|88:272|76:241,2,65.9999993915558,0|0|2,3:2|1:2|3:2,0:0:0:0:
56,367,209544,1,0,0:0:0:0:
0,322,209653,5,10,1:1:0:0:
186,334,209870,2,0,P|250:333|294:286,1,131.999998783112,2|0,0:0|3:2,0:0:0:0:
489,256,210305,6,0,P|456:250|424:244,1,65.9999993915558,2|0,0:0|0:0,0:0:0:0:
281,109,210522,2,0,P|313:114|345:120,1,65.9999993915558,10|0,1:1|0:0,0:0:0:0:
502,109,210740,6,0,P|496:141|490:173,1,65.9999993915558
325,269,210957,2,0,P|330:236|336:204,2,65.9999993915558,2|0|2,3:2|1:2|3:2,0:0:0:0:
269,322,211283,1,0,0:0:0:0:
212,275,211392,2,0,P|180:276|148:285,1,65.9999993915558,10|0,1:1|0:0,0:0:0:0:
0,134,211609,5,2,0:0:0:0:
71,166,211718,1,0,0:0:0:0:
117,101,211827,2,0,P|110:68|100:37,1,65.9999993915558,2|0,3:2|0:0,0:0:0:0:
253,37,212044,2,0,P|259:69|269:100,1,65.9999993915558,2|0,0:0|0:0,0:0:0:0:
511,36,212262,6,0,P|445:41|392:78,1,131.999998783112,10|0,1:1|0:0,0:0:0:0:
346,156,212588,1,0,0:0:0:0:
408,219,212696,2,0,P|440:218|470:205,1,65.9999993915558,0|0,3:2|1:2,0:0:0:0:
279,217,212914,5,2,3:2:0:0:
279,217,213022,1,0,0:0:0:0:
279,217,213131,2,0,P|247:212|216:202,1,65.9999993915558,10|0,1:1|0:0,0:0:0:0:
77,101,213349,6,0,P|99:162|103:228,1,131.999998783112,2|0,0:0|3:2,0:0:0:0:
103,228,213783,2,0,P|73:215|40:212,1,65.9999993915558,2|0,0:0|0:0,0:0:0:0:
82,327,214001,1,8,1:1:0:0:
161,375,214109,2,0,P|183:315|182:246,1,131.999998783112
235,182,214435,6,0,L|299:169,1,65.9999993915558,2|0,3:2|1:2,0:0:0:0:
362,217,214653,1,2,3:2:0:0:
479,82,214870,6,0,L|414:69,1,65.9999993915558,10|0,1:1|0:0,0:0:0:0:
303,287,215088,2,0,L|367:299,1,65.9999993915558,2|0,0:0|0:0,0:0:0:0:
378,137,215305,5,6,3:1:0:0:
448,327,215522,1,2,0:0:0:0:
378,137,215740,2,0,B|319:161|319:161|312:168|312:168|249:192,1,131.999998783112,10|0,1:1|0:0,0:0:0:0:
193,144,216066,1,0,0:0:0:0:
193,144,216175,2,0,L|205:79,1,65.9999993915558,0|0,3:2|1:2,0:0:0:0:
294,69,216392,1,2,3:2:0:0:
88,11,216609,2,0,L|108:73,1,65.9999993915558,10|0,1:1|0:0,0:0:0:0:
20,187,216827,6,0,P|84:187|137:225,1,131.999998783112,2|0,0:0|3:2,0:0:0:0:
137,225,217262,2,0,L|124:290,1,65.9999993915558,2|0,0:0|0:0,0:0:0:0:
42,360,217479,2,0,L|28:295,1,65.9999993915558,10|0,1:1|0:0,0:0:0:0:
215,288,217696,2,0,L|228:352,1,65.9999993915558
418,192,217914,5,2,3:2:0:0:
351,234,218022,1,0,1:2:0:0:
350,157,218131,1,2,3:2:0:0:
424,269,218349,6,0,L|413:334,1,65.9999993915558,10|0,1:1|0:0,0:0:0:0:
413,116,218566,1,2,0:0:0:0:
262,207,218783,6,0,P|230:205|197:199,1,65.9999993915558,2|0,3:2|0:0,0:0:0:0:
75,49,219001,1,2,0:0:0:0:
123,106,219109,1,0,0:0:0:0:
72,164,219218,2,0,P|80:229|84:295,1,131.999998783112,10|0,1:1|0:0,0:0:0:0:
167,342,219544,1,0,0:0:0:0:
167,342,219653,2,0,P|162:309|162:276,2,65.9999993915558,0|0|2,3:2|1:2|3:2,0:0:0:0:
293,339,220088,6,0,P|322:321|353:313,1,65.9999993915558,2|0,1:1|0:0,0:0:0:0:
425,355,220305,1,6,3:1:0:0:
425,355,220414,1,2,0:0:0:0:
486,301,220522,2,0,L|470:236,1,65.9999993915558,2|2,0:0|0:0,0:0:0:0:
286,255,220740,5,2,3:2:0:0:
286,255,220849,1,0,0:0:0:0:
225,201,220957,2,0,L|240:136,1,65.9999993915558,10|2,1:1|0:0,0:0:0:0:
419,154,221175,5,2,1:2:0:0:
419,154,221284,1,8,0:3:0:0:
480,100,221392,2,0,L|464:35,1,65.9999993915558,2|2,3:2|1:2,0:0:0:0:
323,120,221609,5,6,3:3:0:0:
323,120,221718,1,0,1:2:0:0:
262,66,221826,2,0,L|277:1,1,65.9999993915558,10|10,1:1|0:3,0:0:0:0:
468,18,222044,2,0,L|452:82,1,65.9999993915558,6|6,0:3|0:3,0:0:0:0:
386,225,222262,6,0,L|315:197,1,65.9999993915558,6|0,3:2|0:0,0:0:0:0:
262,66,222479,2,0,L|333:94,1,65.9999993915558,2|0,0:0|0:0,0:0:0:0:
475,168,222696,2,0,B|469:202|472:227|472:227|453:254|435:310,1,131.999998783112,10|0,1:1|0:0,0:0:0:0:
440,292,223022,1,0,0:0:0:0:
370,363,223131,5,0,3:2:0:0:
293,375,223240,1,0,1:2:0:0:
246,317,223349,2,0,L|258:245,1,65.9999993915558,2|0,3:2|0:0,0:0:0:0:
179,163,223566,2,0,L|167:235,1,65.9999993915558,10|0,1:1|0:0,0:0:0:0:
118,319,223783,6,0,P|56:335|-6:293,1,131.999998783112,2|0,0:0|3:2,0:0:0:0:
53,105,224218,6,0,L|121:122,1,65.9999993915558,2|0,0:0|0:0,0:0:0:0:
271,171,224435,2,0,L|211:203,1,65.9999993915558,10|0,1:1|0:0,0:0:0:0:
118,319,224653,2,0,L|104:242,1,65.9999993915558
209,106,224870,6,0,L|195:29,2,65.9999993915558,2|0|2,3:2|1:2|3:2,0:0:0:0:
271,171,225196,1,0,0:0:0:0:
271,171,225305,2,0,P|307:170|352:149,1,65.9999993915558,10|0,1:1|0:0,0:0:0:0:
445,102,225522,1,2,0:0:0:0:
287,0,225740,6,0,L|305:112,1,65.9999993915558,2|0,3:2|0:0,0:0:0:0:
414,184,225957,2,0,L|432:296,1,65.9999993915558,2|0,0:0|0:0,0:0:0:0:
297,373,226175,2,0,P|338:330|415:333,1,131.999998783112,10|0,1:1|0:0,0:0:0:0:
492,353,226501,1,0,0:0:0:0:
492,353,226609,1,2,3:2:0:0:
341,246,226827,6,0,P|302:237|259:225,1,65.9999993915558,2|0,3:2|0:0,0:0:0:0:
124,335,227044,2,0,P|163:326|206:314,1,65.9999993915558,10|0,1:1|0:0,0:0:0:0:
193,223,227262,6,0,B|183:199|180:160|180:160|144:119|146:33,1,197.999998174667,6|0,3:1|0:0,0:0:0:0:
145,34,227696,1,2,3:2:0:0:
305,95,227914,2,0,P|373:109|449:120,1,131.999998783112,8|2,1:1|0:0,0:0:0:0:
503,72,228240,5,0,0:0:0:0:
503,72,228349,2,0,L|513:2,2,65.9999993915558,2|0|2,3:2|1:2|3:2,0:0:0:0:
512,183,228675,1,0,0:0:0:0:
512,183,228783,2,0,L|444:200,1,65.9999993915558,10|0,1:1|0:0,0:0:0:0:
336,259,229001,2,0,L|404:276,1,65.9999993915558,2|0,1:2|1:2,0:0:0:0:
471,342,229218,5,2,3:2:0:0:
471,342,229327,1,0,1:2:0:0:
394,376,229435,2,0,L|326:359,1,65.9999993915558,2|0,1:2|3:2,0:0:0:0:
225,291,229653,6,0,B|167:303|167:303|152:318|152:318|48:338,1,131.999998783112,6|0,1:1|0:0,0:0:0:0:
31,292,229979,1,0,0:0:0:0:
31,292,230088,1,0,3:2:0:0:
108,135,230305,6,0,L|120:217,1,65.9999993915558,2|0,3:2|0:0,0:0:0:0:
225,291,230522,2,0,L|212:208,1,65.9999993915558,10|0,1:1|0:0,0:0:0:0:
300,106,230740,6,0,P|327:149|313:230,1,131.999998783112,2|0,0:0|3:2,0:0:0:0:
117,200,231175,6,0,P|80:193|33:178,1,65.9999993915558,2|0,0:0|0:0,0:0:0:0:
11,97,231392,2,0,P|35:68|72:35,1,65.9999993915558,10|0,1:1|0:0,0:0:0:0:
153,56,231609,2,0,P|165:91|175:139,1,65.9999993915558
246,220,231827,5,2,3:2:0:0:
246,220,231935,1,0,1:2:0:0:
325,252,232044,2,0,L|403:236,1,65.9999993915558,2|0,3:2|0:0,0:0:0:0:
512,172,232262,2,0,L|447:145,1,65.9999993915558,10|0,1:1|0:0,0:0:0:0:
330,52,232479,2,0,L|348:143,1,65.9999993915558,2|0,0:0|0:0,0:0:0:0:
399,331,232696,5,2,3:2:0:0:
451,146,232914,2,0,P|460:119|460:73,1,65.9999993915558,2|0,0:0|0:0,0:0:0:0:
327,0,233131,2,0,B|307:43|307:43|332:147,1,131.999998783112,10|0,1:1|0:0,0:0:0:0:
384,192,233457,1,0,0:0:0:0:
384,192,233566,1,0,3:2:0:0:
253,259,233783,6,0,L|179:243,1,65.9999993915558,2|0,3:2|0:0,0:0:0:0:
30,186,234001,2,0,L|104:170,1,65.9999993915558,10|0,1:1|0:0,0:0:0:0:
237,133,234218,1,6,3:1:0:0:
105,308,234435,5,2,0:0:0:0:
105,308,234544,1,2,0:0:0:0:
45,249,234653,2,0,P|38:227|28:177,1,65.9999993915558,2|0,3:2|0:0,0:0:0:0:
188,245,234870,5,10,1:1:0:0:
188,245,234979,1,2,0:0:0:0:
135,175,235088,2,0,P|128:153|118:103,1,65.9999993915558,2|0,1:2|3:2,0:0:0:0:
254,13,235305,5,2,0:0:0:0:
254,13,235414,1,2,1:2:0:0:
286,99,235523,2,0,P|283:121|270:171,1,65.9999993915558,2|0,3:2|0:0,0:0:0:0:
416,43,235740,5,10,1:1:0:0:
441,103,235849,1,2,1:2:0:0:
431,167,235957,1,2,1:2:0:0:
388,216,236066,1,2,1:2:0:0:
188,335,236609,5,2,0:0:0:0:
