osu file format v14

[General]
AudioFilename: audio.ogg
AudioLeadIn: 0
PreviewTime: 139845
Countdown: 0
SampleSet: Soft
StackLeniency: 0.7
Mode: 0
LetterboxInBreaks: 0
WidescreenStoryboard: 0

[Editor]
DistanceSpacing: 4.7
BeatDivisor: 8
GridSize: 16
TimelineZoom: 2.5

[Metadata]
Title:Magic Hour
TitleUnicode:マジックアワー
Artist:Ryokuoushoku Shakai
ArtistUnicode:緑黄色社会
Creator:Nakazawa
Version:Twilight
Source:真夏のシンデレラ
Tags:Midsummer Cinderella Manatsu no Shinderera Natsu Cin Cinderellas of japanese vocalist jpop j-pop pop rock リョクシャカ ryokushaka 穴見真吾 Shingo Anami 小林壱誓 Kobayashi Issei 川口圭太 Keita Kawaguchi 長屋晴子 Nagaya Haruko peppe LASTorder sanayui not your kitty not_your_kitty bot_david bot david
BeatmapID:4309324
BeatmapSetID:2061362

[Difficulty]
HPDrainRate:5
CircleSize:4.2
OverallDifficulty:8.2
ApproachRate:9.1
SliderMultiplier:2.5
SliderTickRate:1

[Events]
//Background and Video events
0,0,"MagicHourBackground.jpg",0,0
//Break Periods
//Storyboard Layer 0 (Background)
//Storyboard Layer 1 (Fail)
//Storyboard Layer 2 (Pass)
//Storyboard Layer 3 (Foreground)
//Storyboard Layer 4 (Overlay)
//Storyboard Sound Samples

[TimingPoints]
59,638.297872340426,4,2,3,100,1,0
378,-166.666666666667,4,2,3,45,0,0
697,638.297872340426,4,2,3,45,1,0
697,-166.666666666667,4,2,3,45,0,0
9314,-166.666666666667,4,2,3,60,0,0
10590,-166.666666666667,4,2,1,60,0,0
10750,-166.666666666667,4,2,3,60,0,0
10909,-100,4,2,4,60,0,0
19845,-250,4,2,4,60,0,0
21122,-166.666666666667,4,2,5,45,0,0
22239,-500,4,2,5,45,0,0
22718,-100,4,2,5,45,0,0
23037,-166.666666666667,4,2,5,45,0,0
23356,-500,4,2,5,45,0,0
23675,-166.666666666667,4,2,5,45,0,0
24952,-500,4,2,5,45,0,0
25271,-166.666666666667,4,2,5,45,0,0
27505,-500,4,2,5,45,0,0
27824,-166.666666666667,4,2,5,45,0,0
28303,-500,4,2,5,45,0,0
28782,-100,4,2,5,45,0,0
29101,-166.666666666667,4,2,5,45,0,0
31016,-500,4,2,5,45,0,0
31335,-166.666666666667,4,2,5,45,0,0
33569,-500,4,2,5,45,0,0
33888,-166.666666666667,4,2,5,45,0,0
39952,-500,4,2,5,45,0,0
40271,-166.666666666667,4,2,1,55,0,0
40431,-166.666666666667,4,2,2,55,0,0
40590,-166.666666666667,4,2,1,55,0,0
40750,-166.666666666667,4,2,2,55,0,0
40909,-166.666666666667,4,2,1,55,0,0
41548,-125,4,2,2,70,0,0
58462,-250,4,2,2,70,0,0
58782,-125,4,2,2,70,0,0
59101,-250,4,2,2,70,0,0
59421,-125,4,2,2,70,0,0
61973,-500,4,2,2,70,0,0
63090,-500,4,2,2,5,0,0
63888,-1000,4,2,3,85,0,0
64526,-62.5,4,2,2,80,0,0
65165,-83.3333333333333,4,2,2,80,0,0
69314,-250,4,2,2,80,0,0
69633,-83.3333333333333,4,2,2,80,0,0
73462,-83.3333333333333,4,2,1,80,0,0
73622,-83.3333333333333,4,2,2,80,0,0
73782,-83.3333333333333,4,2,1,80,0,0
73942,-83.3333333333333,4,2,2,80,0,0
74739,-62.5,4,2,1,80,0,0
75058,-62.5,4,2,2,80,0,0
75377,-83.3333333333333,4,2,2,80,0,0
80803,-83.3333333333333,4,2,1,80,0,0
80962,-83.3333333333333,4,2,2,80,0,0
86548,-83.3333333333333,4,2,1,80,0,0
86707,-83.3333333333333,4,2,2,80,0,0
87505,-250,4,2,2,80,0,0
87824,-83.3333333333333,4,2,2,80,0,0
88303,-83.3333333333333,4,2,1,80,0,0
88462,-83.3333333333333,4,2,2,80,0,0
88622,-83.3333333333333,4,2,1,80,0,0
88782,-83.3333333333333,4,2,2,80,0,0
89101,-71.4285714285714,4,2,2,80,0,0
89420,-62.5,4,2,2,80,0,0
89739,-55.5555555555556,4,2,2,80,0,0
90058,-166.666666666667,4,2,2,45,0,0
97718,-250,4,2,2,45,0,0
98356,-166.666666666667,4,2,2,45,0,0
98994,-125,4,2,2,60,0,0
99633,-100,4,2,2,70,0,0
100271,-100,4,2,2,80,0,0
101228,-100,4,2,1,80,0,0
101308,-100,4,2,2,80,0,0
103782,-100,4,2,1,80,0,0
103862,-100,4,2,2,80,0,0
105058,-100,4,2,1,80,0,0
105218,-100,4,2,2,80,0,0
106335,-100,4,2,1,80,0,0
106415,-100,4,2,2,80,0,0
110165,-250,4,2,2,80,0,0
110484,-100,4,2,2,80,0,0
111441,-83.3333333333333,4,2,1,80,0,0
111521,-83.3333333333333,4,2,2,80,0,0
113994,-76.9230769230769,4,2,1,80,0,0
114074,-76.9230769230769,4,2,2,80,0,0
116867,-76.9230769230769,4,2,1,80,0,0
116947,-76.9230769230769,4,2,2,80,0,0
118143,-83.3333333333333,4,2,2,80,0,0
119101,-83.3333333333333,4,2,1,80,0,0
119181,-83.3333333333333,4,2,2,80,0,0
119420,-100,4,2,2,80,0,0
120697,-166.666666666667,4,2,2,45,0,0
129633,-166.666666666667,4,2,2,55,0,0
130431,-166.666666666667,4,2,1,55,0,0
130591,-166.666666666667,4,2,2,55,0,0
130909,-125,4,2,2,60,0,0
141122,-250,4,2,2,60,0,0
160909,-1000,4,2,3,90,0,0
161548,-62.5,4,2,2,80,0,0
162186,-83.3333333333333,4,2,2,80,0,0
165697,-250,4,2,2,80,0,0
166016,-83.3333333333333,4,2,2,80,0,0
166654,-83.3333333333333,4,2,1,80,0,0
166734,-83.3333333333333,4,2,2,80,0,0
171122,-83.3333333333333,4,2,1,80,0,0
171202,-83.3333333333333,4,2,2,80,0,0
176228,-83.3333333333333,4,2,1,80,0,0
176388,-83.3333333333333,4,2,2,80,0,0
176548,-83.3333333333333,4,2,1,80,0,0
176708,-83.3333333333333,4,2,2,80,0,0
176867,-71.4285714285714,4,2,2,80,0,0
177106,-71.4285714285714,4,2,2,5,0,0
177186,-71.4285714285714,4,2,2,45,0,0
177425,-71.4285714285714,4,2,2,5,0,0
177505,-71.4285714285714,4,2,2,50,0,0
177744,-71.4285714285714,4,2,2,5,0,0
177824,-71.4285714285714,4,2,2,55,0,0
178064,-71.4285714285714,4,2,2,5,0,0
178143,-62.5,4,2,2,60,0,0
178383,-62.5,4,2,2,5,0,0
178462,-62.5,4,2,2,65,0,0
178702,-62.5,4,2,2,5,0,0
178782,-62.5,4,2,2,70,0,0
179021,-62.5,4,2,2,5,0,0
179101,-62.5,4,2,2,75,0,0
179340,-62.5,4,2,2,5,0,0
179420,-62.5,4,2,2,80,0,0
179659,-62.5,4,2,2,5,0,0
179739,-62.5,4,2,2,80,0,0
180058,-71.4285714285714,4,2,1,80,0,0
180138,-71.4285714285714,4,2,2,80,0,0
181973,-62.5,4,2,1,85,0,0
182053,-62.5,4,2,2,85,0,0
182611,-83.3333333333333,4,2,2,85,0,0
191548,-83.3333333333333,4,2,1,85,0,0
191627,-83.3333333333333,4,2,2,85,0,0
192186,-62.5,4,2,2,85,0,0
192824,-83.3333333333333,4,2,2,85,0,0
198250,-83.3333333333333,4,2,1,85,0,0
198409,-83.3333333333333,4,2,2,85,0,0
198569,-83.3333333333333,4,2,1,85,0,0
198649,-83.3333333333333,4,2,2,85,0,0
202399,-83.3333333333333,4,2,1,85,0,0
202479,-83.3333333333333,4,2,2,85,0,0
203994,-83.3333333333333,4,2,1,85,0,0
204153,-83.3333333333333,4,2,2,85,0,0
204952,-250,4,2,2,85,0,0
205271,-83.3333333333333,4,2,2,85,0,0
205749,-83.3333333333333,4,2,1,85,0,0
205908,-83.3333333333333,4,2,2,85,0,0
206068,-83.3333333333333,4,2,1,85,0,0
206228,-62.5,4,2,2,85,0,0
206548,-55.5555555555556,4,2,2,85,0,0
206867,-50,4,2,2,85,0,0
207505,-166.666666666667,4,2,2,45,0,0
215165,-250,4,2,2,45,0,0
217558,-166.666666666667,4,2,2,5,0,0

[Colours]
Combo1 : 205,188,188
Combo2 : 139,119,111
Combo3 : 66,54,41
Combo4 : 211,172,146
Combo5 : 242,211,171

[HitObjects]
0,87,378,5,2,0:2:0:0:
37,155,537,1,2,0:2:0:0:
114,154,697,5,2,0:2:0:0:
120,149,750,1,2,0:0:0:0:
83,77,1016,1,2,0:2:0:0:
83,77,1335,1,2,0:2:0:0:
0,230,1654,1,2,0:2:0:0:
21,384,1973,1,2,0:2:0:0:
0,87,3250,5,2,0:2:0:0:
3,97,3303,1,2,0:0:0:0:
163,44,3569,1,2,0:2:0:0:
163,44,3888,1,2,0:2:0:0:
2,231,4207,1,2,0:2:0:0:
21,315,4527,1,2,0:2:0:0:
512,288,5803,5,2,0:2:0:0:
509,298,5856,1,2,0:0:0:0:
349,384,6122,1,2,0:2:0:0:
349,384,6441,1,2,0:2:0:0:
253,351,6761,1,2,0:2:0:0:
79,384,7080,1,2,0:2:0:0:
79,384,8037,5,2,0:2:0:0:
151,347,8197,1,2,0:2:0:0:
157,266,8356,1,2,0:2:0:0:
155,258,8409,1,2,0:0:0:0:
3,355,8676,5,2,0:2:0:0:
3,355,8995,1,2,0:2:0:0:
89,204,9314,1,8,0:2:0:0:
89,204,9394,1,8,0:2:0:0:
89,204,9473,1,8,0:2:0:0:
89,204,9553,1,8,0:2:0:0:
89,204,9633,1,8,0:2:0:0:
242,285,9793,1,8,0:2:0:0:
242,285,10112,5,0,3:2:0:0:
242,285,10191,1,0,3:2:0:0:
242,285,10271,1,10,0:2:0:0:
223,384,10431,1,2,3:2:0:0:
379,327,10590,1,10,3:2:0:0:
352,188,10750,1,2,3:2:0:0:
512,112,10909,6,0,P|453:142|439:266,1,187.5,4|0,3:2|0:0,0:0:0:0:
455,179,11548,2,0,P|434:132|431:102,1,62.5,8|0,0:2|0:0,0:0:0:0:
512,0,11867,1,2,3:2:0:0:
429,38,12026,6,0,B|362:46|386:85|312:92,1,125,2|0,0:2|0:0,0:0:0:0:
196,2,12505,2,0,P|236:0|259:48,1,93.75,0|0,3:2|0:0,0:0:0:0:
251,65,12824,1,8,0:2:0:0:
220,147,12984,1,0,0:0:0:0:
167,81,13143,1,2,0:2:0:0:
305,135,13303,1,10,3:2:0:0:
281,323,13462,6,0,P|215:304|144:397,1,187.5,2|0,3:2|0:0,0:0:0:0:
199,323,14101,2,0,P|189:273|177:248,1,62.5,8|0,0:2|0:0,0:0:0:0:
220,147,14420,1,0,3:2:0:0:
299,170,14579,5,2,0:2:0:0:
299,181,14659,1,2,0:2:0:0:
293,190,14739,1,2,0:2:0:0:
354,243,14899,1,2,0:2:0:0:
412,188,15058,1,2,3:2:0:0:
495,195,15218,1,2,0:2:0:0:
346,251,15377,5,8,0:2:0:0:
500,184,15537,1,2,0:2:0:0:
444,267,15697,1,2,0:2:0:0:
379,110,15856,1,2,3:2:0:0:
175,0,16016,6,0,P|199:53|326:48,1,187.5,2|0,3:2|0:0,0:0:0:0:
243,43,16654,2,0,P|224:78|218:114,1,62.5,8|0,0:2|0:0,0:0:0:0:
138,100,16973,1,0,0:0:0:0:
271,170,17133,5,2,3:2:0:0:
280,167,17212,1,2,0:2:0:0:
287,158,17292,1,2,3:2:0:0:
193,215,17452,1,2,0:2:0:0:
119,182,17611,1,2,0:2:0:0:
38,203,17771,1,2,3:2:0:0:
200,224,17931,6,0,P|219:259|225:295,1,62.5,8|2,0:2|0:2,0:0:0:0:
175,384,18250,1,2,3:2:0:0:
314,268,18409,1,10,0:2:0:0:
205,132,18569,2,0,B|213:65|252:89|259:15,1,125,2|2,3:2|0:2,0:0:0:0:
151,14,19048,5,2,3:2:0:0:
187,0,19207,1,10,0:2:0:0:
258,22,19367,1,2,0:2:0:0:
303,98,19526,1,2,3:2:0:0:
393,160,19686,1,2,0:2:0:0:
504,125,19845,2,0,P|468:40|387:36,1,175,2|0,3:2|0:0,0:0:0:0:
464,192,21122,6,0,B|469:252|505:231|512:292,1,112.499996566773,2|0,3:2|3:2,0:0:0:0:
415,374,21760,2,0,P|422:333|437:295,1,74.9999977111817,10|2,0:2|3:2,0:0:0:0:
511,293,22239,2,0,L|505:319,1,25,2|0,0:2|0:0,0:0:0:0:
335,384,22718,6,0,P|313:355|273:347,1,62.5,0|0,3:2|0:0,0:0:0:0:
265,250,23037,2,0,P|247:263|242:287,1,37.4999988555909,8|0,0:2|0:0,0:0:0:0:
184,360,23356,2,0,L|158:363,1,18.7499994277954,2|0,0:2|0:0,0:0:0:0:
186,351,23675,6,0,B|180:290|144:311|137:252,1,112.499996566773,2|2,3:2|3:2,0:0:0:0:
209,167,24314,2,0,P|204:196|196:218,1,37.4999988555909,8|0,0:2|0:0,0:0:0:0:
63,271,24633,2,0,P|33:266|11:258,1,37.4999988555909,2|0,3:2|0:0,0:0:0:0:
4,178,24952,2,0,L|-1:157,1,18.75,2|0,0:2|0:0,0:0:0:0:
8,192,25271,6,0,P|35:176|88:171,1,74.9999977111817,2|8,3:2|0:2,0:0:0:0:
136,228,25750,1,0,0:0:0:0:
117,12,26069,5,0,3:2:0:0:
0,57,26228,2,0,P|27:73|80:78,1,74.9999977111817,2|2,3:2|0:2,0:0:0:0:
137,118,26707,1,0,3:2:0:0:
226,57,26867,2,0,P|202:54|181:56,1,37.4999988555909,10|0,0:2|0:0,0:0:0:0:
192,175,27186,2,0,P|216:178|237:176,1,37.4999988555909,2|2,3:2|0:2,0:0:0:0:
301,33,27505,2,0,L|298:11,1,18.75
315,41,27824,6,0,P|305:73|304:123,1,74.9999977111817,0|8,3:2|0:2,0:0:0:0:
486,192,28303,2,0,L|516:195,1,25
380,85,28782,6,0,P|412:98|425:135,1,62.5,2|0,3:2|0:0,0:0:0:0:
502,112,29101,2,0,P|496:84|494:67,1,37.4999988555909,2|2,0:2|3:2,0:0:0:0:
408,198,29420,2,0,P|405:216|400:234,1,37.4999988555909,8|0,0:2|0:0,0:0:0:0:
481,285,29739,1,2,3:2:0:0:
481,285,29899,1,0,0:0:0:0:
511,381,30058,6,0,P|469:366|424:359,1,74.9999977111817,2|0,0:2|3:2,0:0:0:0:
383,309,30537,1,0,0:0:0:0:
372,304,30856,1,0,0:0:0:0:
255,369,31016,2,0,L|275:375,1,18.75,2|0,0:2|0:0,0:0:0:0:
244,356,31335,6,0,P|264:312|265:280,1,74.9999977111817,2|2,3:2|0:2,0:0:0:0:
196,243,31814,1,2,3:2:0:0:
287,209,31973,2,0,P|319:203|340:202,1,37.4999988555909,8|0,0:2|0:0,0:0:0:0:
219,162,32292,1,2,3:2:0:0:
219,162,32452,1,0,0:0:0:0:
161,94,32611,2,0,P|155:62|154:41,1,37.4999988555909,2|0,0:2|0:0,0:0:0:0:
239,0,32931,1,2,3:2:0:0:
239,0,33090,2,0,P|236:18|232:36,1,37.4999988555909,2|8,0:2|0:2,0:0:0:0:
20,186,33569,6,0,L|-3:189,1,18.75,2|0,0:2|0:0,0:0:0:0:
28,176,33888,6,0,P|48:160|104:157,1,74.9999977111817,2|2,3:2|0:2,0:0:0:0:
167,208,34367,1,2,3:2:0:0:
167,208,34526,2,0,P|158:234|157:249,1,37.4999988555909,8|0,0:2|0:0,0:0:0:0:
26,276,34845,2,0,P|7:255|-4:246,1,37.4999988555909,2|0,3:2|0:0,0:0:0:0:
105,315,35165,2,0,P|129:324|145:324,1,37.4999988555909,2|0,0:2|0:0,0:0:0:0:
238,246,35484,1,2,3:2:0:0:
238,246,35643,2,0,P|255:238|273:236,1,37.4999988555909,2|8,0:2|0:2,0:0:0:0:
29,363,36122,5,2,0:2:0:0:
105,314,36282,1,0,3:2:0:0:
26,276,36441,2,0,P|13:234|11:197,1,74.9999977111817,2|2,3:2|0:2,0:0:0:0:
206,94,36920,2,0,P|202:131|190:166,1,74.9999977111817,2|0,3:2|0:0,0:0:0:0:
149,37,37399,2,0,P|143:16|141:0,1,37.4999988555909,2|0,3:2|0:0,0:0:0:0:
278,66,37718,6,0,B|344:70|325:101|390:104,1,112.499996566773,2|0,0:2|0:0,0:0:0:0:
512,0,38356,2,0,P|482:25|437:20,1,74.9999977111817,10|2,0:2|0:2,0:0:0:0:
365,3,38835,1,2,0:2:0:0:
466,108,38994,2,0,P|482:144|487:190,1,74.9999977111817,0|0,3:2|0:0,0:0:0:0:
386,247,39473,2,0,P|402:211|407:165,1,74.9999977111817,0|0,3:2|0:0,0:0:0:0:
291,278,39952,6,0,L|312:282,1,18.75,0|0,3:2|0:0,0:0:0:0:
276,280,40271,1,8,2:3:0:0:
142,381,40431,1,8,2:3:0:0:
259,358,40590,1,4,2:3:0:0:
189,314,40750,1,4,2:3:0:0:
386,247,40909,2,0,P|396:221|397:195,1,37.4999988555909,10|0,0:0|0:0,0:0:0:0:
464,293,41228,1,6,2:3:0:0:
142,381,41548,6,0,P|125:339|68:310,1,100,0|0,3:2|0:0,0:0:0:0:
13,353,42026,1,0,0:0:0:0:
68,229,42186,2,0,P|40:241|10:245,1,50,8|0,0:2|0:0,0:0:0:0:
0,160,42505,1,2,3:2:0:0:
0,160,42665,1,2,3:2:0:0:
63,219,42824,5,0,0:0:0:0:
114,120,42984,1,0,0:0:0:0:
74,39,43143,1,0,3:2:0:0:
0,11,43303,1,0,0:0:0:0:
0,162,43462,2,0,P|12:134|16:104,1,50,10|0,0:2|0:0,0:0:0:0:
74,39,43782,1,0,0:0:0:0:
74,39,43941,1,0,3:2:0:0:
143,195,44101,6,0,P|180:172|252:179,1,100,2|0,3:2|0:0,0:0:0:0:
305,124,44579,1,0,0:0:0:0:
266,248,44739,2,0,P|258:283|255:311,1,50,8|0,0:2|0:0,0:0:0:0:
194,352,45058,1,2,3:2:0:0:
194,352,45218,1,2,3:2:0:0:
112,319,45377,2,0,P|87:312|63:309,1,50
194,352,45697,6,0,L|191:336,3,16.6666666666667,0|0|0|0,3:2|0:0|0:0|0:0,0:0:0:0:
276,378,46016,1,10,0:2:0:0:
276,378,46175,1,0,0:0:0:0:
334,291,46335,2,0,P|372:284|393:283,1,50,2|0,0:2|0:0,0:0:0:0:
512,384,46654,6,0,P|491:346|487:277,1,100,2|2,3:2|0:2,0:0:0:0:
431,226,47133,1,0,0:0:0:0:
512,125,47292,2,0,P|498:154|493:177,1,50,10|0,0:2|0:0,0:0:0:0:
431,226,47611,5,2,3:2:0:0:
362,167,47771,1,2,3:2:0:0:
277,187,47931,2,0,P|254:198|230:205,1,50
151,175,48250,2,0,P|128:163|104:156,1,50,2|0,3:2|0:0,0:0:0:0:
217,120,48569,1,10,0:2:0:0:
264,46,48728,2,0,P|252:23|245:0,1,50,0|2,0:0|0:2,0:0:0:0:
175,48,49048,5,0,3:2:0:0:
336,83,49207,2,0,P|382:79|422:43,1,100,2|2,3:2|0:2,0:0:0:0:
349,2,49686,1,2,0:2:0:0:
463,114,49845,2,0,P|487:107|512:106,1,50,8|0,0:2|0:0,0:0:0:0:
512,261,50165,5,0,3:2:0:0:
460,202,50324,1,0,3:2:0:0:
460,202,50404,1,0,0:0:0:0:
460,202,50484,1,0,0:0:0:0:
389,234,50643,1,0,3:2:0:0:
425,384,50803,1,0,3:2:0:0:
440,301,50962,6,0,L|444:275,1,25
503,355,51122,1,10,0:2:0:0:
365,332,51282,1,0,0:0:0:0:
439,307,51441,1,2,3:2:0:0:
425,384,51601,1,0,3:2:0:0:
458,197,51760,6,0,P|469:151|466:92,1,100,2|2,3:2|0:2,0:0:0:0:
511,26,52239,1,2,0:2:0:0:
387,1,52399,2,0,P|416:20|434:25,1,50,8|0,0:2|0:0,0:0:0:0:
388,96,52718,1,0,3:2:0:0:
388,96,52877,2,0,P|334:101|273:117,1,100,0|0,3:2|0:0,0:0:0:0:
240,175,53356,2,0,L|234:221,3,25,0|0|0|0,3:2|0:0|0:0|0:0,0:0:0:0:
200,54,53675,6,0,P|205:88|215:113,1,50,10|0,0:2|0:0,0:0:0:0:
312,235,53994,2,0,P|319:211|322:186,1,50,2|0,0:2|0:0,0:0:0:0:
157,165,54314,2,0,P|124:199|63:206,1,100,2|2,3:2|0:2,0:0:0:0:
0,160,54792,1,2,0:2:0:0:
21,274,54952,2,0,P|25:308|27:345,1,50,8|0,0:2|0:0,0:0:0:0:
99,384,55271,1,0,3:2:0:0:
99,384,55431,2,0,P|101:359|104:334,1,50,0|0,3:2|0:0,0:0:0:0:
322,192,55909,6,0,L|343:188,3,16.6666666666667,0|0|0|0,3:2|0:0|0:0|0:0,0:0:0:0:
157,166,56228,2,0,P|179:193|251:207,1,100,8|2,0:2|0:2,0:0:0:0:
265,131,56707,1,0,0:0:0:0:
414,216,56867,2,0,P|405:246|404:280,1,50,2|0,3:2|0:0,0:0:0:0:
476,307,57186,2,0,L|492:310,3,16.6666666666667,0|0|0|2,0:0|0:0|0:0|0:2,0:0:0:0:
355,363,57505,6,0,P|387:351|410:335,1,50,8|0,0:2|0:0,0:0:0:0:
495,222,57824,1,2,3:2:0:0:
459,147,57984,1,0,3:2:0:0:
459,147,58143,2,0,P|453:106|452:86,1,50,2|0,3:2|0:0,0:0:0:0:
476,0,58462,2,0,L|522:11,1,37.5,0|0,3:2|0:0,0:0:0:0:
452,9,58782,6,0,P|430:19|400:20,1,50,8|0,0:2|0:0,0:0:0:0:
245,66,59101,2,0,L|199:55,1,37.5,2|0,3:2|0:0,0:0:0:0:
280,51,59420,1,2,3:2:0:0:
280,51,59579,1,0,3:2:0:0:
346,134,59739,2,0,P|354:107|357:82,1,50,8|0,0:2|0:0,0:0:0:0:
120,0,60058,2,0,P|123:24|130:48,1,50,8|0,0:2|0:0,0:0:0:0:
255,1,60377,5,0,3:2:0:0:
211,69,60537,1,0,3:2:0:0:
211,69,60617,1,0,0:0:0:0:
211,69,60697,1,0,0:0:0:0:
253,191,60856,1,8,0:2:0:0:
276,113,61016,2,0,L|283:88,3,16.6666666666667,0|0|0|0,3:2|0:0|0:0|0:0,0:0:0:0:
189,143,61335,5,8,0:2:0:0:
176,225,61494,1,0,0:0:0:0:
335,312,61654,1,0,3:2:0:0:
322,230,61813,1,8,0:2:0:0:
186,305,61973,1,2,0:0:0:0:
199,313,62053,2,0,P|226:323|251:368,1,81.25
255,21,63888,6,0,L|252:-2,1,21.875,6|0,0:2|0:0,0:0:0:0:
160,9,64526,6,0,B|270:19|232:84|338:97,1,200,6|0,3:2|3:2,0:0:0:0:
353,0,65005,1,2,0:2:0:0:
167,103,65165,2,0,P|185:163|187:255,1,149.999995422363,10|0,0:2|0:0,0:0:0:0:
246,312,65643,1,0,3:2:0:0:
114,384,65803,6,0,P|132:347|130:308,1,74.9999977111817,2|8,0:2|0:2,0:0:0:0:
70,183,66122,2,0,P|33:165|-6:167,1,74.9999977111817,2|0,3:2|0:0,0:0:0:0:
189,248,66441,2,0,P|231:235|289:228,1,74.9999977111817,10|0,0:2|0:0,0:0:0:0:
138,73,66760,2,0,P|131:36|119:0,1,74.9999977111817,2|0,0:2|3:2,0:0:0:0:
260,123,67079,6,0,P|324:147|423:163,1,149.999995422363,2|0,3:2|3:2,0:0:0:0:
351,238,67558,1,2,0:2:0:0:
131,313,67718,2,0,P|58:316|8:386,1,149.999995422363,10|0,0:2|0:0,0:0:0:0:
179,378,68197,1,0,3:2:0:0:
247,310,68356,6,0,P|256:346|260:384,1,74.9999977111817,2|8,0:2|0:2,0:0:0:0:
338,311,68675,2,0,P|341:273|350:237,1,74.9999977111817,2|0,3:2|0:0,0:0:0:0:
125,233,68994,2,0,P|87:229|51:220,1,74.9999977111817,10|0,0:2|0:0,0:0:0:0:
0,36,69314,6,0,L|8:-6,1,37.5,6|0,2:3|0:0,0:0:0:0:
9,54,69633,2,0,P|26:95|138:119,1,149.999995422363,6|0,3:2|3:2,0:0:0:0:
222,226,70111,1,2,0:2:0:0:
248,0,70271,2,0,P|215:66|200:140,1,149.999995422363,10|0,0:2|0:0,0:0:0:0:
129,215,70750,1,0,3:2:0:0:
263,308,70909,6,0,P|274:354|278:394,1,74.9999977111817,2|8,0:2|0:2,0:0:0:0:
128,359,71228,2,0,P|162:326|195:301,1,74.9999977111817,2|0,3:2|0:0,0:0:0:0:
512,328,71548,2,0,P|482:352|429:352,1,74.9999977111817,10|0,0:2|0:0,0:0:0:0:
292,235,71867,2,0,P|286:197|312:151,1,74.9999977111817,2|0,0:2|3:2,0:0:0:0:
512,0,72186,6,0,P|488:57|399:77,1,149.999995422363,2|0,3:2|3:2,0:0:0:0:
356,0,72665,1,2,0:2:0:0:
200,224,72824,2,0,P|176:167|87:147,1,149.999995422363,10|8,0:2|0:2,0:0:0:0:
0,172,73303,1,0,3:2:0:0:
200,224,73462,1,10,2:3:0:0:
60,234,73622,1,8,2:3:0:0:
134,174,73782,1,6,2:3:0:0:
60,234,73941,1,4,2:3:0:0:
262,0,74101,1,14,0:2:0:0:
15,88,74260,5,0,3:2:0:0:
2,0,74420,1,10,0:2:0:0:
2,0,74579,1,8,0:2:0:0:
2,0,74739,6,0,B|119:15|64:77|174:87,1,200,6|0,3:2|3:2,0:0:0:0:
15,88,75218,1,2,0:2:0:0:
262,0,75377,2,0,P|279:62|228:132,1,149.999995422363,10|0,0:2|0:0,0:0:0:0:
0,175,75856,1,0,3:2:0:0:
58,313,76016,6,0,P|59:277|43:233,1,74.9999977111817,2|8,0:2|0:2,0:0:0:0:
138,158,76335,2,0,P|126:193|127:230,1,74.9999977111817,2|0,3:2|0:0,0:0:0:0:
202,367,76654,2,0,P|170:375|125:377,1,74.9999977111817,10|0,0:2|0:0,0:0:0:0:
360,171,76973,2,0,P|322:172|286:181,1,74.9999977111817,2|0,0:2|3:2,0:0:0:0:
447,372,77292,6,0,P|506:313|490:242,1,149.999995422363,2|0,3:2|3:2,0:0:0:0:
497,252,77771,1,0,0:0:0:0:
230,120,77931,2,0,P|171:61|187:-10,1,149.999995422363,10|0,0:2|0:0,0:0:0:0:
179,0,78410,1,0,3:2:0:0:
415,248,78569,2,0,B|433:160|470:218|493:100,1,149.999995422363,2|0,0:2|3:2,0:0:0:0:
488,121,79048,1,0,0:0:0:0:
268,34,79207,2,0,P|318:28|362:17,1,74.9999977111817,8|0,0:2|0:0,0:0:0:0:
234,117,79526,1,2,0:2:0:0:
234,117,79686,1,0,3:2:0:0:
0,0,79845,6,0,P|76:26|105:102,1,149.999995422363,6|0,3:2|3:2,0:0:0:0:
179,0,80324,1,2,0:2:0:0:
139,201,80484,1,10,0:2:0:0:
0,132,80643,1,0,3:2:0:0:
104,85,80803,1,8,2:3:0:0:
39,224,80962,6,0,P|25:260|13:311,1,74.9999977111817,8|0,2:3|3:2,0:0:0:0:
160,361,81282,2,0,P|196:375|247:387,1,74.9999977111817,8|0,0:2|0:0,0:0:0:0:
64,378,81601,1,0,3:2:0:0:
269,307,81760,1,8,0:2:0:0:
218,235,81920,2,0,P|212:188|212:154,1,74.9999977111817,0|2,3:2|0:2,0:0:0:0:
259,88,82239,1,0,3:2:0:0:
359,314,82399,6,0,B|441:321|412:370|491:379,1,149.999995422363,2|0,3:2|3:2,0:0:0:0:
314,384,82877,1,2,0:2:0:0:
496,293,83037,2,0,P|502:246|502:212,1,74.9999977111817,10|0,0:2|0:0,0:0:0:0:
441,159,83356,1,0,0:0:0:0:
512,0,83516,6,0,P|465:10|424:8,1,74.9999977111817,8|0,0:2|3:2,0:0:0:0:
326,71,83835,2,0,P|363:71|399:80,1,74.9999977111817,8|0,0:2|3:2,0:0:0:0:
441,159,84154,1,0,0:0:0:0:
260,8,84314,1,8,0:2:0:0:
152,129,84473,5,0,3:2:0:0:
186,220,84633,1,2,0:2:0:0:
186,220,84792,1,0,3:2:0:0:
186,220,84952,6,0,P|230:171|238:80,1,149.999995422363,6|0,3:2|3:2,0:0:0:0:
176,0,85431,1,2,0:2:0:0:
258,191,85590,2,0,B|340:198|311:247|390:256,1,149.999995422363,10|8,0:2|0:2,0:0:0:0:
512,216,86069,1,8,0:2:0:0:
465,377,86228,6,0,P|470:341|469:291,1,74.9999977111817,2|8,3:2|0:2,0:0:0:0:
337,189,86548,2,0,P|365:167|400:131,1,74.9999977111817,6|4,2:3|2:3,0:0:0:0:
258,191,86867,1,10,0:2:0:0:
387,384,87026,1,8,0:2:0:0:
366,375,87345,5,8,0:2:0:0:
246,268,87505,2,0,L|251:313,1,37.5,2|0,3:2|0:0,0:0:0:0:
203,384,87824,6,0,B|214:263|285:304|299:188,1,224.999993133545,4|8,3:2|2:3,0:0:0:0:
255,0,88462,1,8,2:3:0:0:
255,0,88622,1,4,2:3:0:0:
129,105,88782,6,0,B|189:94|178:134|237:126,1,112.499996566773,14|0,3:2|0:0,0:0:0:0:
196,50,89101,6,0,B|208:120|161:107|171:176,1,131.249995994568,2|0,3:2|0:0,0:0:0:0:
120,158,89420,6,0,B|167:95|194:143|241:76,1,150,10|0,3:2|0:0,0:0:0:0:
261,0,89739,1,10,3:2:0:0:
261,0,89899,1,8,3:2:0:0:
299,188,90058,1,2,3:2:0:0:
256,192,90218,12,2,92611,0:2:0:0:
230,375,95165,6,0,B|232:334|205:302|180:328|144:302|126:248|179:191|226:241|208:269,1,224.999993133545,2|2,0:2|0:2,0:0:0:0:
0,228,96441,6,0,B|30:213|30:213|84:233|84:233|98:194|139:165|139:165|93:179,1,224.999993133545,2|2,0:2|0:2,0:0:0:0:
286,293,97718,6,0,P|297:276|297:253,1,25,8|0,3:2|0:0,0:0:0:0:
258,184,98037,2,0,P|259:204|272:222,1,25,0|0,3:2|0:0,0:0:0:0:
362,227,98356,6,0,P|349:211|327:204,1,37.4999988555909,0|0,3:2|0:0,0:0:0:0:
180,265,98675,2,0,P|199:270|221:263,1,37.4999988555909,0|0,3:2|0:0,0:0:0:0:
353,107,98994,6,0,P|330:115|314:137,1,50,8|0,3:2|0:0,0:0:0:0:
211,384,99314,2,0,P|223:363|223:336,1,50,0|0,3:2|0:0,0:0:0:0:
222,52,99633,6,0,P|223:82|241:107,1,62.5,8|0,3:2|0:0,0:0:0:0:
415,338,99952,2,0,B|395:314|395:314|363:305,1,62.5,0|0,3:2|0:0,0:0:0:0:
0,384,100271,6,0,B|55:342|55:342|59:273,1,125,4|0,3:2|3:2,0:0:0:0:
58,286,100750,2,0,L|0:306,1,62.5
137,330,101069,1,0,3:2:0:0:
3,206,101228,6,0,B|25:181|25:181|7:70,1,125,12|0,3:2|0:0,0:0:0:0:
133,0,101707,1,8,0:2:0:0:
95,131,101867,2,0,L|82:56,1,62.5,0|0,3:2|0:0,0:0:0:0:
130,251,102186,6,0,B|155:229|155:229|266:247,1,125,8|0,0:2|3:2,0:0:0:0:
245,243,102665,2,0,L|235:286,1,31.25
512,343,102824,6,0,B|486:320|486:320|368:336|368:336|405:361,1,187.5,4|0,3:2|0:0,0:0:0:0:
397,355,103462,1,0,0:0:0:0:
288,343,103622,1,0,3:2:0:0:
511,242,103782,6,0,B|489:250|489:250|471:277|471:277|448:224|448:224|377:203,1,187.5,12|0,3:2|0:0,0:0:0:0:
377,203,104420,1,0,3:2:0:0:
0,193,104739,5,8,0:2:0:0:
191,160,104899,1,8,0:2:0:0:
66,156,105058,5,4,2:3:0:0:
124,196,105218,1,4,2:3:0:0:
253,118,105377,6,0,B|267:100|267:100|243:0,1,125,4|0,3:2|3:2,0:0:0:0:
243,0,105856,1,0,0:0:0:0:
176,66,106016,1,0,0:0:0:0:
243,0,106175,1,0,3:2:0:0:
388,125,106335,1,12,3:2:0:0:
457,73,106494,2,0,B|483:55|483:55|515:63,1,62.5
512,73,106734,1,0,0:0:0:0:
508,85,106814,1,0,0:0:0:0:
431,234,106973,6,0,B|412:208|412:208|379:205,1,62.5,0|0,3:2|3:0,3:0:0:0:
338,384,107292,2,0,B|383:338|383:338|363:272,1,125,8|0,0:2|0:0,0:0:0:0:
187,210,107771,1,0,0:0:0:0:
310,220,107931,2,0,B|300:224|300:224|188:209|188:209|180:214,1,125,0|0,3:2|3:2,0:0:0:0:
78,122,108409,1,0,0:0:0:0:
118,170,108569,2,0,B|113:167|113:167|78:122|78:122|74:121,1,62.5,8|0,0:2|3:2,0:0:0:0:
12,312,108888,6,0,B|112:267|112:267|120:237,1,125,12|0,3:2|3:2,0:0:0:0:
115,252,109367,1,0,3:2:0:0:
180,384,109526,1,8,0:2:0:0:
115,252,109686,1,0,3:2:0:0:
260,72,109845,2,0,B|251:24|251:24|255:1,1,62.5,12|0,3:2|3:2,0:0:0:0:
198,124,110165,6,0,L|195:141,1,12.5
209,130,110324,2,0,L|206:147,1,12.5
0,4,110484,6,0,B|26:50|26:50|93:18|93:18|161:36,1,187.5,4|0,3:2|0:0,0:0:0:0:
151,33,111122,1,0,0:0:0:0:
64,60,111282,1,0,3:2:0:0:
253,173,111441,6,0,B|248:148|248:148|117:118,1,149.999995422363,12|0,3:2|0:0,0:0:0:0:
126,120,111920,1,4,2:3:0:0:
245,15,112079,2,0,L|371:9,1,112.499996566773,0|0,3:2|0:0,0:0:0:0:
258,26,112399,2,0,L|263:108,1,74.9999977111817,8|0,0:2|0:0,0:0:0:0:
171,209,112718,1,8,0:2:0:0:
171,209,112877,1,8,0:2:0:0:
352,384,113037,6,0,L|195:355,1,149.999995422363,4|0,3:2|3:2,0:0:0:0:
232,275,113516,1,0,0:0:0:0:
78,280,113675,2,0,B|102:297|102:297|159:290,1,74.9999977111817,0|0,0:0|3:2,0:0:0:0:
512,187,113994,6,0,B|482:212|482:212|495:298|495:298|476:258,1,162.499992561341,12|0,3:2|0:0,0:0:0:0:
262,100,114473,2,0,B|220:105|220:105|302:134|302:134|311:173,1,162.499992561341,8|0,0:2|0:0,0:0:0:0:
357,283,114952,1,8,0:2:0:0:
395,200,115111,1,8,0:2:0:0:
433,118,115271,1,4,2:3:0:0:
433,118,115431,1,0,0:0:0:0:
512,338,115590,6,0,B|496:371|496:371|459:355|459:355|430:259,1,162.499992561341,4|0,3:2|3:2,0:0:0:0:
262,100,116069,2,0,B|229:84|229:84|245:47|245:47|341:18,1,162.499992561341,8|0,0:2|0:0,0:0:0:0:
510,252,116548,2,0,B|523:231|523:231|474:196,1,81.2499962806703,8|0,2:3|0:0,0:0:0:0:
235,333,116867,6,0,B|253:370|253:370|281:243,1,162.499992561341,4|0,3:2|0:0,0:0:0:0:
217,184,117345,1,0,3:2:0:0:
433,118,117505,1,8,0:2:0:0:
357,96,117665,1,0,3:2:0:0:
293,177,117824,2,0,B|281:190|281:190|160:216,1,121.874994421006,0|0,3:2|0:0,0:0:0:0:
162,201,118143,6,0,B|179:103|179:103|162:88,1,112.499996566773,8|0,3:2|0:0,0:0:0:0:
150,82,118462,1,4,3:2:0:0:
0,66,118622,2,0,B|16:51|16:51|5:-1,1,74.9999977111817,0|8,0:0|3:2,0:0:0:0:
70,123,118941,1,0,0:0:0:0:
0,249,119101,2,0,B|-11:197|-11:197|5:182,1,74.9999977111817,4|0,3:2|0:0,0:0:0:0:
162,201,119420,6,0,B|202:211|240:195|240:195|265:209|270:211|274:212|304:225|304:225|350:205|401:209|401:209|381:251|388:318|447:358|517:336|516:253|459:245,1,500,0|2,0:0|0:2,0:0:0:0:
254,372,121016,6,0,L|205:366,1,37.4999988555909,2|2,0:2|0:2,0:0:0:0:
37,192,121494,6,0,L|-12:186,2,37.4999988555909,2|2|2,0:2|0:2|0:2,0:0:0:0:
104,151,121973,1,2,0:2:0:0:
344,337,122611,5,2,0:2:0:0:
122,384,123250,5,2,0:2:0:0:
122,384,123569,2,0,L|91:345,1,37.4999988555909,2|2,0:2|0:2,0:0:0:0:
95,103,124047,6,0,L|64:64,2,37.4999988555909,2|2|2,0:2|0:2|0:2,0:0:0:0:
170,88,124526,1,2,0:2:0:0:
16,341,125165,5,2,0:2:0:0:
16,341,125484,1,2,0:2:0:0:
115,265,125803,2,0,P|146:279|191:286,1,74.9999977111817,2|2,0:2|0:2,0:0:0:0:
294,384,126441,2,0,P|276:346|231:334,1,74.9999977111817,2|2,0:2|0:2,0:0:0:0:
260,256,126920,2,0,P|264:215|264:176,1,74.9999977111817,2|0,0:2|0:0,0:0:0:0:
236,8,127399,6,0,P|254:21|276:19,1,37.4999988555909,2|0,0:2|0:0,0:0:0:0:
315,86,127718,2,0,P|300:97|282:99,1,37.4999988555909,2|0,0:2|0:0,0:0:0:0:
380,137,128037,2,0,P|391:122|393:104,1,37.4999988555909,2|0,0:2|0:0,0:0:0:0:
264,181,128356,2,0,B|222:184|230:205|185:215,1,74.9999977111817,2|2,0:2|0:2,0:0:0:0:
116,179,128835,2,0,P|75:176|32:168,1,74.9999977111817,2|0,0:2|0:0,0:0:0:0:
41,170,129314,6,0,L|33:131,1,37.4999988555909
1,246,129633,1,8,0:2:0:0:
1,246,129792,1,0,0:0:0:0:
182,122,130111,1,8,2:3:0:0:
309,345,130431,5,4,2:3:0:0:
233,384,130590,2,0,L|228:321,1,56.2499982833863,6|0,2:3|0:0,0:0:0:0:
226,294,130909,1,2,3:2:0:0:
427,288,131228,1,2,0:2:0:0:
466,364,131388,2,0,P|499:378|535:380,1,50,2|8,0:2|0:2,0:0:0:0:
339,242,131707,2,0,L|345:267,1,25
488,227,131867,1,0,3:2:0:0:
488,227,132026,2,0,L|506:120,1,100,0|0,3:2|0:0,0:0:0:0:
512,47,132505,1,0,3:2:0:0:
512,47,132824,6,0,P|474:60|446:62,1,50,10|0,0:2|0:0,0:0:0:0:
391,138,133143,2,0,P|404:176|406:204,1,50,2|0,0:2|0:0,0:0:0:0:
226,294,133462,2,0,P|263:290|294:288,1,50,0|0,3:2|0:0,0:0:0:0:
85,288,133782,1,2,0:2:0:0:
46,364,133942,2,0,P|13:378|-23:380,1,50,2|8,0:2|0:2,0:0:0:0:
168,224,134261,2,0,L|162:248,1,25
24,227,134420,1,0,3:2:0:0:
24,227,134580,2,0,L|6:120,1,100,0|0,3:2|0:0,0:0:0:0:
168,224,135058,6,0,L|163:249,3,16.6666666666667,0|0|0|0,3:2|0:0|0:0|0:0,0:0:0:0:
337,377,135377,2,0,L|397:385,1,50,8|0,0:2|0:0,0:0:0:0:
253,273,135697,2,0,P|253:297|261:321,1,50,2|0,0:2|0:0,0:0:0:0:
98,379,136016,6,0,P|75:335|84:287,1,100,2|0,3:2|0:0,0:0:0:0:
328,227,136494,1,2,0:2:0:0:
328,227,136654,2,0,P|359:195|360:129,1,100,8|2,0:2|3:2,0:0:0:0:
255,10,137133,1,0,3:2:0:0:
255,10,137292,2,0,L|247:64,2,50,2|0|0,3:2|0:0|3:2,0:0:0:0:
315,132,137771,1,2,0:2:0:0:
315,132,137931,2,0,L|383:145,1,50,8|0,0:2|0:0,0:0:0:0:
162,22,138250,6,0,L|77:19,1,75,2|0,3:2|0:0,0:0:0:0:
64,15,138569,1,2,3:2:0:0:
64,15,138728,1,0,3:2:0:0:
28,133,138888,2,0,L|17:67,1,50,8|0,0:2|0:0,0:0:0:0:
74,278,139207,5,8,0:2:0:0:
26,262,139367,1,0,0:0:0:0:
26,212,139526,1,0,3:2:0:0:
74,197,139686,1,0,0:0:0:0:
103,237,139845,5,2,0:2:0:0:
234,107,140165,1,2,0:2:0:0:
28,133,140484,1,2,0:2:0:0:
121,45,140803,1,2,0:2:0:0:
189,228,141122,6,0,P|220:203|263:198,1,75,2|2,0:2|0:2,0:0:0:0:
311,250,141760,1,2,0:2:0:0:
311,250,142399,6,0,L|368:260,1,50,2|2,0:2|0:2,0:0:0:0:
502,211,143037,2,0,P|507:193|505:180,1,25,2|0,0:2|0:0,0:0:0:0:
436,257,143356,2,0,P|436:269|440:281,1,25,2|0,0:2|0:0,0:0:0:0:
511,383,143675,6,0,P|486:366|434:358,1,75,2|2,0:2|0:2,0:0:0:0:
372,384,144314,1,2,0:2:0:0:
372,384,144952,6,0,L|369:355,1,25,2|0,0:2|0:0,0:0:0:0:
294,333,145271,2,0,L|279:353,1,25,2|0,0:2|0:0,0:0:0:0:
266,171,145590,2,0,L|285:186,1,25,2|0,0:2|0:0,0:0:0:0:
259,262,145909,2,0,L|235:265,1,25,2|0,0:2|0:0,0:0:0:0:
362,172,146228,6,0,P|380:135|382:97,1,75,2|2,0:2|0:2,0:0:0:0:
346,33,146867,1,2,0:2:0:0:
346,33,147505,6,0,L|376:24,1,25,2|0,0:2|0:0,0:0:0:0:
244,22,147824,2,0,L|267:29,1,25,2|0,0:2|0:0,0:0:0:0:
143,31,148143,2,0,L|166:23,1,25,2|0,0:2|0:0,0:0:0:0:
258,107,148462,2,0,L|253:152,1,37.5,2|0,0:2|0:0,0:0:0:0:
250,185,148782,6,0,P|265:205|280:260,1,75,2|2,0:2|0:2,0:0:0:0:
261,335,149420,2,0,L|253:387,1,50,2|0,0:2|0:0,0:0:0:0:
253,384,150058,6,0,P|249:361|245:351,1,25,2|0,0:2|0:0,0:0:0:0:
216,291,150377,2,0,P|206:283|195:276,1,25,2|0,0:2|0:0,0:0:0:0:
46,335,150697,6,0,P|54:344|65:352,1,25,2|0,0:2|0:0,0:0:0:0:
0,248,151016,2,0,P|0:260|2:273,1,25,2|0,0:2|0:0,0:0:0:0:
171,176,151335,2,0,L|167:200,2,25,2|0|0,0:2|0:0|0:0,0:0:0:0:
83,211,151814,1,2,0:2:0:0:
83,211,151973,2,0,P|88:234|89:262,1,50,2|0,0:2|0:0,0:0:0:0:
89,260,152611,6,0,P|103:271|109:287,1,25,2|0,0:2|0:0,0:0:0:0:
171,176,152931,2,0,P|173:193|166:209,1,25,2|0,0:2|0:0,0:0:0:0:
288,174,153250,2,0,P|277:188|261:193,1,25,2|0,0:2|0:0,0:0:0:0:
195,89,153569,2,0,P|191:57|194:31,1,50,2|2,0:2|0:2,0:0:0:0:
287,0,154207,1,0,0:0:0:0:
353,121,154526,6,0,B|400:125|388:157|449:157,1,100,2|2,0:2|0:2,0:0:0:0:
431,24,155484,1,0,0:0:0:0:
509,3,155803,1,0,0:0:0:0:
95,7,156388,5,0,0:0:0:0:
89,0,156441,1,2,0:2:0:0:
0,120,156760,5,0,0:0:0:0:
177,46,157079,1,2,0:2:0:0:
96,96,157399,1,0,0:0:0:0:
0,221,157718,1,0,0:0:0:0:
278,286,158941,5,0,0:0:0:0:
284,297,158994,2,0,B|306:288|309:267|277:232|219:238|210:314|302:335|256:384,1,200,2|2,0:2|0:2,0:0:0:0:
253,0,160909,6,0,L|257:21,1,21.875,6|0,0:2|0:0,0:0:0:0:
352,9,161548,6,0,B|242:19|280:84|174:97,1,200,6|0,3:2|3:2,0:0:0:0:
159,4,162026,1,2,0:2:0:0:
346,101,162186,2,0,P|384:122|498:119,1,149.999995422363,10|0,0:2|0:0,0:0:0:0:
512,36,162665,1,0,3:2:0:0:
410,163,162824,6,0,P|393:202|390:245,1,74.9999977111817,2|8,0:2|0:2,0:0:0:0:
434,364,163143,2,0,P|473:381|516:384,1,74.9999977111817,2|0,3:2|0:0,0:0:0:0:
313,178,163462,2,0,P|270:170|238:152,1,74.9999977111817,10|0,0:2|0:0,0:0:0:0:
215,239,163782,1,2,0:2:0:0:
352,370,163941,5,0,3:2:0:0:
352,370,164101,2,0,P|346:311|399:225,1,149.999995422363,0|0,3:2|3:2,0:0:0:0:
459,283,164579,1,2,0:2:0:0:
256,320,164739,2,0,B|161:324|197:371|101:374,1,149.999995422363,10|0,0:2|0:0,0:0:0:0:
33,350,165218,1,0,3:2:0:0:
100,219,165377,6,0,P|117:253|120:310,1,74.9999977111817,2|8,0:2|0:2,0:0:0:0:
15,164,165697,2,0,L|8:119,1,37.5,2|0,3:2|0:0,0:0:0:0:
19,181,166016,6,0,P|69:139|157:145,1,149.999995422363,10|2,0:2|0:2,0:0:0:0:
187,221,166494,1,0,3:2:0:0:
267,4,166654,2,0,P|242:76|234:166,1,149.999995422363,4|0,3:2|3:2,0:0:0:0:
312,110,167133,1,2,0:2:0:0:
326,342,167292,2,0,P|269:286|274:216,1,149.999995422363,10|0,0:2|0:0,0:0:0:0:
350,192,167771,1,0,3:2:0:0:
499,210,167931,6,0,P|457:219|419:225,1,74.9999977111817,2|8,0:2|0:2,0:0:0:0:
403,120,168250,2,0,P|393:78|387:40,1,74.9999977111817,2|0,3:2|0:0,0:0:0:0:
271,220,168569,2,0,P|264:256|256:293,1,74.9999977111817,10|0,0:2|0:0,0:0:0:0:
122,184,168888,2,0,P|158:192|195:198,1,74.9999977111817,2|0,0:2|3:2,0:0:0:0:
0,370,169207,6,0,P|54:301|56:233,1,149.999995422363,2|0,3:2|3:2,0:0:0:0:
0,180,169686,1,2,0:2:0:0:
181,284,169845,1,10,0:2:0:0:
63,123,170005,1,0,3:2:0:0:
85,343,170165,2,0,P|126:352|170:369,1,74.9999977111817,12|0,0:2|3:2,0:0:0:0:
271,220,170484,5,2,3:2:0:0:
263,129,170643,1,8,0:2:0:0:
255,38,170803,1,2,3:2:0:0:
337,0,170962,1,0,3:2:0:0:
188,92,171122,2,0,P|147:83|103:66,1,74.9999977111817,14|0,0:2|3:2,0:0:0:0:
271,220,171441,1,10,0:2:0:0:
412,48,171601,1,8,0:2:0:0:
497,268,171760,6,0,P|416:235|344:221,1,149.999995422363,6|0,3:2|3:2,0:0:0:0:
317,297,172239,1,2,0:2:0:0:
139,380,172399,2,0,P|175:308|249:307,1,149.999995422363,10|0,0:2|0:0,0:0:0:0:
277,375,172877,1,0,3:2:0:0:
133,290,173037,6,0,P|96:302|47:308,1,74.9999977111817,2|8,0:2|0:2,0:0:0:0:
0,198,173356,2,0,P|11:162|17:125,1,74.9999977111817,2|0,3:2|0:0,0:0:0:0:
218,156,173675,2,0,P|206:191|200:228,1,74.9999977111817,10|0,0:2|0:0,0:0:0:0:
86,222,173994,1,2,0:2:0:0:
293,121,174154,5,0,3:2:0:0:
293,121,174314,2,0,B|350:125|336:158|410:162,1,112.499996566773,6|0,3:2|0:0,0:0:0:0:
421,135,174633,2,0,L|427:189,1,37.4999988555909,8|0,0:2|0:0,0:0:0:0:
498,215,174792,2,0,L|502:177,1,37.4999988555909,10|0,0:2|0:0,0:0:0:0:
495,98,174952,1,2,3:2:0:0:
163,302,175272,6,0,L|157:248,1,37.4999988555909,8|0,0:2|0:0,0:0:0:0:
86,222,175431,2,0,L|81:259,1,37.4999988555909,8|0,0:2|0:0,0:0:0:0:
89,339,175591,1,2,3:2:0:0:
4,206,175750,1,8,0:2:0:0:
89,339,175909,1,2,3:2:0:0:
245,311,176069,1,8,0:2:0:0:
89,339,176228,2,0,P|43:352|1:373,1,74.9999977111817,10|8,2:3|2:3,0:0:0:0:
0,114,176548,2,0,P|34:128|70:138,1,74.9999977111817,6|4,2:3|2:3,0:0:0:0:
298,150,176867,6,0,B|331:149|340:107|340:107|298:116|298:150,1,131.249995994568,6|0,3:2|0:0,0:0:0:0:
197,201,177186,54,0,B|170:181|138:210|138:210|177:228|197:201,1,131.249995994568,0|0,3:2|0:0,0:0:0:0:
308,218,177505,54,0,B|318:250|361:245|361:245|340:207|308:218,1,131.249995994568,0|0,3:2|0:0,0:0:0:0:
228,139,177824,22,0,B|238:106|200:85|200:85|195:128|228:139,1,131.249995994568,0|0,3:2|0:0,0:0:0:0:
224,256,178143,54,0,B|175:310|189:373|189:373|203:342|206:339,1,150,8|0,3:2|0:0,0:0:0:0:
235,131,178462,54,0,B|243:58|195:14|195:14|203:48|201:69,1,150,8|0,3:2|0:0,0:0:0:0:
299,238,178782,6,0,B|335:302|400:308|400:308|374:285|363:267,1,150,8|0,3:2|0:0,0:0:0:0:
183,188,179101,54,0,B|117:158|62:190|62:190|97:194|115:202,1,150,10|0,2:3|0:0,0:0:0:0:
332,146,179420,6,0,B|404:132|430:73|430:73|399:90|380:95,1,150,14|0,3:2|0:0,0:0:0:0:
307,160,179739,1,2,3:2:0:0:
148,100,179899,1,2,3:2:0:0:
323,295,180058,2,0,B|428:305|383:353|485:367,1,174.999994659424,14|0,3:2|3:2,0:0:0:0:
512,286,180537,1,0,0:0:0:0:
297,148,180697,5,10,0:2:0:0:
248,332,180856,1,0,3:2:0:0:
265,67,181016,5,10,0:2:0:0:
323,295,181175,1,0,3:2:0:0:
460,79,181335,2,0,P|482:36|521:8,1,87.499997329712,14|0,3:2|0:0,0:0:0:0:
316,0,181654,5,2,3:2:0:0:
512,151,181814,1,8,0:2:0:0:
257,250,181973,6,0,B|147:260|185:325|79:338,1,200,6|0,3:2|3:2,0:0:0:0:
15,283,182452,1,2,0:2:0:0:
248,332,182611,2,0,P|187:298|182:210,1,149.999995422363,10|0,0:2|0:0,0:0:0:0:
242,164,183090,1,0,3:2:0:0:
206,0,183250,6,0,P|216:36|223:84,1,74.9999977111817,2|8,0:2|0:2,0:0:0:0:
329,152,183569,2,0,P|334:115|345:78,1,74.9999977111817,2|0,3:2|0:0,0:0:0:0:
151,138,183888,2,0,P|108:159|66:163,1,74.9999977111817,10|0,0:2|0:0,0:0:0:0:
329,310,184207,2,0,P|321:273|304:241,1,74.9999977111817,2|0,0:2|3:2,0:0:0:0:
512,168,184526,6,0,P|467:218|375:204,1,149.999995422363,2|0,3:2|3:2,0:0:0:0:
345,78,185005,1,2,0:2:0:0:
474,246,185165,2,0,P|463:289|458:334,1,74.9999977111817,10|0,0:2|0:0,0:0:0:0:
512,384,185484,1,0,0:0:0:0:
378,304,185643,1,0,3:2:0:0:
306,348,185803,6,0,P|265:357|228:370,1,74.9999977111817,2|8,0:2|0:2,0:0:0:0:
157,263,186122,2,0,P|192:274|229:282,1,74.9999977111817,2|0,3:2|0:0,0:0:0:0:
76,384,186441,2,0,P|88:342|88:300,1,74.9999977111817,10|0,0:2|0:0,0:0:0:0:
11,268,186760,1,2,0:2:0:0:
11,268,186920,1,0,3:2:0:0:
180,149,187079,2,0,P|117:194|40:174,1,149.999995422363,6|0,3:2|3:2,0:0:0:0:
0,108,187558,1,2,0:2:0:0:
158,265,187718,2,0,P|248:253|334:250,1,149.999995422363,10|0,0:2|0:0,0:0:0:0:
402,330,188197,1,0,3:2:0:0:
511,191,188356,6,0,L|494:269,1,74.9999977111817,2|8,0:2|0:2,0:0:0:0:
367,161,188675,2,0,L|410:228,1,74.9999977111817,2|0,3:2|0:0,0:0:0:0:
512,75,188994,2,0,P|478:86|436:90,1,74.9999977111817,10|0,0:2|0:0,0:0:0:0:
307,250,189314,2,0,P|318:284|322:326,1,74.9999977111817,2|0,0:2|3:2,0:0:0:0:
355,77,189633,2,0,B|265:68|303:27|222:16,1,149.999995422363,2|0,3:2|3:2,0:0:0:0:
0,69,190111,1,2,0:2:0:0:
141,0,190271,6,0,P|99:12|53:12,1,74.9999977111817,10|0,0:2|0:0,0:0:0:0:
249,199,190590,1,12,0:2:0:0:
182,152,190750,2,0,P|170:109|170:64,1,74.9999977111817,0|2,3:2|0:2,0:0:0:0:
222,16,191069,1,8,0:2:0:0:
276,80,191228,1,2,3:2:0:0:
222,16,191388,1,8,0:2:0:0:
9,152,191548,1,14,0:2:0:0:
180,345,191707,5,0,3:2:0:0:
242,284,191867,1,10,0:2:0:0:
242,284,192026,1,8,0:2:0:0:
242,284,192186,6,0,B|352:294|314:359|420:372,1,200,6|0,3:2|3:2,0:0:0:0:
512,308,192665,1,2,0:2:0:0:
257,374,192824,2,0,P|316:331|330:259,1,149.999995422363,10|0,0:2|0:0,0:0:0:0:
269,198,193303,1,0,3:2:0:0:
180,345,193462,6,0,P|128:360|86:359,1,74.9999977111817,2|8,0:2|0:2,0:0:0:0:
15,214,193782,2,0,P|2:178|0:141,1,74.9999977111817,2|0,3:2|0:0,0:0:0:0:
80,286,194101,2,0,P|43:295|8:307,1,74.9999977111817,10|0,0:2|0:0,0:0:0:0:
56,76,194420,2,0,P|58:38|58:1,1,74.9999977111817,2|0,0:2|3:2,0:0:0:0:
269,218,194739,6,0,P|349:200|425:198,1,149.999995422363,0|0,3:2|3:2,0:0:0:0:
512,230,195218,1,0,0:0:0:0:
202,384,195377,2,0,P|171:314|192:247,1,149.999995422363,10|0,0:2|0:0,0:0:0:0:
192,246,195856,1,0,3:2:0:0:
486,152,196016,2,0,B|478:71|430:99|421:21,1,149.999995422363,2|0,0:2|3:2,0:0:0:0:
421,21,196494,1,0,0:0:0:0:
511,229,196654,2,0,L|500:312,1,74.9999977111817,8|0,0:2|0:0,0:0:0:0:
486,148,196973,1,2,0:2:0:0:
486,148,197133,1,0,3:2:0:0:
196,252,197292,6,0,P|121:264|39:270,1,149.999995422363,6|0,3:2|0:0,0:0:0:0:
32,39,197771,1,10,0:2:0:0:
0,204,197931,1,10,0:2:0:0:
87,165,198090,5,0,3:2:0:0:
16,122,198250,1,8,2:3:0:0:
153,212,198409,1,8,2:3:0:0:
0,335,198569,5,4,3:2:0:0:
47,269,198728,2,0,P|86:272|118:286,1,74.9999977111817,8|0,0:2|0:0,0:0:0:0:
153,212,199048,1,0,3:2:0:0:
280,384,199207,2,0,P|283:345|297:313,1,74.9999977111817,8|0,0:2|3:2,0:0:0:0:
260,122,199526,1,10,0:2:0:0:
201,307,199686,1,8,0:2:0:0:
436,244,199845,6,0,P|348:242|295:196,1,149.999995422363,6|0,3:2|3:2,0:0:0:0:
260,122,200324,1,2,0:2:0:0:
510,192,200484,1,10,0:2:0:0:
510,192,200643,1,0,0:0:0:0:
388,161,200803,1,0,3:2:0:0:
339,84,200962,6,0,P|327:41|313:3,1,74.9999977111817,8|0,0:2|3:2,0:0:0:0:
442,249,201282,1,8,0:2:0:0:
442,249,201441,2,0,P|430:284|420:321,1,74.9999977111817,0|0,3:2|3:2,0:0:0:0:
247,384,201760,1,8,0:2:0:0:
328,330,201920,1,0,3:2:0:0:
234,225,202079,6,0,P|245:264|252:308,1,74.9999977111817,2|0,0:2|3:2,0:0:0:0:
285,141,202399,2,0,P|208:124|186:54,1,149.999995422363,6|0,3:2|3:2,0:0:0:0:
252,0,202877,1,2,0:2:0:0:
157,191,203037,5,10,0:2:0:0:
211,138,203197,1,0,0:0:0:0:
285,141,203356,1,8,0:2:0:0:
336,196,203516,1,8,0:2:0:0:
334,271,203675,5,2,3:2:0:0:
418,199,203835,1,8,0:2:0:0:
427,89,203994,1,6,2:3:0:0:
356,5,204154,1,4,2:3:0:0:
245,0,204314,5,10,0:2:0:0:
347,88,204473,1,8,0:2:0:0:
157,191,204633,1,10,0:2:0:0:
285,141,204792,1,8,0:2:0:0:
45,30,204952,2,0,L|4:13,1,37.5,2|0,3:2|0:0,0:0:0:0:
121,0,205271,6,0,B|114:79|64:41|51:133,1,149.999995422363,4|8,3:2|0:2,0:0:0:0:
79,206,205750,1,8,2:3:0:0:
79,206,205909,1,8,2:3:0:0:
0,384,206069,1,4,2:3:0:0:
193,224,206228,6,0,B|210:213|248:220|248:220|210:182|162:199,1,150,14|0,3:2|0:0,0:0:0:0:
85,286,206548,6,0,B|85:311|58:344|58:344|116:328|126:273,1,168.749994850159,2|0,3:2|0:0,0:0:0:0:
84,154,206867,6,0,B|64:144|47:98|47:98|30:164|79:206,1,187.5,10|0,3:2|0:0,0:0:0:0:
165,200,207186,5,10,3:2:0:0:
165,200,207345,1,8,3:2:0:0:
210,277,207505,6,0,P|236:288|293:295,1,74.9999977111817,6|2,3:2|0:2,0:0:0:0:
353,384,208143,1,2,0:2:0:0:
396,248,208462,1,2,0:2:0:0:
512,173,208782,1,2,0:2:0:0:
512,173,209579,5,2,0:2:0:0:
447,132,209739,1,2,0:2:0:0:
456,55,209899,1,2,0:2:0:0:
256,0,210058,5,2,0:2:0:0:
380,165,210377,1,2,0:2:0:0:
380,165,210697,1,2,0:2:0:0:
248,296,211016,1,2,0:2:0:0:
224,384,211335,1,2,0:2:0:0:
0,189,212611,5,2,0:2:0:0:
70,144,212931,1,2,0:2:0:0:
70,144,213250,1,2,0:2:0:0:
147,161,213569,1,2,0:2:0:0:
0,67,213888,1,2,0:2:0:0:
301,384,214845,5,2,0:2:0:0:
256,192,215006,1,2,0:2:0:0:
256,192,215086,1,2,0:2:0:0:
256,192,215165,6,0,B|280:164|266:146|266:146|248:156|248:173|248:173|235:158|213:165|213:165|217:184|234:190|234:190|214:199|215:221|215:221|236:224|245:211|245:211|246:231|269:238|269:238|278:217|267:206|267:206|287:211|299:192|299:192|282:176|270:175,1,375,2|0,0:2|0:0,0:0:0:0:
