osu file format v14

[General]
AudioFilename: audio.mp3
AudioLeadIn: 0
PreviewTime: 947
Countdown: 0
SampleSet: Soft
StackLeniency: 0.6
Mode: 0
LetterboxInBreaks: 0
WidescreenStoryboard: 0

[Editor]
Bookmarks: 2882,16430,24172,39656,70623,78365,93849,109333,138365,146107,157720
DistanceSpacing: 0.3
BeatDivisor: 8
GridSize: 32
TimelineZoom: 2.5

[Metadata]
Title:LADYBUG
TitleUnicode:LADYBUG
Artist:Ryokuoushoku Shakai
ArtistUnicode:緑黄色社会
Creator:RLC
Version:Rebirth
Source:
Tags:japanese pop jpop j-pop ryokushaka リョクシャカ rock jrock j-rock 結証 yui shou yui-shou kesshou keshou track 2 #2 2021 長屋晴子 小林壱誓 peppe 穴見真吾 Haruko Nagaya Issey Issei Kobayashi Shingo Anami green yellow green-yellow society
BeatmapID:2965623
BeatmapSetID:1441587

[Difficulty]
HPDrainRate:5
CircleSize:4
OverallDifficulty:9
ApproachRate:9.3
SliderMultiplier:2.8
SliderTickRate:1

[Events]
//Background and Video events
0,0,"220437.jpg",0,0
//Break Periods
//Storyboard Layer 0 (Background)
//Storyboard Layer 1 (Fail)
//Storyboard Layer 2 (Pass)
//Storyboard Layer 3 (Foreground)
//Storyboard Layer 4 (Overlay)
//Storyboard Sound Samples

[TimingPoints]
2882,483.870967741935,4,2,1,60,1,0
2882,-133.333333333333,4,2,1,60,0,0
11107,-100,4,2,1,60,0,0
15462,-166.666666666667,4,2,1,60,0,0
16430,-100,4,2,1,60,0,0
24172,-133.333333333333,4,2,1,50,0,0
25140,-133.333333333333,4,2,1,35,0,0
26107,-133.333333333333,4,2,1,50,0,0
27075,-133.333333333333,4,2,1,35,0,0
28043,-133.333333333333,4,2,1,50,0,0
29011,-133.333333333333,4,2,1,35,0,0
29978,-133.333333333333,4,2,1,50,0,0
32881,-133.333333333333,4,2,1,35,0,0
33849,-133.333333333333,4,2,1,50,0,0
34817,-133.333333333333,4,2,1,35,0,0
35785,-133.333333333333,4,2,1,50,0,0
36752,-100,4,2,1,50,0,0
39656,-80,4,2,1,70,0,1
68688,-80,4,2,1,60,0,0
70623,-100,4,2,1,60,0,0
78365,-166.666666666667,4,2,1,50,0,0
85865,-250,4,2,1,50,0,0
86107,-166.666666666667,4,2,1,50,0,0
90946,-100,4,2,1,50,0,0
93849,-66.6666666666667,4,3,1,60,0,0
101349,-133.333333333333,4,3,1,60,0,0
101591,-100,4,3,1,60,0,0
109333,-80,4,2,1,70,0,1
138365,-100,4,3,1,60,0,0
139575,-80,4,3,1,60,0,0
140301,-100,4,3,1,60,0,0
141511,-80,4,3,1,60,0,0
144172,-100,4,3,1,60,0,0
144414,-66.6666666666667,4,3,1,60,0,0
144656,-100,4,3,1,60,0,0
144898,-50,4,3,1,60,0,0
145140,-100,4,3,1,60,0,0
145623,-100,4,3,1,40,0,0
146107,483.870967741935,3,2,1,60,1,0
157477,-66.6666666666667,3,2,1,60,0,0
158082,-133.333333333333,3,2,1,60,0,0
158445,-66.6666666666667,3,2,1,60,0,0
158808,-133.333333333333,3,2,1,60,0,0
159171,-66.6666666666667,3,2,1,60,0,0
159534,-100,3,2,1,60,0,0
160623,-66.6666666666667,3,2,1,60,0,0
160986,-133.333333333333,3,2,1,60,0,0
161348,-66.6666666666667,3,2,1,60,0,0
161711,-133.333333333333,3,2,1,60,0,0
162074,-66.6666666666667,3,2,1,60,0,0
162437,-100,3,2,1,60,0,0
163768,-80,3,2,1,60,0,0
169332,-66.6666666666667,3,2,1,60,0,0
169695,-133.333333333333,3,2,1,60,0,0
169937,-66.6666666666667,3,2,1,60,0,0
170421,-133.333333333333,3,2,1,60,0,0
170784,-66.6666666666667,3,2,1,60,0,0
171147,-100,3,2,1,60,0,0
172236,-66.6666666666667,3,2,1,60,0,0
172598,-133.333333333333,3,2,1,60,0,0
172961,-66.6666666666667,3,2,1,60,0,0
173324,-133.333333333333,3,2,1,60,0,0
173687,-66.6666666666667,3,2,1,60,0,0
175139,-100,3,2,1,60,0,0
175865,-117.647058823529,3,2,1,60,0,0
178042,483.870967741935,4,2,1,60,1,0
179977,-66.6666666666667,4,2,1,60,0,0
180824,-50,4,2,1,60,0,0
181429,-133.333333333333,4,2,1,60,0,0
181913,483.870967741935,4,2,1,60,1,0
182396,-133.333333333333,4,2,1,40,0,0
183848,-400,4,2,1,60,0,0
185783,-100,4,2,1,60,0,0
197396,-71.4285714285714,4,2,1,70,0,1
210945,-71.4285714285714,4,2,1,60,0,0
212880,-100,4,2,1,60,0,0
228364,-66.6666666666667,4,2,1,60,0,0
229332,-90.9090909090909,4,2,1,60,0,0

[Colours]
Combo1 : 17,254,176
Combo2 : 173,255,95
Combo3 : 255,88,100
Combo4 : 255,94,55

[HitObjects]
243,51,2882,5,4,1:0:0:0:
251,47,3365,2,0,P|296:26|358:104,1,157.500006008148,2|0,0:2|0:0,0:0:0:0:
432,128,3849,2,0,B|361:141|401:157|319:167,1,105.000004005432,2|0,0:2|0:0,0:0:0:0:
263,141,4212,1,0,0:2:0:0:
262,150,4454,1,0,0:2:0:0:
262,158,4696,1,0,0:2:0:0:
219,69,4817,6,0,P|177:74|99:79,1,105.000004005432,6|0,1:2|0:0,0:0:0:0:
35,55,5180,1,0,0:2:0:0:
185,151,5301,2,0,P|216:167|246:177,1,52.5000020027161
109,198,5543,2,0,P|98:231|77:279,1,78.7500030040742,0|0,3:0|0:0,0:0:0:0:
39,170,5785,1,2,3:2:0:0:
189,271,6027,2,0,P|205:303|229:350,1,78.7500030040742,4|0,3:0|0:0,0:0:0:0:
219,352,6269,2,0,B|321:333|274:387|386:370,1,157.500006008148,4|0,3:0|0:0,0:0:0:0:
455,315,6752,5,6,1:2:0:0:
308,240,6994,1,0,0:0:0:0:
435,197,7236,1,0,0:0:0:0:
321,257,7478,1,0,0:0:0:0:
469,72,7720,5,6,1:2:0:0:
438,212,7962,1,0,0:0:0:0:
311,152,8204,2,0,P|281:128|213:123,1,105.000004005432,2|0,0:2|0:0,0:0:0:0:
175,353,8688,5,6,1:2:0:0:
175,353,8930,2,0,P|209:355|247:359,1,52.5000020027161,0|0,1:0|0:0,0:0:0:0:
85,300,9172,1,0,1:0:0:0:
85,300,9414,2,0,P|62:324|39:348,1,52.5000020027161,2|0,1:2|0:0,0:0:0:0:
166,244,9656,1,2,1:2:0:0:
166,244,9898,2,0,P|157:210|152:179,1,52.5000020027161,0|0,1:0|0:0,0:0:0:0:
162,96,10140,5,0,1:0:0:0:
232,134,10261,1,0,1:0:0:0:
301,96,10381,2,0,P|333:93|359:92,1,52.5000020027161,0|0,1:0|1:0,0:0:0:0:
353,92,10623,6,0,P|364:137|351:208,1,105.000004005432,4|0,1:0|0:0,0:0:0:0:
186,44,10986,1,2,3:2:0:0:
186,44,11047,1,0,3:2:0:0:
186,44,11107,6,0,P|131:53|105:57,1,70,8|0,1:0|0:0,0:0:0:0:
42,90,11349,1,0,1:0:0:0:
182,133,11470,2,0,P|127:142|101:146,1,70
38,179,11712,1,8,1:0:0:0:
85,302,11833,1,4,3:0:0:0:
85,302,11954,1,4,3:3:0:0:
200,226,12075,2,0,B|214:263|214:263|208:304,2,70,8|0|0,1:0|0:0|0:0,0:0:0:0:
319,369,12438,1,2,3:2:0:0:
319,369,12498,1,0,3:2:0:0:
319,369,12559,6,0,P|303:325|303:220,1,140,0|0,1:0|0:0,0:0:0:0:
373,173,12922,1,0,0:0:0:0:
250,52,13043,2,0,L|323:59,1,70,8|0,1:0|0:0,0:0:0:0:
399,91,13285,1,0,1:0:0:0:
224,134,13406,2,0,L|297:141,1,70,8|0,1:0|0:0,0:0:0:0:
373,173,13648,1,0,3:0:0:0:
360,289,13769,5,4,3:0:0:0:
360,289,13890,1,4,3:0:0:0:
425,238,14011,5,8,1:0:0:0:
292,338,14131,1,8,1:0:0:0:
405,352,14252,1,0,1:0:0:0:
310,220,14373,1,0,1:0:0:0:
286,353,14494,2,0,P|233:358|120:369,1,140,4|0,1:0|1:0,0:0:0:0:
135,364,14857,1,0,1:0:0:0:
0,249,14978,5,0,3:0:0:0:
95,179,15099,1,0,3:0:0:0:
192,244,15220,2,0,P|205:268|202:292,2,35,0|0|0,3:0|3:0|3:0,0:0:0:0:
247,194,15462,6,0,B|250:154|250:154|248:147|248:147|252:98|252:98|255:95|255:95|257:59|257:59|255:59|255:59|258:59|258:59|260:28,1,167.999994873047,0|0,3:0|0:0,0:0:0:0:
259,32,16430,6,0,P|308:60|310:149,1,140,4|0,3:1|0:0,0:0:0:0:
254,176,16793,1,8,0:2:0:0:
432,233,16914,6,0,P|384:238|305:248,1,105,0|0,3:0|0:0,0:0:0:0:
320,257,17156,2,0,P|279:260|206:263,1,105,8|0,0:2|0:0,0:0:0:0:
206,248,17398,2,0,B|149:241|149:241|125:256|125:256|49:250,1,140,0|0,3:0|0:0,0:0:0:0:
5,201,17761,1,8,0:2:0:0:
150,34,17881,6,0,P|164:83|126:129,1,105,0|0,3:0|0:0,0:0:0:0:
121,134,18123,2,0,P|170:129|210:174,1,105,8|0,0:2|0:0,0:0:0:0:
215,186,18365,1,0,3:0:0:0:
421,112,18486,2,0,P|392:76|292:102,1,140,0|8,0:0|0:2,0:0:0:0:
316,159,18789,1,0,0:0:0:0:
316,159,18849,6,0,L|327:243,1,70,2|0,3:2|0:0,0:0:0:0:
379,297,19091,2,0,L|390:381,1,70,10|0,0:2|0:0,0:0:0:0:
473,266,19273,1,0,0:0:0:0:
473,266,19333,6,0,L|393:261,1,70,2|0,3:2|0:0,0:0:0:0:
302,284,19575,2,0,L|222:279,1,70,2|8,0:2|0:2,0:0:0:0:
118,355,19817,2,0,P|106:324|109:273,2,70,2|2|8,3:2|0:2|0:2,0:0:0:0:
379,297,20301,6,0,P|405:262|369:176,1,140,4|0,3:1|0:0,0:0:0:0:
302,213,20664,1,8,0:2:0:0:
444,87,20785,6,0,P|387:96|326:107,1,105,0|0,1:0|0:0,0:0:0:0:
335,91,21027,2,0,P|294:79|264:72,1,70,8|0,1:2|1:0,0:0:0:0:
302,213,21269,2,0,B|247:227|197:232|197:232|157:213,1,140,0|0,3:0|1:0,0:0:0:0:
126,148,21631,1,0,1:0:0:0:
173,18,21752,5,0,1:0:0:0:
173,18,21873,1,0,1:0:0:0:
173,18,21994,2,0,P|206:41|205:80,1,70,0|0,3:0|3:0,0:0:0:0:
52,202,22236,6,0,P|13:170|16:74,1,140,4|0,1:0|3:0,0:0:0:0:
170,232,22599,2,0,P|209:264|206:360,1,140,0|0,1:0|0:0,0:0:0:0:
213,348,22962,1,0,1:0:0:0:
332,32,23204,1,0,1:0:0:0:
332,32,23446,2,0,L|402:41,1,70,0|0,3:0|3:0,0:0:0:0:
401,40,23688,2,0,P|411:77|346:162,1,140,4|4,3:0|3:0,0:0:0:0:
125,182,24172,5,4,3:1:0:0:
125,182,24414,1,0,0:0:0:0:
209,211,24535,1,0,3:0:0:0:
38,213,24777,2,0,L|30:281,1,52.5000020027161,0|0,0:0|3:0,0:0:0:0:
293,171,25140,6,0,P|344:168|416:158,1,105.000004005432,0|0,1:2|0:0,0:0:0:0:
397,161,25502,1,0,1:0:0:0:
395,243,25623,2,0,P|391:288|388:355,1,105.000004005432,0|0,0:2|1:0,0:0:0:0:
260,28,26107,5,2,3:2:0:0:
260,28,26349,1,0,0:0:0:0:
214,125,26470,1,0,3:0:0:0:
214,125,26712,2,0,L|155:133,1,52.5000020027161,0|0,0:0|3:0,0:0:0:0:
85,159,26954,1,0,0:0:0:0:
241,199,27075,5,0,1:2:0:0:
165,233,27196,1,0,1:0:0:0:
163,241,27256,1,0,1:0:0:0:
161,248,27317,2,0,L|173:310,1,52.5000020027161,0|0,1:0|0:0,0:0:0:0:
78,244,27559,2,0,L|67:354,1,105.000004005432,0|0,3:2|1:0,0:0:0:0:
429,258,28043,5,2,3:2:0:0:
429,258,28285,1,0,0:0:0:0:
283,294,28406,1,0,3:0:0:0:
283,294,28648,2,0,L|292:362,1,52.5000020027161,0|0,0:0|3:0,0:0:0:0:
248,213,28890,1,0,0:0:0:0:
325,175,29011,6,0,P|368:179|433:187,1,105.000004005432,0|0,1:0|0:0,0:0:0:0:
482,127,29373,2,0,P|483:85|485:62,1,52.5000020027161,0|0,1:0|0:0,0:0:0:0:
483,74,29615,1,0,0:0:0:0:
429,186,29736,2,0,P|428:228|426:251,1,52.5000020027161,0|0,1:0|0:0,0:0:0:0:
388,96,29978,5,2,3:2:0:0:
424,321,30220,1,0,0:0:0:0:
340,297,30341,2,0,P|337:341|335:370,2,52.5000020027161,0|0|0,3:0|0:0|0:0,0:0:0:0:
388,96,30704,6,0,B|405:57|360:0|282:40|295:118|331:164,1,210.000008010865,2|2,3:2|1:2,0:0:0:0:
235,47,31309,1,0,0:0:0:0:
322,149,31430,2,0,B|344:200|344:200|305:240,1,105.000004005432,8|2,1:0|0:2,0:0:0:0:
310,235,31793,1,0,0:0:0:0:
146,192,31914,6,0,P|190:190|256:183,1,105.000004005432,4|0,3:1|0:0,0:0:0:0:
373,329,32277,2,0,P|321:320|269:314,1,105.000004005432,0|0,3:0|0:0,0:0:0:0:
159,308,32640,1,0,3:0:0:0:
212,361,32761,1,0,0:0:0:0:
269,314,32881,6,0,P|288:268|260:202,1,105.000004005432,0|0,1:0|0:0,0:0:0:0:
208,144,33244,1,0,1:0:0:0:
208,144,33365,2,0,P|203:176|193:209,1,52.5000020027161
112,226,33607,1,2,0:2:0:0:
83,97,33728,1,2,0:0:0:0:
132,155,33849,6,0,P|91:142|11:139,1,105.000004005432,2|0,3:2|0:0,0:0:0:0:
254,190,34212,2,0,P|295:203|375:206,1,105.000004005432,0|0,3:2|0:0,0:0:0:0:
442,188,34575,1,0,3:0:0:0:
442,188,34696,1,0,0:0:0:0:
438,318,34817,5,2,1:2:0:0:
373,274,34938,1,0,1:0:0:0:
368,267,34998,1,0,1:0:0:0:
363,260,35059,2,0,L|355:190,1,52.5000020027161,0|0,1:0|0:0,0:0:0:0:
254,284,35301,2,0,P|259:244|266:172,1,105.000004005432,0|0,3:0|1:0,0:0:0:0:
265,179,35664,1,0,0:0:0:0:
344,149,35785,6,0,P|350:104|319:43,1,105.000004005432,2|0,3:2|0:0,0:0:0:0:
160,75,36148,2,0,P|154:120|185:181,1,105.000004005432,0|0,3:0|0:0,0:0:0:0:
257,113,36511,1,0,3:0:0:0:
257,113,36631,1,0,0:0:0:0:
178,174,36752,6,0,P|130:181|38:190,1,140,4|0,1:2|0:0,0:0:0:0:
257,113,37115,1,0,3:0:0:0:
335,216,37236,2,0,P|365:234|406:252,1,70,0|0,1:0|0:0,0:0:0:0:
169,272,37478,2,0,P|150:314|132:348,1,70,0|0,3:0|0:0,0:0:0:0:
254,218,37720,6,0,B|259:280|259:280|251:296|251:296|257:372,1,140,0|0,1:0|0:0,0:0:0:0:
255,355,38083,1,0,1:0:0:0:
421,289,39656,6,0,B|327:224|357:301|250:227,1,175,4|0,1:0|0:0,0:0:0:0:
154,350,40019,1,0,1:0:0:0:
59,184,40140,2,0,P|106:158|195:169,1,131.25,8|0,1:0|0:0,0:0:0:0:
200,172,40381,6,2,P|215:123|211:69,1,87.5,0|2,1:1|0:1,0:1:0:0:
260,234,40563,1,0,0:0:0:0:
260,234,40623,2,0,P|286:284|286:325,1,87.5,2|8,0:1|1:1,0:1:0:0:
213,343,40865,1,0,1:0:0:0:
325,178,40986,2,0,P|357:139|361:82,1,87.5,0|8,0:0|1:0,0:0:0:0:
347,27,41228,2,2,P|414:13|488:102,1,175,0|2,0:1|0:1,0:1:0:0:
438,153,41591,1,0,1:0:0:0:
400,363,41833,5,0,0:0:0:0:
313,351,41954,1,0,1:0:0:0:
442,281,42075,2,0,L|490:254,2,43.75,8|0|0,1:0|0:0|0:0,0:0:0:0:
313,351,42317,2,2,P|292:303|301:256,1,87.5,0|2,1:1|0:1,0:1:0:0:
199,33,42559,6,0,P|220:81|211:128,1,87.5,2|8,0:1|1:1,0:1:0:0:
125,148,42801,1,0,1:0:0:0:
125,148,42922,1,0,0:0:0:0:
339,136,43043,2,2,P|296:188|177:188,1,175,8|2,1:1|0:1,0:1:0:0:
34,254,43406,1,0,3:0:0:0:
34,254,43466,1,0,3:0:0:0:
34,254,43527,6,0,P|79:254|146:264,1,87.5,6|0,1:1|0:0,0:0:0:0:
256,269,43769,1,2,0:2:0:0:
184,328,43890,1,2,1:2:0:0:
294,367,44011,5,8,1:0:0:0:
294,367,44131,1,0,3:2:0:0:
294,367,44252,2,0,P|338:357|354:308,1,87.5,0|0,1:2|0:0,0:0:0:0:
377,181,44494,6,0,P|330:178|278:173,1,87.5,0|8,0:0|1:0,0:0:0:0:
224,127,44736,1,2,1:2:0:0:
158,185,44857,1,2,0:2:0:0:
89,113,44978,5,8,1:0:0:0:
89,113,45099,1,0,3:2:0:0:
89,113,45220,2,0,P|138:109|165:147,1,87.5,0|0,1:2|0:0,0:0:0:0:
303,10,45462,6,0,P|323:57|242:153,1,175,4|2,1:2|0:2,0:0:0:0:
220,78,45825,1,2,1:2:0:0:
465,135,45946,6,0,P|437:190|317:199,1,175,8|0,1:0|1:2,0:0:0:0:
333,128,46309,1,0,0:2:0:0:
202,300,46430,6,0,P|251:301|282:275,1,87.5,4|0,3:2|0:0,0:0:0:0:
332,208,46672,1,4,3:0:0:0:
332,208,46793,1,0,0:2:0:0:
180,97,46914,6,0,P|216:149|250:151,1,87.5,0|0,3:0|3:0,0:0:0:0:
335,124,47156,1,4,3:0:0:0:
335,124,47277,1,4,3:0:0:0:
156,216,47398,6,0,P|93:223|12:143,1,175,4|0,1:0|0:2,0:0:0:0:
44,78,47761,1,0,1:2:0:0:
45,290,47881,6,0,P|44:341|31:377,1,87.5,8|0,1:0|0:0,0:0:0:0:
121,372,48123,1,2,1:2:0:0:
164,301,48244,1,2,0:2:0:0:
235,337,48365,2,0,P|279:357|323:352,1,87.5,0|8,0:0|1:0,0:0:0:0:
495,263,48607,1,0,1:2:0:0:
377,171,48728,1,0,0:2:0:0:
427,330,48849,2,0,L|421:383,2,43.75,8|0|0,1:0|0:0|0:0,0:0:0:0:
453,115,49091,5,2,0:2:0:0:
453,115,49212,1,2,0:2:0:0:
453,115,49333,2,0,P|405:129|336:29,1,175,2|0,1:3|0:0,0:0:0:0:
332,44,49696,1,0,1:0:0:0:
256,160,49817,1,8,1:0:0:0:
179,44,49938,1,0,0:0:0:0:
59,115,50059,5,2,1:2:0:0:
59,115,50180,1,2,0:2:0:0:
59,115,50301,2,0,P|107:129|176:29,1,175,2|0,0:3|1:0,0:0:0:0:
180,44,50664,1,0,0:0:0:0:
256,160,50785,1,8,1:0:0:0:
332,44,50906,1,0,0:0:0:0:
454,83,51027,1,2,0:2:0:0:
454,83,51148,1,2,0:2:0:0:
454,83,51269,6,0,P|445:135|440:173,1,87.5,4|0,1:0|0:0,0:0:0:0:
391,237,51511,2,0,P|382:289|377:327,1,87.5,0|0,0:0|1:0,0:0:0:0:
317,142,51752,2,0,P|308:194|303:232,1,87.5,8|0,1:0|0:0,0:0:0:0:
470,298,51994,1,2,1:2:0:0:
314,353,52115,1,2,3:2:0:0:
314,353,52176,1,0,3:0:0:0:
314,353,52236,6,0,B|267:344|267:344|231:324|195:277,1,131.25,0|0,1:0|0:0,0:0:0:0:
194,270,52478,2,0,B|153:298|102:301|102:301|53:278,1,131.25,0|0,1:0|0:0,0:0:0:0:
0,230,52720,2,0,P|42:214|84:205,1,87.5,0|0,3:0|3:0,0:0:0:0:
186,188,52962,1,4,3:0:0:0:
186,188,53023,1,0,3:0:0:0:
186,188,53083,1,4,3:0:0:0:
181,85,53204,5,4,1:2:0:0:
414,193,53446,1,0,3:0:0:0:
414,193,53688,2,0,P|365:143|251:165,1,175,4|0,1:2|0:0,0:0:0:0:
104,263,54051,1,0,1:0:0:0:
104,263,54111,1,0,1:0:0:0:
104,263,54172,6,0,B|131:211|131:211|105:83,1,175,4|0,1:2|1:0,0:0:0:0:
33,63,54535,1,0,1:0:0:0:
201,74,54656,1,4,3:2:0:0:
117,55,54777,1,0,3:0:0:0:
284,59,54898,1,4,3:0:0:0:
202,45,55019,1,4,3:0:0:0:
367,45,55140,6,0,P|399:86|374:201,1,175,4|0,1:0|0:0,0:0:0:0:
376,198,55502,1,0,1:0:0:0:
126,228,55623,2,0,P|101:177|107:77,1,131.25,8|0,1:0|0:0,0:0:0:0:
105,83,55865,6,2,P|64:115|10:129,1,87.5,0|2,1:1|0:1,0:1:0:0:
177,135,56047,1,0,0:0:0:0:
177,135,56107,2,0,P|217:155|272:158,1,87.5,2|8,0:1|1:0,0:0:0:0:
110,187,56349,1,0,1:0:0:0:
65,289,56470,1,0,0:0:0:0:
159,252,56591,1,8,1:0:0:0:
124,355,56712,2,2,P|177:374|261:291,1,175,0|2,0:1|0:1,0:1:0:0:
231,226,57075,1,0,1:0:0:0:
416,42,57317,5,0,0:0:0:0:
464,125,57438,1,0,1:0:0:0:
327,60,57559,2,0,L|332:6,2,43.75,8|0|0,1:0|0:0|0:0,0:0:0:0:
467,284,57801,2,2,P|486:234|478:189,1,87.5,0|2,1:1|0:1,0:1:0:0:
240,19,58043,6,0,P|230:70|253:106,1,87.5,2|8,0:1|1:0,0:0:0:0:
316,157,58285,1,0,1:0:0:0:
316,157,58406,1,0,0:0:0:0:
153,41,58527,2,2,P|102:31|31:140,1,175,8|2,1:1|0:1,0:1:0:0:
90,182,58890,2,2,L|104:227,2,43.75,0|0|6,0:1|0:1|1:1,0:1:0:0:
83,310,59131,5,0,3:0:0:0:
83,310,59252,1,2,3:2:0:0:
196,269,59373,1,2,1:2:0:0:
196,269,59434,1,0,3:0:0:0:
196,269,59494,2,0,B|251:276|224:297|276:301,1,87.5,8|0,1:0|0:0,0:0:0:0:
243,376,59736,2,0,B|276:331|281:365|310:322,1,87.5,0|0,1:0|0:0,0:0:0:0:
333,233,59978,5,0,3:0:0:0:
400,359,60099,1,8,1:0:0:0:
400,359,60220,1,2,1:2:0:0:
483,240,60341,1,2,3:2:0:0:
483,240,60402,1,0,3:0:0:0:
483,240,60462,2,0,P|499:197|494:152,1,87.5,8|0,1:0|0:0,0:0:0:0:
390,32,60704,2,0,P|399:84|430:120,1,87.5,0|0,3:0|0:0,0:0:0:0:
492,70,60946,5,4,1:2:0:0:
263,201,61188,2,0,P|224:173|200:124,1,87.5,2|2,0:2|1:2,0:0:0:0:
201,52,61430,2,0,L|212:3,2,43.75,8|0|0,1:0|0:0|0:0,0:0:0:0:
57,246,61672,6,0,P|106:243|139:217,1,87.5,0|0,1:0|0:0,0:0:0:0:
280,96,61914,2,0,P|231:72|93:66,1,175,4|0,1:2|1:0,0:0:0:0:
67,128,62277,1,0,1:0:0:0:
135,220,62398,6,0,P|130:272|111:320,1,87.5,0|0,3:0|3:0,0:0:0:0:
36,334,62640,1,4,3:0:0:0:
36,334,62700,1,0,3:0:0:0:
36,334,62761,1,4,3:0:0:0:
213,268,62881,6,0,B|322:285|266:327|375:344,1,175,4|0,1:0|0:0,0:0:0:0:
443,310,63244,1,0,1:0:0:0:
493,154,63365,5,8,1:0:0:0:
423,99,63486,1,0,0:0:0:0:
340,128,63607,2,0,P|326:158|319:177,2,43.75,0|0|0,1:0|0:0|0:0,0:0:0:0:
86,69,63849,6,0,P|124:44|181:41,1,87.5,2|8,0:2|1:0,0:0:0:0:
245,62,64091,1,0,1:0:0:0:
292,249,64212,2,0,P|256:217|201:207,1,87.5,2|8,0:2|1:0,0:0:0:0:
137,195,64454,1,0,0:0:0:0:
16,336,64575,2,0,P|59:334|99:297,1,87.5,2|0,0:2|0:0,0:0:0:0:
194,125,64817,6,0,P|217:188|209:314,1,175,4|0,1:0|0:0,0:0:0:0:
166,363,65180,1,0,1:0:0:0:
353,213,65301,5,8,1:0:0:0:
334,288,65422,1,0,0:0:0:0:
385,343,65543,2,0,P|400:368|418:385,2,43.75,0|0|8,1:0|0:0|1:0,0:0:0:0:
213,195,65785,5,2,0:2:0:0:
294,162,65906,1,0,0:0:0:0:
185,185,66027,1,0,1:0:0:0:
326,182,66148,2,0,B|347:141|356:103|356:103|334:55|301:20,1,175,2|0,0:2|0:0,0:0:0:0:
307,27,66511,1,2,1:2:0:0:
53,115,66752,6,0,B|88:122|111:144|111:144|139:142|158:133|158:133|178:149|239:157,1,175,4|0,1:0|0:0,0:0:0:0:
297,138,67115,1,0,1:0:0:0:
415,332,67236,5,8,1:0:0:0:
332,359,67357,1,0,0:0:0:0:
260,309,67478,2,0,P|248:279|244:258,2,43.75,0|0|0,1:0|0:0|0:0,0:0:0:0:
150,234,67720,6,0,P|143:287|136:343,1,87.5,8|0,1:0|0:0,0:0:0:0:
204,166,67962,1,0,1:0:0:0:
204,166,68083,1,0,1:0:0:0:
353,199,68204,2,0,P|360:252|367:308,1,87.5,0|0,3:0|3:0,0:0:0:0:
288,128,68446,1,4,3:0:0:0:
288,128,68567,1,4,3:0:0:0:
164,174,68688,6,0,B|125:128|39:147|39:147|13:190,1,175,0|0,1:0|0:0,0:0:0:0:
322,232,69051,2,0,B|356:232|382:208|382:208|410:217|426:237|426:237|462:231|479:243,1,175,0|0,1:0|0:0,0:0:0:0:
283,319,69414,2,0,B|251:283|234:244|234:244|242:202|258:155,1,175,0|0,1:0|0:0,0:0:0:0:
255,161,70623,6,0,P|242:191|314:282,1,140,4|0,3:1|0:0,0:0:0:0:
358,225,70986,1,8,0:2:0:0:
453,85,71107,6,0,P|457:128|461:194,1,105,0|0,3:0|0:0,0:0:0:0:
445,195,71349,2,0,P|441:232|433:308,1,105,8|0,0:2|0:0,0:0:0:0:
458,333,71591,2,0,B|423:310|423:310|323:321,1,140,0|0,3:0|0:0,0:0:0:0:
225,347,71954,1,8,0:2:0:0:
43,276,72075,6,0,P|76:247|153:254,1,105,0|0,3:0|0:0,0:0:0:0:
222,199,72317,2,0,P|180:214|153:267,1,105,8|0,0:2|0:0,0:0:0:0:
156,292,72559,1,0,3:0:0:0:
60,172,72680,2,0,P|86:127|176:151,1,140,0|8,0:0|0:2,0:0:0:0:
184,45,73043,5,2,3:2:0:0:
256,96,73164,1,0,0:0:0:0:
328,45,73285,1,10,0:2:0:0:
256,96,73406,1,0,0:0:0:0:
332,150,73527,2,0,L|343:229,1,70,2|0,3:2|0:0,0:0:0:0:
422,185,73769,2,0,L|433:264,1,70,2|8,0:2|0:2,0:0:0:0:
188,287,74011,2,0,L|177:366,2,70,2|2|8,3:2|0:2|0:2,0:0:0:0:
257,245,74373,1,0,0:0:0:0:
90,303,74494,6,0,P|69:268|117:179,1,140,4|0,3:1|0:0,0:0:0:0:
183,207,74857,1,8,0:2:0:0:
258,90,74978,6,0,B|230:105|230:105|144:96,1,105,0|0,1:0|0:0,0:0:0:0:
151,79,75220,2,0,L|63:88,1,70,8|0,1:2|1:0,0:0:0:0:
334,184,75462,2,0,B|397:197|397:197|402:210|402:210|478:227,1,140,0|0,3:0|1:0,0:0:0:0:
257,245,75825,1,0,1:0:0:0:
340,368,75946,5,0,1:0:0:0:
340,368,76067,1,0,1:0:0:0:
340,368,76188,2,0,P|366:332|359:291,1,70,0|0,3:0|3:0,0:0:0:0:
317,62,76430,6,0,P|355:94|345:191,1,140,0|0,1:0|3:0,0:0:0:0:
195,322,76793,2,0,P|157:290|167:193,1,140,0|0,1:0|0:0,0:0:0:0:
157,205,77156,1,0,1:0:0:0:
436,264,77398,1,0,1:0:0:0:
436,264,77640,2,0,L|361:253,1,70,0|0,3:0|3:0,0:0:0:0:
297,213,77881,1,4,3:0:0:0:
224,359,78123,1,4,3:0:0:0:
85,247,78365,6,0,P|81:308|74:387,2,125.999996154785,4|0|0,3:1|3:0|3:0,0:0:0:0:
137,163,79333,6,0,P|168:157|188:155,1,41.9999987182618,2|0,0:2|0:0,0:0:0:0:
265,55,79575,1,0,0:0:0:0:
265,55,79696,2,0,P|226:35|175:44,1,83.9999974365235,2|0,0:2|0:0,0:0:0:0:
120,78,80059,1,2,0:2:0:0:
331,120,80301,6,0,B|413:112|384:102|465:94,2,125.999996154785,2|0|0,3:2|3:0|3:0,0:0:0:0:
263,166,81148,1,0,0:0:0:0:
263,166,81269,6,0,P|272:204|252:250,1,83.9999974365235,2|0,0:2|0:0,0:0:0:0:
132,231,81631,2,0,P|123:193|143:147,1,83.9999974365235,2|0,0:2|0:0,0:0:0:0:
199,199,81994,1,2,0:2:0:0:
199,199,82236,6,0,P|205:237|209:338,2,125.999996154785,2|0|0,3:2|3:0|3:0,0:0:0:0:
149,136,83083,1,0,0:0:0:0:
149,136,83204,6,0,P|106:144|66:152,1,83.9999974365235
4,105,83567,1,0,0:0:0:0:
208,53,83688,2,0,P|248:47|299:40,1,83.9999974365235,2|0,0:2|0:0,0:0:0:0:
366,50,84051,1,0,0:0:0:0:
367,197,84172,6,2,P|358:227|354:245,1,41.9999987182618,2|0,3:2|0:2,0:2:0:0:
240,352,84414,1,2,0:2:0:0:
281,290,84535,1,2,3:2:0:0:
220,231,84656,1,2,0:2:0:0:
275,161,84777,1,2,0:2:0:0:
185,110,84898,2,2,P|171:80|162:55,1,41.9999987182618,2|0,3:2|0:2,0:2:0:0:
322,82,85140,5,2,0:2:0:0:
259,124,85261,1,2,0:2:0:0:
307,171,85381,1,2,3:2:0:0:
273,210,85502,1,2,0:2:0:0:
289,244,85623,1,8,1:1:0:0:
274,270,85744,1,2,0:2:0:0:
280,293,85865,2,0,L|274:342,1,42,2|0,0:2|0:0,0:0:0:0:
175,339,86107,5,4,3:1:0:0:
177,346,86470,1,0,3:0:0:0:
180,353,86833,1,0,3:0:0:0:
95,333,87075,2,0,P|95:307|103:276,1,41.9999987182618,2|0,0:2|0:0,0:0:0:0:
138,115,87317,1,0,0:0:0:0:
56,116,87438,2,0,P|44:148|83:194,1,83.9999974365235,2|0,0:2|0:0,0:0:0:0:
148,221,87801,2,0,P|175:223|200:226,1,41.9999987182618,2|0,0:2|0:0,0:0:0:0:
271,218,88043,5,2,3:2:0:0:
273,225,88406,1,0,3:0:0:0:
276,232,88769,1,0,3:0:0:0:
356,200,89011,6,0,P|381:192|402:186,1,41.9999987182618,2|0,0:2|0:0,0:0:0:0:
474,204,89252,1,0,0:0:0:0:
343,287,89373,2,0,P|379:275|436:261,1,83.9999974365235,2|0,0:2|0:0,0:0:0:0:
474,204,89736,1,2,0:2:0:0:
417,109,89857,1,0,0:0:0:0:
305,147,89978,5,2,3:2:0:0:
303,154,90341,1,0,3:0:0:0:
300,161,90704,1,0,3:0:0:0:
323,242,90946,6,0,P|355:244|395:249,1,70,0|0,1:0|1:0,0:0:0:0:
468,276,91188,1,0,1:0:0:0:
398,321,91309,2,0,L|364:333,2,35,0|0|0,1:0|0:0|1:0,0:0:0:0:
459,192,91551,1,0,1:0:0:0:
323,242,91672,1,0,1:0:0:0:
386,104,91793,1,0,1:0:0:0:
387,197,91914,6,0,B|337:226|337:226|224:214,1,140,0|0,1:0|0:0,0:0:0:0:
128,84,92277,2,0,B|178:55|178:55|291:67,1,140,0|0,1:0|0:0,0:0:0:0:
259,63,92881,6,0,B|206:100|206:100|215:174,1,140,0|0,1:0|0:0,0:0:0:0:
233,289,93244,1,0,1:0:0:0:
291,221,93365,5,0,3:0:0:0:
157,240,93486,1,0,3:0:0:0:
291,221,93607,1,4,3:0:0:0:
308,349,93728,1,4,3:0:0:0:
287,140,93849,6,0,P|327:91|375:89,1,105.000004005432,4|0,1:0|0:0,0:0:0:0:
433,122,94091,1,8,0:2:0:0:
182,111,94212,2,0,B|296:125|240:184|380:199,1,210.000008010865,8|0,1:0|0:0,0:0:0:0:
416,270,94575,2,0,P|461:240|515:216,1,105.000004005432,8|0,0:2|0:0,0:0:0:0:
328,278,94817,5,0,1:0:0:0:
328,278,94938,2,0,P|265:274|223:273,1,105.000004005432,8|0,1:2|0:0,0:0:0:0:
319,77,95180,2,0,P|382:81|424:82,1,105.000004005432,8|8,1:0|1:2,0:0:0:0:
245,126,95422,1,0,0:0:0:0:
219,42,95543,1,0,0:0:0:0:
81,332,95724,1,0,0:0:0:0:
81,332,95785,6,0,P|49:304|54:244,1,105.000004005432,2|0,1:3|0:0,0:0:0:0:
73,171,96027,1,8,0:2:0:0:
234,273,96148,6,0,P|289:233|269:98,1,210.000008010865,2|0,1:3|0:0,0:0:0:0:
196,85,96511,1,8,0:2:0:0:
390,239,96631,6,0,P|435:196|420:142,1,105.000004005432,2|0,0:3|1:0,0:0:0:0:
382,81,96873,2,0,P|366:55|363:30,2,52.5000020027161,8|0|0,1:0|0:0|0:0,0:0:0:0:
337,367,97115,6,0,P|322:307|308:156,1,210.000008010865,2|0,1:3|0:0,0:0:0:0:
282,72,97478,1,0,0:0:0:0:
359,95,97599,1,0,0:0:0:0:
222,133,97720,6,0,P|167:140|125:103,1,105.000004005432,4|0,1:0|0:0,0:0:0:0:
94,31,97962,1,8,0:2:0:0:
93,232,98083,2,0,P|149:189|187:40,1,210.000008010865,8|0,1:0|0:0,0:0:0:0:
279,46,98446,2,0,P|317:93|310:147,1,105.000004005432,8|0,0:2|0:0,0:0:0:0:
305,281,98688,5,0,1:0:0:0:
305,281,98809,2,0,P|352:281|392:239,1,105.000004005432,8|0,1:0|0:0,0:0:0:0:
489,50,99051,2,0,P|442:50|402:92,1,105.000004005432,8|8,1:0|1:2,0:0:0:0:
360,156,99293,1,0,0:0:0:0:
448,174,99414,1,0,0:0:0:0:
135,55,99595,1,0,0:0:0:0:
135,55,99656,6,0,P|99:99|112:148,1,105.000004005432,2|0,1:3|0:0,0:0:0:0:
161,205,99898,1,8,0:2:0:0:
297,94,100019,6,0,B|305:218|232:159|247:311,1,210.000008010865,2|0,1:3|0:0,0:0:0:0:
322,317,100381,1,8,0:2:0:0:
420,151,100502,6,0,P|468:197|454:256,1,105.000004005432,2|0,0:3|1:0,0:0:0:0:
416,302,100744,2,0,P|406:332|409:358,2,52.5000020027161,8|0|0,1:0|0:0|0:0,0:0:0:0:
432,29,100986,6,0,P|390:128|383:254,1,210.000008010865,2|0,1:3|0:0,0:0:0:0:
322,298,101349,6,0,P|316:336|312:386,1,78.7500030040742,8|0,1:0|0:0,0:0:0:0:
312,376,101591,6,0,P|264:357|203:371,1,105,4|0,1:0|0:0,0:0:0:0:
212,365,101833,2,0,P|162:377|125:373,1,70,2|8,0:2|1:0,0:0:0:0:
53,362,102075,1,8,1:2:0:0:
53,362,102196,2,0,P|33:323|60:231,1,140,2|2,0:2|0:2,0:0:0:0:
201,163,102559,2,0,P|209:199|210:232,1,70,0|8,1:0|1:0,0:0:0:0:
209,232,102801,1,0,0:2:0:0:
130,210,102922,1,8,1:0:0:0:
296,270,103043,2,0,P|314:236|316:136,1,140,10|2,1:2|0:2,0:0:0:0:
384,63,103406,1,0,0:0:0:0:
384,63,103466,1,0,0:0:0:0:
384,63,103527,6,0,P|430:73|499:83,1,105,2|0,1:2|0:0,0:0:0:0:
487,81,103769,2,0,P|479:125|475:161,1,70,2|8,0:2|1:0,0:0:0:0:
396,185,104011,1,8,1:2:0:0:
490,243,104131,2,0,P|499:286|453:379,1,140,2|2,0:2|0:2,0:0:0:0:
258,213,104494,2,0,P|313:209|346:221,1,70,0|8,1:0|1:0,0:0:0:0:
372,297,104736,2,0,P|317:301|284:289,1,70,0|8,0:0|1:0,0:0:0:0:
177,249,104978,2,0,P|130:271|78:269,1,105,10|0,1:2|0:0,0:0:0:0:
78,269,105220,1,2,0:2:0:0:
33,55,105341,1,0,0:0:0:0:
33,55,105402,1,0,0:0:0:0:
33,55,105462,6,0,B|85:91|85:91|68:191,1,140,4|2,1:0|0:2,0:0:0:0:
14,236,105825,1,8,1:0:0:0:
160,149,105946,2,0,B|222:159|222:159|236:180|236:180|309:195,1,140,8|8,1:2|1:0,0:0:0:0:
457,46,106430,5,0,1:0:0:0:
388,71,106551,2,0,L|356:57,2,35,8|0|0,1:0|0:0|1:0,0:0:0:0:
378,158,106793,1,0,1:0:0:0:
287,140,106914,1,0,3:0:0:0:
259,251,107035,1,0,3:0:0:0:
170,166,107156,1,4,3:0:0:0:
92,285,107277,1,4,3:0:0:0:
43,148,107398,5,0,1:0:0:0:
43,148,107519,1,0,1:0:0:0:
211,38,107761,6,0,L|205:-7,2,35,8|8|8,2:1|2:1|2:1,0:0:0:0:
249,129,108002,1,8,2:1:0:0:
249,129,108063,1,8,2:1:0:0:
249,129,108123,1,0,1:0:0:0:
304,52,108244,1,0,1:0:0:0:
291,235,108486,6,0,B|322:213|322:213|403:227,1,105,8|8,2:1|2:1,0:0:0:0:
388,224,108728,1,8,2:1:0:0:
473,265,108849,2,0,B|465:313|465:313|476:329|476:329|478:369,2,105,8|8|8,2:1|2:1|2:1,0:0:0:0:
291,235,109333,6,0,P|240:228|198:241,1,87.5,4|0,1:0|0:0,0:0:0:0:
116,253,109575,1,0,0:0:0:0:
116,253,109696,1,0,1:0:0:0:
71,30,109817,2,0,P|110:68|130:158,1,131.25,8|0,1:0|0:0,0:0:0:0:
136,162,110059,6,2,P|89:159|51:176,1,87.5,0|2,1:1|0:1,0:1:0:0:
206,238,110240,1,0,0:0:0:0:
206,238,110301,2,0,P|203:286|184:321,1,87.5,2|8,0:1|1:0,0:0:0:0:
101,345,110543,1,0,1:0:0:0:
283,309,110664,2,0,P|321:327|353:370,1,87.5,0|8,0:0|1:0,0:0:0:0:
435,342,110906,2,2,P|478:322|482:193,1,175,0|2,0:1|0:1,0:1:0:0:
433,95,111269,1,0,1:0:0:0:
229,272,111511,5,0,0:0:0:0:
144,265,111631,1,0,1:0:0:0:
277,199,111752,2,0,L|317:181,2,43.75,8|0|0,1:0|0:0|0:0,0:0:0:0:
299,336,111994,2,2,P|251:358|199:363,1,87.5,0|10,1:1|1:1,0:1:0:0:
73,205,112236,2,0,P|121:183|173:178,1,87.5,2|8,0:1|1:0,0:0:0:0:
364,250,112478,2,0,P|369:209|361:147,1,87.5,0|0,1:0|0:0,0:0:0:0:
324,25,112720,5,8,1:0:0:0:
246,128,112841,1,0,0:0:0:0:
246,128,112962,1,0,0:0:0:0:
145,63,113083,1,0,3:0:0:0:
145,63,113144,1,0,3:0:0:0:
145,63,113204,6,0,L|53:47,1,87.5,6|0,1:1|0:0,0:0:0:0:
113,292,113446,1,2,0:2:0:0:
163,186,113567,1,2,1:2:0:0:
46,153,113688,5,8,1:0:0:0:
46,153,113809,1,0,3:0:0:0:
46,153,113930,2,0,B|32:195|32:195|71:237,1,87.5,0|8,1:0|1:0,0:0:0:0:
290,302,114172,6,0,P|242:304|197:309,1,87.5,0|8,0:0|1:0,0:0:0:0:
331,178,114414,1,2,1:2:0:0:
403,271,114535,1,2,0:2:0:0:
245,215,114656,5,8,1:0:0:0:
245,215,114777,1,0,3:0:0:0:
245,215,114898,2,0,B|232:172|232:172|254:134,1,87.5,0|0,1:0|0:0,0:0:0:0:
195,18,115140,6,0,P|186:66|65:135,1,175,4|2,1:2|0:2,0:0:0:0:
84,52,115502,1,2,1:2:0:0:
193,134,115623,6,0,P|232:176|228:295,1,175,8|0,1:0|1:0,0:0:0:0:
156,257,115986,1,0,0:0:0:0:
284,222,116107,6,0,P|344:231|380:257,1,87.5,4|0,3:2|0:0,0:0:0:0:
433,301,116349,1,0,1:0:0:0:
433,301,116470,1,0,1:0:0:0:
379,146,116591,6,0,P|386:104|419:62,1,87.5,0|0,3:0|3:0,0:0:0:0:
492,42,116833,1,4,3:0:0:0:
492,42,116954,1,4,3:0:0:0:
255,33,117075,6,0,B|244:130|276:107|259:224,1,175,4|0,1:0|0:0,0:0:0:0:
212,273,117438,1,0,1:0:0:0:
374,372,117559,6,0,P|382:326|366:280,1,87.5,8|0,1:0|0:0,0:0:0:0:
344,216,117801,1,2,1:2:0:0:
453,295,117922,1,2,0:2:0:0:
471,219,118043,2,0,P|475:170|495:137,1,87.5,0|8,0:0|1:0,0:0:0:0:
434,87,118285,1,0,1:0:0:0:
344,216,118406,1,0,0:0:0:0:
367,43,118527,2,0,L|383:-6,2,43.75,8|0|0,1:0|0:0|0:0,0:0:0:0:
113,99,118769,5,2,0:2:0:0:
113,99,118890,1,2,0:2:0:0:
113,99,119011,2,0,B|189:86|189:86|202:93|202:93|289:79,1,175,2|0,1:3|0:0,0:0:0:0:
284,79,119373,1,0,1:0:0:0:
188,199,119494,1,8,1:0:0:0:
303,159,119615,1,0,0:0:0:0:
227,278,119736,5,2,1:2:0:0:
227,278,119857,1,2,1:2:0:0:
227,278,119978,2,0,B|303:265|303:265|316:272|316:272|403:258,1,175,2|0,0:3|1:0,0:0:0:0:
398,258,120340,1,0,0:0:0:0:
303,159,120461,1,8,1:0:0:0:
418,182,120583,1,0,0:0:0:0:
315,76,120704,1,2,0:2:0:0:
315,76,120825,1,2,0:2:0:0:
315,76,120946,6,0,P|359:63|401:52,1,87.5,4|0,1:0|0:0,0:0:0:0:
197,76,121188,2,0,P|153:63|111:52,1,87.5,0|0,0:0|1:0,0:0:0:0:
399,52,121430,2,0,P|406:100|413:143,1,87.5,8|0,1:0|0:0,0:0:0:0:
106,145,121672,1,2,1:2:0:0:
257,222,121793,1,2,3:2:0:0:
257,222,121853,1,0,3:0:0:0:
257,222,121914,6,0,B|211:246|172:258|172:258|133:249,1,131.25,0|0,1:0|0:0,0:0:0:0:
112,243,122156,2,0,P|120:288|123:336,1,87.5,0|0,1:0|1:0,0:0:0:0:
210,363,122398,1,0,3:0:0:0:
210,363,122519,1,0,3:0:0:0:
306,341,122640,1,4,3:0:0:0:
306,341,122700,1,0,3:0:0:0:
306,341,122761,1,4,3:0:0:0:
394,313,122881,1,4,1:2:0:0:
228,42,123123,5,0,3:0:0:0:
228,42,123365,2,0,P|155:29|93:123,1,175,4|0,1:2|1:0,0:0:0:0:
279,117,123728,1,0,1:0:0:0:
279,117,123789,1,0,1:0:0:0:
279,117,123849,6,0,P|352:104|414:198,1,175,4|0,1:2|1:0,0:0:0:0:
345,230,124212,1,0,1:0:0:0:
426,272,124333,1,4,3:2:0:0:
345,230,124454,1,0,3:0:0:0:
406,300,124575,1,4,3:0:0:0:
345,230,124696,1,4,3:0:0:0:
387,329,124817,1,4,1:0:0:0:
91,94,125059,5,0,0:0:0:0:
213,136,125180,1,0,1:0:0:0:
169,258,125301,2,0,L|31:260,1,131.25,8|0,1:0|0:0,0:0:0:0:
17,252,125543,6,2,B|46:290|46:290|35:338,1,87.5,0|2,1:1|0:1,0:1:0:0:
73,172,125724,1,0,0:0:0:0:
73,172,125785,2,0,B|101:134|101:134|90:86,1,87.5,2|8,0:1|1:0,0:0:0:0:
21,52,126027,1,0,1:0:0:0:
165,45,126148,2,0,L|186:142,1,87.5,0|8,0:0|1:0,0:0:0:0:
403,272,126390,2,2,B|317:252|317:252|292:146,1,175,0|2,0:1|0:1,0:1:0:0:
361,100,126752,2,0,L|372:54,2,43.75,0|0|0,1:0|0:0|0:0,0:0:0:0:
212,221,126994,5,0,0:0:0:0:
360,221,127115,1,0,1:0:0:0:
153,160,127236,2,0,L|146:117,2,43.75,8|0|0,1:0|0:0|0:0,0:0:0:0:
293,282,127478,5,0,1:0:0:0:
145,282,127599,1,0,0:0:0:0:
291,200,127720,2,0,P|308:160|292:105,1,87.5,2|8,0:1|1:0,0:0:0:0:
236,56,127962,1,0,1:0:0:0:
236,56,128083,1,0,0:0:0:0:
385,213,128204,6,2,P|388:299|326:354,1,175,8|2,1:1|0:1,0:1:0:0:
248,308,128567,2,2,L|195:299,2,43.75,0|0|6,0:1|0:1|1:1,0:1:0:0:
109,286,128809,5,0,3:0:0:0:
109,286,128930,1,2,3:2:0:0:
40,172,129051,1,2,1:2:0:0:
40,172,129111,1,0,3:0:0:0:
40,172,129172,2,0,P|74:153|136:160,1,87.5,8|0,1:0|0:0,0:0:0:0:
187,201,129414,1,0,1:0:0:0:
353,40,129656,5,0,3:0:0:0:
231,13,129777,1,8,1:0:0:0:
231,13,129898,1,2,1:2:0:0:
282,111,130019,1,2,3:2:0:0:
282,111,130079,1,0,3:0:0:0:
282,111,130140,2,0,B|272:168|287:154|279:215,1,87.5,8|0,1:0|0:0,0:0:0:0:
218,244,130381,1,0,1:0:0:0:
503,168,130623,6,0,P|465:134|416:115,1,87.5,4|0,1:2|0:0,0:0:0:0:
359,121,130865,1,2,3:2:0:0:
310,262,130986,1,2,1:2:0:0:
154,200,131107,2,0,P|197:168|321:187,1,175,8|0,1:0|1:0,0:0:0:0:
384,219,131470,1,8,1:0:0:0:
217,243,131591,6,0,P|194:280|194:324,1,87.5,4|8,0:2|1:0,0:0:0:0:
252,378,131833,1,0,1:0:0:0:
316,331,131954,1,0,1:0:0:0:
110,291,132075,2,0,B|55:299|84:310|16:318,1,87.5,0|0,3:0|3:0,0:0:0:0:
199,121,132317,1,4,3:0:0:0:
217,243,132438,1,4,3:0:0:0:
101,185,132559,6,0,P|63:148|82:27,1,175,4|0,1:0|0:0,0:0:0:0:
330,154,132922,1,0,1:0:0:0:
405,134,133043,2,0,P|428:95|407:44,1,87.5,8|0,1:0|0:0,0:0:0:0:
352,13,133285,1,0,1:0:0:0:
512,212,133406,6,0,B|416:194|448:250|328:233,1,175,0|8,0:0|1:0,0:0:0:0:
264,99,133769,2,0,P|307:75|347:80,1,87.5,0|0,1:0|0:0,0:0:0:0:
383,321,134011,5,8,1:0:0:0:
330,154,134131,1,0,3:0:0:0:
330,154,134252,1,0,3:0:0:0:
192,245,134373,1,0,3:0:0:0:
192,245,134434,1,0,3:0:0:0:
192,245,134494,2,0,P|151:272|99:279,2,87.5,0|0|0,1:0|0:0|0:0,0:0:0:0:
243,311,134857,1,0,1:0:0:0:
272,73,134978,2,0,P|301:127|277:242,1,175,8|0,1:0|1:0,0:0:0:0:
243,311,135341,1,8,1:0:0:0:
282,235,135462,6,0,L|392:207,1,87.5
188,145,135704,2,0,L|97:104,1,87.5,0|0,1:0|1:0,0:0:0:0:
125,218,135946,1,0,3:0:0:0:
181,53,136067,1,0,3:0:0:0:
181,53,136188,1,4,3:0:0:0:
318,170,136309,1,4,3:0:0:0:
318,170,136369,1,0,3:0:0:0:
318,170,136430,6,0,P|380:203|420:203,2,87.5,4|0|0,1:0|0:0|0:0,0:0:0:0:
326,84,136793,1,0,1:0:0:0:
265,241,136914,2,0,P|261:304|179:378,1,175,8|0,1:0|1:0,0:0:0:0:
98,341,137277,1,0,1:0:0:0:
98,341,137337,1,0,1:0:0:0:
98,341,137398,1,8,1:0:0:0:
143,265,137519,1,0,0:0:0:0:
143,265,137640,2,0,P|143:221|132:160,1,87.5,0|0,1:0|1:0,0:0:0:0:
49,159,137881,5,0,3:0:0:0:
49,159,138002,1,0,3:0:0:0:
55,67,138123,1,4,3:0:0:0:
55,67,138244,1,4,3:0:0:0:
149,79,138365,6,0,B|185:63|185:63|271:78,1,105,4|0,1:0|0:0,0:0:0:0:
258,68,138607,2,2,L|336:61,1,70,0|0,0:1|0:1,0:1:0:0:
395,134,138849,1,0,1:0:0:0:
245,159,138970,2,2,B|308:152|308:152|322:160|322:160|407:149,1,140,0|0,0:1|0:1,0:1:0:0:
458,207,139333,2,0,B|478:173|478:173|456:86,1,105,0|0,1:0|0:0,0:0:0:0:
450,99,139575,5,0,0:0:0:0:
354,271,139696,2,0,P|341:313|343:366,1,87.5,8|0,0:2|1:0,0:0:0:0:
202,273,139938,1,0,0:0:0:0:
315,177,140059,2,0,P|313:135|290:81,1,87.5,8|0,0:2|0:0,0:0:0:0:
120,50,140301,5,0,1:0:0:0:
120,50,140543,2,2,L|115:122,1,70,0|0,0:1|0:1,0:1:0:0:
50,190,140785,1,0,1:0:0:0:
163,177,140906,2,2,B|116:158|116:158|57:176,1,105,0|0,0:1|0:1,0:1:0:0:
50,190,141148,1,0,0:0:0:0:
218,91,141269,2,0,L|336:81,1,105,0|0,1:0|0:0,0:0:0:0:
335,92,141511,5,0,0:0:0:0:
410,196,141631,2,0,B|422:239|422:239|406:284,2,87.5,8|0|0,1:0|1:0|0:0,0:0:0:0:
335,92,141994,2,0,L|317:251,1,131.25,8|0,1:0|0:0,0:0:0:0:
307,218,142236,6,0,L|316:322,1,87.5,4|0,1:0|0:0,0:0:0:0:
249,355,142478,1,0,0:0:0:0:
115,353,142599,2,0,L|58:353,2,43.75,0|0|0,0:0|0:0|1:0,0:0:0:0:
181,308,142841,1,0,0:0:0:0:
315,306,142962,2,0,L|372:306,2,43.75
181,308,143204,6,2,B|151:249|151:249|198:186,1,131.25,0|0,1:1|0:1,0:1:0:0:
204,202,143446,1,0,0:0:0:0:
461,232,143567,2,2,B|381:238|381:238|375:243|375:243|282:249,1,175,8|8,0:1|0:1,0:1:0:0:
62,249,143930,1,0,0:0:0:0:
62,249,144172,6,0,B|99:262|99:262|171:242,1,105,0|0,1:0|0:0,0:0:0:0:
166,222,144414,6,2,B|238:229|238:229|249:245|249:245|338:254,1,157.500006008148,2|2,1:1|0:1,0:1:0:0:
390,216,144656,6,2,L|453:209,2,46.6666666666667,0|0|2,1:1|0:1|0:1,0:1:0:0:
298,333,144898,6,2,B|224:346|224:346|255:171,1,210,0|0,1:0|0:0,0:1:0:0:
199,81,145140,6,0,B|239:58|239:58|287:71,2,93.3333333333333,8|8|8,1:0|1:0|1:0,0:0:0:0:
260,270,145623,5,2,2:2:0:0:
293,295,145704,1,2,2:2:0:0:
333,306,145785,1,2,2:2:0:0:
374,305,145865,1,2,2:2:0:0:
414,293,145946,1,2,2:2:0:0:
448,268,146027,1,2,2:2:0:0:
467,231,146107,6,0,P|472:184|481:138,1,93.3333333333333,4|2,1:0|0:2,0:0:0:0:
368,42,146348,2,0,P|371:90|417:127,1,93.3333333333333,0|2,0:2|0:2,0:2:0:0:
476,111,146590,1,0,1:0:0:0:
291,122,146752,1,0,0:0:0:0:
284,134,146832,2,0,P|241:156|170:148,1,93.3333333333333,8|2,1:0|0:2,0:0:0:0:
335,189,147074,2,0,P|376:211|434:210,1,93.3333333333333,0|2,0:0|0:2,0:0:0:0:
287,250,147316,1,0,1:0:0:0:
136,210,147477,1,0,0:0:0:0:
126,201,147558,6,0,P|116:154|145:91,1,93.3333333333333,0|2,1:0|0:2,0:0:0:0:
209,26,147800,1,0,0:0:0:0:
181,62,147881,1,0,0:0:0:0:
141,83,147961,1,2,0:2:0:0:
95,90,148042,2,0,P|39:89|-10:59,1,93.3333333333333,0|0,1:0|0:0,0:0:0:0:
59,181,148284,2,0,B|86:261|36:239|64:325,2,140,8|0|0,1:0|0:0|1:0,0:0:0:0:
59,181,149010,5,0,1:0:0:0:
370,273,149171,1,2,0:2:0:0:
360,283,149252,2,0,P|309:286|260:286,1,93.3333333333333,0|2,0:0|0:2,0:0:0:0:
199,322,149494,2,0,P|250:319|299:319,1,93.3333333333333,0|0,1:0|0:2,0:0:0:0:
292,318,149736,2,0,P|316:272|294:168,1,140,8|0,1:0|0:0,0:0:0:0:
82,246,150139,1,2,0:2:0:0:
81,259,150219,2,0,L|73:352,1,93.3333333333333,0|0,1:0|0:0,0:0:0:0:
73,351,150461,1,0,1:0:0:0:
241,54,150703,5,2,0:3:0:0:
257,200,150945,1,0,1:0:0:0:
273,346,151187,1,8,1:0:0:0:
402,59,151429,6,0,L|394:162,1,93.3333333333333,6|0,3:3|0:0,0:0:0:0:
405,159,151671,2,0,L|397:262,1,93.3333333333333,4|0,3:0|0:0,0:0:0:0:
409,264,151913,1,4,1:0:0:0:
188,114,152074,1,0,0:0:0:0:
178,103,152155,6,0,P|125:101|80:121,1,93.3333333333333,0|2,0:0|0:2,0:0:0:0:
10,236,152397,2,0,P|63:238|108:218,1,93.3333333333333,0|2,1:0|0:2,0:0:0:0:
203,218,152639,2,0,P|214:287|172:371,1,140,8|0,1:0|0:0,0:0:0:0:
299,198,153042,1,2,0:2:0:0:
301,184,153123,2,0,L|311:81,1,93.3333333333333,0|2,1:0|0:2,0:0:0:0:
322,16,153365,1,0,1:0:0:0:
481,273,153526,1,0,0:0:0:0:
476,286,153607,6,0,P|427:304|383:293,1,93.3333333333333,0|2,0:0|0:2,0:0:0:0:
249,221,153848,2,0,P|298:203|342:214,1,93.3333333333333,0|2,1:0|0:2,0:0:0:0:
422,336,154090,2,0,B|345:325|380:289|294:283,1,140,8|0,1:0|0:0,0:0:0:0:
49,65,154494,1,2,0:2:0:0:
51,79,154575,2,0,L|61:182,1,93.3333333333333,0|2,1:0|0:2,0:0:0:0:
72,247,154817,1,0,1:0:0:0:
361,137,154977,1,0,0:0:0:0:
347,135,155058,6,0,P|314:101|299:45,1,93.3333333333333,0|2,0:0|0:2,0:0:0:0:
185,206,155300,2,0,P|228:165|246:113,1,93.3333333333333,0|2,1:0|0:2,0:0:0:0:
351,331,155542,2,0,P|320:285|296:185,2,140,8|0|0,1:0|0:0|1:0,0:0:0:0:
105,355,156187,1,0,0:0:0:0:
117,362,156268,6,0,L|222:353,1,93.3333333333333,2|0,1:3|0:0,0:0:0:0:
351,331,156510,2,0,L|270:324,1,70,2|2,0:2|0:2,0:0:0:0:
160,269,156752,2,0,L|241:264,1,70,2|2,1:2|0:2,0:0:0:0:
276,197,156994,1,2,1:3:0:0:
276,197,157115,1,0,1:2:0:0:
309,123,157236,5,2,3:2:0:0:
235,130,157357,1,2,3:2:0:0:
370,82,157477,5,2,3:2:0:0:
179,77,157598,1,2,3:2:0:0:
259,15,157719,6,0,P|289:97|299:239,1,210.000008010865,4|0,1:0|0:0,0:0:0:0:
325,294,158082,2,0,L|318:355,2,52.5000020027161,0|0|0,3:0|1:0|0:0,0:0:0:0:
54,270,158445,6,0,P|40:215|159:176,1,210.000008010865,8|0,1:0|0:0,0:0:0:0:
148,345,158808,2,0,P|176:352|205:361,2,52.5000020027161,0|0|0,3:0|1:0|0:0,0:0:0:0:
413,220,159171,6,0,B|274:220|348:271|197:270,1,210.000008010865,0|2,1:0|0:2,0:0:0:0:
120,245,159534,1,0,3:0:0:0:
148,329,159655,1,2,1:2:0:0:
184,193,159776,1,0,3:0:0:0:
148,329,159897,1,8,1:0:0:0:
261,46,160139,6,0,L|223:34,2,35,2|0|0,0:0|0:0|0:2,0:0:0:0:
420,108,160381,1,2,1:2:0:0:
420,108,160623,6,2,P|316:133|225:187,1,210.000008010865,0|0,1:1|0:1,0:1:0:0:
113,293,160986,2,0,P|120:337|120:352,2,52.5000020027161,0|0|0,3:0|1:0|0:0,0:0:0:0:
31,57,161348,6,2,B|100:27|100:27|168:89|130:176,1,210.000008010865,8|0,1:1|0:1,0:1:0:0:
209,306,161711,2,0,P|248:319|261:324,2,52.5000020027161,0|0|0,3:0|1:0|0:0,0:0:0:0:
41,193,162074,6,2,B|91:197|125:181|125:181|171:215|171:215|210:208|259:233,1,210.000008010865,0|0,1:1|1:1,0:1:0:0:
360,306,162437,1,0,3:0:0:0:
427,207,162558,2,0,L|455:172,2,35,0|0|0,1:0|0:0|0:0,0:0:0:0:
360,306,162800,2,0,P|360:344|365:379,1,70,8|0,1:0|0:0,0:0:0:0:
340,149,163042,2,0,B|354:71|296:99|318:-5,2,140,0|0|4,3:0|1:0|1:0,0:0:0:0:
340,149,163768,5,0,3:0:0:0:
314,15,163889,1,0,3:0:0:0:
200,69,164010,2,0,P|159:93|95:97,1,87.5,0|0,1:0|0:0,0:0:0:0:
120,99,164191,1,0,0:0:0:0:
120,99,164252,2,2,P|136:156|136:239,1,131.25,8|2,1:1|0:1,0:1:0:0:
137,227,164494,1,0,3:0:0:0:
228,254,164615,1,0,3:0:0:0:
83,370,164736,2,2,P|54:337|53:196,1,175,0|2,1:1|1:1,0:1:0:0:
448,239,165219,5,0,3:0:0:0:
344,325,165340,1,0,3:0:0:0:
330,200,165461,2,0,P|363:166|405:134,1,87.5,0|0,1:0|0:0,0:0:0:0:
394,141,165643,1,0,0:0:0:0:
394,141,165703,2,2,P|400:91|369:7,1,131.25,8|2,1:1|0:1,0:1:0:0:
374,15,165945,1,0,3:0:0:0:
480,165,166066,1,0,3:0:0:0:
480,165,166187,2,2,P|476:224|475:353,1,175,0|2,1:1|1:1,0:1:0:0:
387,245,166550,5,0,3:0:0:0:
380,340,166671,1,0,3:0:0:0:
287,226,166792,1,0,3:0:0:0:
281,361,166913,2,0,P|236:355|181:353,1,87.5,0|0,1:0|0:0,0:0:0:0:
194,352,167094,1,0,0:0:0:0:
194,352,167155,2,2,P|148:301|190:176,1,175,8|2,1:1|1:1,0:1:0:0:
272,140,167518,1,0,3:0:0:0:
475,62,167639,2,0,P|418:54|387:53,1,87.5,0|0,1:0|0:0,0:0:0:0:
177,192,167881,6,2,B|223:220|258:235|258:235|310:228|353:209,1,175,8|0,1:1|1:1,0:1:0:0:
364,39,168244,1,0,3:0:0:0:
211,19,168365,2,0,P|201:71|190:116,1,87.5,0|0,1:0|0:0,0:0:0:0:
362,227,168606,2,0,P|372:175|383:130,1,87.5,0|0,1:0|1:0,0:0:0:0:
167,107,168848,5,0,1:0:0:0:
286,195,168969,1,0,1:0:0:0:
415,120,169090,2,0,P|367:99|316:103,1,87.5,0|0,1:0|1:0,0:0:0:0:
315,383,169332,6,0,P|341:321|361:158,1,210.000008010865,4|0,1:0|0:0,0:0:0:0:
332,98,169695,2,0,P|327:66|324:37,1,52.5000020027161,0|0,3:0|1:0,0:0:0:0:
180,175,169937,1,0,3:0:0:0:
180,175,169998,1,0,3:0:0:0:
180,175,170058,6,2,P|119:180|123:46,1,210.000008010865,8|0,1:1|0:1,0:1:0:0:
247,86,170421,2,0,L|264:146,1,52.5000020027161,0|0,3:0|1:0,0:0:0:0:
262,137,170663,1,0,0:0:0:0:
443,145,170784,6,2,B|311:155|385:221|248:231,1,210.000008010865,0|2,1:1|0:2,0:1:0:0:
96,352,171147,1,0,3:0:0:0:
176,228,171268,1,2,1:2:0:0:
174,311,171389,1,0,3:0:0:0:
100,180,171510,1,10,1:0:0:0:
332,339,171752,6,0,L|296:372,2,35,2|0|0,0:2|0:0|0:2,0:0:0:0:
471,336,171994,1,2,1:2:0:0:
471,336,172236,6,2,P|402:330|273:264,1,210.000008010865,0|0,1:1|0:1,0:1:0:0:
136,90,172598,1,0,3:0:0:0:
136,90,172659,1,0,3:0:0:0:
136,90,172719,2,0,P|153:124|155:147,1,52.5000020027161,0|0,1:0|0:0,0:0:0:0:
79,220,172961,6,0,B|134:212|185:246|185:246|205:196|276:171,1,210.000008010865,8|0,1:0|0:0,0:0:0:0:
375,90,173324,2,2,P|362:112|356:138,1,52.5000020027161,0|2,3:1|1:1,0:1:0:0:
261,299,173566,1,0,3:0:0:0:
261,299,173627,1,0,3:0:0:0:
261,299,173687,6,2,B|271:211|271:211|253:179|253:179|262:82,1,210.000008010865,0|0,1:1|0:1,0:1:0:0:
212,37,174050,1,0,3:0:0:0:
369,221,174171,2,0,L|433:230,2,52.5000020027161,0|0|0,1:0|0:0|0:0,0:0:0:0:
173,242,174413,6,0,B|61:258|61:258|119:204,1,157.500006008148,8|0,1:0|0:0,0:0:0:0:
207,156,174655,2,0,B|319:140|319:140|261:194,1,157.500006008148,4|0,3:0|0:0,0:0:0:0:
286,170,174897,1,4,3:0:0:0:
395,226,175018,1,0,3:0:0:0:
395,226,175078,1,0,3:0:0:0:
395,226,175139,6,0,P|429:277|355:326,1,140,4|0,1:0|0:0,0:0:0:0:
298,351,175502,1,0,0:0:0:0:
276,270,175623,1,0,1:0:0:0:
276,270,175865,6,2,B|159:258|219:323|87:309,1,178.500003404617,8|10,1:1|1:1,0:1:0:0:
36,273,176348,1,0,1:0:0:0:
349,239,176590,6,0,P|386:192|343:66,1,178.500003404617,0|8,1:0|1:0,0:0:0:0:
218,92,177074,1,0,1:0:0:0:
218,92,177195,1,0,3:0:0:0:
157,38,177316,6,2,P|120:85|128:160,1,119.000002269745,8|8,1:1|1:1,0:1:0:0:
208,260,177800,1,0,1:0:0:0:
40,350,178042,5,2,1:1:0:0:
62,323,178162,1,0,1:0:0:0:
96,316,178283,1,0,1:0:0:0:
129,324,178404,1,0,1:0:0:0:
157,346,178525,5,0,1:0:0:0:
176,300,178646,1,0,1:0:0:0:
218,275,178767,1,0,1:0:0:0:
265,286,178888,1,0,1:0:0:0:
300,320,179009,5,2,1:1:0:0:
287,258,179130,1,0,1:0:0:0:
322,206,179251,1,0,1:0:0:0:
382,187,179372,1,0,1:0:0:0:
439,212,179493,5,0,1:0:0:0:
385,156,179614,1,0,1:0:0:0:
391,79,179735,1,0,1:0:0:0:
455,36,179856,1,0,1:0:0:0:
482,110,179977,6,0,B|444:123|406:107|388:77|388:77|372:48|327:36|297:54,1,210.000008010865,4|0,1:2|0:0,0:0:0:0:
254,119,180340,5,4,1:2:0:0:
211,320,180824,6,0,B|204:384|277:395|334:366|319:286|267:207,1,280,4|0,1:2|0:0,0:0:0:0:
254,119,181187,5,4,1:2:0:0:
254,119,181429,2,0,B|294:121|294:121|295:118|295:118|295:121|295:121|330:123|330:123|336:128|336:128|414:131,1,157.500006008148,0|0,1:0|0:0,0:0:0:0:
468,75,181912,1,4,1:1:0:0:
112,217,182154,1,8,1:0:0:0:
112,217,182275,1,8,1:0:0:0:
28,161,182396,6,0,L|19:139,14,13.125000500679,2|0|2|0|2|0|2|0|2|0|0|0|2|0|0,1:2|0:2|0:2|0:2|1:2|0:2|0:2|0:2|1:2|0:2|0:2|0:2|1:2|0:2|0:2,0:2:0:0:
122,105,182880,6,0,L|122:81,14,13.125000500679,2|0|0|0|2|0|0|0|2|0|0|0|2|0|0,3:2|0:0|0:0|0:0|3:2|0:0|0:0|0:0|3:2|0:0|0:0|0:0|3:2|0:0|0:0,0:0:0:0:
230,93,183364,6,0,L|237:70,14,13.125000500679,4|0|0|0|4|0|0|0|4|0|0|0|4|0|0,3:0|0:0|0:0|0:0|3:0|0:0|0:0|0:0|3:0|0:0|0:0|0:0|3:0|0:0|0:0,0:0:0:0:
241,70,183848,6,0,L|248:202,1,131.25,4|0,1:0|0:0,0:0:0:0:
399,187,184816,6,0,L|397:257,1,70,2|0,0:2|3:0,0:0:0:0:
397,257,185783,6,0,P|354:258|325:245,1,70,4|0,1:0|0:0,0:0:0:0:
268,199,186025,1,8,0:2:0:0:
228,132,186146,1,8,1:0:0:0:
329,247,186267,6,0,P|298:272|261:282,1,70,8|0,0:2|0:0,0:0:0:0:
191,282,186509,1,8,1:0:0:0:
125,240,186630,1,0,0:0:0:0:
44,360,186751,6,0,P|35:324|45:277,2,70,8|0|0,1:2|0:0|1:0,0:0:0:0:
119,320,187114,1,0,1:0:0:0:
78,173,187235,5,0,3:0:0:0:
191,282,187356,1,0,3:0:0:0:
149,137,187477,2,0,P|120:104|79:88,1,70,4|4,3:0|3:0,0:0:0:0:
22,104,187719,5,0,1:0:0:0:
229,172,187961,2,0,P|270:174|303:185,1,70,8|0,0:2|1:0,0:0:0:0:
376,182,188203,2,0,P|358:233|263:253,2,140,8|8|8,1:2|1:0|1:2,0:0:0:0:
416,114,188808,1,8,1:0:0:0:
350,72,188929,5,0,1:0:0:0:
464,177,189050,1,8,1:2:0:0:
439,40,189171,1,0,3:0:0:0:
376,182,189292,1,0,3:0:0:0:
261,96,189412,2,0,P|209:78|155:103,1,105,4|0,3:0|0:0,0:0:0:0:
156,126,189654,6,0,B|121:145|121:145|64:148|20:102,1,140,4|8,1:0|0:2,0:0:0:0:
67,41,190017,1,8,1:0:0:0:
130,227,190138,2,0,P|88:231|-3:240,1,105,8|0,0:2|0:0,0:0:0:0:
26,238,190380,1,10,1:2:0:0:
225,180,190501,1,2,0:2:0:0:
225,180,190562,1,0,0:0:0:0:
225,180,190622,6,0,P|260:180|300:191,1,70,8|0,1:2|0:0,0:0:0:0:
375,219,190864,1,0,0:0:0:0:
250,265,190985,2,0,B|193:256|151:269|151:269|125:308,1,140,8|0,1:0|0:0,0:0:0:0:
342,305,191348,1,10,1:2:0:0:
262,359,191469,1,2,0:2:0:0:
426,369,191590,6,0,P|434:333|440:257,1,105,2|0,1:3|0:0,0:0:0:0:
440,265,191832,2,0,P|439:227|434:192,1,70,8|8,0:2|1:0,0:0:0:0:
477,121,192074,2,0,B|459:85|459:85|419:65|358:76,1,140,8|10,0:2|1:2,0:0:0:0:
305,137,192437,1,2,0:0:0:0:
179,208,192558,6,0,P|222:219|296:224,1,105,2|0,1:3|0:0,0:0:0:0:
282,224,192800,2,0,P|326:222|363:213,1,70,8|8,0:2|1:0,0:0:0:0:
431,241,193041,2,0,B|468:217|468:217|484:170|467:113,1,140,8|10,0:2|1:2,0:0:0:0:
305,137,193404,1,2,0:2:0:0:
344,292,193525,6,0,L|361:370,2,70,4|0|8,1:0|0:0|0:2,0:0:0:0:
305,137,193888,1,8,1:0:0:0:
164,237,194009,2,0,B|229:225|229:225|246:232|246:232|321:217,1,140,8|8,1:2|1:0,0:0:0:0:
89,190,194372,1,0,3:0:0:0:
89,190,194433,1,0,3:0:0:0:
89,190,194493,2,0,P|77:227|73:266,1,70,8|0,1:2|0:0,0:0:0:0:
164,237,194735,2,0,P|176:200|180:161,1,70,0|8,1:0|1:2,0:0:0:0:
305,32,194977,5,0,3:0:0:0:
265,162,195098,1,0,3:0:0:0:
169,55,195219,2,0,L|140:19,2,35,4|0|4,3:0|0:0|3:0,0:0:0:0:
265,162,195461,6,0,P|303:149|330:113,1,70,4|0,1:2|0:0,0:0:0:0:
196,211,195703,1,0,3:0:0:0:
196,211,195824,1,0,0:0:0:0:
323,128,195945,2,0,B|376:59|387:127|439:51,1,140,4|0,1:2|3:0,0:0:0:0:
342,255,196308,1,0,1:0:0:0:
342,255,196368,1,0,1:0:0:0:
342,255,196429,6,0,P|362:296|356:334,1,70,4|0,1:2|0:0,0:0:0:0:
399,174,196671,1,0,1:0:0:0:
143,117,196791,2,0,L|60:92,1,70,0|4,1:0|3:2,0:0:0:0:
352,335,197033,2,0,L|435:360,1,70,0|4,3:0|3:0,0:0:0:0:
259,63,197275,1,4,3:0:0:0:
56,90,197396,6,0,P|79:190|83:298,1,195.999994018555,4|8,1:0|0:2,0:0:0:0:
1,253,197759,1,0,1:0:0:0:
122,367,197880,2,0,P|183:364|243:284,1,146.999995513916,8|0,1:0|0:0,0:0:0:0:
246,286,198122,6,2,P|202:269|167:223,1,97.9999970092774,0|2,1:1|0:1,0:1:0:0:
330,258,198304,1,0,0:0:0:0:
330,258,198364,2,0,P|373:225|393:176,1,97.9999970092774,10|8,0:1|1:0,0:0:0:0:
315,337,198606,1,0,1:0:0:0:
257,199,198727,2,0,P|239:152|248:102,1,97.9999970092774,8|8,0:2|1:0,0:0:0:0:
489,60,198969,2,2,P|393:74|323:140,1,195.999994018555,0|2,0:1|0:1,0:1:0:0:
315,337,199332,1,0,1:0:0:0:
211,41,199574,5,8,0:2:0:0:
53,22,199695,1,0,1:0:0:0:
180,117,199816,2,0,P|257:113|332:21,1,195.999994018555,8|0,1:0|1:0,0:0:0:0:
411,38,200179,1,0,0:0:0:0:
377,131,200300,6,0,P|372:177|407:227,1,97.9999970092774,10|8,0:1|1:0,0:0:0:0:
397,221,200481,1,0,3:0:0:0:
397,221,200541,1,0,3:0:0:0:
486,216,200662,1,8,3:2:0:0:
303,209,200783,2,2,P|249:234|183:359,1,195.999994018555,8|10,1:1|0:1,0:1:0:0:
90,136,201146,1,0,3:0:0:0:
90,136,201207,1,0,3:0:0:0:
90,136,201267,6,0,B|83:201|105:175|96:243,1,97.9999970092774,6|0,1:0|0:0,0:0:0:0:
95,312,201509,1,10,0:2:0:0:
21,274,201630,1,2,1:2:0:0:
180,250,201751,2,0,L|241:242,2,48.9999985046387,8|0|0,1:0|0:0|3:0,0:0:0:0:
21,274,201993,1,0,1:0:0:0:
189,356,202114,1,0,3:0:0:0:
189,356,202235,2,0,P|240:330|287:329,1,97.9999970092774,8|8,0:2|1:0,0:0:0:0:
489,209,202477,2,0,P|434:224|396:209,1,97.9999970092774,2|10,1:2|3:2,0:0:0:0:
340,267,202719,2,0,P|360:310|361:359,1,97.9999970092774,8|0,1:0|3:0,0:0:0:0:
281,192,202961,1,10,0:2:0:0:
270,159,203021,1,0,0:0:0:0:
284,127,203082,1,2,0:2:0:0:
360,73,203203,5,4,1:2:0:0:
243,287,203445,2,0,P|186:282|136:252,1,97.9999970092774,8|0,0:2|1:0,0:0:0:0:
92,179,203687,2,0,P|81:157|70:118,2,48.9999985046387,8|0|0,1:0|0:0|0:0,0:0:0:0:
120,350,203929,2,0,P|165:324|211:171,1,195.999994018555,0|4,1:0|1:2,0:0:0:0:
167,126,204291,1,0,1:0:0:0:
167,126,204412,1,0,1:0:0:0:
413,90,204533,5,0,1:0:0:0:
406,123,204594,1,0,1:0:0:0:
385,150,204654,2,0,P|342:168|281:160,1,97.9999970092774,0|0,3:0|3:0,0:0:0:0:
245,87,204896,1,4,3:0:0:0:
317,21,205017,1,4,3:0:0:0:
489,139,205138,6,0,P|497:203|399:289,1,195.999994018555,4|10,1:0|0:2,0:0:0:0:
351,227,205501,1,2,1:2:0:0:
214,368,205622,5,8,1:0:0:0:
323,303,205743,1,0,0:0:0:0:
278,183,205864,1,2,1:2:0:0:
384,113,205985,1,2,0:2:0:0:
224,240,206106,6,0,P|183:206|172:149,1,97.9999970092774,8|8,0:2|1:0,0:0:0:0:
219,94,206348,1,0,1:0:0:0:
122,265,206469,2,0,P|111:313|80:353,1,97.9999970092774,8|8,0:2|1:0,0:0:0:0:
39,270,206711,1,0,0:0:0:0:
195,336,206832,1,10,0:2:0:0:
224,318,206892,1,0,0:0:0:0:
257,324,206953,1,2,0:2:0:0:
337,367,207074,6,0,P|388:340|392:198,1,195.999994018555,0|10,1:0|0:2,0:0:0:0:
328,179,207437,1,2,1:2:0:0:
447,126,207558,5,8,1:0:0:0:
253,146,207679,1,0,0:0:0:0:
403,213,207800,1,2,1:2:0:0:
209,233,207921,1,2,0:2:0:0:
294,274,208041,6,0,L|306:324,2,48.9999985046387,8|0|8,0:2|0:0|1:0,0:0:0:0:
253,146,208283,1,0,1:0:0:0:
320,72,208404,1,8,0:2:0:0:
177,76,208525,1,0,3:0:0:0:
253,146,208646,1,0,3:0:0:0:
94,207,208767,1,2,3:2:0:0:
74,178,208828,1,0,3:0:0:0:
74,143,208888,1,2,3:2:0:0:
160,155,209009,6,0,B|132:270|190:237|154:353,1,195.999994018555,4|8,1:0|0:2,0:0:0:0:
73,343,209372,1,8,1:0:0:0:
50,173,209493,2,0,P|81:136|85:88,1,97.9999970092774,0|0,1:0|3:0,0:0:0:0:
87,87,209675,1,0,3:0:0:0:
87,87,209735,1,8,1:0:0:0:
140,37,209856,1,0,3:0:0:0:
160,155,209977,6,0,P|252:181|344:151,1,195.999994018555,8|0,1:0|1:0,0:0:0:0:
345,151,210340,1,0,1:0:0:0:
391,85,210461,5,0,3:0:0:0:
344,235,210582,1,0,3:0:0:0:
296,85,210703,1,4,3:0:0:0:
423,175,210824,1,4,3:0:0:0:
267,170,210945,6,0,B|185:182|185:182|164:214|164:214|90:225,1,195.999994018555,0|0,1:0|0:0,0:0:0:0:
298,275,211308,2,0,B|380:287|380:287|401:319|401:319|474:330,1,195.999994018555,0|0,1:0|0:0,0:0:0:0:
267,170,211671,2,0,L|251:372,1,195.999994018555,0|0,1:0|0:0,0:0:0:0:
251,365,212880,6,0,L|266:217,1,140,0|0,1:0|0:0,0:0:0:0:
265,226,213243,1,0,0:0:0:0:
357,118,213364,2,0,P|312:127|254:91,1,105,0|0,3:0|0:0,0:0:0:0:
163,108,213606,2,0,P|209:108|267:65,1,105
262,62,213848,6,0,L|270:226,1,140,0|0,1:0|0:0,0:0:0:0:
268,201,214211,1,0,0:0:0:0:
318,271,214332,2,0,P|347:316|333:366,1,105,0|0,3:0|0:0,0:0:0:0:
176,363,214574,2,0,P|165:313|194:271,1,105
256,320,214816,5,0,1:0:0:0:
198,255,214937,2,0,L|42:286,1,140
117,115,215300,2,0,L|55:81,1,70,2|0,3:2|0:0,0:0:0:0:
75,187,215541,2,0,L|5:179,1,70,2|0,0:2|0:0,0:0:0:0:
5,179,215783,5,2,1:2:0:0:
262,81,216025,2,0,P|275:120|271:160,1,70,2|0,0:2|0:0,0:0:0:0:
191,127,216267,1,2,3:2:0:0:
237,223,216388,2,0,P|276:231|353:166,1,140,2|0,0:2|0:0,0:0:0:0:
426,42,216751,6,0,B|420:103|420:103|431:116|431:116|425:188,1,140,0|0,1:0|0:0,0:0:0:0:
494,264,217114,1,0,0:0:0:0:
432,346,217235,2,0,P|385:344|321:345,1,105,0|0,3:0|0:0,0:0:0:0:
222,329,217477,2,0,P|273:329|333:330,1,105
328,315,217719,2,0,B|322:254|322:254|333:241|333:241|327:169,1,140,0|0,1:0|0:0,0:0:0:0:
246,117,218082,1,0,0:0:0:0:
152,168,218203,5,0,3:0:0:0:
152,168,218324,1,0,3:0:0:0:
152,168,218445,2,0,P|147:209|191:238,1,70,0|0,3:0|0:0,0:0:0:0:
435,67,218687,6,0,P|396:56|316:132,1,140,0|0,1:0|0:0,0:0:0:0:
163,229,219050,2,0,P|202:240|282:164,1,140,0|0,1:0|0:0,0:0:0:0:
277,186,219412,1,0,1:0:0:0:
33,346,219654,6,0,P|75:339|189:327,1,140,0|0,1:0|1:0,0:0:0:0:
250,340,220017,1,0,1:0:0:0:
444,226,220138,5,0,3:0:0:0:
381,270,220259,1,0,3:0:0:0:
304,258,220380,1,4,3:0:0:0:
249,203,220501,1,4,3:0:0:0:
234,127,220622,6,0,P|228:70|239:-4,1,105,0|0,1:0|0:0,0:0:0:0:
245,16,220864,1,0,0:0:0:0:
456,72,220985,1,8,1:2:0:0:
456,72,221106,2,0,B|425:90|425:90|335:78,1,105,8|0,1:0|0:0,0:0:0:0:
343,64,221348,2,0,B|327:102|327:102|348:176,1,105,8|0,0:2|0:0,0:0:0:0:
358,178,221590,6,0,L|347:267,2,70,0|8|0,1:0|1:0|0:0,0:0:0:0:
291,309,221953,1,8,1:2:0:0:
445,234,222074,2,0,B|451:294|451:294|462:303|462:303|469:374,1,140,8|8,1:0|0:2,0:0:0:0:
109,152,222558,5,0,1:0:0:0:
218,58,222679,2,0,P|234:105|191:168,1,105
198,157,222921,1,8,1:2:0:0:
33,249,223041,2,0,B|87:262|87:262|149:239,1,105,8|0,1:0|0:0,0:0:0:0:
146,236,223283,2,0,B|156:270|156:270|146:309,1,70,10|0,1:2|1:0,0:0:0:0:
310,226,223525,6,0,L|318:142,1,70,8|8,1:0|1:0,0:0:0:0:
399,105,223767,1,2,1:2:0:0:
474,124,223888,1,8,1:2:0:0:
400,221,224009,1,2,3:2:0:0:
479,245,224130,2,0,L|485:327,2,70,2|4|4,3:2|3:0|3:0,0:0:0:0:
254,323,224493,6,0,P|299:341|369:322,1,105,0|0,1:0|0:0,0:0:0:0:
366,324,224735,1,0,0:0:0:0:
179,370,224856,1,8,1:2:0:0:
179,370,224977,2,0,B|160:340|160:340|173:265,1,105,8|0,1:0|0:0,0:0:0:0:
154,273,225219,2,0,L|63:289,1,70,8|0,0:2|1:0,0:0:0:0:
268,171,225461,6,0,L|278:85,1,70,0|0,1:0|1:0,0:0:0:0:
109,151,225703,1,0,1:0:0:0:
187,116,225824,1,8,1:2:0:0:
179,200,225945,5,0,3:0:0:0:
122,66,226066,1,0,3:0:0:0:
264,24,226187,1,4,3:0:0:0:
264,24,226308,1,4,3:0:0:0:
264,24,226429,6,0,P|293:87|249:143,1,140,0|0,1:0|3:0,0:0:0:0:
77,244,226791,2,0,P|99:206|200:204,1,140,0|0,1:0|3:0,0:0:0:0:
263,220,227154,1,0,1:0:0:0:
263,220,227396,2,0,P|263:288|269:385,1,140,0|0,1:0|1:0,0:0:0:0:
341,260,227759,1,0,1:0:0:0:
182,335,227880,5,0,3:0:0:0:
176,252,228001,1,0,3:0:0:0:
351,257,228122,2,0,P|347:297|346:329,1,70,4|0,3:0|0:0,0:0:0:0:
437,97,228364,6,2,B|386:57|386:57|243:83,1,210.000008010865,4|0,1:1|3:1,0:1:0:0:
74,312,228727,2,2,B|125:352|125:352|267:325,1,210.000008010865,0|0,1:1|3:1,0:1:0:0:
361,158,229090,1,2,1:1:0:0:
361,158,229332,2,2,B|283:173|283:173|261:231|261:231|146:257|146:257|170:191,1,308.000009399414,4|0,1:1|0:1,0:1:0:0:
