osu file format v14

[General]
AudioFilename: audio.mp3
AudioLeadIn: 0
PreviewTime: 947
Countdown: 0
SampleSet: Soft
StackLeniency: 0.6
Mode: 0
LetterboxInBreaks: 0
WidescreenStoryboard: 1

[Editor]
Bookmarks: 2882,16430,24172,39656,70623,78365,93849,109333,138365,146107,157720
DistanceSpacing: 1.1
BeatDivisor: 8
GridSize: 32
TimelineZoom: 1.4

[Metadata]
Title:LADYBUG
TitleUnicode:LADYBUG
Artist:Ryokuoushoku Shakai
ArtistUnicode:緑黄色社会
Creator:RLC
Version:Insane
Source:
Tags:japanese pop jpop j-pop ryokushaka リョクシャカ rock jrock j-rock 結証 yui shou yui-shou kesshou keshou track 2 #2 2021 長屋晴子 小林壱誓 peppe 穴見真吾 Haruko Nagaya Issey Issei Kobayashi Shingo Anami green yellow green-yellow society
BeatmapID:2968653
BeatmapSetID:1441587

[Difficulty]
HPDrainRate:5
CircleSize:4
OverallDifficulty:8
ApproachRate:9
SliderMultiplier:2.8
SliderTickRate:1

[Events]
//Background and Video events
0,0,"220437.jpg",0,0
//Break Periods
2,72759,77765
2,149210,157119
2,216467,219654
//Storyboard Layer 0 (Background)
//Storyboard Layer 1 (Fail)
//Storyboard Layer 2 (Pass)
//Storyboard Layer 3 (Foreground)
//Storyboard Layer 4 (Overlay)
//Storyboard Sound Samples

[TimingPoints]
2882,483.870967741935,4,2,1,60,1,0
2882,-200,4,2,1,60,0,0
10140,-133.333333333333,4,2,1,60,0,0
10623,-100,4,2,1,60,0,0
24172,-333.333333333333,4,2,1,50,0,0
25140,-166.666666666667,4,2,1,35,0,0
26107,-333.333333333333,4,2,1,50,0,0
27075,-166.666666666667,4,2,1,35,0,0
28043,-333.333333333333,4,2,1,50,0,0
29011,-166.666666666667,4,2,1,35,0,0
29978,-333.333333333333,4,2,1,50,0,0
30704,-166.666666666667,4,2,1,50,0,0
31914,-250,4,2,1,50,0,0
32881,-166.666666666667,4,2,1,35,0,0
33849,-250,4,2,1,50,0,0
34817,-166.666666666667,4,2,1,35,0,0
35785,-250,4,2,1,50,0,0
36752,-166.666666666667,4,2,1,50,0,0
37236,-100,4,2,1,50,0,0
39656,-100,4,2,1,70,0,1
68688,-100,4,2,1,60,0,0
78365,-250,4,2,1,50,0,0
79333,-166.666666666667,4,2,1,50,0,0
80301,-250,4,2,1,50,0,0
81269,-166.666666666667,4,2,1,50,0,0
82236,-250,4,2,1,50,0,0
83204,-166.666666666667,4,2,1,50,0,0
86107,-250,4,2,1,50,0,0
87075,-166.666666666667,4,2,1,50,0,0
88043,-250,4,2,1,50,0,0
89011,-166.666666666667,4,2,1,50,0,0
89978,-250,4,2,1,50,0,0
90946,-100,4,2,1,50,0,0
93849,-100,4,3,1,60,0,0
95543,-66.6666666666667,4,3,1,60,0,0
95785,-100,4,3,1,60,0,0
99414,-66.6666666666667,4,3,1,60,0,0
99656,-100,4,3,1,60,0,0
109333,-100,4,2,1,70,0,1
138365,-100,4,3,1,60,0,0
141511,-66.6666666666667,4,3,1,60,0,0
142599,-100,4,3,1,60,0,0
144414,-66.6666666666667,4,3,1,60,0,0
145140,-100,4,3,1,60,0,0
145623,-100,4,3,1,40,0,0
146107,483.870967741935,3,2,1,60,1,0
166671,-83.3333333333333,3,2,1,60,0,0
166913,-71.4285714285714,3,2,1,60,0,0
167155,-62.5,3,2,1,60,0,0
167518,-100,3,2,1,60,0,0
178042,483.870967741935,4,2,1,60,1,0
178042,-133.333333333333,4,2,1,60,0,0
179977,-80,4,2,1,60,0,0
181429,-133.333333333333,4,2,1,60,0,0
181913,483.870967741935,4,2,1,60,1,0
182396,-133.333333333333,4,2,1,40,0,0
182849,-133.333333333333,4,2,1,60,0,0
182879,-133.333333333333,4,2,1,40,0,0
183333,-133.333333333333,4,2,1,60,0,0
183363,-133.333333333333,4,2,1,40,0,0
183848,-285.714285714286,4,2,1,60,0,0
185783,-100,4,2,1,60,0,0
197396,-83.3333333333333,4,2,1,70,0,1
210945,-83.3333333333333,4,2,1,60,0,0
220622,-100,4,2,1,60,0,0
228364,-66.6666666666667,4,2,1,60,0,0
229332,-133.333333333333,4,2,1,60,0,0

[Colours]
Combo1 : 17,254,176
Combo2 : 173,255,95
Combo3 : 255,88,100
Combo4 : 255,94,55

[HitObjects]
227,62,2882,6,0,P|270:55|312:49,1,70,4|0,1:0|0:0,0:0:0:0:
159,236,3365,2,0,P|120:242|30:198,1,140,2|2,0:2|0:2,0:0:0:0:
32,200,4091,1,0,0:0:0:0:
81,269,4212,2,0,P|81:298|58:336,2,70,0|0|0,0:2|0:2|0:2,0:0:0:0:
151,162,4817,6,0,P|144:130|134:42,1,105,6|0,1:2|0:2,0:0:0:0:
134,58,5301,1,0,0:0:0:0:
404,73,5543,1,0,3:0:0:0:
357,134,5785,1,2,3:2:0:0:
349,210,6027,1,4,3:0:0:0:
370,283,6269,1,4,3:0:0:0:
370,283,6752,6,0,P|395:273|426:232,1,70,6|0,1:2|0:0,0:0:0:0:
470,82,7236,1,0,0:0:0:0:
422,240,7478,1,0,0:0:0:0:
370,85,7720,6,0,P|341:86|298:101,1,70,6|0,1:2|0:0,0:0:0:0:
156,211,8204,1,2,0:2:0:0:
273,342,8446,1,0,0:0:0:0:
146,67,8688,5,6,1:2:0:0:
259,37,8930,1,0,1:0:0:0:
153,113,9172,1,0,1:0:0:0:
259,37,9414,1,2,1:2:0:0:
160,159,9656,1,2,1:2:0:0:
259,37,9898,1,0,1:0:0:0:
167,203,10140,6,0,L|161:268,1,52.5000020027161,0|0,1:0|1:0,0:0:0:0:
159,363,10381,1,0,1:0:0:0:
159,363,10502,1,0,1:0:0:0:
224,310,10623,6,0,L|261:304,2,35,4|0|0,1:0|0:0|0:0,0:0:0:0:
486,88,10986,1,0,1:0:0:0:
430,154,11107,2,0,P|394:152|326:75,1,140,8|0,1:0|1:0,0:0:0:0:
262,129,11470,2,0,P|273:170|270:198,1,70
97,114,11712,2,0,P|86:73|89:45,1,70,8|0,1:0|1:0,0:0:0:0:
189,79,11954,1,0,0:0:0:0:
170,165,12075,1,8,1:0:0:0:
189,79,12196,2,0,P|224:50|317:64,1,140
401,211,12559,6,0,B|370:186|370:186|309:177|270:200,1,140,0|0,1:0|0:0,0:0:0:0:
215,256,12922,1,0,1:0:0:0:
272,198,13043,2,0,P|271:155|259:123,1,70,8|0,1:0|0:0,0:0:0:0:
117,95,13285,1,0,1:0:0:0:
233,24,13406,2,0,B|242:67|240:94|240:94|213:123|175:139,1,140,8|0,1:0|0:0,0:0:0:0:
51,167,13769,2,0,P|98:172|121:176,1,70,0|0,1:0|0:0,0:0:0:0:
222,205,14011,5,0,1:0:0:0:
178,288,14131,1,0,1:0:0:0:
329,244,14252,1,0,3:0:0:0:
264,294,14373,1,0,3:0:0:0:
386,312,14494,5,4,1:0:0:0:
351,70,14736,2,0,P|355:120|359:148,1,70,0|0,1:0|1:0,0:0:0:0:
446,177,14978,1,0,3:0:0:0:
446,177,15099,1,0,3:0:0:0:
446,177,15220,2,0,P|442:127|438:99,1,70,0|0,3:0|3:0,0:0:0:0:
255,42,15462,1,0,3:0:0:0:
127,192,16430,6,0,P|195:210|249:157,1,140,4|0,3:1|0:0,0:0:0:0:
232,284,16793,2,0,P|222:338|224:361,2,70,8|0|0,0:2|3:0|0:0,0:0:0:0:
244,168,17156,1,8,0:2:0:0:
458,157,17398,6,0,P|441:207|349:235,1,140,0|0,3:0|0:0,0:0:0:0:
451,310,17761,2,0,P|493:303|525:303,2,70,8|0|0,0:2|3:0|0:0,0:0:0:0:
355,265,18123,2,0,P|318:262|202:258,1,140,8|0,0:2|3:0,0:0:0:0:
97,289,18486,6,0,B|89:253|89:225|89:225|99:213|99:213|104:184|90:139,1,140,0|8,0:0|0:2,0:0:0:0:
33,97,18849,1,2,3:2:0:0:
220,262,19091,2,0,P|267:267|298:270,1,70,10|0,0:2|0:0,0:0:0:0:
94,153,19333,1,2,3:2:0:0:
363,315,19575,6,0,P|398:319|441:325,1,70,2|8,0:2|0:2,0:0:0:0:
273,150,19817,1,2,3:2:0:0:
273,150,19938,2,0,B|247:219|247:219|298:279,1,140,2|0,0:2|0:0,0:0:0:0:
363,315,20301,6,0,B|275:300|314:346|216:323,1,140,4|0,3:1|0:0,0:0:0:0:
152,293,20664,1,8,0:2:0:0:
302,225,20785,1,0,1:0:0:0:
302,225,21027,2,0,P|257:219|226:217,1,70,8|0,1:2|1:0,0:0:0:0:
26,164,21269,6,0,P|75:182|145:132,1,140,0|0,3:0|1:0,0:0:0:0:
172,61,21631,1,0,1:0:0:0:
327,74,21752,2,0,P|328:113|312:153,1,70,0|0,1:0|1:0,0:0:0:0:
245,99,21994,1,0,3:0:0:0:
458,140,22236,6,0,P|401:141|301:141,1,140,4|0,1:0|3:0,0:0:0:0:
178,165,22599,2,0,P|227:165|323:166,1,140,0|0,1:0|0:0,0:0:0:0:
458,140,22962,1,0,1:0:0:0:
178,165,23204,1,0,1:0:0:0:
367,267,23446,5,0,3:0:0:0:
367,267,23567,1,0,3:0:0:0:
367,267,23688,2,0,P|360:307|356:343,1,70,4|0,3:0|0:0,0:0:0:0:
279,361,23930,2,0,P|243:349|210:340,1,70,4|0,3:0|0:0,0:0:0:0:
137,360,24172,6,0,B|90:369|125:373|71:379,2,62.9999980773926,4|0|0,3:1|3:0|3:0,0:0:0:0:
34,160,25140,5,0,1:0:0:0:
34,160,25381,1,0,0:0:0:0:
111,189,25502,2,0,L|116:234,2,41.9999987182618,0|0|0,1:0|0:0|0:0,0:0:0:0:
142,109,25865,1,0,1:0:0:0:
392,54,26107,6,0,P|413:69|449:91,2,62.9999980773926,2|0|0,3:2|3:0|3:0,0:0:0:0:
310,65,26954,1,0,0:0:0:0:
357,131,27075,5,0,1:0:0:0:
351,211,27196,2,0,L|344:235,2,20.9999993591309,0|0|0,1:0|1:0|1:0,1:0:0:0:
431,256,27438,1,0,0:0:0:0:
431,256,27559,2,0,P|442:306|450:350,1,83.9999974365235,0|0,3:0|1:0,0:0:0:0:
181,95,28043,6,0,P|184:77|187:31,2,62.9999980773926,2|0|0,3:2|3:0|3:0,0:0:0:0:
147,176,28890,1,0,0:0:0:0:
147,176,29011,6,0,P|109:160|54:160,1,83.9999974365235,0|0,1:0|0:0,0:0:0:0:
20,223,29373,2,0,P|27:254|30:318,1,83.9999974365235,0|0,1:0|0:0,0:0:0:0:
30,306,29736,1,0,1:0:0:0:
320,285,29978,6,0,P|314:315|310:351,1,62.9999980773926,2|0,3:2|3:0,0:0:0:0:
310,347,30704,6,0,B|403:313|376:371|485:328,1,167.999994873047,2|2,3:2|1:2,0:0:0:0:
225,310,31430,1,8,1:0:0:0:
439,153,31672,1,2,0:2:0:0:
371,110,31793,1,0,0:0:0:0:
325,174,31914,6,0,L|318:237,1,56,4|0,3:1|0:0,0:0:0:0:
209,211,32277,2,0,L|202:274,1,56,0|0,3:0|0:0,0:0:0:0:
82,243,32640,1,0,3:0:0:0:
195,78,32881,5,0,1:0:0:0:
195,78,33123,1,0,0:0:0:0:
126,124,33244,2,0,L|82:133,2,41.9999987182618,0|0|0,1:0|0:0|0:0,0:0:0:0:
195,78,33607,1,2,1:2:0:0:
202,266,33849,6,0,L|209:211,1,56,2|0,3:2|0:0,0:0:0:0:
318,229,34212,2,0,L|325:174,1,56,0|0,3:0|0:0,0:0:0:0:
432,192,34575,1,0,3:0:0:0:
195,78,34817,5,2,1:2:0:0:
236,147,34938,2,0,L|238:172,2,20.9999993591309,0|0|0,1:0|1:0|1:0,0:0:0:0:
195,78,35180,1,0,0:0:0:0:
264,34,35301,2,0,P|302:35|353:37,1,83.9999974365235,0|0,3:0|1:0,0:0:0:0:
378,109,35664,1,0,0:0:0:0:
325,174,35785,6,0,L|318:237,1,56,2|0,3:2|0:0,0:0:0:0:
209,211,36148,2,0,L|202:274,1,56,0|0,3:0|0:0,0:0:0:0:
82,243,36511,1,0,3:0:0:0:
71,65,36752,6,0,P|47:114|68:145,1,83.9999974365235,4|0,1:2|0:0,0:0:0:0:
59,136,37115,1,0,0:0:0:0:
333,57,37236,6,0,P|284:90|121:109,1,210,0|0,1:0|0:0,0:0:0:0:
71,65,37720,5,0,1:0:0:0:
449,307,38083,1,0,1:0:0:0:
272,47,39656,6,0,P|226:105|151:104,1,140,4|0,1:0|0:0,0:0:0:0:
111,47,40019,1,0,1:0:0:0:
252,139,40140,2,2,B|292:138|312:148|312:148|325:164|325:164|359:177|382:171,1,140,8|2,1:1|1:1,0:1:0:0:
262,225,40502,1,0,0:1:0:0:
196,293,40623,6,0,B|151:316|92:300|92:300|71:256,1,140,2|0,0:1|1:0,0:0:0:0:
168,125,40986,1,0,0:0:0:0:
144,204,41107,1,8,1:0:0:0:
271,158,41228,2,2,P|320:151|418:124,1,140,0|2,0:1|0:1,0:1:0:0:
456,46,41591,1,0,1:0:0:0:
271,158,41833,6,0,P|273:195|278:235,1,70,0|0,0:0|1:0,0:0:0:0:
174,356,42075,2,2,B|195:325|205:291|205:291|201:261|185:213,2,140,8|0|2,1:1|1:1|0:1,0:1:0:0:
174,356,42680,1,8,1:1:0:0:
279,366,42801,1,0,1:0:0:0:
279,366,43043,2,2,P|324:361|439:353,1,140,8|2,1:1|0:1,0:1:0:0:
334,279,43406,1,0,0:0:0:0:
354,138,43527,6,0,P|372:181|366:224,1,70,6|0,1:1|0:0,0:0:0:0:
253,289,43769,2,0,P|255:252|278:219,1,70,2|2,0:2|1:2,0:0:0:0:
254,122,44011,2,0,P|224:152|185:160,1,70,8|0,1:0|3:2,0:0:0:0:
63,133,44252,2,0,P|100:151|120:179,1,70,0|0,1:2|0:0,0:0:0:0:
98,260,44494,6,0,L|24:273,2,70,0|8|2,0:0|1:0|1:2,0:0:0:0:
283,348,44857,1,2,0:2:0:0:
283,348,44978,2,0,P|239:338|205:338,1,70,8|0,1:0|3:2,0:0:0:0:
137,362,45220,1,0,1:2:0:0:
284,159,45462,5,4,1:2:0:0:
471,277,45704,2,0,P|478:240|473:199,1,70,2|2,0:2|1:2,0:0:0:0:
389,95,45946,2,0,P|382:132|387:173,1,70,8|0,1:0|0:0,0:0:0:0:
471,277,46188,6,0,P|497:238|492:128,1,140,0|4,1:2|3:2,0:0:0:0:
500,147,46551,1,0,0:0:0:0:
392,253,46672,1,4,3:0:0:0:
392,253,46914,2,0,P|348:249|319:245,1,70,0|0,3:0|3:0,0:0:0:0:
235,292,47156,1,4,3:0:0:0:
312,326,47277,1,4,3:0:0:0:
174,361,47398,5,4,1:0:0:0:
66,103,47640,1,0,0:2:0:0:
66,103,47761,1,0,1:2:0:0:
109,30,47881,2,0,P|140:62|122:166,1,140,8|2,1:0|1:2,0:0:0:0:
66,103,48244,2,0,P|21:105|-4:118,2,70,2|0|8,0:2|0:0|1:0,0:0:0:0:
134,151,48607,1,0,1:2:0:0:
69,222,48728,1,0,0:2:0:0:
164,226,48849,1,8,1:0:0:0:
377,97,49091,5,2,0:2:0:0:
377,97,49212,1,2,0:2:0:0:
450,79,49333,2,0,P|463:46|466:-3,2,70,2|0|0,1:3|0:0|0:0,0:0:0:0:
346,170,49696,1,0,1:0:0:0:
274,58,49817,1,8,1:0:0:0:
126,211,50059,5,2,1:2:0:0:
126,211,50180,1,2,0:2:0:0:
53,193,50301,2,0,P|40:160|37:111,2,70,2|8|0,0:3|1:0|1:0,0:0:0:0:
157,284,50664,1,0,0:0:0:0:
229,172,50785,1,8,1:0:0:0:
390,296,51027,5,2,0:2:0:0:
390,296,51148,1,2,0:2:0:0:
463,278,51269,2,0,P|481:242|471:129,1,140,4|0,1:0|0:0,0:0:0:0:
403,130,51631,1,0,1:0:0:0:
372,58,51752,2,0,P|406:54|448:65,1,70,8|0,1:0|0:0,0:0:0:0:
324,119,51994,2,0,P|301:152|268:168,1,70,2|2,1:2|0:2,0:0:0:0:
127,256,52236,6,0,P|116:211|117:184,2,70,0|0|0,1:0|0:0|1:0,0:0:0:0:
205,299,52599,1,0,1:0:0:0:
335,236,52720,2,0,P|290:221|190:217,1,140,0|4,3:0|3:0,0:0:0:0:
127,256,53083,1,4,3:0:0:0:
55,123,53204,6,0,L|18:48,2,70,4|0|0,1:2|0:0|3:0,0:0:0:0:
457,123,53688,2,0,L|494:48,2,70,4|0|0,1:2|0:0|0:0,0:0:0:0:
151,72,54172,2,0,L|168:231,1,140,4|0,1:2|1:0,0:0:0:0:
345,245,54535,1,0,1:0:0:0:
345,245,54656,2,0,L|348:157,1,70,4|0,3:2|3:0,0:0:0:0:
162,254,54898,2,0,L|149:335,1,70,4|4,3:0|3:0,0:0:0:0:
264,368,55140,6,0,B|273:329|266:304|266:304|255:294|255:294|245:262|254:234,1,140,4|0,1:0|0:0,0:0:0:0:
215,161,55502,1,0,1:0:0:0:
413,114,55623,2,2,B|396:150|396:150|350:182|286:163,1,140,8|2,1:1|1:1,0:1:0:0:
215,161,55986,1,0,0:1:0:0:
284,31,56107,2,0,P|276:73|247:107,1,70,2|8,0:1|1:0,0:0:0:0:
215,246,56349,1,0,1:0:0:0:
215,246,56470,1,0,0:0:0:0:
142,209,56591,1,8,1:0:0:0:
142,209,56712,2,2,B|83:145|136:144|71:77,1,140,0|2,0:1|0:1,0:1:0:0:
37,20,57075,6,0,P|87:39|177:47,1,140,0|0,1:0|0:0,0:0:0:0:
244,86,57438,1,0,1:0:0:0:
89,128,57559,2,0,P|78:168|65:200,1,70,8|0,1:0|0:0,0:0:0:0:
172,160,57801,2,2,P|195:188|225:216,1,70,0|2,1:1|0:1,0:1:0:0:
133,237,58043,1,2,0:1:0:0:
59,311,58164,1,8,1:0:0:0:
181,353,58285,1,0,1:0:0:0:
181,353,58527,2,2,B|217:334|217:334|239:297|227:226,1,140,8|2,1:1|0:1,0:1:0:0:
228,237,58890,1,0,0:1:0:0:
299,355,59011,6,0,P|333:342|376:346,1,70,6|0,1:1|0:0,0:0:0:0:
346,254,59252,2,0,P|323:227|317:193,1,70,2|2,0:2|1:2,0:0:0:0:
512,253,59494,2,0,P|481:275|446:282,1,70,8|0,1:0|0:0,0:0:0:0:
424,189,59736,2,0,P|426:152|453:116,1,70,0|0,1:0|0:0,0:0:0:0:
425,291,59978,6,0,L|418:373,2,70,0|8|2,0:0|1:0|1:2,0:0:0:0:
339,177,60341,1,2,0:2:0:0:
339,177,60462,2,0,L|268:186,1,70,8|0,1:0|0:0,0:0:0:0:
186,197,60704,1,0,0:0:0:0:
425,291,60946,5,4,1:2:0:0:
90,91,61188,2,0,P|128:96|160:107,1,70,2|2,0:2|1:2,0:0:0:0:
299,220,61430,2,0,P|261:215|229:204,1,70,8|0,1:0|0:0,0:0:0:0:
115,221,61672,6,0,P|102:260|110:370,1,140,0|4,1:0|1:2,0:0:0:0:
197,345,62035,1,0,0:0:0:0:
106,358,62156,2,0,L|15:373,1,70,0|0,1:0|1:0,0:0:0:0:
388,258,62398,2,0,L|479:243,1,70,0|0,3:0|3:0,0:0:0:0:
286,349,62640,5,4,3:0:0:0:
206,264,62761,1,4,3:0:0:0:
288,186,62881,2,0,B|312:148|312:148|315:100|281:44,1,140,4|0,1:0|0:0,0:0:0:0:
288,57,63244,1,0,1:0:0:0:
223,132,63365,5,8,1:0:0:0:
223,132,63486,1,0,0:0:0:0:
394,170,63607,2,0,P|392:137|386:96,1,70,0|0,1:0|0:0,0:0:0:0:
394,170,63849,2,0,P|396:203|402:244,2,70,2|8|0,0:2|1:0|1:0,0:0:0:0:
433,12,64212,2,0,B|465:40|483:65|483:65|479:105|469:139,1,140,2|0,0:2|0:0,0:0:0:0:
471,130,64575,1,2,0:2:0:0:
218,248,64817,6,0,P|178:228|74:247,1,140,4|0,1:0|0:0,0:0:0:0:
86,239,65180,1,0,1:0:0:0:
28,300,65301,5,8,1:0:0:0:
110,323,65422,1,0,0:0:0:0:
83,161,65543,2,0,P|48:175|19:197,1,70,0|8,1:0|1:0,0:0:0:0:
195,341,65785,2,0,P|206:294|207:266,2,70,2|0|0,0:2|0:0|1:0,0:0:0:0:
308,164,66148,2,0,P|327:230|333:312,1,140,2|0,0:2|0:0,0:0:0:0:
195,341,66511,1,2,1:2:0:0:
308,164,66752,6,0,P|295:125|334:21,1,140,4|0,1:0|0:0,0:0:0:0:
321,33,67115,1,0,1:0:0:0:
502,104,67236,6,0,B|440:100|440:100|426:111|426:111|351:106,1,140,8|0,1:0|1:0,0:0:0:0:
287,96,67599,1,0,0:0:0:0:
92,156,67720,2,0,B|198:169|198:169|224:150,1,140,8|0,1:0|1:0,0:0:0:0:
287,96,68083,1,0,1:0:0:0:
343,208,68204,2,0,P|340:253|337:296,1,70,0|0,3:0|3:0,0:0:0:0:
258,284,68446,1,4,3:0:0:0:
297,360,68567,1,4,3:0:0:0:
155,366,68688,5,0,1:0:0:0:
256,64,69051,1,0,1:0:0:0:
357,366,69414,1,0,1:0:0:0:
256,192,70623,12,0,72559,3:0:0:0:
120,256,78365,6,0,L|58:263,1,56,4|0,3:1|0:0,0:0:0:0:
220,223,78728,2,0,L|282:216,1,56,0|0,3:0|0:0,0:0:0:0:
64,262,79091,1,0,3:0:0:0:
287,197,79333,6,0,P|313:223|295:316,1,125.999996154785,2|2,0:2|0:2,0:0:0:0:
251,352,79817,2,0,P|280:337|336:340,1,83.9999974365235,0|2,0:0|0:2,0:0:0:0:
444,358,80301,6,0,L|449:292,1,56,2|0,3:2|0:0,0:0:0:0:
412,175,80664,2,0,L|407:241,1,56,0|0,3:0|0:0,0:0:0:0:
444,358,81027,1,0,3:0:0:0:
428,152,81269,6,0,P|391:139|311:173,1,125.999996154785,2|2,0:2|0:2,0:0:0:0:
313,169,81752,1,0,0:0:0:0:
290,250,81994,1,2,0:2:0:0:
226,137,82236,6,0,L|221:195,1,56,2|0,3:2|0:0,0:0:0:0:
212,315,82599,2,0,L|150:308,1,56,0|0,3:0|0:0,0:0:0:0:
51,296,82962,1,0,3:0:0:0:
66,137,83204,5,0,0:0:0:0:
66,137,83446,2,0,L|117:128,1,41.9999987182618
173,284,83688,2,0,P|207:285|271:214,1,125.999996154785,2|0,0:2|0:0,0:0:0:0:
370,273,84172,5,2,3:2:0:0:
370,273,84293,1,0,0:2:0:0:
370,273,84414,2,0,P|378:245|384:221,1,41.9999987182618,2|2,0:2|3:2,0:0:0:0:
270,225,84656,2,0,P|261:205|253:186,1,41.9999987182618,2|2,0:2|0:2,0:0:0:0:
170,268,84898,2,0,P|151:262|130:256,1,41.9999987182618,2|0,3:2|0:2,0:0:0:0:
244,348,85140,6,0,P|264:350|285:353,1,41.9999987182618,2|2,0:2|0:2,0:0:0:0:
197,243,85381,2,0,P|213:231|230:218,1,41.9999987182618,2|2,3:2|0:2,0:0:0:0:
101,214,85623,2,0,P|103:193|108:172,1,41.9999987182618,8|2,1:1|0:2,0:0:0:0:
14,232,85865,1,2,0:2:0:0:
14,232,85986,1,0,0:0:0:0:
14,232,86107,6,0,L|23:295,1,56,4|0,3:1|0:0,0:0:0:0:
156,189,86470,2,0,L|94:167,1,56,0|0,3:0|0:0,0:0:0:0:
11,124,86833,1,0,3:0:0:0:
152,346,87075,2,0,P|210:322|225:259,1,125.999996154785,2|2,0:2|0:2,0:0:0:0:
288,228,87559,2,0,P|281:190|282:134,1,83.9999974365235,0|2,0:0|0:2,0:0:0:0:
251,22,88043,6,0,L|246:88,1,56,2|0,3:2|0:0,0:0:0:0:
366,165,88406,2,0,L|371:99,1,56,0|0,3:0|0:0,0:0:0:0:
420,21,88769,1,0,3:0:0:0:
274,182,89011,6,0,P|250:189|229:193,2,41.9999987182618,2|0|0,0:2|0:0|0:0,0:0:0:0:
344,144,89373,2,0,P|373:140|434:170,1,83.9999974365235,2|0,0:2|0:0,0:0:0:0:
469,225,89736,1,2,0:2:0:0:
286,323,89978,6,0,L|348:336,1,56,2|0,3:2|0:0,0:0:0:0:
221,169,90341,2,0,L|158:157,1,56,0|0,3:0|0:0,0:0:0:0:
65,209,90704,1,0,3:0:0:0:
241,154,90946,6,0,P|245:196|218:304,1,140,0|0,1:0|1:0,0:0:0:0:
166,348,91309,1,0,1:0:0:0:
88,320,91430,5,0,1:0:0:0:
148,264,91551,1,0,1:0:0:0:
224,290,91672,2,0,P|264:306|303:308,1,70,0|0,1:0|1:0,0:0:0:0:
413,283,91914,5,0,1:0:0:0:
189,37,92277,1,0,1:0:0:0:
99,283,92881,5,0,1:0:0:0:
323,37,93244,1,0,1:0:0:0:
256,96,93365,5,0,3:0:0:0:
256,96,93486,1,0,3:0:0:0:
256,96,93607,2,0,L|256:166,1,70,4|4,3:0|3:0,0:0:0:0:
195,255,93849,5,4,1:0:0:0:
195,255,94091,1,8,0:2:0:0:
124,205,94212,2,0,P|82:204|55:212,2,70,0|8|0,0:0|1:2|0:0,0:0:0:0:
227,333,94575,2,0,P|260:309|281:274,1,70
194,149,94817,1,0,1:0:0:0:
194,149,94938,2,0,P|280:146|326:174,1,140,8|8,1:0|1:0,0:0:0:0:
376,231,95301,1,8,1:2:0:0:
349,20,95543,6,0,P|331:64|327:184,1,157.500006008148
376,231,95785,6,0,B|348:252|348:252|311:248,1,70,2|0,1:3|0:0,0:0:0:0:
120,80,96027,1,8,0:2:0:0:
120,80,96148,2,0,B|148:59|148:59|185:63,1,70,2|8,1:3|1:2,0:0:0:0:
274,133,96390,2,0,B|300:183|300:183|270:275,1,140,0|2,0:0|0:3,0:0:0:0:
207,197,96752,1,0,1:0:0:0:
323,331,96873,2,0,B|292:350|292:350|246:343,1,70,8|0,1:0|0:0,0:0:0:0:
207,197,97115,2,0,B|267:205|267:205|280:224|280:224|346:237,1,140,2|0,1:3|0:0,0:0:0:0:
118,342,97478,5,0,0:0:0:0:
394,342,97720,1,4,1:0:0:0:
394,342,97962,1,8,0:2:0:0:
445,270,98083,2,0,P|455:244|458:197,2,70,8|8|0,1:0|1:2|0:0,0:0:0:0:
327,282,98446,2,0,P|300:258|266:242,1,70
86,335,98688,1,0,1:0:0:0:
86,335,98809,2,0,P|148:316|234:319,1,140,8|8,1:0|1:0,0:0:0:0:
286,369,99172,1,8,1:2:0:0:
85,241,99414,6,0,P|162:294|264:324,1,157.500006008148
286,369,99656,6,0,B|305:338|305:338|299:300,1,70,2|0,1:3|0:0,0:0:0:0:
253,150,99898,1,8,0:2:0:0:
201,216,100019,2,0,B|249:239|249:239|340:208,1,140,2|0,1:3|0:0,0:0:0:0:
377,136,100381,1,8,0:2:0:0:
266,74,100502,2,0,B|229:71|229:71|197:90,1,70,2|0,0:3|1:0,0:0:0:0:
331,211,100744,2,0,B|341:149|341:149|332:132|332:132|345:65,1,140,8|2,1:0|1:3,0:0:0:0:
180,201,101107,5,8,1:2:0:0:
446,286,101349,1,8,1:0:0:0:
78,310,101591,5,4,1:0:0:0:
78,310,101833,2,0,P|56:262|61:230,1,70,2|8,0:2|1:0,0:0:0:0:
242,279,102075,2,0,P|247:243|238:204,1,70,8|2,1:2|0:2,0:0:0:0:
154,262,102317,1,0,0:0:0:0:
154,262,102438,1,2,0:2:0:0:
74,220,102559,5,0,1:0:0:0:
74,220,102680,2,0,B|92:140|118:189|145:88,1,140,8|8,1:0|1:0,0:0:0:0:
160,26,103043,2,0,P|118:26|85:42,2,70,10|0|2,1:2|0:0|0:2,0:0:0:0:
218,132,103406,1,0,0:0:0:0:
313,60,103527,6,0,P|347:82|362:112,1,70,2|0,1:2|0:0,0:0:0:0:
274,289,103769,2,0,P|273:254|285:221,1,70,2|8,0:2|1:0,0:0:0:0:
287,135,104011,2,0,P|252:141|219:133,1,70,8|2,1:2|0:2,0:0:0:0:
206,215,104252,1,0,0:0:0:0:
206,215,104373,1,2,0:2:0:0:
173,293,104494,5,0,1:0:0:0:
173,293,104615,2,0,P|147:322|42:322,1,140,8|8,1:0|1:0,0:0:0:0:
49,243,104978,2,0,L|39:167,2,70,10|0|2,1:2|0:0|0:2,0:0:0:0:
400,248,105462,6,0,P|409:207|406:161,1,70,4|0,1:0|0:0,0:0:0:0:
392,96,105704,1,2,0:2:0:0:
456,41,105825,1,8,1:0:0:0:
471,123,105946,1,8,1:2:0:0:
185,104,106188,6,0,P|138:118|25:124,1,140,8|0,1:0|1:0,0:0:0:0:
73,205,106551,1,8,1:0:0:0:
261,188,106672,2,0,B|277:147|273:124|273:124|264:111|264:111|265:79|281:55,2,140,0|0|4,1:0|3:0|3:0,0:0:0:0:
198,307,107277,1,4,3:0:0:0:
184,225,107398,5,0,1:0:0:0:
333,322,107519,1,0,1:0:0:0:
333,322,108123,5,0,1:0:0:0:
184,225,108244,1,0,1:0:0:0:
283,303,109333,6,0,P|321:276|431:287,1,140,4|0,1:0|0:0,0:0:0:0:
433,360,109696,1,0,1:0:0:0:
331,235,109817,2,2,B|247:198|272:249|183:213,1,140,8|2,1:1|1:1,0:1:0:0:
180,132,110180,1,0,0:1:0:0:
344,151,110301,6,0,B|360:117|367:88|367:88|365:53|341:11,1,140,2|0,0:1|1:0,0:0:0:0:
212,56,110664,1,0,0:0:0:0:
289,83,110785,1,8,1:0:0:0:
180,132,110906,2,2,P|131:126|37:123,1,140,0|2,0:1|0:1,0:1:0:0:
9,202,111269,1,0,1:0:0:0:
180,132,111511,6,0,P|189:175|197:213,1,70,0|0,0:0|1:0,0:0:0:0:
293,253,111752,2,2,P|362:254|432:262,2,140,8|0|2,1:1|1:1|0:1,0:1:0:0:
247,333,112357,1,8,1:0:0:0:
108,350,112478,1,0,1:0:0:0:
108,350,112720,2,2,B|103:293|103:293|113:277|113:277|107:207,1,140,8|2,1:1|0:1,0:1:0:0:
196,281,113083,1,0,0:0:0:0:
269,240,113204,6,0,P|299:276|306:311,1,70,6|0,1:1|0:0,0:0:0:0:
216,145,113446,2,0,P|201:186|176:209,1,70,2|2,0:2|1:2,0:0:0:0:
355,210,113688,2,0,P|396:223|432:216,1,70,8|0,1:0|3:0,0:0:0:0:
277,88,113930,2,0,P|233:63|196:64,1,70,0|8,1:0|1:0,0:0:0:0:
109,122,114172,6,0,L|100:50,2,70,0|8|2,0:0|1:0|1:2,0:0:0:0:
155,305,114535,1,2,0:2:0:0:
155,305,114656,2,0,P|151:267|166:230,1,70,8|0,1:0|3:0,0:0:0:0:
230,193,114898,1,0,1:0:0:0:
20,280,115140,5,4,1:2:0:0:
274,327,115381,2,0,P|284:293|285:243,1,70,2|2,0:2|1:2,0:0:0:0:
150,124,115623,2,0,P|147:163|155:205,1,70,8|0,1:0|0:0,0:0:0:0:
411,257,115865,2,0,P|412:224|408:182,1,70,0|0,1:0|0:0,0:0:0:0:
287,167,116107,6,0,P|272:128|301:22,1,140,4|0,3:2|1:0,0:0:0:0:
360,86,116470,1,0,1:0:0:0:
287,167,116591,2,0,P|284:211|282:242,1,70,0|0,3:0|3:0,0:0:0:0:
194,184,116833,1,4,3:0:0:0:
198,266,116954,1,4,3:0:0:0:
106,198,117075,5,4,1:0:0:0:
347,81,117317,1,0,0:0:0:0:
347,81,117438,1,0,1:0:0:0:
356,162,117559,2,0,P|322:195|226:186,1,140,8|2,1:0|1:2,0:0:0:0:
181,42,117922,2,0,P|147:51|116:74,2,70,2|0|8,0:2|0:0|1:0,0:0:0:0:
186,125,118285,5,0,1:0:0:0:
105,161,118406,1,0,0:0:0:0:
263,89,118527,1,8,1:0:0:0:
186,125,118648,1,0,0:0:0:0:
228,203,118769,2,0,L|255:272,1,70,2|2,0:2|0:2,0:0:0:0:
317,318,119011,6,0,L|346:249,2,70,2|0|0,1:3|0:0|0:0,0:0:0:0:
254,269,119373,1,0,1:0:0:0:
389,356,119494,1,8,1:0:0:0:
191,318,119736,5,2,1:2:0:0:
191,318,119857,1,2,1:2:0:0:
191,318,119978,2,0,L|162:387,2,70,2|8|0,0:3|1:0|1:0,0:0:0:0:
254,269,120340,1,0,0:0:0:0:
95,339,120462,1,8,1:0:0:0:
87,65,120704,5,2,0:2:0:0:
87,65,120825,1,2,0:2:0:0:
143,118,120946,2,0,P|183:127|238:56,1,140,4|0,1:0|0:0,0:0:0:0:
314,77,121309,1,0,1:0:0:0:
288,151,121430,2,0,P|288:194|306:227,1,70,8|0,1:0|0:0,0:0:0:0:
467,167,121672,5,2,1:2:0:0:
416,225,121793,1,2,0:2:0:0:
364,168,121914,2,0,P|327:164|225:183,1,140,0|0,1:0|1:0,0:0:0:0:
154,233,122277,2,0,P|141:196|139:152,2,70,0|0|0,1:0|3:0|3:0,0:0:0:0:
228,291,122640,1,4,3:0:0:0:
228,291,122761,1,4,3:0:0:0:
90,318,122881,6,0,L|12:338,2,70,4|0|0,1:2|0:0|3:0,0:0:0:0:
422,66,123365,2,0,L|500:46,2,70,4|0|0,1:2|0:0|3:0,0:0:0:0:
154,118,123849,2,0,B|120:183|120:183|41:204,1,140,4|0,1:2|1:0,0:0:0:0:
203,281,124212,1,0,1:0:0:0:
203,281,124333,2,0,B|239:292|239:292|254:326,1,70,4|0,3:2|3:0,0:0:0:0:
313,196,124575,2,0,B|331:164|331:164|323:122,1,70,4|4,3:0|3:0,0:0:0:0:
398,273,124817,6,0,B|415:342|415:342|477:378,1,140,4|0,1:0|0:0,0:0:0:0:
313,196,125180,1,0,1:0:0:0:
222,256,125301,2,2,B|190:283|190:283|137:290|91:260,1,140,8|2,1:1|1:1,0:1:0:0:
78,184,125664,1,0,0:1:0:0:
124,349,125785,6,0,P|139:300|155:200,1,140,2|0,0:1|1:0,0:0:0:0:
142,138,126148,1,0,0:0:0:0:
78,184,126269,1,8,1:0:0:0:
217,158,126390,2,2,B|261:149|315:172|315:172|333:217,1,140,0|2,0:1|0:1,0:1:0:0:
261,243,126752,1,0,1:0:0:0:
355,63,126994,6,0,P|315:74|283:76,1,70,0|0,0:0|1:0,0:0:0:0:
203,48,127236,2,2,P|164:43|54:47,2,140,8|0|2,1:1|1:1|0:1,0:1:0:0:
286,76,127841,1,8,1:0:0:0:
220,132,127962,5,0,1:0:0:0:
325,195,128083,1,0,0:0:0:0:
395,100,128204,2,2,P|436:153|416:217,1,140,8|2,1:1|0:1,0:1:0:0:
325,195,128567,1,0,0:1:0:0:
337,281,128688,6,0,P|290:276|263:275,1,70,6|0,1:1|0:0,0:0:0:0:
220,132,128930,2,0,P|215:175|211:210,1,70,2|2,0:2|1:2,0:0:0:0:
259,351,129172,2,0,P|212:346|185:345,1,70,8|0,1:0|0:0,0:0:0:0:
136,189,129414,2,0,P|131:232|127:267,1,70,0|0,1:0|0:0,0:0:0:0:
32,136,129656,6,0,P|29:95|123:64,1,140,0|2,0:0|1:2,0:0:0:0:
242,58,130019,1,2,0:2:0:0:
242,58,130140,2,0,L|253:138,1,70,8|0,1:0|0:0,0:0:0:0:
192,225,130381,2,0,L|273:211,1,70,0|0,1:0|0:0,0:0:0:0:
341,142,130623,5,4,1:2:0:0:
433,287,130865,2,0,P|404:270|365:268,1,70,2|2,0:2|1:2,0:0:0:0:
75,276,131107,2,0,P|104:293|143:295,1,70,8|0,1:0|0:0,0:0:0:0:
217,362,131349,2,0,P|249:327|251:222,1,140,0|4,1:0|0:2,0:0:0:0:
223,170,131712,1,8,1:0:0:0:
373,157,131833,6,0,L|295:173,1,70,0|0,1:0|1:0,0:0:0:0:
83,146,132075,2,0,L|161:130,1,70,0|0,3:0|3:0,0:0:0:0:
285,94,132317,1,4,3:0:0:0:
181,42,132438,1,4,3:0:0:0:
223,170,132559,6,0,B|236:224|207:273|207:273|165:297,1,140,4|0,1:0|0:0,0:0:0:0:
120,340,132922,1,0,1:0:0:0:
79,274,133043,1,8,1:0:0:0:
328,357,133285,1,0,1:0:0:0:
328,357,133406,2,0,P|322:312|314:203,1,140,0|8,0:0|1:0,0:0:0:0:
392,168,133769,2,0,P|435:173|460:210,1,70,0|0,1:0|0:0,0:0:0:0:
396,247,134011,1,8,1:0:0:0:
314,217,134131,2,0,B|276:209|252:220|252:220|242:231|242:231|205:245|167:231,1,140
149,44,134494,6,0,P|133:85|197:161,1,140,0|0,1:0|0:0,0:0:0:0:
258,137,134857,1,0,1:0:0:0:
265,60,134978,1,8,1:0:0:0:
419,159,135220,5,0,1:0:0:0:
419,159,135341,2,0,P|379:159|283:220,1,140,8|0,1:0|0:0,0:0:0:0:
153,173,135704,2,0,P|180:202|195:239,1,70,0|0,1:0|1:0,0:0:0:0:
307,234,135946,2,0,P|291:272|285:304,1,70,0|0,3:0|3:0,0:0:0:0:
211,301,136188,1,4,3:0:0:0:
235,375,136309,1,4,3:0:0:0:
156,362,136430,6,0,L|77:373,2,70,4|0|0,1:0|0:0|0:0,0:0:0:0:
256,231,136793,1,0,1:0:0:0:
341,277,136914,2,0,L|420:288,2,70,8|0|0,1:0|0:0|1:0,0:0:0:0:
257,137,137277,1,0,0:0:0:0:
176,101,137398,6,0,P|172:147|169:182,1,70,8|0,1:0|0:0,0:0:0:0:
91,152,137640,2,0,P|87:198|84:233,1,70,0|0,1:0|1:0,0:0:0:0:
337,235,137881,2,0,P|341:281|344:316,1,70,0|0,3:0|3:0,0:0:0:0:
422,286,138123,2,0,P|426:332|429:367,1,70,4|4,3:0|3:0,0:0:0:0:
198,310,138365,6,0,B|141:317|141:317|129:334|129:334|66:342,1,140,4|0,1:0|0:1,0:0:0:0:
19,251,138728,2,0,L|95:258,1,70,0|0,0:1|1:0,0:0:0:0:
88,257,138970,2,0,B|126:194|126:194|102:118,1,140,0|0,0:1|0:1,0:0:0:0:
165,40,139333,2,0,L|191:126,1,70,0|0,1:0|0:0,0:0:0:0:
260,154,139575,5,0,0:0:0:0:
331,73,139696,2,0,L|356:43,2,35,8|0|0,0:2|0:0|1:0,0:0:0:0:
260,154,139938,1,0,0:0:0:0:
296,251,140059,2,0,L|307:289,2,35,8|0|0,0:2|0:0|0:0,0:0:0:0:
373,187,140301,6,0,B|285:161|285:161|241:183,1,140,0|0,1:0|0:1,0:0:0:0:
99,146,140664,2,0,L|176:139,1,70,0|0,0:1|1:0,0:0:0:0:
168,139,140906,2,0,B|208:177|208:177|193:269,1,140,0|0,0:1|0:0,0:0:0:0:
143,333,141269,1,0,1:0:0:0:
259,88,141511,5,0,0:0:0:0:
331,164,141631,2,0,B|374:154|374:154|384:140|384:140|437:130,1,105.000004005432,8|0,1:0|1:0,0:0:0:0:
259,88,141873,1,0,0:0:0:0:
204,217,141994,2,0,B|161:207|161:207|151:193|151:193|98:183,1,105.000004005432,8|0,1:0|0:0,0:0:0:0:
238,374,142236,6,0,P|301:371|328:236,1,210.000008010865,4|0,1:0|0:0,0:0:0:0:
379,40,142599,2,0,L|296:28,1,70,0|0,0:0|1:0,0:0:0:0:
309,29,142841,2,0,B|274:93|274:93|298:162,1,140
242,247,143204,2,0,L|216:167,1,70,0|0,1:1|0:0,0:0:0:0:
144,135,143446,5,0,0:0:0:0:
62,182,143567,2,0,L|27:204,2,35,8|0|0,0:2|0:0|1:0,0:0:0:0:
144,135,143809,1,8,0:1:0:0:
107,263,143930,2,0,L|96:307,2,35,8|0|0,0:2|0:0|0:0,0:0:0:0:
144,135,144172,5,0,1:0:0:0:
449,189,144414,2,0,B|404:162|404:162|355:182,1,105.000004005432,2|0,1:1|0:0,0:0:0:0:
278,223,144656,1,0,1:1:0:0:
58,283,144898,6,0,B|133:276|133:276|143:282|143:282|220:275,1,157.500006008148,0|0,1:0|0:0,0:0:0:0:
278,223,145140,2,0,B|296:268|296:268|283:326,2,93.3333333333333,8|8|8,1:0|1:0|1:0,0:0:0:0:
233,77,145623,6,0,L|235:42,8,35,2|0|2|0|2|0|2|0|4,3:2|3:0|3:2|3:0|3:2|3:0|3:2|3:0|1:0,0:0:0:0:
256,192,146167,12,0,149010,1:0:0:0:
45,283,157719,6,0,P|90:280|137:325,1,105,4|0,1:0|0:0,0:0:0:0:
133,316,157961,2,0,P|159:278|164:252,1,70,0|0,3:0|0:0,0:0:0:0:
189,178,158203,1,0,1:0:0:0:
189,178,158324,1,0,3:0:0:0:
189,178,158445,6,0,P|229:197|247:260,1,105,8|0,1:0|0:0,0:0:0:0:
248,250,158687,2,0,P|289:230|306:210,1,70,0|0,3:0|0:0,0:0:0:0:
360,139,158929,1,0,1:0:0:0:
360,139,159050,1,0,3:0:0:0:
360,139,159171,6,0,P|385:176|372:272,1,140,0|2,1:0|0:2,0:0:0:0:
307,311,159534,1,0,3:0:0:0:
375,267,159655,6,0,L|454:263,1,70,2|0,1:2|3:0,0:0:0:0:
256,203,159897,2,0,L|181:198,1,70,8|0,1:0|0:0,0:0:0:0:
357,132,160139,2,0,P|392:123|462:43,1,140,2|2,0:0|1:2,0:0:0:0:
395,231,160623,6,2,P|348:219|286:215,1,105,0|0,1:1|0:1,0:1:0:0:
291,214,160865,2,0,P|254:216|216:223,1,70,0|0,3:1|0:0,0:0:0:0:
72,314,161106,1,0,1:0:0:0:
72,314,161227,1,0,3:0:0:0:
72,314,161348,6,2,P|105:279|140:227,1,105,8|0,1:1|0:1,0:1:0:0:
138,232,161590,2,0,P|154:198|167:162,1,70,0|0,3:1|0:0,0:0:0:0:
203,41,161832,1,0,1:0:0:0:
203,41,161953,1,0,3:0:0:0:
203,41,162074,6,2,P|216:86|267:176,1,140,0|2,1:1|1:2,0:1:0:0:
319,111,162437,1,0,3:0:0:0:
176,185,162558,2,0,B|131:199|75:190|75:190|44:152,2,140,2|8|2,1:2|1:0|3:2,0:0:0:0:
237,133,163163,1,0,3:0:0:0:
313,279,163284,5,0,1:0:0:0:
229,258,163405,1,0,3:0:0:0:
326,197,163526,2,0,B|365:187|390:202|390:202|400:212|400:212|429:225|466:217,1,140,4|0,1:0|3:0,0:0:0:0:
458,218,163889,1,0,3:0:0:0:
458,218,164010,1,0,1:0:0:0:
359,35,164252,6,0,L|380:117,1,70,10|0,1:1|0:0,0:0:0:0:
326,197,164494,2,0,L|340:287,1,70,0|0,3:0|3:0,0:0:0:0:
280,341,164736,1,0,1:1:0:0:
38,210,164977,6,0,B|83:238|83:238|175:223,1,140,2|0,1:2|3:0,0:0:0:0:
169,225,165340,1,0,3:0:0:0:
169,225,165461,1,0,1:0:0:0:
233,36,165703,6,0,L|212:118,1,70,10|0,1:1|0:0,0:0:0:0:
266,198,165945,2,0,L|252:288,1,70,0|0,3:0|3:0,0:0:0:0:
312,342,166187,1,0,1:1:0:0:
312,342,166429,6,0,P|278:348|246:369,1,70,2|0,1:2|3:0,0:0:0:0:
181,233,166671,6,0,P|220:240|257:270,1,83.9999974365235,0|0,3:0|3:0,0:0:0:0:
376,151,166913,6,0,P|334:149|290:190,1,97.9999970092774,0|0,1:0|0:0,0:0:0:0:
222,99,167155,6,2,P|245:161|270:327,1,224,8|0,1:1|1:1,0:1:0:0:
357,293,167518,2,0,P|351:356|350:382,2,70,0|0|0,3:0|1:0|0:0,0:0:0:0:
189,316,167881,6,2,B|98:305|141:346|38:332,1,140,8|0,1:1|1:1,0:1:0:0:
34,259,168244,1,0,3:0:0:0:
34,259,168365,2,0,P|32:223|48:191,1,70,0|0,1:0|0:0,0:0:0:0:
162,85,168606,5,0,1:0:0:0:
162,85,168727,1,0,1:0:0:0:
162,85,168848,1,0,1:0:0:0:
162,85,168969,1,0,1:0:0:0:
162,85,169090,1,0,1:0:0:0:
162,85,169211,1,0,1:0:0:0:
162,85,169332,6,0,P|208:98|264:125,1,105,4|0,1:0|0:0,0:0:0:0:
266,117,169574,2,0,P|297:137|326:162,1,70,0|0,3:0|0:0,0:0:0:0:
381,209,169815,1,0,1:0:0:0:
396,133,169936,1,0,3:0:0:0:
323,158,170058,6,2,P|276:171|220:198,1,105,8|0,1:1|0:1,0:1:0:0:
219,190,170300,2,0,P|187:210|158:235,1,70,0|0,3:1|0:0,0:0:0:0:
104,282,170542,1,0,1:0:0:0:
89,206,170663,1,0,3:0:0:0:
163,231,170784,6,2,P|209:244|298:291,1,140,0|0,1:1|0:1,0:1:0:0:
423,331,171146,1,0,3:0:0:0:
340,354,171268,2,0,B|319:320|319:320|314:273|340:196,2,140,2|10|2,1:2|1:0|0:2,0:0:0:0:
408,222,171873,1,0,3:2:0:0:
278,144,171994,1,2,3:2:0:0:
278,144,172236,6,2,P|249:181|179:204,1,105,0|0,1:1|0:1,0:1:0:0:
184,204,172478,2,0,P|195:246|189:277,1,70,0|0,3:1|0:0,0:0:0:0:
145,333,172720,1,0,1:0:0:0:
67,331,172841,1,0,3:0:0:0:
191,271,172962,6,0,P|237:276|293:326,1,105,8|0,1:0|0:0,0:0:0:0:
290,321,173203,2,0,P|320:289|350:279,1,70,0|0,3:0|0:1,0:0:0:0:
421,291,173446,1,2,1:1:0:0:
458,359,173567,1,0,3:0:0:0:
344,280,173688,6,2,P|331:239|353:141,1,140,0|0,1:1|0:1,0:1:0:0:
439,148,174051,1,0,3:0:0:0:
318,66,174171,2,0,B|280:80|266:111|266:111|234:93|197:106,2,140,0|8|4,1:0|1:0|3:0,0:0:0:0:
223,178,174776,1,0,3:0:0:0:
129,87,174897,1,4,3:0:0:0:
149,163,175018,1,0,3:0:0:0:
71,142,175139,6,0,P|63:239|60:304,1,140,4|2,1:0|0:2,0:0:0:0:
107,351,175502,1,0,3:0:0:0:
170,298,175623,1,2,1:2:0:0:
228,152,175865,6,2,P|272:161|276:260,1,140,8|0,1:1|0:1,0:1:0:0:
251,318,176227,1,8,1:1:0:0:
170,298,176348,1,0,1:0:0:0:
414,148,176590,6,0,P|380:113|314:121,1,105,0|0,1:0|0:0,0:0:0:0:
292,133,176832,2,0,P|255:152|224:151,1,70,2|8,3:2|1:0,0:0:0:0:
157,102,177074,1,2,1:2:0:0:
377,30,177316,6,2,P|420:74|407:159,1,140,8|8,1:1|1:1,0:1:0:0:
235,68,177800,1,0,1:0:0:0:
377,30,178042,5,2,1:1:0:0:
390,37,178162,1,0,1:0:0:0:
402,47,178283,2,0,P|421:81|424:106,1,52.5000020027161,0|0,1:0|1:0,0:0:0:0:
320,209,178525,5,0,1:0:0:0:
311,178,178646,1,0,1:0:0:0:
316,147,178767,2,0,P|324:118|345:90,1,52.5000020027161,0|0,1:0|1:0,0:0:0:0:
389,252,179009,5,2,1:1:0:0:
354,283,179130,1,0,1:0:0:0:
307,290,179251,2,0,P|267:287|251:274,1,52.5000020027161,0|0,1:0|1:0,0:0:0:0:
187,72,179493,5,0,1:0:0:0:
124,60,179614,1,0,1:0:0:0:
68,90,179735,2,0,P|45:123|39:151,1,52.5000020027161,0|0,1:0|1:0,0:0:0:0:
41,364,179977,6,0,P|77:341|131:207,1,175,4|0,1:2|0:0,0:0:0:0:
137,142,180340,1,4,1:2:0:0:
471,364,180824,6,0,P|435:341|381:207,1,175,4|0,1:2|0:0,0:0:0:0:
375,142,181187,1,4,1:2:0:0:
375,142,181429,6,0,B|371:155|371:155|371:168|371:168|367:180|367:180|366:192|366:192|362:203|362:203|362:216|362:216|359:225|359:225|360:235|360:235|357:246|357:246|357:256|357:256|353:268|353:268|354:282|354:282|349:303,1,157.500006008148,0|0,1:0|0:0,0:0:0:0:
339,371,181912,1,4,1:0:0:0:
33,252,182154,1,8,1:0:0:0:
33,252,182275,1,8,1:0:0:0:
33,252,182396,2,0,L|28:270,44,13.125000500679,2|0|2|0|2|0|2|0|2|0|0|0|2|0|0|0|2|0|0|0|2|0|0|0|2|0|0|0|2|0|0|0|4|0|0|0|4|0|0|0|4|0|0|0|4,1:2|0:2|0:2|0:2|1:2|0:2|0:2|0:2|1:2|0:2|0:2|0:2|1:2|0:2|0:2|0:0|3:2|0:0|0:0|0:0|3:2|0:0|0:0|0:0|3:2|0:0|0:0|0:0|3:2|0:0|0:0|0:0|3:0|0:0|0:0|0:0|3:0|0:0|0:0|0:0|3:0|0:0|0:0|0:0|3:0,0:0:0:0:
42,233,183848,6,0,P|82:207|171:275,1,171.499994766236,4|0,1:0|0:0,0:0:0:0:
238,342,184816,2,0,P|243:294|253:246,1,97.9999970092774,2|0,0:2|3:0,0:0:0:0:
253,246,185783,6,0,P|214:236|178:202,1,70,4|0,1:0|0:0,0:0:0:0:
112,181,186025,1,8,0:2:0:0:
112,181,186146,1,8,1:0:0:0:
115,267,186267,2,0,P|110:317|23:369,1,140,8|8,0:2|1:0,0:0:0:0:
241,103,186751,6,0,P|241:148|253:179,1,70,8|0,1:2|0:0,0:0:0:0:
333,199,186993,1,0,1:0:0:0:
333,199,187114,1,0,1:0:0:0:
267,252,187235,2,0,P|260:296|263:327,1,70,0|0,3:0|3:0,0:0:0:0:
115,267,187477,2,0,P|159:260|190:263,1,70,4|4,3:0|3:0,0:0:0:0:
343,296,187719,5,0,1:0:0:0:
502,199,187961,2,0,P|501:244|502:275,1,70,8|0,0:2|1:0,0:0:0:0:
413,363,188203,2,0,P|417:321|425:207,1,140,8|8,1:2|1:0,0:0:0:0:
429,143,188566,1,0,0:0:0:0:
336,237,188687,2,0,P|344:196|350:156,1,70,8|8,1:2|1:0,0:0:0:0:
339,88,188929,1,0,1:0:0:0:
266,184,189050,2,0,P|264:141|261:90,1,70,8|0,1:2|3:0,0:0:0:0:
238,39,189292,1,0,3:0:0:0:
182,143,189412,2,0,P|176:108|168:68,1,70,8|4,3:2|3:0,0:0:0:0:
95,37,189654,6,0,P|51:57|59:160,1,140,4|8,1:0|0:2,0:0:0:0:
114,181,190017,1,8,1:0:0:0:
28,297,190138,6,0,P|68:289|186:277,1,140,8|10,0:2|1:2,0:0:0:0:
230,233,190501,1,2,0:2:0:0:
230,233,190622,2,0,P|190:241|72:253,1,140,8|0,1:2|0:0,0:0:0:0:
166,277,190985,2,0,P|216:278|318:292,1,140,8|0,1:0|0:0,0:0:0:0:
383,322,191348,1,10,1:2:0:0:
318,367,191469,1,2,0:2:0:0:
383,322,191590,6,0,B|402:290|396:261|396:261|389:250|389:250|382:219|406:183,1,140,2|8,1:3|0:2,0:0:0:0:
378,116,191953,2,0,P|416:113|451:124,2,70,8|8|0,1:0|0:2|0:0,0:0:0:0:
401,189,192316,1,10,1:2:0:0:
468,228,192437,1,2,0:0:0:0:
356,253,192558,6,0,B|318:254|296:235|296:235|289:224|289:224|265:203|222:208,1,140,2|8,1:3|0:2,0:0:0:0:
158,167,192921,2,0,P|150:205|153:240,2,70,8|8|0,1:0|0:2|0:0,0:0:0:0:
230,207,193283,1,10,1:2:0:0:
183,307,193404,1,2,0:2:0:0:
83,250,193525,5,4,1:0:0:0:
83,250,193767,2,0,L|173:231,1,70,8|8,0:2|1:0,0:0:0:0:
299,236,194009,1,8,1:2:0:0:
299,236,194251,2,0,L|323:319,1,70,8|0,1:0|0:0,0:0:0:0:
220,161,194493,6,0,L|145:178,2,70,8|0|0,1:2|0:0|1:0,0:0:0:0:
282,104,194856,1,8,1:2:0:0:
409,141,194977,2,0,P|406:192|324:226,1,140,0|4,3:0|3:0,0:0:0:0:
282,104,195340,1,4,3:0:0:0:
307,243,195461,6,0,B|366:251|366:251|380:272|380:272|440:283,1,140,4|0,1:2|3:0,0:0:0:0:
312,328,195824,1,0,0:0:0:0:
152,365,195945,6,0,P|118:352|106:250,1,140,4|0,1:2|3:0,0:0:0:0:
319,254,196429,2,0,L|396:269,1,70,4|0,1:2|0:0,0:0:0:0:
244,215,196671,1,0,1:0:0:0:
155,214,196791,2,0,L|85:227,1,70,0|4,1:0|3:2,0:0:0:0:
299,147,197033,2,0,L|369:134,1,70,0|4,3:0|3:0,0:0:0:0:
229,299,197275,1,4,3:0:0:0:
69,245,197396,6,0,P|66:199|33:68,1,167.999994873047,4|8,1:0|0:2,0:0:0:0:
103,37,197759,1,0,1:0:0:0:
182,74,197880,2,0,P|167:119|136:152,1,83.9999974365235,8|0,1:0|0:0,0:0:0:0:
178,223,198122,1,0,1:1:0:0:
322,131,198243,6,2,L|367:116,2,41.9999987182618,0|0|10,0:1|0:1|0:1,0:1:0:0:
256,184,198485,1,8,1:0:0:0:
336,221,198606,1,0,1:0:0:0:
336,221,198727,1,8,0:2:0:0:
275,278,198848,2,0,P|234:294|190:295,2,83.9999974365235,8|0|8,1:0|0:1|0:2,0:0:0:0:
357,298,199211,1,0,0:1:0:0:
414,360,199332,6,0,P|468:335|476:223,1,167.999994873047,2|8,1:0|0:2,0:0:0:0:
413,188,199695,1,0,1:0:0:0:
419,23,199816,2,0,P|459:52|474:96,1,83.9999974365235,8|0,1:0|0:0,0:0:0:0:
333,218,200058,2,2,P|330:170|349:128,1,83.9999974365235,0|2,1:1|0:1,0:1:0:0:
313,52,200300,6,0,P|270:92|148:117,1,167.999994873047,10|0,0:1|1:0,0:0:0:0:
89,90,200662,1,8,0:2:0:0:
55,239,200783,2,0,P|89:206|106:154,1,83.9999974365235,8|0,1:1|0:0,0:0:0:0:
31,146,201025,1,10,0:1:0:0:
31,146,201146,1,0,0:0:0:0:
151,246,201267,6,0,P|207:247|287:159,1,167.999994873047,6|10,1:0|0:2,0:0:0:0:
310,100,201630,1,2,1:2:0:0:
356,194,201751,2,0,P|365:217|382:238,2,41.9999987182618,8|0|0,1:0|0:0|0:0,0:0:0:0:
310,100,201993,1,0,1:0:0:0:
414,130,202114,1,0,0:0:0:0:
367,35,202235,6,0,P|318:17|282:19,1,83.9999974365235,8|8,0:2|1:0,0:0:0:0:
145,163,202477,2,0,P|193:160|227:137,1,83.9999974365235,2|10,1:2|0:2,0:0:0:0:
255,223,202719,2,0,P|245:273|250:318,1,83.9999974365235,8|0,1:0|0:2,0:0:0:0:
312,157,202961,1,10,0:2:0:0:
312,157,203082,1,2,0:2:0:0:
279,73,203203,5,4,1:2:0:0:
21,118,203445,2,0,P|65:92|105:91,1,83.9999974365235,8|0,0:2|1:0,0:0:0:0:
312,157,203687,2,0,P|266:195|142:203,1,167.999994873047,8|0,1:0|1:0,0:0:0:0:
87,170,204050,1,0,0:0:0:0:
231,240,204171,6,0,P|247:286|240:328,1,83.9999974365235,4|0,1:2|1:0,0:0:0:0:
324,338,204412,1,0,1:0:0:0:
346,257,204533,1,0,1:0:0:0:
490,285,204654,2,0,P|450:306|398:304,1,83.9999974365235,0|0,3:0|3:0,0:0:0:0:
346,257,204896,2,0,P|349:206|365:176,1,83.9999974365235,4|4,3:0|3:0,0:0:0:0:
441,134,205138,5,4,1:0:0:0:
196,370,205380,2,0,P|195:328|173:287,1,83.9999974365235,10|2,0:2|1:2,0:0:0:0:
104,130,205622,1,8,1:0:0:0:
104,130,205743,1,0,0:0:0:0:
119,215,205864,2,0,P|104:259|70:286,1,83.9999974365235,2|2,1:2|0:2,0:0:0:0:
30,210,206106,5,8,0:2:0:0:
182,162,206227,2,0,L|200:73,1,83.9999974365235,8|0,1:0|1:0,0:0:0:0:
206,286,206469,2,0,L|188:375,2,83.9999974365235,8|8|0,0:2|1:0|0:2,0:0:0:0:
206,286,206832,1,8,0:2:0:0:
467,223,207074,6,0,B|362:220|414:270|293:259,1,167.999994873047,0|10,1:0|0:2,0:0:0:0:
257,199,207437,1,2,1:2:0:0:
317,146,207558,5,8,1:0:0:0:
307,260,207679,1,0,0:0:0:0:
187,241,207800,2,0,P|166:216|161:157,1,83.9999974365235,2|2,1:2|0:2,0:0:0:0:
225,31,208041,6,0,P|202:71|159:92,1,83.9999974365235,8|8,0:2|1:0,0:0:0:0:
94,117,208283,1,0,1:0:0:0:
81,194,208404,2,0,B|81:250|67:223|66:275,2,83.9999974365235,8|0|0,0:2|3:0|3:0,0:0:0:0:
94,117,208767,1,0,3:2:0:0:
370,359,209009,6,0,P|340:327|321:188,1,167.999994873047,4|8,1:0|0:2,0:0:0:0:
384,176,209372,1,8,1:0:0:0:
484,253,209493,6,0,P|429:249|392:269,1,83.9999974365235,0|0,1:0|0:0,0:0:0:0:
248,86,209735,2,0,P|281:118|325:124,1,83.9999974365235,8|0,1:0|0:0,0:0:0:0:
315,208,209977,2,0,P|261:249|151:225,1,167.999994873047,8|0,1:0|1:0,0:0:0:0:
166,236,210340,1,0,1:0:0:0:
95,262,210461,2,0,P|76:302|75:343,2,83.9999974365235,0|0|4,3:0|3:0|3:0,0:0:0:0:
130,156,210824,1,4,3:0:0:0:
46,81,210945,5,0,1:0:0:0:
256,320,211308,1,0,1:0:0:0:
466,81,211671,1,0,1:0:0:0:
256,192,212880,12,0,216267,3:2:0:0:
81,92,220622,6,0,B|175:84|122:53|227:52,1,140,0|0,1:0|0:0,0:0:0:0:
276,102,220985,1,8,1:2:0:0:
190,205,221106,1,8,1:0:0:0:
190,205,221348,2,0,P|196:165|198:125,1,70,8|0,0:2|0:0,0:0:0:0:
396,97,221590,5,0,1:0:0:0:
321,32,221711,2,0,P|315:86|310:182,1,140,8|8,1:0|1:2,0:0:0:0:
369,239,222074,2,0,P|422:239|451:151,2,140,8|8|0,1:0|0:2|1:0,0:0:0:0:
282,327,222679,6,0,P|225:331|129:343,1,140,0|8,0:0|1:2,0:0:0:0:
74,295,223041,1,8,1:0:0:0:
366,139,223283,2,0,L|378:52,1,70,10|0,1:2|1:0,0:0:0:0:
370,232,223525,1,8,1:0:0:0:
175,117,223767,2,0,L|166:30,1,70,2|8,1:2|1:2,0:0:0:0:
152,211,224009,1,2,3:2:0:0:
152,211,224130,2,0,B|89:245|89:245|13:226,1,140,2|4,3:2|3:0,0:0:0:0:
218,267,224493,6,0,B|277:275|277:275|290:289|290:289|361:299,1,140,0|0,1:0|0:0,0:0:0:0:
427,282,224856,1,8,1:2:0:0:
333,161,224977,1,8,1:0:0:0:
333,161,225219,2,0,P|336:200|364:227,1,70,8|0,0:2|1:0,0:0:0:0:
489,192,225461,6,0,B|430:200|430:200|417:214|417:214|346:224,1,140,0|0,1:0|1:0,0:0:0:0:
250,186,225824,1,8,1:2:0:0:
188,274,225945,2,0,P|228:269|272:266,1,70,0|0,3:0|3:0,0:0:0:0:
474,122,226187,2,0,P|434:127|390:130,1,70,4|4,3:0|3:0,0:0:0:0:
329,336,226429,6,0,P|333:288|344:192,1,140,0|0,1:0|3:0,0:0:0:0:
336,56,226791,2,0,P|332:104|321:200,1,140,0|0,1:0|3:0,0:0:0:0:
329,336,227154,1,0,1:0:0:0:
336,56,227396,1,0,1:0:0:0:
229,186,227638,1,0,1:0:0:0:
229,186,227759,1,0,1:0:0:0:
229,186,227880,2,0,P|189:183|151:178,1,70,0|0,3:0|3:0,0:0:0:0:
85,252,228122,1,4,3:0:0:0:
85,252,228364,6,2,P|62:192|149:77,1,210.000008010865,4|0,1:1|3:1,0:1:0:0:
372,162,228727,2,2,P|395:222|308:337,1,210.000008010865,0|0,1:1|3:1,0:1:0:0:
187,216,229090,1,2,1:0:0:0:
187,216,229332,2,2,B|309:222|253:275|393:281,1,210.000008010865,4|0,1:1|0:1,0:1:0:0:
