osu file format v14

[General]
AudioFilename: audio.mp3
AudioLeadIn: 0
PreviewTime: 947
Countdown: 0
SampleSet: Soft
StackLeniency: 0.6
Mode: 0
LetterboxInBreaks: 0
WidescreenStoryboard: 1

[Editor]
Bookmarks: 2882,16430,24172,39656,70623,78365,93849,109333,138365,146107,157720
DistanceSpacing: 1.1
BeatDivisor: 8
GridSize: 4
TimelineZoom: 2.999999

[Metadata]
Title:LADYBUG
TitleUnicode:LADYBUG
Artist:Ryokuoushoku Shakai
ArtistUnicode:緑黄色社会
Creator:RLC
Version:Harder
Source:
Tags:japanese pop jpop j-pop ryokushaka リョクシャカ rock jrock j-rock 結証 yui shou yui-shou kesshou keshou track 2 #2 2021 長屋晴子 小林壱誓 peppe 穴見真吾 Haruko Nagaya Issey Issei Kobayashi Shingo Anami green yellow green-yellow society
BeatmapID:2972055
BeatmapSetID:1441587

[Difficulty]
HPDrainRate:4
CircleSize:3.6
OverallDifficulty:7
ApproachRate:8
SliderMultiplier:2.4
SliderTickRate:1

[Events]
//Background and Video events
0,0,"220437.jpg",0,0
//Break Periods
2,72759,77615
2,149210,156969
2,216467,219872
//Storyboard Layer 0 (Background)
//Storyboard Layer 1 (Fail)
//Storyboard Layer 2 (Pass)
//Storyboard Layer 3 (Foreground)
//Storyboard Layer 4 (Overlay)
//Storyboard Sound Samples

[TimingPoints]
2882,483.870967741935,4,2,1,60,1,0
2882,-133.333333333333,4,2,1,60,0,0
10623,-100,4,2,1,60,0,0
16430,-133.333333333333,4,2,1,60,0,0
20301,-100,4,2,1,60,0,0
24172,-133.333333333333,4,2,1,50,0,0
25140,-133.333333333333,4,2,1,35,0,0
26107,-133.333333333333,4,2,1,50,0,0
27075,-133.333333333333,4,2,1,35,0,0
28043,-133.333333333333,4,2,1,50,0,0
29011,-133.333333333333,4,2,1,35,0,0
29978,-133.333333333333,4,2,1,50,0,0
32881,-133.333333333333,4,2,1,35,0,0
33849,-133.333333333333,4,2,1,50,0,0
34817,-133.333333333333,4,2,1,35,0,0
35785,-133.333333333333,4,2,1,50,0,0
37720,-100,4,2,1,50,0,0
39656,-100,4,2,1,70,0,1
68688,-100,4,2,1,60,0,0
78365,-133.333333333333,4,2,1,50,0,0
91914,-100,4,2,1,50,0,0
93849,-100,4,3,1,60,0,0
101591,-133.333333333333,4,3,1,60,0,0
105462,-100,4,3,1,60,0,0
109333,-100,4,2,1,70,0,1
138365,-100,4,3,1,60,0,0
145623,-100,4,3,1,40,0,0
145985,-100,4,3,1,60,0,0
146107,483.870967741935,3,2,1,60,1,0
178042,483.870967741935,4,2,1,60,1,0
181913,483.870967741935,4,2,1,60,1,0
182396,-100,4,2,1,40,0,0
183848,-100,4,2,1,60,0,0
184816,-200,4,2,1,60,0,0
185783,-100,4,2,1,60,0,0
197396,-83.3333333333333,4,2,1,70,0,1
210945,-83.3333333333333,4,2,1,60,0,0
211912,-100,4,2,1,60,0,0

[Colours]
Combo1 : 17,254,176
Combo2 : 173,255,95
Combo3 : 255,88,100
Combo4 : 255,94,55

[HitObjects]
128,191,2882,6,0,P|76:126|94:16,1,180.000006866455,4|2,1:0|0:2,0:0:0:0:
210,236,3849,2,0,P|197:285|189:354,1,90.0000034332277,2|0,0:2|0:0,0:0:0:0:
192,324,4212,2,0,P|148:298|96:283,2,90.0000034332277,0|0|0,0:2|0:2|0:2,0:0:0:0:
285,366,4817,6,0,P|314:311|306:177,1,180.000006866455,6|0,1:2|0:0,0:0:0:0:
231,152,5543,1,0,3:0:0:0:
279,67,5785,1,2,3:2:0:0:
359,113,6027,1,4,3:0:0:0:
314,196,6269,1,4,3:0:0:0:
56,123,6752,5,6,1:2:0:0:
147,181,6994,1,0,0:0:0:0:
54,238,7236,1,0,0:0:0:0:
147,181,7478,1,0,0:0:0:0:
208,347,7720,5,6,1:2:0:0:
111,304,7962,1,0,0:0:0:0:
193,259,8204,1,2,0:2:0:0:
278,218,8446,1,0,0:0:0:0:
202,143,8688,5,6,1:2:0:0:
202,143,8930,1,0,1:0:0:0:
310,143,9172,1,0,1:0:0:0:
310,143,9414,1,2,1:2:0:0:
178,50,9656,1,2,1:2:0:0:
178,50,9898,1,0,1:0:0:0:
334,50,10140,1,0,1:0:0:0:
334,50,10261,1,0,1:0:0:0:
334,50,10381,1,0,1:0:0:0:
334,50,10502,1,0,1:0:0:0:
334,50,10623,6,0,P|360:99|337:168,1,120,4|0,1:0|0:0,0:0:0:0:
327,175,10986,1,0,1:0:0:0:
309,191,11107,2,0,B|393:184|393:184|434:221,1,120,8|0,1:0|1:0,0:0:0:0:
420,232,11470,1,0,3:0:0:0:
416,255,11591,2,0,L|427:315,2,60,0|8|0,3:0|1:0|1:0,0:0:0:0:
231,232,12075,1,8,1:0:0:0:
106,346,12317,2,0,L|176:340,1,60,0|0,3:2|0:0,0:0:0:0:
242,370,12559,6,0,P|277:318|253:244,1,120,0|0,1:0|0:0,0:0:0:0:
251,247,12922,1,0,1:0:0:0:
231,232,13043,2,0,B|180:231|180:231|163:238|163:238|110:237,1,120,8|0,1:0|1:0,0:0:0:0:
90,247,13406,1,8,1:0:0:0:
69,258,13527,2,0,L|82:192,1,60,0|0,3:0|0:0,0:0:0:0:
86,60,13769,1,0,1:0:0:0:
120,69,13890,1,0,1:0:0:0:
152,53,14011,1,0,1:0:0:0:
185,64,14131,1,0,1:0:0:0:
216,47,14252,2,0,L|226:115,1,60,0|0,3:0|3:0,0:0:0:0:
154,150,14494,5,4,1:0:0:0:
347,260,14736,1,0,1:0:0:0:
347,260,14857,1,0,1:0:0:0:
347,260,14978,2,0,B|378:244|378:244|389:216,1,60,0|0,3:0|3:0,0:0:0:0:
341,36,15220,2,0,B|309:51|309:51|298:79,1,60,0|0,3:0|3:0,0:0:0:0:
339,151,15462,2,0,B|400:168|400:168|419:212|419:212|490:236,1,180,0|0,3:0|0:0,0:0:0:0:
158,316,16430,5,4,3:1:0:0:
258,293,16672,1,0,0:0:0:0:
269,307,16793,2,0,L|269:353,2,45.0000017166138,8|0|0,0:2|3:0|0:0,0:0:0:0:
281,214,17156,1,8,0:2:0:0:
162,199,17398,5,0,3:0:0:0:
44,191,17640,1,0,0:0:0:0:
33,205,17761,2,0,L|33:251,2,45.0000017166138,8|0|0,0:2|3:0|0:0,0:0:0:0:
21,112,18124,1,8,0:2:0:0:
262,34,18365,5,0,3:0:0:0:
262,34,18486,2,0,B|274:78|274:78|251:125,1,90.0000034332277,0|8,0:0|0:2,0:0:0:0:
228,148,18849,2,0,L|292:137,1,45.0000017166138,2|0,3:2|0:0,0:0:0:0:
278,262,19091,2,0,L|342:251,1,45.0000017166138,10|0,0:2|0:0,0:0:0:0:
325,153,19333,2,0,L|389:142,1,45.0000017166138,2|0,3:2|0:0,0:0:0:0:
414,228,19575,2,0,L|478:217,1,45.0000017166138,2|8,0:2|0:2,0:0:0:0:
406,104,19817,2,0,L|470:93,2,45.0000017166138,2|2|8,3:2|0:2|0:2,0:0:0:0:
169,208,20301,5,4,3:1:0:0:
56,251,20543,1,0,0:0:0:0:
31,196,20664,1,8,1:2:0:0:
65,146,20785,1,8,1:0:0:0:
169,208,21027,2,0,L|239:199,1,60,8|0,1:2|1:0,0:0:0:0:
307,162,21269,2,0,P|343:218|321:276,1,120,0|0,3:0|1:0,0:0:0:0:
317,286,21631,1,0,1:0:0:0:
299,302,21752,2,0,L|309:379,2,60,0|0|0,1:0|1:0|3:0,0:0:0:0:
322,59,22236,5,4,1:0:0:0:
449,124,22478,1,0,3:0:0:0:
449,124,22599,1,0,1:0:0:0:
359,155,22841,1,0,3:0:0:0:
359,155,22962,1,0,1:0:0:0:
415,34,23204,1,0,1:0:0:0:
236,122,23446,5,0,3:0:0:0:
236,122,23567,1,0,3:0:0:0:
236,122,23688,1,4,3:0:0:0:
149,115,23930,1,4,3:0:0:0:
66,108,24172,6,0,P|62:168|62:249,2,135.000005149841,4|0|0,3:1|3:0|3:0,0:0:0:0:
174,107,25140,5,0,1:0:0:0:
276,242,25381,1,0,0:0:0:0:
276,242,25502,2,0,P|310:213|310:158,1,90.0000034332277,0|0,1:0|0:0,0:0:0:0:
263,111,25865,1,0,1:0:0:0:
199,280,26107,6,0,P|265:290|332:301,2,135.000005149841,2|0|0,3:2|3:0|3:0,0:0:0:0:
263,111,27075,2,0,P|255:78|250:61,2,45.0000017166138,0|0|0,1:0|1:0|1:0,0:0:0:0:
321,196,27559,1,0,3:0:0:0:
399,128,27801,1,0,1:0:0:0:
487,266,28043,6,0,P|486:219|481:124,2,135.000005149841,2|0|0,3:2|3:0|3:0,0:0:0:0:
384,122,29011,1,0,1:0:0:0:
399,219,29252,1,0,0:0:0:0:
399,219,29373,1,0,1:0:0:0:
399,219,29494,1,0,0:0:0:0:
307,230,29736,1,0,1:0:0:0:
295,135,29978,5,2,3:2:0:0:
208,265,30220,2,0,P|206:303|206:320,2,45.0000017166138,0|0|0,0:0|3:0|0:0,0:0:0:0:
43,198,30704,2,0,P|122:180|226:176,1,180.000006866455,2|2,3:2|1:2,0:0:0:0:
293,252,31430,1,8,1:0:0:0:
203,266,31672,1,2,0:2:0:0:
370,166,31914,6,0,P|383:236|391:317,2,135.000005149841,4|0|0,3:1|3:0|3:0,0:0:0:0:
299,108,32881,5,0,1:0:0:0:
463,73,33123,2,0,L|508:68,2,45.0000017166138,0|0|0,0:0|1:0|0:0,0:0:0:0:
288,201,33607,1,2,1:2:0:0:
288,201,33728,1,2,0:2:0:0:
288,201,33849,6,0,P|346:203|431:207,2,135.000005149841,2|0|0,3:2|3:0|3:0,0:0:0:0:
176,231,34817,1,2,1:2:0:0:
179,239,34938,1,0,1:0:0:0:
182,247,35059,1,0,1:0:0:0:
184,255,35180,1,0,3:0:0:0:
187,263,35301,1,0,3:0:0:0:
97,297,35543,1,0,1:0:0:0:
13,254,35785,6,0,P|11:202|22:103,2,135.000005149841,2|0|0,3:2|3:0|3:0,0:0:0:0:
109,130,36752,1,4,1:2:0:0:
112,231,36994,1,0,0:0:0:0:
112,231,37115,1,0,0:0:0:0:
112,231,37236,1,0,1:0:0:0:
273,216,37478,1,0,0:0:0:0:
258,50,37720,6,0,B|314:48|314:48|329:58|329:58|397:56,1,120,0|0,1:0|0:0,0:0:0:0:
439,99,38083,2,0,B|489:73|489:73|460:201,1,180,0|0,1:0|0:0,0:0:0:0:
323,259,39656,6,0,B|273:257|241:228|241:228|190:231|154:257,1,180,4|0,1:0|1:0,0:0:0:0:
85,288,40140,2,2,P|143:290|188:328,1,120,8|2,1:1|1:1,0:1:0:0:
479,191,40623,6,0,P|444:181|421:180,1,60,2|8,0:1|1:1,0:0:0:0:
342,147,40865,1,0,1:0:0:0:
342,147,40986,1,0,0:0:0:0:
342,147,41107,2,2,P|316:213|328:271,1,120,8|2,1:1|0:1,0:1:0:0:
56,174,41591,5,2,1:0:0:0:
56,174,41833,2,0,L|124:161,1,60,0|0,0:0|1:0,0:0:0:0:
205,177,42075,2,2,P|238:120|215:62,1,120,8|2,1:1|1:1,0:1:0:0:
114,316,42559,2,0,L|44:309,2,60,2|8|0,0:1|1:1|1:0,0:0:0:0:
342,323,43043,2,0,B|257:303|257:303|219:326,1,120,8|0,1:1|0:1,0:1:0:0:
213,337,43406,1,0,0:0:0:0:
200,356,43527,5,4,1:1:0:0:
197,106,43769,2,0,L|135:97,2,60,2|2|8,0:2|1:2|1:0,0:0:0:0:
288,145,44252,1,0,1:2:0:0:
356,14,44494,6,0,P|393:76|358:126,1,120,0|2,0:0|1:2,0:0:0:0:
288,145,44978,1,8,1:0:0:0:
232,65,45220,1,0,1:2:0:0:
79,191,45462,5,4,1:2:0:0:
196,281,45704,2,0,L|205:206,1,60,2|2,0:2|1:2,0:0:0:0:
214,140,45946,1,8,1:0:0:0:
325,217,46188,2,0,L|334:142,1,60,0|0,1:2|0:2,0:0:0:0:
343,76,46430,1,4,3:2:0:0:
460,186,46672,1,4,3:0:0:0:
396,290,46914,1,0,3:0:0:0:
372,288,47035,1,0,3:0:0:0:
352,301,47156,1,4,3:0:0:0:
328,299,47277,1,4,3:0:0:0:
307,311,47398,6,0,L|298:378,2,60,4|0|0,1:0|0:0|0:2,0:0:0:0:
301,250,47761,1,0,1:0:0:0:
296,190,47881,1,8,1:0:0:0:
95,143,48123,1,2,1:2:0:0:
95,143,48244,1,2,0:2:0:0:
95,143,48365,2,0,P|118:165|136:205,1,60,0|8,0:0|1:0,0:0:0:0:
193,238,48607,2,0,P|181:307|178:375,1,120,0|8,1:2|1:0,0:0:0:0:
270,56,49091,5,2,0:2:0:0:
305,88,49212,1,2,0:2:0:0:
352,82,49333,2,0,L|419:69,1,60,2|0,1:3|0:0,0:0:0:0:
238,148,49575,2,0,L|163:161,2,60,0|0|8,0:0|1:0|1:0,0:0:0:0:
402,155,50059,5,2,1:2:0:0:
360,130,50180,1,2,0:2:0:0:
352,82,50301,2,0,L|341:6,1,60,2|8,0:3|1:0,0:0:0:0:
304,201,50543,2,0,L|315:277,2,60,0|0|8,1:3|0:0|1:0,0:0:0:0:
325,344,51027,5,2,0:2:0:0:
349,348,51148,1,2,0:2:0:0:
373,352,51269,1,4,1:0:0:0:
231,240,51511,2,0,L|165:234,1,60,0|0,0:0|1:0,0:0:0:0:
97,252,51752,2,0,P|95:320|151:367,1,120,8|2,1:0|1:2,0:0:0:0:
409,218,52236,2,0,P|411:150|355:103,1,120,0|0,1:0|1:0,0:0:0:0:
295,112,52599,1,0,1:0:0:0:
295,112,52720,2,0,L|303:45,3,60,0|0|4|4,3:0|3:0|3:0|3:0,0:0:0:0:
306,31,53204,6,0,L|430:18,1,120,4|0,1:2|3:0,0:0:0:0:
209,122,53688,2,0,L|85:109,1,120,4|0,1:2|0:0,0:0:0:0:
293,174,54172,6,0,B|325:278|276:237|307:354,1,180,4|0,1:2|1:0,0:0:0:0:
256,281,54656,1,4,3:2:0:0:
213,259,54777,1,0,3:0:0:0:
165,266,54898,1,4,3:0:0:0:
125,292,55019,1,4,3:0:0:0:
99,332,55140,6,0,B|70:306|70:306|80:209,1,120,4|0,1:0|0:0,0:0:0:0:
83,202,55502,1,0,1:0:0:0:
88,178,55623,1,8,1:0:0:0:
197,347,55865,1,0,1:1:0:0:
402,210,56107,2,0,P|382:186|357:161,1,60,2|8,0:1|1:0,0:0:0:0:
300,92,56349,2,0,P|349:82|378:75,1,60,0|0,1:0|0:0,0:0:0:0:
418,17,56591,1,8,1:0:0:0:
418,17,56712,2,2,P|450:75|422:141,1,120,0|2,0:1|0:1,0:1:0:0:
361,165,57075,5,0,1:0:0:0:
445,361,57317,2,0,L|455:289,1,60,0|0,0:0|1:0,0:0:0:0:
502,236,57559,2,2,B|474:219|474:219|388:234,1,120,8|2,1:1|1:1,0:1:0:0:
151,158,58043,2,0,L|131:97,2,60,2|8|0,0:1|1:0|1:0,0:0:0:0:
261,47,58527,2,2,P|282:103|254:171,1,120,8|2,1:1|0:1,0:1:0:0:
253,179,58890,1,0,0:1:0:0:
238,197,59011,5,6,1:1:0:0:
60,222,59252,2,0,L|27:150,2,60,2|2|8,0:2|1:2|1:0,0:0:0:0:
134,353,59736,1,0,1:0:0:0:
283,273,59978,2,0,B|334:270|334:270|355:281|355:281|406:275,1,120,0|2,0:0|1:2,0:0:0:0:
134,353,60462,1,8,1:0:0:0:
158,200,60704,1,0,0:0:0:0:
203,279,60946,5,4,1:2:0:0:
76,145,61188,2,0,L|69:222,1,60,2|2,0:2|1:2,0:0:0:0:
61,289,61430,1,8,1:0:0:0:
265,199,61672,2,0,L|272:276,1,60,0|0,1:0|0:0,0:0:0:0:
280,343,61914,1,4,1:2:0:0:
512,278,62156,1,0,1:0:0:0:
512,278,62277,1,0,1:0:0:0:
512,278,62398,2,0,B|481:263|481:263|450:269,1,60,0|0,3:0|3:0,0:0:0:0:
411,198,62640,2,0,B|382:217|382:217|373:247,1,60,4|4,3:0|3:0,0:0:0:0:
303,302,62881,6,0,B|277:264|277:264|300:165,1,120,4|0,1:0|0:0,0:0:0:0:
244,121,63244,1,0,1:0:0:0:
244,121,63365,2,0,L|178:137,1,60,8|0,1:0|0:0,0:0:0:0:
45,166,63607,2,0,L|111:173,1,60,0|0,1:0|0:0,0:0:0:0:
173,222,63849,6,0,L|170:296,1,60,2|8,0:2|1:0,0:0:0:0:
103,336,64091,1,0,1:0:0:0:
79,334,64212,1,2,0:2:0:0:
61,350,64333,1,8,1:0:0:0:
9,259,64575,1,2,0:2:0:0:
86,197,64817,6,0,B|199:188|146:258|278:238,1,180,4|0,1:0|1:0,0:0:0:0:
337,271,65301,2,0,B|346:242|346:242|339:213,1,60,8|0,1:0|0:0,0:0:0:0:
262,159,65543,2,0,B|253:130|253:130|260:101,1,60,0|8,1:0|1:0,0:0:0:0:
341,125,65785,5,2,0:2:0:0:
476,133,66027,1,0,1:0:0:0:
462,153,66148,1,2,0:2:0:0:
439,159,66269,1,8,1:0:0:0:
419,69,66511,1,2,1:2:0:0:
491,233,66752,6,0,P|494:299|373:355,1,180,4|0,1:0|1:0,0:0:0:0:
408,361,67236,2,0,P|345:360|280:359,1,120,8|0,1:0|1:0,0:0:0:0:
115,196,67720,2,0,P|183:192|243:188,1,120,8|0,1:0|1:0,0:0:0:0:
348,264,68083,1,0,1:0:0:0:
348,264,68204,2,0,P|308:264|279:264,1,60,0|0,3:0|3:0,0:0:0:0:
201,281,68446,2,0,P|204:323|208:353,1,60,4|4,3:0|3:0,0:0:0:0:
289,359,68688,5,0,1:0:0:0:
473,162,69051,1,0,1:0:0:0:
289,359,69414,1,0,1:0:0:0:
256,192,70623,12,0,72559,3:0:0:0:
205,343,78365,6,0,P|204:299|194:204,2,135.000005149841,4|0|0,3:1|3:0|3:0,0:0:0:0:
38,184,79333,1,2,0:2:0:0:
118,105,79575,1,0,0:0:0:0:
118,105,79696,2,0,P|120:71|123:45,1,45.0000017166138,2|0,0:2|0:0,0:0:0:0:
38,184,80059,1,2,0:2:0:0:
202,200,80301,6,0,P|206:151|216:59,2,135.000005149841,2|0|0,3:2|3:0|3:0,0:0:0:0:
427,133,81269,1,2,0:2:0:0:
341,202,81511,1,0,0:0:0:0:
341,202,81631,2,0,L|296:197,1,45.0000017166138,2|0,0:2|0:0,0:0:0:0:
427,133,81994,1,2,0:2:0:0:
379,306,82236,6,0,P|322:299|239:292,2,135.000005149841,2|0|0,3:2|3:0|3:0,0:0:0:0:
243,203,83204,5,0,0:0:0:0:
144,140,83446,1,0,0:0:0:0:
144,140,83567,1,0,0:0:0:0:
144,140,83688,2,0,P|155:201|159:294,1,135.000005149841,2|0,0:2|0:0,0:0:0:0:
160,274,84172,6,0,L|154:323,2,45.0000017166138,2|0|0,3:2|0:2|0:2,0:0:0:0:
231,228,84535,2,0,L|273:190,2,45.0000017166138,2|0|0,3:2|0:2|0:2,0:0:0:0:
238,309,84898,2,0,L|232:364,1,45.0000017166138,2|0,3:2|0:2,0:0:0:0:
311,271,85140,5,2,0:2:0:0:
319,274,85261,1,2,0:2:0:0:
327,277,85381,1,2,3:2:0:0:
489,324,85623,1,8,1:1:0:0:
484,188,85865,2,0,L|485:248,1,45.0000017166138,2|0,0:2|0:0,0:0:0:0:
407,353,86107,6,0,B|420:265|394:306|408:201,2,135.000005149841,4|0|0,3:1|3:0|3:0,0:0:0:0:
316,230,87075,1,2,0:2:0:0:
238,155,87317,1,0,0:0:0:0:
238,155,87438,2,0,P|234:200|233:214,1,45.0000017166138,2|0,0:2|0:0,0:0:0:0:
316,230,87801,1,2,0:2:0:0:
142,268,88043,6,0,P|140:201|135:133,1,135.000005149841,2|0,3:2|3:0,0:0:0:0:
51,96,88527,2,0,P|47:149|45:188,1,90.0000034332277,0|0,0:0|3:0,0:0:0:0:
229,287,89011,1,2,0:2:0:0:
229,287,89131,2,0,P|233:234|235:195,1,90.0000034332277,0|2,0:0|0:2,0:0:0:0:
238,120,89494,1,0,0:0:0:0:
376,216,89736,1,2,0:2:0:0:
376,216,89857,1,0,0:0:0:0:
376,216,89978,6,0,P|379:271|300:323,2,135.000005149841,2|0|0,3:2|3:0|3:0,0:0:0:0:
208,87,90946,5,0,1:0:0:0:
234,92,91067,1,0,1:0:0:0:
260,97,91188,1,0,1:0:0:0:
286,103,91309,1,0,1:0:0:0:
317,96,91430,5,0,1:0:0:0:
339,99,91551,1,0,1:0:0:0:
360,104,91672,1,0,1:0:0:0:
381,108,91793,1,0,1:0:0:0:
406,105,91914,6,0,B|430:165|430:165|412:231,1,120,0|0,1:0|0:0,0:0:0:0:
392,306,92277,1,0,1:0:0:0:
392,306,92881,6,0,B|307:312|307:312|297:323|297:323|213:330,1,180,0|0,1:0|1:0,0:0:0:0:
126,345,93365,1,0,3:0:0:0:
126,345,93486,1,0,3:0:0:0:
126,345,93607,1,4,3:0:0:0:
126,345,93728,1,4,3:0:0:0:
126,345,93849,6,0,P|88:270|108:234,1,120,4|0,1:0|0:2,0:0:0:0:
154,176,94212,2,0,P|125:159|96:149,2,60,8|8|0,1:0|1:2|0:0,0:0:0:0:
233,224,94575,1,0,0:2:0:0:
193,40,94817,2,0,B|222:58|222:58|243:97|232:145,1,120,0|0,1:0|0:0,0:0:0:0:
308,175,95180,2,0,P|328:159|363:141,2,60,8|8|0,1:0|1:2|0:0,0:0:0:0:
233,224,95543,1,0,0:0:0:0:
444,187,95785,6,0,P|459:264|420:316,1,120,2|0,1:3|0:2,0:0:0:0:
363,313,96148,2,0,P|351:350|354:377,2,60,2|8|0,1:3|1:2|0:0,0:0:0:0:
103,173,96631,2,0,P|93:139|91:103,1,60,2|0,0:3|1:0,0:0:0:0:
134,46,96873,2,0,P|194:36|243:92,1,120,8|2,1:0|1:3,0:0:0:0:
312,136,97236,2,0,L|442:123,1,120,8|0,1:2|0:0,0:0:0:0:
431,125,97599,1,0,0:0:0:0:
431,125,97720,6,0,P|422:197|387:239,1,120,4|0,1:0|0:2,0:0:0:0:
307,237,98083,2,0,P|315:266|328:294,2,60,8|8|0,1:0|1:2|0:0,0:0:0:0:
274,162,98446,1,0,0:2:0:0:
158,325,98688,2,0,B|181:301|190:283|190:283|191:269|191:269|206:238|233:212,1,120,0|0,1:0|0:0,0:0:0:0:
195,146,99051,2,0,P|161:142|132:134,2,60,8|8|0,1:0|1:2|0:0,0:0:0:0:
274,162,99414,1,0,0:0:0:0:
473,46,99656,6,0,P|461:104|454:164,1,120,2|0,1:3|0:2,0:0:0:0:
469,248,100019,2,0,P|471:289|473:319,2,60,2|8|0,1:3|1:2|0:0,0:0:0:0:
395,339,100381,6,0,P|335:350|287:305,1,120,2|0,0:2|1:0,0:0:0:0:
343,252,100744,1,8,1:0:0:0:
343,252,100865,2,0,L|338:177,1,60,2|0,0:2|1:3,1:3:0:0:
257,207,101107,2,0,L|252:129,1,60,10|0,1:2|0:0,0:0:0:0:
175,162,101349,1,2,0:2:0:0:
31,291,101591,5,4,1:0:0:0:
62,133,101833,1,2,0:2:0:0:
58,119,101954,1,8,1:0:0:0:
54,106,102075,2,0,L|41:54,2,45.0000017166138,8|2|0,1:2|0:2|0:0,0:0:0:0:
201,120,102559,1,0,1:0:0:0:
244,130,102680,1,8,1:0:0:0:
287,119,102801,1,0,0:2:0:0:
316,84,102922,1,8,1:0:0:0:
325,40,103043,1,10,1:2:0:0:
322,225,103285,6,0,L|386:236,2,45.0000017166138,2|0|2,0:2|0:0|1:2,0:0:0:0:
234,45,103769,1,2,0:2:0:0:
220,48,103890,1,8,1:0:0:0:
206,51,104011,2,0,L|136:69,2,45.0000017166138,8|2|0,1:2|0:2|0:0,0:0:0:0:
296,148,104494,5,0,1:0:0:0:
291,192,104615,1,8,1:0:0:0:
286,236,104736,1,0,0:0:0:0:
281,280,104857,1,8,1:0:0:0:
277,324,104978,1,10,1:2:0:0:
184,216,105220,1,2,0:2:0:0:
184,216,105341,1,0,0:0:0:0:
184,216,105462,6,0,B|96:204|96:204|73:224,1,120,4|2,1:0|0:2,0:0:0:0:
67,248,105825,1,8,1:0:0:0:
62,271,105946,1,8,1:2:0:0:
212,339,106188,1,8,1:0:0:0:
300,178,106430,6,0,L|369:192,1,60,0|8,1:0|1:0,0:0:0:0:
489,153,106672,2,0,L|433:191,1,60,0|0,1:0|1:0,0:0:0:0:
315,265,106914,2,0,L|384:279,1,60,0|0,3:0|3:0,0:0:0:0:
504,240,107156,2,0,L|448:278,1,60,4|4,3:0|3:0,0:0:0:0:
413,353,107398,5,0,1:0:0:0:
413,353,107519,1,0,1:0:0:0:
99,353,108123,1,0,1:0:0:0:
99,353,108244,1,0,1:0:0:0:
454,240,109333,6,0,B|396:234|356:192|356:192|325:224|333:259,1,180,4|0,1:0|1:0,0:0:0:0:
218,352,109817,2,2,P|250:315|236:240,1,120,8|2,1:1|1:1,0:1:0:0:
83,123,110301,2,0,P|96:165|112:189,1,60,2|8,0:1|1:0,0:0:0:0:
164,270,110543,1,0,1:0:0:0:
164,270,110664,1,0,0:0:0:0:
164,270,110785,2,2,P|89:280|35:295,1,120,8|2,1:1|0:1,0:1:0:0:
176,126,111269,5,2,1:0:0:0:
176,126,111511,2,0,L|244:136,1,60,0|0,0:0|1:0,0:0:0:0:
315,139,111752,2,2,B|348:157|348:157|441:135,1,120,8|2,1:1|1:1,0:1:0:0:
229,306,112236,6,0,P|227:334|228:367,2,60,2|8|0,0:1|1:0|1:0,0:0:0:0:
421,235,112720,2,0,P|365:280|304:250,1,120,8|0,1:0|0:0,0:0:0:0:
309,249,113083,1,0,0:0:0:0:
294,229,113204,5,4,1:1:0:0:
111,307,113446,2,0,L|39:311,2,60,2|2|8,0:2|1:2|1:0,0:0:0:0:
195,154,113930,1,0,1:0:0:0:
197,360,114172,2,0,L|214:228,1,120,0|2,0:0|1:2,0:0:0:0:
281,179,114656,1,8,1:0:0:0:
171,64,114898,1,0,1:0:0:0:
133,230,115139,5,4,1:2:0:0:
22,98,115381,2,0,L|104:78,1,60,2|2,0:2|1:2,0:0:0:0:
171,64,115623,1,8,1:0:0:0:
133,230,115865,2,0,L|215:210,1,60,0|0,1:0|0:0,0:0:0:0:
282,196,116107,1,4,3:2:0:0:
171,64,116349,1,0,1:0:0:0:
334,41,116591,1,0,3:0:0:0:
332,65,116712,1,0,3:0:0:0:
345,85,116833,1,4,3:0:0:0:
343,109,116954,1,4,3:0:0:0:
355,130,117075,6,0,L|347:198,2,60,4|0|0,1:0|0:0|0:0,0:0:0:0:
414,121,117438,1,0,1:0:0:0:
472,107,117559,1,8,1:0:0:0:
219,154,117801,1,2,1:2:0:0:
219,154,117922,1,2,0:2:0:0:
219,154,118043,2,0,P|228:184|233:224,1,60,0|8,0:0|1:0,0:0:0:0:
309,227,118285,2,0,P|296:300|292:353,1,120,0|8,1:0|1:0,0:0:0:0:
53,190,118769,5,2,0:2:0:0:
98,208,118890,1,2,0:2:0:0:
133,174,119011,2,0,B|137:146|137:146|117:116,1,60,2|0,1:3|0:0,0:0:0:0:
191,239,119252,2,0,B|196:271|196:271|183:303,2,60,0|0|8,0:3|1:0|1:0,0:0:0:0:
291,156,119736,5,2,1:2:0:0:
337,169,119857,1,2,1:2:0:0:
373,138,119978,2,0,B|387:111|387:111|379:67,1,60,2|8,0:3|1:0,0:0:0:0:
428,241,120220,2,0,B|441:271|441:271|437:308,2,60,0|0|8,1:0|0:0|1:0,1:0:0:0:
206,244,120704,5,2,0:2:0:0:
204,220,120825,1,2,0:2:0:0:
202,196,120946,1,4,1:0:0:0:
429,288,121188,2,0,L|365:299,1,60,0|0,0:0|1:0,0:0:0:0:
306,353,121430,2,0,B|278:324|278:324|293:224,1,120,8|2,1:0|1:2,0:0:0:0:
424,27,121914,2,0,B|452:56|452:56|437:156,1,120,0|0,1:0|1:0,0:0:0:0:
364,175,122277,1,0,1:0:0:0:
364,175,122398,2,0,L|286:165,3,60,0|0|4|4,3:0|3:0|3:0|3:0,0:0:0:0:
282,160,122881,6,0,L|419:147,1,120,4|0,1:2|3:0,0:0:0:0:
189,90,123365,2,0,B|172:169|172:169|202:218,1,120,4|0,1:2|1:0,0:0:0:0:
328,277,123849,2,0,B|203:267|281:329|128:309,1,180,4|0,1:2|1:0,0:0:0:0:
90,358,124333,1,4,3:2:0:0:
114,316,124454,1,0,3:0:0:0:
118,268,124575,1,4,3:0:0:0:
103,222,124696,1,4,3:0:0:0:
67,189,124817,6,0,P|61:141|56:55,1,120,4|0,1:0|0:0,0:0:0:0:
61,45,125180,1,0,1:0:0:0:
67,21,125301,5,8,1:0:0:0:
272,48,125542,1,0,1:1:0:0:
140,100,125785,2,0,L|208:84,1,60,2|8,0:1|1:0,0:0:0:0:
323,129,126027,1,0,1:0:0:0:
323,129,126148,1,0,0:0:0:0:
323,129,126269,2,2,P|359:73|347:10,1,120,8|2,1:1|0:1,0:1:0:0:
277,222,126752,5,2,1:1:0:0:
356,358,126994,2,0,L|372:285,1,60,0|0,0:0|1:0,0:0:0:0:
277,222,127236,2,2,B|238:250|238:250|252:341,1,120,8|2,1:1|1:1,0:1:0:0:
207,145,127720,2,0,L|194:80,2,60,2|8|0,0:1|1:0|1:0,0:0:0:0:
248,321,128204,2,2,P|192:342|124:314,1,120,8|2,1:1|0:1,0:1:0:0:
116,313,128567,1,0,0:1:0:0:
98,298,128688,5,6,1:1:0:0:
366,174,128930,2,0,P|401:158|435:153,2,60,2|2|8,0:2|1:2|1:0,0:0:0:0:
297,229,129413,1,0,1:0:0:0:
237,38,129656,2,0,P|276:90|281:149,1,120,0|2,0:0|1:2,0:0:0:0:
297,229,130140,1,8,1:0:0:0:
172,105,130381,1,0,1:0:0:0:
366,174,130623,5,4,1:2:0:0:
366,174,130865,2,0,B|379:144|379:144|370:99,1,60,2|2,0:2|1:2,0:0:0:0:
349,37,131107,1,8,1:0:0:0:
445,223,131349,2,0,B|458:253|458:253|449:298,2,60,0|8|4,1:0|1:0|0:2,0:0:0:0:
237,159,131833,1,0,1:0:0:0:
237,159,131954,1,0,1:0:0:0:
237,159,132075,2,0,B|255:135|255:135|300:129,1,60,0|0,3:0|3:0,0:0:0:0:
343,345,132317,2,0,B|310:347|310:347|283:327,1,60,4|4,3:0|3:0,0:0:0:0:
334,256,132559,6,0,B|227:278|290:333|181:355,1,180,4|0,1:0|1:0,0:0:0:0:
125,302,133043,1,8,1:0:0:0:
173,223,133285,1,0,1:0:0:0:
156,205,133406,1,0,0:0:0:0:
157,181,133527,1,0,0:0:0:0:
110,106,133769,1,0,1:0:0:0:
242,168,134011,2,0,P|268:194|284:217,2,60,8|0|0,1:0|0:0|0:0,0:0:0:0:
68,31,134494,6,0,P|139:66|274:81,1,180,0|0,1:0|1:0,0:0:0:0:
309,45,134978,1,8,1:0:0:0:
428,146,135220,1,0,1:0:0:0:
437,124,135341,1,8,1:0:0:0:
436,99,135462,1,0,0:0:0:0:
345,209,135704,1,0,1:0:0:0:
440,237,135946,2,0,P|470:228|500:216,1,60,0|0,3:0|3:0,0:0:0:0:
347,117,136188,2,0,P|317:126|287:138,1,60,4|4,3:0|3:0,0:0:0:0:
256,221,136430,6,0,P|212:177|237:56,1,180,4|0,1:0|1:0,0:0:0:0:
225,67,136914,2,0,P|284:67|344:68,1,120,8|0,1:0|1:0,0:0:0:0:
117,163,137398,2,0,P|72:170|57:172,2,60,8|0|0,1:0|0:0|1:0,0:0:0:0:
256,221,137881,1,0,3:0:0:0:
28,295,138123,5,4,3:0:0:0:
28,295,138244,1,4,3:0:0:0:
28,295,138365,1,4,1:0:0:0:
125,260,138607,1,0,0:1:0:0:
125,260,138728,1,0,0:1:0:0:
150,356,138970,1,0,0:1:0:0:
150,356,139091,1,0,0:0:0:0:
350,349,139333,6,0,P|356:285|363:217,1,120,0|0,1:0|0:0,0:0:0:0:
361,229,139696,1,8,0:2:0:0:
462,221,139938,1,0,0:0:0:0:
462,221,140059,1,8,0:2:0:0:
273,185,140301,5,0,1:0:0:0:
321,48,140543,1,0,0:1:0:0:
448,124,140785,1,0,1:0:0:0:
448,124,140906,2,0,B|396:119|396:119|376:129|376:129|315:124,1,120,0|0,0:1|0:0,0:0:0:0:
252,90,141269,5,0,1:0:0:0:
106,99,141511,1,0,0:0:0:0:
106,99,141631,1,8,1:0:0:0:
187,150,141873,1,0,0:0:0:0:
187,150,141994,1,8,1:0:0:0:
29,154,142236,5,4,1:0:0:0:
143,351,142478,2,0,L|152:271,1,60
348,300,142841,2,0,L|357:220,1,60
149,291,143204,6,0,L|158:211,1,60,0|0,1:1|0:0,0:0:0:0:
354,240,143567,2,0,L|363:160,1,60,8|0,0:1|1:0,0:0:0:0:
370,135,143809,1,8,0:1:0:0:
370,135,143930,1,0,0:0:0:0:
314,35,144172,5,0,1:0:0:0:
111,107,144414,2,0,L|120:196,1,60,2|0,1:1|0:0,0:0:0:0:
196,225,144656,1,0,1:1:0:0:
276,128,144898,2,0,L|285:217,1,60,0|0,1:0|0:0,0:0:0:0:
361,246,145140,6,0,B|393:268|393:268|443:258,2,80,8|8|8,1:0|1:0|1:0,0:0:0:0:
384,354,145623,6,0,P|387:284|413:168,1,180,2|0,3:2|3:0,0:0:0:0:
443,102,146107,5,4,1:0:0:0:
256,192,146227,12,0,149010,3:0:0:0:
73,290,157719,5,4,1:0:0:0:
168,308,157961,1,0,0:0:0:0:
168,308,158082,1,0,3:0:0:0:
168,308,158203,1,0,1:0:0:0:
181,208,158445,1,8,1:0:0:0:
296,230,158687,1,0,0:0:0:0:
296,230,158808,1,0,3:0:0:0:
296,230,158929,1,0,1:0:0:0:
308,103,159171,1,0,1:0:0:0:
97,124,159413,6,0,P|93:161|88:200,2,60,2|0|2,0:2|3:0|1:2,0:0:0:0:
170,21,159897,1,8,1:0:0:0:
273,93,160139,1,2,0:0:0:0:
200,197,160381,1,2,1:2:0:0:
185,109,160623,5,2,1:2:0:0:
354,193,160865,1,0,0:1:0:0:
354,193,160986,1,0,3:0:0:0:
354,193,161106,1,0,1:0:0:0:
200,197,161348,1,8,1:1:0:0:
354,284,161590,1,0,0:1:0:0:
354,284,161711,1,0,3:0:0:0:
354,284,161832,1,2,1:2:0:0:
216,288,162074,5,2,1:2:0:0:
200,197,162316,1,0,1:1:0:0:
199,185,162437,1,0,3:0:0:0:
197,173,162558,1,0,1:0:0:0:
195,161,162679,1,0,0:0:0:0:
193,149,162800,1,8,1:0:0:0:
100,200,163042,6,0,P|100:139|104:58,1,120,0|0,3:0|1:0,0:0:0:0:
167,16,163526,1,4,1:0:0:0:
379,157,163768,6,0,P|411:167|451:166,2,60,0|0|0,3:0|3:0|1:0,0:0:0:0:
195,100,164252,1,8,1:1:0:0:
256,252,164494,1,2,3:2:0:0:
256,252,164615,1,0,3:0:0:0:
256,252,164736,1,2,1:2:0:0:
317,100,164977,1,0,1:1:0:0:
133,157,165219,6,0,P|101:167|61:166,2,60,0|0|0,3:0|3:0|1:0,0:0:0:0:
317,100,165703,1,8,1:1:0:0:
256,252,165945,1,2,3:2:0:0:
256,252,166066,1,0,3:0:0:0:
256,252,166187,1,2,1:2:0:0:
195,100,166428,5,0,1:1:0:0:
313,46,166671,1,0,3:0:0:0:
256,252,166913,1,0,1:0:0:0:
479,214,167155,2,0,P|505:162|473:81,1,120,8|0,1:1|1:1,0:0:0:0:
406,42,167639,1,0,1:2:0:0:
204,235,167881,6,0,P|278:241|412:127,1,240,8|0,1:1|1:0,0:0:0:0:
328,23,168606,1,0,1:0:0:0:
292,19,168727,1,0,1:0:0:0:
258,32,168848,1,0,1:0:0:0:
246,66,168969,1,0,1:0:0:0:
227,96,169090,1,0,1:0:0:0:
191,103,169211,1,0,1:0:0:0:
159,85,169332,5,4,1:0:0:0:
102,172,169574,1,0,0:0:0:0:
102,172,169695,1,0,3:0:0:0:
102,172,169816,1,0,1:0:0:0:
193,184,170058,1,8,1:1:0:0:
67,78,170300,5,0,0:1:0:0:
132,261,170542,1,0,1:0:0:0:
242,112,170784,2,0,P|301:81|393:156,1,180,2|0,1:2|3:0,0:0:0:0:
397,172,171268,1,2,1:2:0:0:
319,249,171510,1,8,1:0:0:0:
457,313,171752,1,2,0:2:0:0:
319,249,171994,1,2,1:2:0:0:
415,197,172236,5,0,1:1:0:0:
362,336,172477,1,0,0:2:0:0:
362,336,172598,1,0,0:2:0:0:
362,336,172719,1,0,1:0:0:0:
288,223,172961,1,8,1:0:0:0:
196,306,173203,2,0,P|158:316|135:322,2,60,0|0|2,0:0|3:1|1:2,0:0:0:0:
385,254,173687,6,0,P|406:197|388:135,1,120,2|0,1:2|0:1,0:0:0:0:
375,123,174050,1,0,3:0:0:0:
358,105,174171,1,0,1:0:0:0:
262,58,174413,5,8,1:0:0:0:
236,229,174655,1,4,3:0:0:0:
277,145,174897,1,4,3:0:0:0:
251,316,175139,1,4,1:0:0:0:
160,284,175381,6,0,L|99:284,2,60,2|0|2,0:2|0:0|1:2,0:0:0:0:
251,316,175865,1,8,1:1:0:0:
349,300,176106,1,0,0:0:0:0:
349,300,176227,1,8,1:1:0:0:
349,300,176348,1,0,1:0:0:0:
474,201,176590,5,0,1:0:0:0:
383,191,176832,1,0,0:0:0:0:
383,191,176953,1,8,1:0:0:0:
383,191,177074,1,2,1:2:0:0:
381,83,177316,5,8,1:1:0:0:
262,44,177558,1,8,1:1:0:0:
293,163,177800,1,0,1:0:0:0:
381,83,178042,6,0,L|448:66,2,60,2|0|0,1:1|1:0|1:0,0:0:0:0:
131,83,178525,2,0,L|64:66,2,60,0|0|0,1:0|1:0|1:0,0:0:0:0:
337,229,179009,1,2,1:1:0:0:
337,229,179130,1,0,1:0:0:0:
337,229,179251,2,0,L|347:154,1,60,0|0,1:0|1:0,0:0:0:0:
172,187,179493,1,0,1:0:0:0:
172,187,179614,1,0,1:0:0:0:
172,187,179735,2,0,L|167:124,1,60,0|0,1:0|1:0,0:0:0:0:
258,41,179977,6,0,B|254:91|254:91|260:102|260:102|254:160,1,120,4|0,1:2|0:0,0:0:0:0:
255,234,180340,1,4,1:2:0:0:
255,234,180824,6,0,B|259:184|259:184|253:173|253:173|259:115,1,120,4|0,1:2|0:0,0:0:0:0:
258,41,181187,1,4,1:2:0:0:
258,41,181429,2,0,P|215:89|159:93,1,120,0|0,1:0|0:0,0:0:0:0:
42,49,181912,5,4,1:0:0:0:
256,192,182396,12,4,183848,1:0:0:0:
190,86,184816,6,0,P|160:67|96:124,1,120,2|0,0:2|3:0,0:0:0:0:
97,108,185783,5,4,1:0:0:0:
115,204,186025,1,8,1:2:0:0:
115,204,186146,1,8,1:0:0:0:
115,204,186267,1,8,1:2:0:0:
97,108,186509,1,8,1:0:0:0:
238,223,186751,5,8,1:2:0:0:
254,80,186993,1,0,1:0:0:0:
254,80,187114,1,0,1:0:0:0:
254,80,187235,2,0,L|260:146,1,60,0|0,3:0|3:0,0:0:0:0:
238,223,187477,2,0,L|244:289,1,60,4|4,3:0|3:0,0:0:0:0:
382,233,187719,5,0,1:0:0:0:
351,93,187961,2,0,L|421:84,1,60,8|0,1:2|1:0,0:0:0:0:
486,69,188203,2,0,P|503:137|468:185,1,120,8|8,1:2|1:0,0:0:0:0:
351,93,188687,5,8,1:2:0:0:
316,102,188808,1,8,1:0:0:0:
282,90,188929,1,0,1:0:0:0:
247,99,189050,1,8,1:2:0:0:
214,84,189171,2,0,B|204:150,1,60,0|0,3:0|3:0,0:0:0:0:
162,265,189412,2,0,L|149:198,1,60,4|4,3:0|3:0,0:0:0:0:
112,127,189654,5,4,1:0:0:0:
46,204,189896,1,8,1:2:0:0:
19,179,190017,1,8,1:0:0:0:
16,143,190138,1,8,1:2:0:0:
112,127,190380,1,10,1:2:0:0:
142,223,190622,2,0,P|129:297|41:361,1,180,8|8,1:2|1:0,0:0:0:0:
13,364,191106,1,0,1:0:0:0:
229,354,191348,5,10,1:2:0:0:
229,354,191469,1,2,0:2:0:0:
229,354,191590,2,0,L|236:287,1,60,2|0,1:3|0:0,0:0:0:0:
260,268,191832,2,0,L|267:201,2,60,8|8|8,0:2|1:0|0:2,0:0:0:0:
423,359,192316,5,10,1:2:0:0:
423,359,192437,1,2,0:0:0:0:
423,359,192558,2,0,L|430:292,1,60,2|0,1:3|0:0,0:0:0:0:
454,273,192800,2,0,L|461:206,2,60,8|8|8,0:2|1:0|0:2,0:0:0:0:
150,151,193283,5,10,1:2:0:0:
150,151,193404,1,2,0:2:0:0:
150,151,193525,1,4,1:0:0:0:
264,164,193767,2,0,B|294:161|294:161|326:176,1,60,8|8,0:2|1:0,0:0:0:0:
398,203,194009,2,0,B|426:173|426:173|408:96,1,120,8|8,1:2|1:0,0:0:0:0:
408,96,194493,6,0,P|371:101|328:115,1,60,8|0,1:2|0:0,0:0:0:0:
161,157,194735,2,0,P|198:162|241:176,1,60,0|8,1:0|1:2,0:0:0:0:
336,242,194977,1,0,3:0:0:0:
336,242,195098,1,0,3:0:0:0:
336,242,195219,1,4,3:0:0:0:
336,242,195340,1,4,3:0:0:0:
336,242,195462,6,0,P|299:296|281:372,1,120,4|0,1:2|3:0,0:0:0:0:
170,128,195946,2,0,P|197:200|205:253,1,120,4|0,1:2|3:0,0:0:0:0:
297,7,196429,2,0,P|283:99|279:202,1,180,4|0,1:2|1:0,0:0:0:0:
249,113,196912,1,4,3:2:0:0:
213,80,197033,1,0,3:0:0:0:
165,73,197154,1,4,3:0:0:0:
121,93,197275,1,4,3:0:0:0:
102,136,197396,6,0,P|83:170|52:187,1,71.9999978027344,4|0,1:0|0:0,0:0:0:0:
75,351,197638,1,8,0:2:0:0:
75,351,197759,1,0,1:0:0:0:
75,351,197880,2,2,B|99:263|130:300|158:206,2,143.999995605469,8|0|10,1:1|1:1|0:1,0:1:0:0:
331,285,198606,1,0,1:0:0:0:
302,262,198727,1,8,0:2:0:0:
266,258,198848,1,8,1:0:0:0:
235,276,198969,1,0,0:1:0:0:
221,309,199090,1,8,0:2:0:0:
273,171,199332,6,0,P|201:148|173:84,1,143.999995605469,2|8,1:1|0:2,0:0:0:0:
268,84,199695,2,0,P|312:96|346:111,2,71.9999978027344,0|8|0,1:0|1:0|0:0,0:0:0:0:
173,89,200058,1,0,1:0:0:0:
346,338,200300,1,10,0:1:0:0:
346,338,200421,1,8,1:0:0:0:
346,338,200541,2,0,P|325:302|324:261,1,71.9999978027344,0|8,1:0|0:2,0:0:0:0:
388,209,200783,2,2,P|410:134|401:69,1,143.999995605469,8|10,1:1|0:1,0:1:0:0:
385,54,201146,1,0,0:0:0:0:
367,41,201267,5,6,1:0:0:0:
218,149,201509,1,10,0:2:0:0:
176,162,201630,1,2,1:2:0:0:
133,153,201751,1,8,1:0:0:0:
100,124,201872,1,0,0:0:0:0:
89,82,201993,1,0,1:0:0:0:
72,256,202235,2,0,P|107:249|146:235,1,71.9999978027344,8|8,0:2|1:0,0:0:0:0:
242,247,202477,2,0,P|207:254|168:268,1,71.9999978027344,2|10,1:2|0:2,0:0:0:0:
123,335,202719,1,8,1:0:0:0:
161,355,202840,1,0,0:0:0:0:
202,342,202961,1,10,0:2:0:0:
317,206,203203,5,4,1:2:0:0:
495,294,203445,2,0,P|489:341|490:371,2,71.9999978027344,8|0|8,0:2|1:0|1:0,0:0:0:0:
265,322,203929,1,0,1:0:0:0:
265,322,204050,1,0,0:0:0:0:
265,322,204171,2,0,B|230:338|230:338|187:330,2,71.9999978027344,4|0|0,1:2|1:0|1:0,0:0:0:0:
390,162,204654,2,0,B|406:196|406:196|397:230,1,71.9999978027344,0|0,3:0|3:0,0:0:0:0:
243,152,204896,2,0,B|227:118|227:118|236:84,1,71.9999978027344,4|4,3:0|3:0,0:0:0:0:
361,84,205138,6,0,P|361:162|287:215,1,143.999995605469,4|10,1:0|0:2,0:0:0:0:
255,256,205501,1,2,1:2:0:0:
255,256,205622,2,0,P|214:237|183:235,1,71.9999978027344,8|0,1:0|0:0,0:0:0:0:
67,181,205864,2,0,P|121:174|144:157,1,71.9999978027344,2|2,1:2|0:2,0:0:0:0:
190,42,206106,2,0,P|191:96|200:118,1,71.9999978027344,8|8,0:2|1:0,0:0:0:0:
288,174,206348,1,2,1:2:0:0:
326,153,206469,1,10,0:2:0:0:
344,113,206590,1,8,1:0:0:0:
287,37,206832,1,10,0:2:0:0:
347,248,207074,5,0,1:0:0:0:
438,155,207316,1,10,0:2:0:0:
438,155,207437,1,2,1:2:0:0:
438,155,207558,2,0,L|430:231,1,71.9999978027344,8|0,1:0|0:0,0:0:0:0:
339,319,207800,2,0,L|347:243,1,71.9999978027344,2|2,1:2|0:2,0:0:0:0:
267,191,208041,2,0,L|259:267,1,71.9999978027344,8|8,0:2|1:0,0:0:0:0:
149,309,208283,1,2,1:2:0:0:
107,298,208404,1,10,0:2:0:0:
78,265,208525,1,0,3:0:0:0:
71,222,208646,1,0,3:0:0:0:
91,183,208767,1,2,3:2:0:0:
259,262,209009,6,0,B|290:259|328:240|328:240|365:247|386:284|386:284|422:276|455:280,1,215.999993408203,4|8,1:0|1:0,0:0:0:0:
453,279,209493,2,0,P|490:219|467:143,1,143.999995605469,0|8,1:0|1:0,0:0:0:0:
69,40,209977,2,0,P|32:100|55:176,1,143.999995605469,8|0,1:0|1:0,0:0:0:0:
130,205,210340,1,0,1:0:0:0:
130,205,210461,2,0,P|171:197|211:191,1,71.9999978027344,0|0,3:0|3:0,0:0:0:0:
380,135,210703,2,0,P|344:129|309:122,1,71.9999978027344,4|4,3:0|3:0,0:0:0:0:
207,61,210945,5,0,1:0:0:0:
310,297,211308,1,0,1:0:0:0:
207,61,211671,1,0,1:0:0:0:
256,192,212880,12,0,216267,3:2:0:0:
341,352,220622,5,0,1:0:0:0:
218,223,220864,1,0,0:0:0:0:
202,241,220985,2,0,L|130:250,2,60,8|8|0,1:2|1:0|0:0,0:0:0:0:
270,297,221348,1,8,0:2:0:0:
456,172,221590,1,0,1:0:0:0:
450,195,221711,2,0,B|408:218|408:218|319:206,1,120,8|8,1:0|1:2,0:0:0:0:
272,156,222074,1,8,1:0:0:0:
361,83,222316,1,8,0:2:0:0:
148,73,222558,5,0,1:0:0:0:
148,73,222679,2,0,B|188:47|188:47|272:56,1,120,0|8,0:0|1:2,0:0:0:0:
280,82,223041,2,0,P|311:79|341:68,1,60,8|0,1:0|0:0,0:0:0:0:
480,161,223283,2,0,P|452:139|431:117,1,60,10|0,1:2|1:0,0:0:0:0:
281,213,223525,2,0,P|310:191|334:163,1,60,8|8,1:0|1:0,0:0:0:0:
422,286,223767,2,0,P|407:247|402:220,1,60,2|8,1:2|1:2,0:0:0:0:
323,307,224009,1,2,3:2:0:0:
313,329,224130,2,0,P|245:362|178:351,1,120,2|4,3:2|3:0,0:0:0:0:
76,257,224493,5,0,1:0:0:0:
174,175,224735,1,0,0:0:0:0:
214,219,224856,1,8,1:2:0:0:
202,277,224977,1,8,1:0:0:0:
76,257,225219,1,8,0:2:0:0:
289,258,225461,2,0,B|337:268|337:268|348:282|348:282|403:294,1,120,0|0,1:0|1:0,0:0:0:0:
424,288,225824,1,8,1:2:0:0:
448,282,225945,2,0,L|453:347,2,60,0|0|4,3:0|3:0|3:0,0:0:0:0:
381,187,226429,5,0,1:0:0:0:
147,223,226791,1,0,1:0:0:0:
381,187,227154,1,0,1:0:0:0:
305,246,227396,5,0,1:0:0:0:
237,170,227638,1,0,1:0:0:0:
237,170,227759,1,0,1:0:0:0:
237,170,227880,2,0,L|245:96,1,60,0|0,3:0|3:0,0:0:0:0:
196,24,228122,1,4,3:0:0:0:
102,97,228364,5,6,1:1:0:0:
401,137,228727,1,2,1:1:0:0:
102,97,229090,1,2,1:0:0:0:
196,24,229332,5,6,1:1:0:0:
