osu file format v14

[General]
AudioFilename: audio.mp3
AudioLeadIn: 0
PreviewTime: 174534
Countdown: 0
SampleSet: Soft
StackLeniency: 0.7
Mode: 0
LetterboxInBreaks: 0
WidescreenStoryboard: 0

[Editor]
Bookmarks: 1199,20399,39599,58799,73199,89999,104399,118799,133199,147599,159599,173999,185999,200399,213599,233999
DistanceSpacing: 1
BeatDivisor: 8
GridSize: 8
TimelineZoom: 3.499999

[Metadata]
Title:Kesshou
TitleUnicode:結証
Artist:Ryokuoushoku Shakai
ArtistUnicode:緑黄色社会
Creator:Deca
Version:Collab Nightfall
Source:半妖の夜叉姫
Tags:agatsu bongo collab princess half-demon リョクシャカ ryokushaka 長屋晴子 haruko nagaya 小林壱誓 issei kobayashi 穴見真吾 shingo anami 犬夜叉 inuyasha hanyou no yashahime decagatsu japanese rock pop
BeatmapID:2831393
BeatmapSetID:1369270

[Difficulty]
HPDrainRate:5
CircleSize:4
OverallDifficulty:8.5
ApproachRate:9.2
SliderMultiplier:3
SliderTickRate:1

[Events]
//Background and Video events
0,0,"87531589_p0.jpg",0,0
//Break Periods
//Storyboard Layer 0 (Background)
//Storyboard Layer 1 (Fail)
//Storyboard Layer 2 (Pass)
//Storyboard Layer 3 (Foreground)
//Storyboard Layer 4 (Overlay)
//Storyboard Sound Samples

[TimingPoints]
1209,600,4,2,1,32,1,0
1209,-250,4,2,1,32,0,0
10809,-200,4,2,1,42,0,0
20409,-200,4,2,1,62,0,0
27609,-333.333333333333,4,2,1,62,0,0
29409,-200,4,2,1,42,0,0
30009,-200,4,2,1,42,0,0
36909,-250,4,2,1,42,0,0
38709,-200,4,2,1,42,0,0
39609,-200,4,2,1,62,0,0
49209,-142.857142857143,4,2,1,62,0,0
54009,-111.111111111111,4,2,1,72,0,0
57009,-100,4,2,1,72,0,0
57609,-90.9090909090909,4,2,1,77,0,0
57909,-250,4,2,1,72,0,0
58809,-142.857142857143,4,2,1,82,0,0
59409,-100,4,2,1,82,0,0
61209,-142.857142857143,4,2,1,82,0,0
61809,-100,4,2,1,82,0,0
63609,-142.857142857143,4,2,1,82,0,0
64209,-100,4,2,1,82,0,0
66009,-142.857142857143,4,2,1,82,0,0
66609,-100,4,2,1,82,0,0
68409,-142.857142857143,4,2,1,82,0,0
69009,-100,4,2,1,82,0,0
75609,-142.857142857143,4,2,1,82,0,0
76209,-100,4,2,1,82,0,0
78009,-142.857142857143,4,2,1,82,0,0
78609,-90.9090909090909,4,2,1,82,0,0
82809,-142.857142857143,4,2,1,82,0,0
83409,-100,4,2,1,72,0,0
85809,-90.9090909090909,4,2,1,72,0,0
87609,-83.3333333333333,4,2,1,82,0,0
88659,-100,4,2,1,85,0,0
89109,-125,4,2,1,62,0,0
90009,-111.111111111111,4,2,1,62,0,0
91209,-111.111111111111,4,2,1,62,0,0
92109,-166.666666666667,4,2,1,62,0,0
93009,-111.111111111111,4,2,1,62,0,0
96909,-166.666666666667,4,2,1,62,0,0
97809,-111.111111111111,4,2,1,62,0,0
100509,-166.666666666667,4,2,1,62,0,0
103209,-200,4,2,1,62,0,0
104409,-142.857142857143,4,2,1,52,0,0
105609,-111.111111111111,4,2,1,52,0,0
106509,-166.666666666666,4,2,1,52,0,0
112809,-142.857142857142,4,2,1,52,0,0
114009,-111.111111111111,4,2,1,62,0,0
114909,-166.666666666666,4,2,1,62,0,0
116109,-125,4,2,1,62,0,0
123609,-142.857142857143,4,2,1,62,0,0
128409,-111.111111111111,4,2,1,72,0,0
129309,-142.857142857143,4,2,1,72,0,0
130809,-111.111111111111,4,2,1,72,0,0
131709,-111.111111111111,4,2,1,77,0,0
133209,-142.857142857143,4,2,1,82,0,0
133809,-90.9090909090909,4,2,1,82,0,0
134709,-111.111111111111,4,2,1,82,0,0
135609,-142.857142857143,4,2,1,82,0,0
136209,-100,4,2,1,82,0,0
138009,-142.857142857143,4,2,1,82,0,0
138609,-90.9090909090909,4,2,1,82,0,0
139509,-90.9090909090909,4,2,1,82,0,0
140409,-142.857142857143,4,2,1,82,0,0
141009,-90.9090909090909,4,2,1,82,0,0
142809,-142.857142857143,4,2,1,82,0,0
143409,-90.909090909091,4,2,1,82,0,0
145209,-142.857142857143,4,2,1,82,0,0
146259,-90.9090909090909,4,2,1,82,0,0
148209,-100,4,2,1,82,0,0
150009,-142.857142857143,4,2,1,82,0,0
150609,-100,4,2,1,82,0,0
154809,-90.9090909090909,4,2,1,82,0,0
157509,-100,4,2,1,77,0,0
159609,-125,4,2,1,67,0,0
162009,-111.111111111111,4,2,1,67,0,0
163209,-142.857142857143,4,2,1,67,0,0
164409,-111.111111111111,4,2,1,72,0,0
166809,-142.857142857143,4,2,1,77,0,0
170259,-100,4,2,1,77,0,0
171609,-100,4,2,1,77,0,0
175209,-250,4,2,1,42,0,0
176259,-166.666666666667,4,2,1,42,0,0
177009,-250,4,2,1,42,0,0
178659,-166.666666666667,4,2,1,42,0,0
179409,-250.000000000001,4,2,1,42,0,0
181059,-166.666666666667,4,2,1,42,0,0
182109,-166.666666666667,4,2,1,42,0,0
183309,-100,4,2,1,82,0,0
186009,-142.857142857143,4,2,1,82,0,0
186609,-100,4,2,1,82,0,0
187059,-142.857142857143,4,2,1,82,0,0
188409,-83.3333333333334,4,2,1,82,0,0
189459,-142.857142857143,4,2,1,82,0,0
190509,-100,4,2,1,82,0,0
193209,-142.857142857143,4,2,1,82,0,0
193809,-83.3333333333334,4,2,1,82,0,0
195609,-142.857142857143,4,2,1,82,0,0
196209,-83.3333333333333,4,2,1,82,0,0
200409,-100,4,2,1,72,0,0
202809,-142.857142857143,4,2,1,72,0,0
203409,-100,4,2,1,72,0,0
205209,-100,4,2,1,77,0,0
207609,-100,4,2,1,82,0,0
208359,-142.857142857143,4,2,1,82,0,0
209109,-100,4,2,1,82,0,0
210009,-333.333333333333,4,2,1,82,0,0
210609,-100,4,2,1,82,0,0
213609,-250,4,2,1,32,0,0
219609,631.578947368421,4,2,1,32,1,0
219609,-250,4,2,1,32,0,0
220872,-500,4,2,1,32,0,0
221503,-500,4,2,1,22,0,0
222135,-500,4,2,1,12,0,0
222766,-500,4,2,1,7,0,0
223398,-500,4,2,1,5,0,0

[Colours]
Combo1 : 207,150,203
Combo2 : 108,165,206
Combo3 : 194,152,205
Combo4 : 91,180,187

[HitObjects]
222,195,1209,6,0,P|218:164|206:126,2,60,2|0|0,0:0|0:0|0:0,0:0:0:0:
178,265,2409,2,0,P|139:288|44:290,1,120,2|0,0:0|0:0,0:0:0:0:
270,263,3609,2,0,B|309:271|309:271|334:301|334:301|387:316,1,120,2|0,0:0|0:0,0:0:0:0:
423,217,5934,5,0,0:0:0:0:
423,217,6009,2,0,P|413:177|403:155,2,60,2|0|0,0:0|0:0|0:0,0:0:0:0:
316,148,6909,1,0,0:0:0:0:
431,42,7209,2,0,P|396:69|306:54,1,120,2|0,0:0|0:0,0:0:0:0:
221,68,8409,2,0,B|230:117|230:117|249:134|249:134|262:191,2,120,2|0|2,0:0|0:0|0:0,0:0:0:0:
325,180,10809,6,0,B|402:157|387:228|489:193,1,150,2|0,0:0|0:0,0:0:0:0:
327,270,12009,2,0,L|246:296,2,75,2|0|0,0:0|0:0|0:0,0:0:0:0:
365,341,12909,2,0,B|350:303|350:303|374:259|374:259|342:171,1,150,2|0,0:0|0:0,0:0:0:0:
399,31,14709,6,0,L|413:66,1,37.5,2|0,0:0|0:0,0:0:0:0:
507,50,15009,2,0,L|503:104,1,37.5,2|0,0:0|0:0,0:0:0:0:
439,170,15309,1,2,0:0:0:0:
439,170,15609,2,0,B|354:152|378:216|283:186,1,150,2|0,0:0|0:0,0:0:0:0:
207,156,16809,1,2,0:0:0:0:
207,156,17109,2,0,P|220:123|221:75,1,75,2|0,0:0|0:0,0:0:0:0:
150,223,17709,2,0,P|89:238|-6:234,1,150,2|0,0:0|0:0,0:0:0:0:
2,235,20409,5,0,1:2:0:0:
157,177,20709,1,0,1:0:0:0:
157,177,21309,6,0,P|176:258|161:342,1,150,6|8,1:2|0:3,0:0:0:0:
361,192,22209,1,0,1:0:0:0:
267,238,22509,2,0,L|314:249,1,37.5,8|8,0:3|0:3,0:0:0:0:
349,311,22809,5,0,1:0:0:0:
512,230,23109,1,0,1:0:0:0:
512,230,23709,2,0,B|496:142|537:162|514:76,1,150,6|8,1:2|0:3,0:0:0:0:
353,141,24609,1,8,1:3:0:0:
425,177,24759,1,0,1:0:0:0:
425,177,25059,1,0,1:0:0:0:
341,215,25209,5,0,1:0:0:0:
427,97,25509,1,0,1:0:0:0:
427,97,26109,2,0,P|359:84|276:67,1,150,6|8,1:2|0:3,0:0:0:0:
59,210,27009,1,0,1:0:0:0:
123,168,27159,1,0,1:0:0:0:
57,101,27309,1,8,0:3:0:0:
57,101,27609,6,0,P|34:180|23:283,1,179.999994506836,6|0,1:2|0:0,0:0:0:0:
217,366,29109,5,8,0:3:0:0:
328,302,29259,1,0,1:0:0:0:
260,272,29409,2,0,P|228:283|212:288,1,37.5,10|0,0:0|0:0,0:0:0:0:
367,170,29709,2,0,P|373:136|377:120,1,37.5,2|0,0:3|0:0,0:0:0:0:
499,283,30009,6,0,P|434:314|411:393,1,150,4|0,1:1|0:0,0:0:0:0:
239,304,30909,1,2,1:2:0:0:
168,285,31209,2,0,P|130:295|89:304,2,75,2|0|2,0:0|0:0|0:0,0:0:0:0:
328,378,32109,6,0,P|326:288|346:218,1,150,2|2,1:2|0:0,0:0:0:0:
340,230,32809,1,2,0:2:0:0:
340,230,32909,1,2,0:2:0:0:
340,230,33009,1,2,0:2:0:0:
148,72,33609,5,0,0:0:0:0:
211,1,33909,2,0,P|223:43|226:96,2,75,2|0|2,0:0|0:0|0:0,0:0:0:0:
12,153,34809,6,0,B|99:132|84:175|173:152,1,150,2|0,1:2|0:0,0:0:0:0:
227,193,35709,1,2,1:2:0:0:
109,292,36009,2,0,P|72:282|15:272,2,75,2|0|2,0:2|1:0|0:0,0:0:0:0:
292,384,36909,6,0,P|287:297|309:204,1,180,2|0,1:2|0:0,0:0:0:0:
497,20,38709,2,0,L|514:67,1,37.5
451,103,39009,2,0,P|409:127|390:190,1,112.5,4|0,0:3|0:0,0:0:0:0:
433,256,39609,5,4,1:2:0:0:
254,173,39909,1,0,1:0:0:0:
254,173,40509,2,0,B|204:190|204:190|191:224|191:224|111:251,1,150,4|8,1:2|0:3,0:0:0:0:
345,258,41409,1,0,1:0:0:0:
402,188,41709,2,0,L|390:137,1,37.5,0|0,1:0|1:0,0:0:0:0:
330,102,42009,5,0,1:0:0:0:
472,231,42309,1,0,1:0:0:0:
472,231,42909,2,0,P|498:208|504:93,1,150,4|8,1:2|0:3,0:0:0:0:
384,48,43809,2,0,L|340:61,1,37.5,8|0,0:3|1:0,0:0:0:0:
327,163,44109,2,0,L|276:143,1,37.5,0|0,1:0|1:0,0:0:0:0:
235,99,44409,5,0,1:0:0:0:
350,255,44709,1,0,1:0:0:0:
354,259,45309,2,0,B|263:239|298:308|191:280,1,150,4|8,1:2|0:3,0:0:0:0:
62,197,46209,5,0,1:0:0:0:
62,197,46509,1,0,1:0:0:0:
123,268,46659,1,0,1:0:0:0:
35,282,46809,2,0,L|-12:297,1,37.5,2|0,1:2|0:0,0:0:0:0:
138,178,47109,2,0,P|147:152|155:129,1,37.5,0|2,1:0|0:0,0:0:0:0:
200,370,47409,5,8,0:0:0:0:
200,370,47709,2,0,P|241:387|346:358,1,150,6|10,1:2|0:3,0:0:0:0:
360,343,48609,1,10,0:2:0:0:
270,263,48759,1,8,0:3:0:0:
364,225,48909,1,2,1:2:0:0:
189,103,49209,6,0,P|162:138|160:224,1,104.999996795654,6|0,1:2|0:0,0:0:0:0:
129,274,49659,2,0,P|93:286|61:294,1,52.4999983978272,2|8,0:0|0:0,0:0:0:0:
228,352,50109,2,0,B|317:332|282:387|382:363,1,157.499995193482,2|0,1:2|3:3,0:0:0:0:
407,349,50709,1,2,1:2:0:0:
300,269,51009,2,0,P|283:237|288:193,1,52.4999983978272,8|0,0:0|0:0,0:0:0:0:
368,132,51309,2,0,P|355:164|362:200,1,52.4999983978272
209,299,51609,6,0,B|166:289|166:289|155:290|155:290|85:276,1,104.999996795654,2|0,1:2|0:0,0:0:0:0:
29,327,52059,2,0,P|19:294|2:258,1,52.4999983978272,2|8,0:0|0:0,0:0:0:0:
132,141,52359,1,0,0:0:0:0:
132,141,52509,2,0,L|111:211,1,52.4999983978272
213,186,52809,1,2,0:0:0:0:
63,99,52959,1,0,0:0:0:0:
216,15,53109,2,0,B|244:11|244:11|288:31,1,52.4999983978272,2|0,1:2|0:0,0:0:0:0:
191,103,53409,2,0,B|274:85|256:137|348:112,1,157.499995193482,10|0,0:2|0:0,0:0:0:0:
114,196,54009,6,0,L|79:350,1,134.999995880127,6|0,1:2|0:0,0:0:0:0:
222,202,54459,2,0,P|277:216|320:223,1,67.4999979400635,2|8,0:0|0:0,0:0:0:0:
85,19,54759,1,0,0:0:0:0:
117,88,54909,2,0,P|49:125|-15:64,1,134.999995880127,2|0,1:2|0:0,0:0:0:0:
130,261,55359,1,0,3:0:0:0:
130,261,55509,2,0,L|107:169,1,67.4999979400635,2|0,1:2|0:0,0:0:0:0:
355,35,55809,2,0,B|360:68|360:68|340:124,1,67.4999979400635,8|0,0:0|0:0,0:0:0:0:
214,119,56109,2,0,B|207:84|207:84|221:43,1,67.4999979400635
393,187,56409,5,2,1:2:0:0:
359,278,56559,2,0,P|406:294|448:300,1,67.4999979400635,8|0,0:0|3:0,0:0:0:0:
161,238,56859,5,14,0:2:0:0:
183,320,57009,2,0,P|140:338|108:347,1,75,0|8,1:0|0:3,0:0:0:0:
306,341,57309,5,10,0:3:0:0:
128,162,57459,1,8,0:3:0:0:
335,54,57609,2,0,P|323:106|316:158,1,82.5000025177003,0|0,1:0|0:0,0:0:0:0:
380,189,57909,2,0,B|456:186|434:234|534:224,1,150,12|0,0:2|0:0,0:0:0:0:
202,48,58809,6,2,P|136:73|110:152,1,157.499995193482,6|0,1:1|0:0,0:1:0:0:
9,350,59409,2,2,P|47:339|88:330,1,75,10|0,0:0|0:0,0:1:0:0:
149,369,59709,1,0,3:0:0:0:
19,237,59859,2,2,P|20:159|4:70,1,150,2|0,1:2|0:0,0:1:0:0:
232,215,60309,2,0,P|195:223|159:233,1,75,0|0,1:0|0:0,0:0:0:0:
363,383,60609,5,10,0:0:0:0:
463,279,60759,1,2,0:0:0:0:
462,357,60909,1,10,0:3:0:0:
369,306,61059,1,2,0:0:0:0:
502,114,61209,6,2,B|417:93|432:138|331:111,1,157.499995193482,2|0,1:2|0:0,0:1:0:0:
61,191,61809,2,2,P|63:155|80:115,1,75,10|0,0:2|0:0,0:1:0:0:
133,67,62109,1,0,3:0:0:0:
244,197,62259,2,2,P|240:275|212:352,1,150,2|0,1:2|0:0,0:1:0:0:
440,306,62709,2,0,P|475:316|521:326,1,75,0|0,1:0|0:0,0:0:0:0:
377,350,63009,5,8,0:0:0:0:
349,277,63159,1,0,0:0:0:0:
410,225,63309,1,10,0:3:0:0:
438,298,63459,1,2,0:0:0:0:
243,191,63609,6,2,P|167:238|163:319,1,157.499995193482,2|2,1:2|0:0,0:1:0:0:
72,126,64209,2,0,P|38:135|-6:146,1,75,8|0,0:0|0:0,0:0:0:0:
221,225,64509,1,2,3:2:0:0:
208,149,64659,2,2,P|205:72|217:-8,1,150,2|2,1:2|0:2,0:1:0:0:
376,192,65109,2,0,P|406:199|456:214,1,75,0|0,1:0|0:0,0:0:0:0:
401,49,65409,2,0,P|379:71|341:107,1,75,8|0,0:0|0:0,0:0:0:0:
512,142,65709,2,0,P|503:112|491:61,1,75,10|0,0:3|0:0,0:0:0:0:
272,199,66009,6,2,P|317:218|350:320,1,157.499995193482,2|0,1:2|0:0,0:1:0:0:
110,383,66609,2,2,B|107:347|107:347|126:296,1,75,10|0,0:0|0:0,0:1:0:0:
185,348,66909,1,2,3:2:0:0:
0,200,67059,2,2,P|76:189|156:178,1,150,2|8,1:2|0:0,0:1:0:0:
59,268,67509,5,0,1:0:0:0:
192,116,67659,1,8,0:3:0:0:
399,195,67809,5,10,0:0:0:0:
337,242,67959,1,10,1:3:0:0:
325,169,68109,1,10,0:3:0:0:
412,270,68259,1,2,3:2:0:0:
171,373,68409,6,2,B|196:285|153:299|186:211,1,157.499995193482,6|0,1:1|0:0,0:1:0:0:
183,218,69009,2,2,P|148:229|105:240,1,75,10|0,0:0|0:0,0:1:0:0:
346,351,69309,1,0,3:0:0:0:
400,298,69459,2,2,P|415:228|334:187,1,150,2|0,1:2|0:0,0:1:0:0:
445,9,69909,2,0,P|408:22|366:36,1,75,0|0,3:0|0:0,0:0:0:0:
207,180,70209,5,10,0:0:0:0:
166,115,70359,1,2,0:0:0:0:
229,71,70509,1,2,0:0:0:0:
273,135,70659,1,2,0:0:0:0:
36,177,70809,6,2,P|38:96|69:14,1,150,6|2,1:2|0:0,0:1:0:0:
127,0,71259,1,8,0:3:0:0:
273,135,71409,2,0,P|312:145|359:159,1,75,10|0,0:0|0:0,0:0:0:0:
270,209,71709,1,0,1:0:0:0:
512,102,71859,2,2,P|440:141|430:217,1,150,6|8,3:2|0:0,0:1:0:0:
255,379,72309,2,0,B|251:343|251:343|268:297,1,75,0|0,1:0|0:0,0:0:0:0:
75,177,72609,6,0,P|39:187|0:197,1,75,10|2,0:0|0:0,0:0:0:0:
66,257,72909,1,8,1:3:0:0:
177,162,73059,1,10,0:3:0:0:
52,6,73209,6,2,P|33:85|34:168,1,150,6|2,1:2|0:0,0:1:0:0:
246,84,73659,2,0,L|335:103,1,75,0|10,0:0|0:0,0:0:0:0:
259,241,73959,1,0,0:0:0:0:
348,182,74109,1,0,3:0:0:0:
184,193,74259,6,2,B|94:195|126:238|38:229,1,150,6|0,1:2|0:0,0:1:0:0:
264,255,74709,2,0,P|320:266|349:274,1,75,2|0,1:2|0:0,0:0:0:0:
223,72,75009,5,8,0:0:0:0:
273,144,75159,1,0,0:0:0:0:
343,94,75309,1,2,0:0:0:0:
291,14,75459,1,0,0:0:0:0:
116,190,75609,6,2,P|110:272|133:348,1,157.499995193482,2|0,1:2|0:0,0:1:0:0:
372,271,76209,2,0,B|380:234|380:234|342:178,1,75,8|2,0:0|0:0,0:1:0:0:
438,53,76509,1,2,3:2:0:0:
436,169,76659,2,0,L|528:146,1,75,2|0,1:2|0:0,0:0:0:0:
296,347,76959,5,8,0:0:0:0:
266,274,77109,2,0,B|182:255|203:308|107:283,1,150,0|10,1:0|0:0,0:0:0:0:
41,258,77559,1,10,0:0:0:0:
157,205,77709,1,10,1:3:0:0:
69,123,77859,1,10,0:3:0:0:
403,22,78009,6,2,L|431:184,1,157.499995193482,6|2,1:0|0:0,0:1:0:0:
262,145,78609,2,0,B|293:117|293:117|362:125,1,82.5000025177003,10|0,0:0|0:0,0:0:0:0:
503,121,78909,1,2,0:0:0:0:
503,121,79059,1,10,0:0:0:0:
333,200,79209,6,2,B|232:161|256:238|139:207,1,165.000005035401,6|0,1:2|3:3,0:1:0:0:
0,341,79659,2,2,B|101:302|77:379|194:348,1,165.000005035401,2|0,1:2|0:0,0:1:0:0:
83,173,80109,2,0,B|92:212|92:212|65:257,1,82.5000025177003,2|0,0:0|0:0,0:0:0:0:
339,70,80409,6,2,L|377:259,1,165.000005035401,6|0,1:2|3:0,0:1:0:0:
294,257,80859,1,0,0:0:0:0:
441,160,81009,2,0,P|486:172|533:192,1,82.5000025177003,8|0,0:0|0:0,0:0:0:0:
268,341,81309,5,0,1:0:0:0:
200,384,81459,2,2,P|138:366|161:254,1,165.000005035401,2|8,3:2|0:0,0:1:0:0:
248,204,81909,2,0,P|237:154|224:100,1,82.5000025177003,2|0,1:2|0:0,0:0:0:0:
155,85,82209,5,10,0:0:0:0:
252,27,82359,1,10,1:3:0:0:
174,0,82509,1,10,3:0:0:0:
239,110,82659,1,10,0:3:0:0:
325,235,82809,6,2,B|409:255|388:206|489:226,1,157.499995193482,6|0,1:0|0:0,0:1:0:0:
439,312,83409,2,0,P|439:333|453:384,1,75,8|0,0:3|0:0,0:0:0:0:
354,146,83709,2,0,P|354:125|368:74,1,75,0|0,1:0|0:0,0:0:0:0:
308,245,84009,5,10,1:3:0:0:
453,136,84159,1,8,3:3:0:0:
296,29,84309,2,0,L|202:9,1,75,2|0,1:2|0:0,0:0:0:0:
40,175,84609,5,8,0:0:0:0:
168,125,84759,1,8,0:3:0:0:
85,94,84909,1,8,1:3:0:0:
123,209,85059,1,8,0:3:0:0:
283,90,85209,5,10,1:3:0:0:
309,0,85359,1,0,1:0:0:0:
394,33,85509,1,10,3:3:0:0:
366,120,85659,1,0,1:0:0:0:
157,373,85809,6,0,P|137:317|143:207,1,165.000005035401,14|2,0:0|1:3,0:0:0:0:
226,185,86259,1,0,3:0:0:0:
59,291,86409,2,0,P|-4:304|-51:318,1,82.5000025177003,2|0,1:3|3:0,0:0:0:0:
159,74,86709,2,0,P|216:94|253:104,1,82.5000025177003,2|0,1:2|0:0,0:0:0:0:
374,329,87009,5,8,0:0:0:0:
487,271,87159,1,8,0:3:0:0:
377,236,87309,5,8,1:3:0:0:
480,364,87459,1,8,0:3:0:0:
179,312,87609,6,0,B|153:235|209:254|180:159,1,134.999995880127,6|0,1:2|0:0,0:0:0:0:
186,181,87909,2,0,P|139:169|87:159,1,89.9999972534181,10|8,3:3|0:3,0:0:0:0:
314,171,88209,1,10,1:3:0:0:
461,256,88359,1,2,3:3:0:0:
325,307,88509,1,10,3:0:0:0:
377,232,88659,2,0,B|388:183|388:183|364:147|364:147|383:71,1,150,4|0,1:2|0:0,0:0:0:0:
287,216,89109,6,0,P|245:197|207:188,1,60,2|0,0:0|0:0,0:0:0:0:
435,30,89409,1,10,0:0:0:0:
286,120,89559,1,8,0:3:0:0:
458,159,89709,2,0,P|496:147|532:138,1,60,2|0,1:2|0:0,0:0:0:0:
281,6,90009,6,0,P|216:54|210:116,1,134.999995880127,6|0,1:2|0:0,0:0:0:0:
353,358,90609,1,10,0:0:0:0:
396,291,90759,1,0,0:0:0:0:
332,246,90909,1,2,0:0:0:0:
291,312,91059,1,0,0:0:0:0:
493,372,91209,2,0,B|468:300|505:309|471:236,1,134.999995880127,2|0,1:2|3:0,0:0:0:0:
218,66,91809,6,0,P|172:82|133:93,1,67.4999979400635,10|0,0:0|0:0,0:0:0:0:
204,191,92109,2,0,P|152:121|65:122,1,179.999994506836,2|0,1:2|0:0,0:0:0:0:
258,262,93009,6,0,B|338:242|324:269|407:245,1,134.999995880127,8|0,0:0|0:0,0:0:0:0:
210,351,93459,1,0,0:0:0:0:
277,378,93609,2,0,P|315:367|354:358,1,67.4999979400635,2|0,1:2|0:0,0:0:0:0:
131,267,93909,2,0,P|93:256|54:247,1,67.4999979400635,2|0,3:2|0:0,0:0:0:0:
17,306,94209,2,0,P|23:231|13:165,1,134.999995880127,10|2,0:0|0:3,0:0:0:0:
235,0,94809,6,0,P|226:66|232:133,1,134.999995880127,2|0,1:2|0:0,0:0:0:0:
174,186,95259,1,0,0:0:0:0:
361,275,95409,2,0,P|357:241|337:199,1,67.4999979400635,10|0,0:0|0:0,0:0:0:0:
154,261,95709,2,0,B|83:250|97:281|16:262,1,134.999995880127,2|0,0:0|1:0,0:0:0:0:
294,384,96309,6,0,B|292:351|292:351|308:308,1,67.4999979400635,2|0,1:2|0:0,0:0:0:0:
447,195,96609,2,0,P|475:204|529:216,1,67.4999979400635,10|0,0:0|0:0,0:0:0:0:
390,256,96909,2,0,P|410:183|312:132,1,179.999994506836,2|0,1:2|0:0,0:0:0:0:
25,186,97809,6,0,P|64:196|98:207,1,67.4999979400635,8|0,0:0|0:0,0:0:0:0:
45,289,98109,2,0,P|98:242|174:260,1,134.999995880127,2|0,0:0|1:0,0:0:0:0:
316,373,98559,1,0,0:0:0:0:
368,317,98709,2,0,B|364:285|364:285|378:242,1,67.4999979400635,0|0,1:0|0:0,0:0:0:0:
463,127,99009,2,0,P|402:140|321:155,1,134.999995880127,8|2,0:0|0:3,0:0:0:0:
15,337,99609,5,8,0:0:0:0:
87,363,99759,2,0,P|86:297|59:209,1,134.999995880127,0|8,1:0|0:3,0:0:0:0:
246,127,100209,1,2,1:2:0:0:
187,178,100359,1,2,0:0:0:0:
207,0,100509,2,0,P|241:86|326:98,1,179.999994506836,6|0,1:2|0:0,0:0:0:0:
484,361,101409,5,8,0:3:0:0:
484,361,101509,1,8,0:3:0:0:
484,361,101609,1,8,0:3:0:0:
484,361,101709,2,0,P|487:297|464:179,1,179.999994506836,6|8,1:2|0:3,0:0:0:0:
423,120,102609,1,0,1:0:0:0:
159,298,103134,5,0,0:0:0:0:
159,298,103209,2,0,P|114:287|74:273,1,75,8|2,0:0|0:0,0:0:0:0:
86,354,103659,1,8,0:3:0:0:
247,384,103809,2,0,P|250:335|257:305,1,75,2|0,1:2|0:0,0:0:0:0:
104,173,104409,6,0,L|70:28,1,104.999996795654,2|0,1:2|0:0,0:0:0:0:
59,255,105009,2,0,P|14:243|-10:240,1,52.4999983978272,10|0,0:0|0:0,0:0:0:0:
83,284,105309,2,0,P|64:330|59:363,1,52.4999983978272,2|0,3:2|0:0,0:0:0:0:
201,143,105609,2,0,B|280:135|253:176|340:160,2,134.999995880127,2|2|8,1:2|0:0|0:0,0:0:0:0:
327,280,106509,2,0,P|334:192|415:183,1,179.999994506836,2|0,1:2|0:0,0:0:0:0:
428,186,107409,2,0,L|443:244,1,44.999998626709,8|0,0:0|0:0,0:0:0:0:
469,113,107709,2,0,L|520:125,1,44.999998626709
375,72,108009,1,0,1:0:0:0:
262,187,108309,6,0,L|279:131,1,44.999998626709,2|0,3:2|0:0,0:0:0:0:
201,273,108609,2,0,B|241:264|241:264|260:279|260:279|333:265,1,134.999995880127,10|0,0:0|0:0,0:0:0:0:
105,220,109209,2,0,B|126:157|69:151|120:68,1,134.999995880127,2|0,1:2|0:0,0:0:0:0:
108,88,109809,2,0,L|57:100,1,44.999998626709,10|0,0:0|0:0,0:0:0:0:
175,41,110109,2,0,L|152:-5,1,44.999998626709,2|0,3:2|0:0,0:0:0:0:
187,221,110409,2,0,B|225:227|225:227|240:256|240:256|332:274,1,134.999995880127,2|0,1:2|0:0,0:0:0:0:
308,272,111009,1,10,0:0:0:0:
391,79,111309,6,0,P|434:98|405:184,1,134.999995880127,2|0,1:2|0:0,0:0:0:0:
472,250,111909,1,0,1:0:0:0:
390,316,112209,2,0,L|377:363,1,44.999998626709,8|0,0:0|0:0,0:0:0:0:
337,247,112509,2,0,L|271:261,1,44.999998626709
51,117,112809,6,0,L|176:140,1,104.999996795654,0|2,1:0|3:2,0:0:0:0:
249,54,113409,2,0,P|235:100|231:145,1,52.4999983978272,10|0,0:0|0:0,0:0:0:0:
192,262,113709,2,0,P|176:226|167:203,1,52.4999983978272,10|0,0:3|0:0,0:0:0:0:
315,136,114009,6,0,B|388:119|378:181|474:154,1,134.999995880127,6|0,1:2|0:0,0:0:0:0:
477,153,114459,1,2,0:0:0:0:
347,226,114609,2,0,L|275:258,1,67.4999979400635,8|0,0:0|0:0,0:0:0:0:
39,66,114909,2,0,P|65:97|164:137,1,134.999995880127,2|0,1:2|0:0,0:0:0:0:
229,132,115509,1,2,1:2:0:0:
35,192,115809,2,0,P|6:203|-26:220,1,44.999998626709,8|0,0:0|0:0,0:0:0:0:
183,237,116109,2,0,P|196:264|209:303,1,60,2|0,0:2|0:0,0:0:0:0:
286,67,116409,6,0,P|327:72|347:163,1,120,2|0,1:2|0:0,0:0:0:0:
493,203,116859,2,0,P|483:241|482:278,1,60,2|8,0:0|0:0,0:0:0:0:
351,223,117309,2,0,B|312:231|312:231|291:255|291:255|205:280,1,120,2|0,1:2|0:0,0:0:0:0:
234,271,117759,1,0,3:0:0:0:
388,301,117909,2,0,P|436:320|463:340,1,60,2|0,1:2|0:0,0:0:0:0:
310,152,118209,2,0,P|316:111|321:63,1,60,8|0,0:0|0:0,0:0:0:0:
181,29,118509,2,0,P|199:73|214:117,1,60,2|0,0:0|0:0,0:0:0:0:
48,268,118809,6,0,P|29:203|117:144,1,180,2|0,1:2|0:0,0:0:0:0:
259,279,119409,2,0,P|228:288|188:297,1,60,10|0,0:0|0:0,0:0:0:0:
156,358,119709,2,0,P|156:290|146:231,1,120,2|0,1:2|0:0,0:0:0:0:
259,60,120159,1,0,0:0:0:0:
192,17,120309,2,0,P|153:29|125:36,1,60,0|0,3:0|0:0,0:0:0:0:
271,142,120609,5,8,0:0:0:0:
368,99,120759,1,2,0:0:0:0:
348,176,120909,5,8,0:3:0:0:
434,245,121059,1,2,0:0:0:0:
310,241,121209,6,0,P|281:311|276:386,1,120,6|0,1:2|0:0,0:0:0:0:
186,230,121659,2,0,P|139:169|77:128,1,120,10|0,0:2|0:0,0:0:0:0:
257,128,122109,2,0,P|332:118|399:84,1,120,6|0,1:2|0:0,0:0:0:0:
167,30,122559,5,0,0:0:0:0:
112,84,122709,2,0,B|102:114|102:114|106:151,1,60,10|0,3:3|0:0,0:0:0:0:
31,279,123009,5,10,0:0:0:0:
129,368,123159,1,8,0:3:0:0:
56,350,123309,2,0,P|25:366|-13:380,1,60,2|0,1:2|0:0,0:0:0:0:
150,200,123609,6,0,P|159:123|182:33,1,157.499995193482,6|2,1:2|0:0,0:0:0:0:
420,101,124209,2,0,P|395:109|353:125,1,52.4999983978272,8|0,0:0|0:0,0:0:0:0:
438,201,124509,2,0,P|378:153|290:171,1,157.499995193482,2|0,1:2|0:0,0:0:0:0:
140,286,125109,2,0,P|130:324|123:367,1,52.4999983978272,2|0,1:2|0:0,0:0:0:0:
63,384,125409,2,0,P|33:354|1:328,1,52.4999983978272,8|0,0:0|0:0,0:0:0:0:
16,268,125709,2,0,P|56:257|94:242,1,52.4999983978272,0|0,3:3|0:0,0:0:0:0:
311,318,126009,6,0,B|288:230|332:246|301:160,1,157.499995193482,2|2,1:2|0:0,0:0:0:0:
445,8,126609,2,0,P|405:22|386:28,1,52.4999983978272,8|0,0:0|0:0,0:0:0:0:
493,215,126909,1,0,0:0:0:0:
397,131,127059,1,0,0:0:0:0:
476,138,127209,1,0,1:0:0:0:
415,204,127359,1,0,0:0:0:0:
241,113,127509,6,0,P|228:146|220:181,1,52.4999983978272,2|0,3:2|0:0,0:0:0:0:
181,269,127809,2,0,P|201:203|135:143,1,157.499995193482,10|0,0:2|0:0,0:0:0:0:
0,351,128409,6,0,B|80:336|69:367|146:349,1,134.999995880127,6|0,1:2|0:0,0:0:0:0:
194,310,128859,1,2,0:0:0:0:
374,354,129009,2,0,P|378:322|391:268,1,67.4999979400635,8|0,0:0|0:0,0:0:0:0:
287,262,129309,2,0,P|347:311|319:405,1,157.499995193482,2|8,1:2|0:0,0:0:0:0:
456,196,129909,2,0,P|486:209|529:222,1,52.4999983978272,2|0,1:2|0:0,0:0:0:0:
381,120,130209,2,0,P|354:139|321:170,1,52.4999983978272,8|0,0:0|0:0,0:0:0:0:
484,93,130509,2,0,P|480:60|470:16,1,52.4999983978272,0|0,3:0|0:0,0:0:0:0:
251,163,130809,6,0,B|178:147|190:177|114:155,1,134.999995880127,6|8,1:2|0:3,0:0:0:0:
50,193,131259,1,10,0:0:0:0:
181,301,131409,2,0,P|216:291|258:282,1,67.4999979400635,0|0,1:0|0:0,0:0:0:0:
483,349,131709,5,2,1:2:0:0:
413,310,131859,1,8,3:3:0:0:
506,276,132009,5,8,0:0:0:0:
390,383,132159,1,8,0:0:0:0:
204,266,132309,2,0,P|208:187|228:119,1,134.999995880127,2|0,1:2|0:0,0:0:0:0:
228,120,133209,6,2,P|261:176|237:270,1,157.499995193482,6|0,1:1|0:0,0:1:0:0:
49,252,133809,2,2,P|88:222|138:211,1,82.5000025177003,10|0,0:0|0:0,0:1:0:0:
160,281,134109,1,0,3:0:0:0:
486,180,134259,2,2,B|393:143|417:216|310:178,1,165.000005035401,2|0,1:2|0:0,0:1:0:0:
318,207,134709,2,0,B|285:188|285:188|230:185,1,67.4999979400635,0|0,1:0|0:0,0:0:0:0:
137,371,135009,5,10,0:0:0:0:
2,285,135159,1,2,0:0:0:0:
135,248,135309,1,10,0:3:0:0:
19,380,135459,1,2,0:0:0:0:
81,311,135609,6,2,B|105:226|51:237|87:145,1,157.499995193482,2|0,1:2|0:0,0:1:0:0:
333,244,136209,2,2,L|426:273,1,75,10|0,0:2|0:0,0:1:0:0:
250,286,136509,1,0,3:0:0:0:
336,28,136659,2,2,P|279:59|287:163,1,150,2|0,1:2|0:0,0:1:0:0:
174,212,137109,2,0,P|165:171|145:122,1,75,0|0,1:0|0:0,0:0:0:0:
146,297,137409,1,8,0:0:0:0:
337,378,137559,2,0,P|362:379|379:275,1,150,0|2,0:0|0:0,0:0:0:0:
324,76,138009,6,2,B|402:65|388:111|483:86,1,157.499995193482,2|2,1:2|0:0,0:1:0:0:
294,161,138609,2,0,P|246:175|206:194,1,82.5000025177003,8|0,0:0|0:0,0:0:0:0:
347,239,138909,5,2,3:2:0:0:
481,175,139059,2,2,L|515:-3,1,165.000005035401,2|2,1:2|0:2,0:1:0:0:
220,207,139509,2,0,P|177:185|133:172,1,82.5000025177003,0|0,1:0|0:0,0:0:0:0:
291,79,139809,2,0,P|293:127|304:171,1,82.5000025177003,8|0,0:0|0:0,0:0:0:0:
145,82,140109,2,0,P|185:55|218:24,1,82.5000025177003,10|0,0:3|0:0,0:0:0:0:
65,237,140409,6,2,P|19:243|31:347,1,157.499995193482,2|0,1:2|0:0,0:1:0:0:
369,168,141009,2,2,P|336:148|276:162,1,82.5000025177003,10|0,0:0|0:0,0:1:0:0:
214,230,141309,1,2,3:2:0:0:
424,373,141459,2,2,P|423:351|389:297,1,82.5000025177003,2|0,1:2|0:0,0:1:0:0:
322,260,141759,1,8,0:0:0:0:
369,196,141909,1,0,1:0:0:0:
443,235,142059,1,8,0:3:0:0:
341,92,142209,5,10,0:0:0:0:
185,24,142359,1,10,1:3:0:0:
305,1,142509,5,10,0:3:0:0:
229,119,142659,1,2,3:2:0:0:
70,373,142809,6,2,B|104:286|38:297|75:211,1,157.499995193482,6|0,1:1|0:0,0:1:0:0:
162,196,143409,1,10,0:0:0:0:
38,127,143559,1,0,0:0:0:0:
135,95,143709,1,0,3:0:0:0:
239,316,143859,6,2,P|320:320|394:285,1,165.000005035401,2|0,1:2|0:0,0:1:0:0:
500,358,144309,2,0,P|492:310|483:271,1,82.5000025177003,0|0,3:0|0:0,0:0:0:0:
131,43,144609,5,10,0:0:0:0:
241,86,144759,1,2,0:0:0:0:
92,150,144909,1,2,0:0:0:0:
214,193,145059,1,2,0:0:0:0:
166,121,145209,6,2,P|181:198|192:276,1,157.499995193482,6|8,1:2|0:3,0:1:0:0:
140,342,145809,1,10,0:0:0:0:
217,384,145959,1,0,0:0:0:0:
270,324,146109,1,0,1:0:0:0:
342,128,146259,6,2,B|423:118|409:174|505:152,1,165.000005035401,6|8,3:2|0:0,0:1:0:0:
502,146,146709,2,0,P|471:128|411:136,1,82.5000025177003,0|0,1:0|0:0,0:0:0:0:
342,232,147009,1,10,0:0:0:0:
214,167,147159,1,2,0:0:0:0:
275,84,147309,1,8,1:3:0:0:
256,267,147459,1,10,0:3:0:0:
63,157,147609,6,2,P|54:104|96:-25,1,165.000005035401,6|2,1:2|0:0,0:1:0:0:
138,129,148059,1,0,0:0:0:0:
39,243,148209,2,0,P|78:256|118:272,1,75,10|0,0:0|0:0,0:0:0:0:
272,364,148509,1,0,3:0:0:0:
326,309,148659,2,2,P|324:237|299:159,1,150,6|0,1:2|0:0,0:1:0:0:
470,3,149109,2,0,P|423:18|383:28,1,75,2|0,1:2|0:0,0:0:0:0:
478,266,149409,5,8,0:0:0:0:
419,215,149559,1,0,0:0:0:0:
500,122,149709,2,0,B|515:159|515:159|510:202,1,75,2|0,0:0|0:0,0:0:0:0:
308,303,150009,6,2,B|225:285|239:325|145:301,1,157.499995193482,2|0,1:2|0:0,0:1:0:0:
269,88,150609,2,0,P|222:105|182:115,1,75,8|2,0:0|0:0,0:1:0:0:
277,163,150909,1,2,3:2:0:0:
149,205,151059,2,0,P|165:141|83:95,1,150,2|8,1:2|0:0,0:0:0:0:
8,293,151509,2,0,B|21:330|21:330|18:377,1,75,0|0,1:0|0:0,0:0:0:0:
223,276,151809,5,10,0:0:0:0:
119,227,151959,1,10,0:0:0:0:
150,297,152109,1,10,1:3:0:0:
193,202,152259,1,10,0:3:0:0:
374,333,152409,6,2,L|218:376,1,150,6|0,1:0|0:0,0:1:0:0:
344,260,152859,1,2,0:0:0:0:
502,348,153009,2,0,B|505:312|505:312|486:264,1,75,10|0,1:3|0:0,0:0:0:0:
295,193,153309,2,0,P|250:210|200:225,1,75,2|10,0:0|0:3,0:0:0:0:
282,308,153609,2,2,P|234:259|148:267,1,150,10|8,0:0|0:3,0:1:0:0:
18,74,154059,5,2,0:0:0:0:
126,143,154209,1,8,0:0:0:0:
252,34,154359,1,10,0:3:0:0:
129,63,154509,2,0,P|122:22|123:-35,1,75,2|0,1:2|0:0,0:0:0:0:
368,178,154809,6,0,B|415:153|447:87|314:-23|188:88|263:329|397:384|442:299|495:380|495:380|493:323|442:287|380:305|380:305|316:344|221:409|131:292|165:175|233:128|339:153|383:198|316:223|514:282|532:171|495:127,1,1320.0000402832,4|6,1:1|1:2,0:0:0:0:
191,196,157509,6,0,P|230:206|273:221,1,75,0|0,1:0|0:0,0:0:0:0:
294,304,157809,2,0,P|296:223|315:148,1,150,8|0,0:0|0:0,0:0:0:0:
350,89,158259,1,0,1:0:0:0:
195,2,158409,2,0,P|151:14|102:25,1,75,2|8,0:2|0:0,0:0:0:0:
0,229,158709,5,8,0:3:0:0:
167,144,158859,1,2,0:0:0:0:
323,276,159009,5,8,0:0:0:0:
208,214,159159,1,10,0:3:0:0:
242,284,159309,1,8,3:3:0:0:
287,204,159459,1,2,1:2:0:0:
411,61,159609,6,0,P|436:104|427:127,1,60,6|0,1:2|0:0,0:0:0:0:
508,140,159909,2,0,P|491:181|470:189,1,60,0|0,1:0|0:0,0:0:0:0:
483,269,160209,2,0,L|404:251,1,60,8|0,1:3|0:0,0:0:0:0:
343,225,160509,1,2,3:0:0:0:
343,225,160659,1,10,0:3:0:0:
168,323,160809,6,0,P|151:296|167:255,1,60,2|0,1:2|0:0,0:0:0:0:
89,216,161109,2,0,P|100:189|139:192,1,60,0|0,1:0|0:0,0:0:0:0:
119,87,161409,2,0,L|242:108,1,120,8|0,0:0|0:0,0:0:0:0:
271,112,161859,1,2,0:0:0:0:
466,213,162009,6,0,B|391:193|403:249|326:231,2,134.999995880127,2|0|0,1:2|1:0|1:0,0:0:0:0:
262,298,162759,2,0,P|300:307|340:322,1,67.4999979400635,2|0,0:0|3:0,0:0:0:0:
380,384,163059,1,10,0:3:0:0:
289,163,163209,2,0,L|317:-6,1,157.499995193482,0|0,1:0|0:0,0:0:0:0:
55,251,163809,5,10,0:0:0:0:
202,185,163959,1,0,3:0:0:0:
58,157,164109,5,10,0:3:0:0:
178,285,164259,1,8,0:3:0:0:
308,226,164409,6,0,P|317:187|313:146,1,67.4999979400635,2|0,1:2|0:0,0:0:0:0:
391,133,164709,2,0,P|376:97|351:71,1,67.4999979400635,0|0,1:0|0:0,0:0:0:0:
401,6,165009,2,0,P|354:-2|321:-8,1,67.4999979400635,8|0,1:3|0:0,0:0:0:0:
249,56,165309,1,2,3:2:0:0:
249,56,165459,1,10,0:3:0:0:
91,123,165609,6,0,P|65:167|81:195,1,67.4999979400635,2|0,1:2|0:0,0:0:0:0:
7,243,165909,2,0,P|30:268|65:266,1,67.4999979400635,0|2,1:0|0:0,0:0:0:0:
89,343,166209,2,0,P|125:328|159:319,1,67.4999979400635,8|0,0:0|0:0,0:0:0:0:
228,258,166509,1,2,3:2:0:0:
166,199,166659,1,10,0:3:0:0:
380,40,166809,6,2,B|413:123|336:116|367:200,1,157.499995193482,6|0,1:1|0:0,0:1:0:0:
398,351,167409,1,10,0:3:0:0:
276,262,167559,1,10,3:0:0:0:
452,195,167709,1,2,3:2:0:0:
216,347,167859,6,0,P|201:302|197:281,1,52.4999983978272,10|0,1:3|0:0,0:0:0:0:
342,17,168159,2,0,P|351:44|356:77,1,52.4999983978272,2|8,1:2|0:3,0:0:0:0:
172,181,168609,5,10,0:0:0:0:
273,143,168759,1,8,0:3:0:0:
247,238,168909,5,10,3:0:0:0:
369,291,169059,1,0,3:0:0:0:
468,170,169209,6,2,P|485:126|450:9,1,157.499995193482,6|0,1:2|0:0,0:1:0:0:
369,44,169809,1,10,0:0:0:0:
420,240,169959,1,2,0:0:0:0:
333,182,170109,1,2,3:2:0:0:
274,253,170259,2,0,P|235:268|183:290,1,75,2|0,1:2|0:0,0:0:0:0:
22,74,170559,2,0,P|57:86|104:95,1,75,10|0,0:0|3:0,0:0:0:0:
122,302,170859,5,0,0:0:0:0:
155,210,171009,2,2,B|141:144|218:156|194:51,1,150,10|0,0:2|3:0,3:1:0:0:
74,240,171459,1,2,0:0:0:0:
258,324,171609,2,0,L|282:229,1,75,2|0,1:2|0:0,0:0:0:0:
71,152,171909,2,0,L|47:66,1,75,0|0,1:0|0:0,0:0:0:0:
345,42,172209,6,0,B|331:81|331:81|353:132,1,75,8|0,0:0|0:0,0:0:0:0:
431,85,172509,1,2,3:2:0:0:
334,211,172659,2,0,B|410:191|385:248|496:213,1,150,2|0,1:2|0:0,0:0:0:0:
501,206,173109,2,0,P|472:190|417:191,1,75,2|0,1:2|0:0,0:0:0:0:
199,307,173409,5,10,0:0:0:0:
16,184,173559,1,10,0:0:0:0:
138,89,173709,1,2,3:0:0:0:
83,162,175209,6,0,P|76:129|65:96,2,60,2|0|0,0:0|0:0|0:0,0:0:0:0:
27,236,176259,2,0,P|85:195|155:211,1,134.999995880127,2|0,0:0|0:0,0:0:0:0:
328,120,177009,2,0,P|357:129|397:138,1,60,2|0,0:0|0:0,0:0:0:0:
506,217,177609,5,2,0:0:0:0:
438,251,177909,1,0,0:0:0:0:
507,325,178209,1,2,0:0:0:0:
353,384,178659,2,0,B|377:308|334:316|369:234,1,134.999995880127,2|0,0:0|0:0,0:0:0:0:
223,118,179409,6,0,P|239:132|258:155,1,30,2|0,0:0|0:0,0:0:0:0:
176,179,179709,2,0,P|182:199|187:228,1,30,2|0,0:0|0:0,0:0:0:0:
100,207,180009,2,0,P|91:241|75:282,2,60,2|0|0,0:0|0:0|0:0,0:0:0:0:
0,0,181059,6,0,P|68:9|111:113,1,179.999994506836,2|0,0:0|0:0,0:0:0:0:
199,213,181809,1,2,0:0:0:0:
116,307,181959,1,0,0:0:0:0:
189,287,182109,2,0,P|216:296|245:305,1,44.999998626709,2|0,0:0|0:0,0:0:0:0:
67,177,182409,2,0,P|62:102|41:-4,1,179.999994506836,2|0,0:0|0:0,0:0:0:0:
391,151,183309,6,0,B|409:155|409:155|410:157|410:157|435:162,1,37.5,4|0,0:3|0:0,0:0:0:0:
315,199,183459,1,0,1:0:0:0:
315,199,183534,1,8,3:0:0:0:
315,199,183609,2,0,B|396:169|387:211|472:180,1,150,8|8,0:0|0:3,0:0:0:0:
512,242,184059,1,0,3:0:0:0:
365,336,184209,2,0,P|322:324|272:315,1,75,8|8,1:3|0:3,0:0:0:0:
109,166,184509,5,8,0:3:0:0:
232,244,184659,1,0,1:0:0:0:
343,82,184809,5,8,1:3:0:0:
192,171,184959,1,0,3:0:0:0:
29,79,185109,2,0,P|32:41|47:-9,1,75,8|0,0:0|0:0,0:0:0:0:
312,190,185409,5,10,0:0:0:0:
169,279,185559,1,10,0:3:0:0:
195,207,185709,5,10,3:0:0:0:
304,269,185859,1,10,1:3:0:0:
502,141,186009,6,2,P|507:95|454:0,1,157.499995193482,6|0,1:1|0:0,0:1:0:0:
470,317,186609,2,0,P|433:331|384:315,1,75,2|0,1:0|0:0,0:0:0:0:
512,235,186909,1,0,0:0:0:0:
146,116,187059,6,2,B|231:99|209:155|305:132,1,157.499995193482,6|0,1:0|0:0,0:1:0:0:
310,161,187809,1,10,3:0:0:0:
237,211,187959,1,8,0:3:0:0:
77,269,188109,5,10,1:3:0:0:
273,342,188259,1,0,1:0:0:0:
148,176,188409,6,2,L|188:1,1,179.999994506836,6|10,1:1|0:0,0:1:0:0:
224,87,188859,1,8,0:0:0:0:
70,197,189009,1,10,0:0:0:0:
204,265,189159,1,8,0:3:0:0:
91,330,189309,5,8,3:0:0:0:
300,384,189459,2,2,P|355:368|343:271,1,157.499995193482,6|0,1:1|0:0,0:1:0:0:
302,215,190059,1,8,0:3:0:0:
392,144,190209,1,0,1:0:0:0:
311,87,190359,1,0,0:0:0:0:
244,138,190509,2,0,P|195:148|167:155,1,75,2|0,3:2|0:0,0:0:0:0:
113,212,190809,6,2,P|129:191|57:106,1,150,6|0,1:1|0:0,0:1:0:0:
59,272,191259,1,2,0:0:0:0:
213,260,191409,2,0,L|298:239,1,75,8|0,0:0|0:0,0:0:0:0:
426,285,191709,1,4,3:1:0:0:
298,150,191859,6,2,B|284:73|240:102|222:15,1,150,2|0,1:2|0:0,0:1:0:0:
418,134,192309,2,0,P|405:182|396:220,1,75,0|0,3:0|0:0,0:0:0:0:
148,152,192609,2,0,P|86:170|17:194,1,112.5,12|0,0:2|0:0,0:0:0:0:
13,185,192909,1,8,0:3:0:0:
152,250,193059,1,8,0:3:0:0:
269,145,193209,6,2,B|271:59|326:84|321:-24,1,157.499995193482,2|0,1:2|0:0,0:1:0:0:
231,268,193809,2,2,L|205:364,1,89.9999972534181,8|0,0:0|0:0,0:1:0:0:
282,376,194109,1,0,3:0:0:0:
176,159,194259,2,2,L|-34:206,1,179.999994506836,2|8,1:0|0:0,0:1:0:0:
312,255,194709,2,0,B|308:211|308:211|322:165,1,89.9999972534181,2|0,1:2|0:0,0:0:0:0:
391,91,195009,5,10,0:0:0:0:
491,195,195159,1,8,0:3:0:0:
490,117,195309,1,10,3:0:0:0:
397,168,195459,1,0,1:0:0:0:
180,102,195609,6,2,P|132:97|106:194,1,157.499995193482,6|0,1:1|0:0,0:1:0:0:
307,384,196209,2,2,B|298:348|298:348|315:285,1,89.9999972534181,10|0,0:0|0:0,0:1:0:0:
377,352,196509,1,0,3:0:0:0:
98,268,196659,2,2,B|160:249|160:249|162:242|162:242|292:205,1,179.999994506836,2|8,1:2|0:0,0:1:0:0:
347,59,197109,2,0,P|330:105|316:155,1,89.9999972534181,0|0,1:0|0:0,0:0:0:0:
376,229,197409,1,10,0:0:0:0:
224,123,197559,1,0,0:0:0:0:
430,115,197709,2,0,P|483:101|528:91,1,89.9999972534181,2|2,0:0|0:0,0:0:0:0:
255,297,198009,5,0,3:0:0:0:
170,338,198159,2,0,P|105:307|110:209,1,179.999994506836,12|0,0:0|0:0,0:0:0:0:
231,38,198609,5,10,0:0:0:0:
356,104,198759,1,8,0:3:0:0:
232,171,198909,1,0,1:0:0:0:
277,108,199059,2,2,B|303:196|222:167|270:300,1,179.999994506836,6|8,1:2|0:0,0:1:0:0:
151,177,199509,2,0,L|47:210,1,89.9999972534181,0|0,1:0|0:0,0:0:0:0:
378,179,199809,1,8,0:0:0:0:
349,266,199959,2,0,L|446:293,1,89.9999972534181,2|0,0:0|1:0,0:0:0:0:
141,384,200259,5,2,0:0:0:0:
86,330,200409,2,2,P|79:257|98:177,1,150,6|2,1:0|0:0,0:1:0:0:
160,229,200859,1,0,0:0:0:0:
349,196,201009,2,2,P|355:270|339:343,1,150,14|0,0:2|0:0,0:1:0:0:
160,229,201459,6,2,P|123:239|76:250,1,75,0|2,1:2|0:0,0:0:0:0:
151,311,201759,1,8,0:0:0:0:
42,337,201909,2,0,P|54:255|-13:222,1,150,2|8,1:2|0:0,0:0:0:0:
179,57,202359,1,0,3:0:0:0:
112,18,202509,2,0,B|99:56|99:56|106:106,1,75,2|0,3:2|0:0,0:0:0:0:
283,212,202809,6,2,L|442:180,1,157.499995193482,2|0,1:2|0:0,0:1:0:0:
218,384,203409,2,2,B|213:349|213:349|226:311,1,75,10|0,0:0|0:0,0:1:0:0:
296,344,203709,1,0,3:0:0:0:
93,216,203859,2,2,B|125:297|85:282|114:380,1,150,2|8,1:2|0:0,0:1:0:0:
271,244,204309,2,0,P|310:258|356:272,1,75,0|0,1:0|0:0,0:0:0:0:
512,62,204609,5,8,0:0:0:0:
381,143,204759,1,8,0:3:0:0:
311,17,204909,5,8,3:0:0:0:
415,71,205059,1,8,1:3:0:0:
197,145,205209,6,2,P|204:69|231:-7,1,150,6|0,1:0|3:0,0:1:0:0:
120,118,205659,1,0,0:0:0:0:
165,215,205809,2,2,P|127:224|74:243,1,75,10|0,0:0|0:0,0:1:0:0:
297,377,206109,1,8,3:0:0:0:
359,330,206259,2,0,B|444:311|432:346|523:320,1,150,4|8,1:0|0:0,0:0:0:0:
327,173,206709,2,0,P|371:190|427:205,1,75,0|0,1:0|0:0,0:0:0:0:
108,339,207009,5,8,0:0:0:0:
251,242,207159,1,8,0:3:0:0:
127,264,207309,5,8,1:3:0:0:
19,196,207459,1,0,1:0:0:0:
180,204,207609,6,2,P|204:143|134:90,1,150,6|0,1:0|3:0,0:1:0:0:
327,0,208059,2,2,P|371:13|409:22,1,75,8|0,0:3|1:0,0:1:0:0:
410,11,208509,6,2,B|325:-8|343:35|245:9,1,157.499995193482,14|8,0:2|0:3,0:1:0:0:
433,151,209109,2,0,P|478:139|526:130,1,75,10|0,3:3|3:0,0:0:0:0:
393,354,209409,5,10,0:0:0:0:
344,291,209559,1,0,3:0:0:0:
422,281,209709,1,10,3:0:0:0:
316,363,209859,1,8,3:0:0:0:
104,269,210009,6,2,P|108:236|117:200,1,67.4999979400635,6|0,1:2|0:0,0:1:0:0:
155,83,210609,5,2,1:2:0:0:
155,83,210909,2,0,P|119:95|73:109,1,75,2|0,1:2|0:0,0:0:0:0:
367,91,211209,2,0,P|354:55|340:9,1,75,10|0,1:2|0:0,0:0:0:0:
359,303,211509,2,0,P|394:290|440:276,1,75,10|0,1:2|0:0,0:0:0:0:
147,295,211809,2,0,P|159:330|173:376,1,75,10|0,1:2|0:0,0:0:0:0:
262,188,212109,5,10,1:2:0:0:
262,188,213609,6,0,P|265:153|270:124,2,60,2|0|0,0:0|0:0|0:0,0:0:0:0:
305,259,214809,2,0,B|371:243|352:284|428:263,1,120,2|0,0:0|0:0,0:0:0:0:
209,320,216009,2,0,L|184:196,1,120,2|0,0:0|0:0,0:0:0:0:
168,169,218334,5,0,0:0:0:0:
168,169,218409,2,0,P|158:209|148:231,2,60,2|0|0,0:0|0:0|0:0,0:0:0:0:
110,107,219309,1,0,0:0:0:0:
307,186,219609,2,0,P|293:150|276:59,1,120,2|0,0:0|0:0,0:0:0:0:
238,267,220872,6,0,P|311:244|474:245,1,240,2|0,0:0|0:0,0:0:0:0:
