osu file format v14

[General]
AudioFilename: audio.mp3
AudioLeadIn: 0
PreviewTime: 174534
Countdown: 0
SampleSet: Soft
StackLeniency: 0.7
Mode: 0
LetterboxInBreaks: 0
WidescreenStoryboard: 1

[Editor]
Bookmarks: 1159,73159,104369,133159,175169,175319,175469,175619,175769,175919,176069,176219,176369,176519,176669,176819,176969,177119,177269,177419,177569,177719,177869,178019,178169,178319,178469,178619,178769,178919,179069,179219,179369,179519,179669,179819,179969,180119,180269,180419,180569,180719,180869,181059,181169,181319,181469,181619,181769,181919,182069,182219,182369,182519,182669,182819,182969,183119,183269,233959,234411
DistanceSpacing: 1
BeatDivisor: 8
GridSize: 8
TimelineZoom: 2.999999

[Metadata]
Title:Kesshou
TitleUnicode:結証
Artist:Ryokuoushoku Shakai
ArtistUnicode:緑黄色社会
Creator:Deca
Version:Collab Hard
Source:半妖の夜叉姫
Tags:agatsu bongo collab princess half-demon リョクシャカ ryokushaka 長屋晴子 haruko nagaya 小林壱誓 issei kobayashi 穴見真吾 shingo anami 犬夜叉 inuyasha hanyou no yashahime decagatsu japanese rock pop
BeatmapID:2844959
BeatmapSetID:1369270

[Difficulty]
HPDrainRate:4
CircleSize:3.5
OverallDifficulty:6
ApproachRate:8
SliderMultiplier:2.5
SliderTickRate:1

[Events]
//Background and Video events
0,0,"87531589_p0.jpg",0,0
//Break Periods
2,175209,182409
//Storyboard Layer 0 (Background)
//Storyboard Layer 1 (Fail)
//Storyboard Layer 2 (Pass)
//Storyboard Layer 3 (Foreground)
//Storyboard Layer 4 (Overlay)
//Storyboard Sound Samples

[TimingPoints]
1209,600,4,2,1,32,1,0
1209,-250,4,2,1,32,0,0
10809,-200,4,2,1,42,0,0
20409,-200,4,2,1,62,0,0
27609,-333.333333333333,4,2,1,62,0,0
29409,-200,4,2,1,42,0,0
30009,-200,4,2,1,42,0,0
36909,-250,4,2,1,42,0,0
38709,-200,4,2,1,42,0,0
39609,-200,4,2,1,62,0,0
49209,-142.857142857143,4,2,1,62,0,0
54009,-111.111111111111,4,2,1,72,0,0
57009,-100,4,2,1,72,0,0
57609,-90.9090909090909,4,2,1,77,0,0
57909,-250,4,2,1,72,0,0
58809,-100,4,2,1,82,0,0
83409,-100,4,2,1,72,0,0
87609,-100,4,2,1,82,0,0
88659,-100,4,2,1,85,0,0
89109,-100,4,2,1,62,0,0
90009,-100,4,2,1,62,0,0
91209,-100,4,2,1,62,0,0
92109,-166.666666666667,4,2,1,62,0,0
93009,-100,4,2,1,62,0,0
96909,-166.666666666667,4,2,1,62,0,0
97809,-100,4,2,1,62,0,0
100509,-166.666666666667,4,2,1,62,0,0
103209,-125,4,2,1,62,0,0
104409,-142.857142857143,4,2,1,52,0,0
105609,-111.111111111111,4,2,1,52,0,0
106509,-166.666666666666,4,2,1,52,0,0
112809,-142.857142857142,4,2,1,52,0,0
114009,-111.111111111111,4,2,1,62,0,0
114909,-166.666666666666,4,2,1,62,0,0
116109,-125,4,2,1,62,0,0
123609,-142.857142857143,4,2,1,62,0,0
128409,-111.111111111111,4,2,1,72,0,0
129309,-142.857142857143,4,2,1,72,0,0
130809,-111.111111111111,4,2,1,72,0,0
131709,-111.111111111111,4,2,1,77,0,0
133209,-100,4,2,1,82,0,0
133809,-100,4,2,1,82,0,0
150609,-100,4,2,1,82,0,0
154809,-166.666666666667,4,2,1,82,0,0
157509,-100,4,2,1,77,0,0
159609,-111.111111111111,4,2,1,67,0,0
164409,-111.111111111111,4,2,1,72,0,0
166809,-111.111111111111,4,2,1,77,0,0
169209,-100,4,2,1,77,0,0
170259,-100,4,2,1,77,0,0
171609,-100,4,2,1,77,0,0
183309,-100,4,2,1,82,0,0
183609,-125,4,2,1,82,0,0
186009,-100,4,2,1,82,0,0
187059,-133.333333333333,4,2,1,82,0,0
188409,-100,4,2,1,82,0,0
200409,-100,4,2,1,72,0,0
205209,-100,4,2,1,77,0,0
207609,-100,4,2,1,82,0,0
213609,-100,4,2,1,32,0,0
219609,631.578947368421,4,2,1,32,1,0
221503,-100,4,2,1,22,0,0
222135,-100,4,2,1,12,0,0
222766,-100,4,2,1,7,0,0
223398,-100,4,2,1,5,0,0

[Colours]
Combo1 : 207,150,203
Combo2 : 108,165,206
Combo3 : 194,152,205
Combo4 : 91,180,187

[HitObjects]
159,223,10809,6,0,P|216:215|311:212,1,125,2|0,0:0|0:0,0:0:0:0:
376,93,12009,2,0,P|365:143|362:173,2,62.5,2|0|0,0:0|0:0|0:0,0:0:0:0:
431,13,12909,2,0,P|390:50|264:23,1,187.5,2|0,0:0|0:0,0:0:0:0:
99,211,14709,6,0,P|90:173|82:147,2,62.5,2|2|2,0:0|0:0|0:0,0:0:0:0:
193,141,15609,2,0,B|291:122|262:197|374:168,1,187.5,2|0,0:0|0:0,0:0:0:0:
476,162,16809,2,0,P|465:121|459:87,2,62.5,2|2|0,0:0|0:0|0:0,0:0:0:0:
371,168,17709,2,0,B|393:229|402:283|402:283|366:252|320:248|320:248|302:307|227:319,1,312.5,2|0,0:0|0:0,0:0:0:0:
134,293,20409,5,0,1:2:0:0:
134,293,20709,1,0,1:0:0:0:
365,371,21309,2,0,P|345:296|330:237,1,125,6|8,1:2|0:3,0:0:0:0:
276,141,22209,1,0,1:0:0:0:
184,223,22509,2,0,P|204:226|222:230,1,31.25,8|8,0:3|0:3,0:0:0:0:
255,307,22809,5,0,1:0:0:0:
255,307,23109,1,0,1:0:0:0:
392,173,23709,2,0,B|458:163|439:211|532:185,1,125,6|8,1:2|0:3,0:0:0:0:
512,93,24609,1,8,1:3:0:0:
512,93,24759,2,0,P|499:47|490:25,1,62.5,0|0,1:0|1:0,0:0:0:0:
422,2,25209,5,0,1:0:0:0:
422,2,25509,1,0,1:0:0:0:
286,154,26109,2,0,B|249:165|249:165|225:158|225:158|145:181,1,125,6|8,1:2|0:3,0:0:0:0:
72,112,27009,2,0,P|76:132|82:162,1,31.25,0|0,1:0|1:0,0:0:0:0:
66,222,27309,1,8,0:3:0:0:
220,323,27609,2,0,L|380:295,1,149.999995422363,6|0,1:2|0:0,0:0:0:0:
492,311,29109,5,8,0:3:0:0:
492,311,29409,2,0,P|478:265|462:238,1,62.5,10|2,0:0|0:3,0:0:0:0:
356,221,30009,2,0,B|370:157|411:187|421:116,1,125,4|0,1:1|0:0,0:0:0:0:
380,21,30909,1,2,1:2:0:0:
304,123,31209,2,0,L|168:151,1,125,2|2,0:0|0:0,0:0:0:0:
89,77,32109,2,0,L|49:270,1,187.5,2|2,1:2|0:2,0:0:0:0:
128,335,33909,5,2,0:0:0:0:
201,278,34209,1,0,0:0:0:0:
276,338,34509,1,2,0:0:0:0:
349,278,34809,2,0,B|317:191|391:204|350:97,1,187.5,2|2,1:2|1:2,0:0:0:0:
265,156,36009,2,0,P|221:167|190:173,2,62.5,2|0|2,0:2|1:0|0:0,0:0:0:0:
356,224,36909,2,0,P|402:231|512:250,1,150,2|0,1:2|0:0,0:0:0:0:
275,232,39009,6,0,P|265:189|256:158,1,62.5,4|0,0:3|0:0,0:0:0:0:
198,67,39609,5,4,1:2:0:0:
198,67,39909,1,0,1:0:0:0:
376,173,40509,2,0,P|422:178|487:114,1,125,4|8,1:2|0:3,0:0:0:0:
464,30,41409,1,0,1:0:0:0:
368,51,41709,2,0,P|365:83|365:96,1,31.25,0|0,1:0|1:0,0:0:0:0:
351,171,42009,5,0,1:0:0:0:
351,171,42309,1,0,1:0:0:0:
268,321,42909,2,0,P|226:334|163:278,1,125,4|8,1:2|0:3,0:0:0:0:
57,300,43809,2,0,P|64:262|72:225,1,62.5,8|0,0:3|1:0,0:0:0:0:
113,131,44409,5,0,1:0:0:0:
113,131,44709,1,0,1:0:0:0:
322,222,45309,2,0,B|377:177|377:177|353:138|344:107,1,125,4|8,1:2|0:3,0:0:0:0:
326,38,46209,2,0,P|286:50|247:63,1,62.5,0|0,1:0|1:0,0:0:0:0:
202,167,46809,5,2,1:2:0:0:
202,167,47109,1,0,1:0:0:0:
92,109,47409,1,8,0:0:0:0:
89,229,47709,2,0,P|100:283|111:372,1,125,6|10,1:2|0:3,0:0:0:0:
259,279,48609,6,0,P|285:271|303:264,1,31.25,10|8,0:2|0:3,0:0:0:0:
365,308,48909,1,2,1:2:0:0:
416,220,49209,2,0,B|415:152|350:184|343:92,1,131.249995994568,6|2,1:2|0:0,0:0:0:0:
384,46,49809,1,8,0:0:0:0:
274,5,50109,2,0,P|228:12|167:26,1,87.499997329712,2|0,1:2|0:0,0:0:0:0:
117,64,50559,1,0,3:3:0:0:
117,64,50709,2,0,P|108:124|103:161,2,87.499997329712,2|8|0,1:2|0:0|0:0,0:0:0:0:
210,132,51609,6,0,B|300:107|279:183|379:150,1,174.999994659424,2|8,1:2|0:0,0:0:0:0:
451,212,52509,1,0,0:0:0:0:
506,121,52809,1,2,0:0:0:0:
506,121,52959,1,0,0:0:0:0:
506,121,53109,2,0,P|485:86|472:64,1,43.749998664856,2|0,1:2|0:0,0:0:0:0:
365,35,53409,2,0,P|386:82|410:141,1,87.499997329712,10|0,0:2|0:0,0:0:0:0:
354,226,54009,6,0,B|287:220|317:260|223:246,1,112.499996566773,6|0,1:2|0:0,0:0:0:0:
165,257,54459,1,2,0:0:0:0:
165,257,54609,2,0,P|156:220|144:187,1,56.2499982833863,8|0,0:0|0:0,0:0:0:0:
74,181,54909,2,0,P|91:130|114:33,1,112.499996566773,2|0,1:2|0:0,0:0:0:0:
238,14,55509,2,0,P|214:78|197:139,2,112.499996566773,2|8|0,1:2|0:0|0:0,0:0:0:0:
364,37,56409,5,2,1:2:0:0:
326,109,56559,2,0,P|375:118|420:132,1,56.2499982833863,8|0,0:0|3:0,0:0:0:0:
449,177,56859,5,14,0:2:0:0:
479,250,57009,2,0,P|435:263|397:268,1,62.5,0|8,1:0|0:3,0:0:0:0:
319,356,57309,5,10,0:3:0:0:
232,344,57459,1,8,0:3:0:0:
282,275,57609,2,0,P|268:234|260:210,1,68.7500020980836,0|0,1:0|0:0,0:0:0:0:
204,109,57909,1,12,0:2:0:0:
293,66,58809,6,2,P|340:102|301:216,1,187.5,6|0,1:1|0:0,0:1:0:0:
259,275,59409,2,2,P|205:263|168:255,1,62.5,10|0,0:0|0:0,0:1:0:0:
136,315,59709,1,0,3:0:0:0:
74,261,59859,2,2,B|42:164|126:186|87:79,1,187.5,2|0,1:2|1:0,0:1:0:0:
238,20,60609,6,0,P|228:63|219:107,1,62.5,10|2,0:0|0:0,0:0:0:0:
212,161,60909,1,10,0:3:0:0:
212,161,61059,1,2,0:0:0:0:
288,133,61209,2,2,P|351:117|434:95,2,125,2|0|10,1:2|0:0|0:2,0:1:0:0:
221,292,62109,5,0,3:0:0:0:
148,257,62259,2,2,P|118:212|137:103,1,125,2|0,1:2|0:0,0:1:0:0:
42,108,62709,2,0,P|58:61|67:28,1,62.5,0|0,1:0|0:0,0:0:0:0:
128,3,63009,2,0,P|174:17|202:23,1,62.5,8|0,0:0|0:0,0:0:0:0:
223,93,63309,2,0,P|266:84|294:76,1,62.5,10|2,0:3|0:0,0:0:0:0:
341,20,63609,6,2,B|331:88|331:88|366:125|366:125|350:219,1,187.5,2|2,1:2|0:0,0:1:0:0:
275,208,64209,2,0,L|304:302,1,62.5,8|0,0:0|0:0,0:0:0:0:
256,340,64509,1,2,3:2:0:0:
333,364,64659,2,2,P|399:376|453:254,1,187.5,2|0,1:2|1:0,0:1:0:0:
415,159,65409,6,0,P|426:122|430:84,1,62.5,8|0,0:0|0:0,0:0:0:0:
512,100,65709,2,0,P|506:46|488:24,1,62.5,10|0,0:3|0:0,0:0:0:0:
427,9,66009,2,2,P|351:28|211:54,1,187.5,2|0,1:2|0:0,0:1:0:0:
177,2,66609,1,10,0:0:0:0:
112,164,66909,1,2,3:2:0:0:
70,97,67059,2,2,P|125:112|217:144,1,125,2|8,1:2|0:0,0:1:0:0:
268,113,67509,2,0,P|274:155|281:201,1,62.5,0|8,1:0|0:3,0:0:0:0:
294,267,67809,5,10,0:0:0:0:
298,271,67959,1,10,1:3:0:0:
375,209,68109,1,10,0:3:0:0:
375,209,68259,1,2,3:2:0:0:
382,309,68409,6,2,P|300:326|177:370,1,187.5,6|0,1:1|0:0,0:1:0:0:
125,330,69009,2,2,P|110:281|102:250,1,62.5,10|0,0:0|0:0,0:1:0:0:
26,261,69309,1,0,3:0:0:0:
67,190,69459,2,2,B|54:142|54:142|82:108|82:108|54:3,1,187.5,2|0,1:2|3:0,0:1:0:0:
175,87,70209,6,0,P|222:78|259:69,1,62.5,10|2,0:0|0:0,0:0:0:0:
269,1,70509,1,2,0:0:0:0:
269,1,70659,1,2,0:0:0:0:
341,37,70809,2,2,P|319:109|298:175,1,125,6|2,1:2|0:0,0:1:0:0:
339,229,71259,1,8,0:3:0:0:
264,260,71409,2,0,P|231:240|228:203,1,62.5,10|0,0:0|0:0,0:0:0:0:
144,233,71709,1,0,1:0:0:0:
171,156,71859,2,2,P|180:95|199:6,1,125,6|8,3:2|0:0,0:1:0:0:
110,30,72309,2,0,P|98:82|89:113,1,62.5,0|0,1:0|0:0,0:0:0:0:
53,160,72609,5,10,0:0:0:0:
25,306,72909,2,0,P|72:291|105:286,1,62.5,8|10,1:3|0:3,0:0:0:0:
193,222,73209,6,2,P|123:263|141:363,1,187.5,6|0,1:2|0:0,0:1:0:0:
215,340,73809,2,0,P|243:348|290:368,1,62.5,10|0,0:0|0:0,0:0:0:0:
352,337,74109,1,0,3:0:0:0:
429,362,74259,2,2,P|434:292|415:229,1,125,6|0,1:2|0:0,0:1:0:0:
357,187,74709,2,0,B|290:178|305:207|230:191,2,125,2|8|2,1:2|0:0|0:0,0:0:0:0:
492,96,75609,6,2,P|472:176|472:289,1,187.5,2|0,1:2|0:0,0:1:0:0:
389,275,76209,2,0,P|351:289|313:298,1,62.5,8|2,0:0|0:0,0:1:0:0:
366,366,76509,1,2,3:2:0:0:
281,366,76659,2,0,P|285:312|219:275,1,125,2|8,1:2|0:0,0:0:0:0:
168,326,77109,1,0,1:0:0:0:
68,211,77409,1,10,0:0:0:0:
68,211,77559,1,10,0:0:0:0:
68,211,77709,2,0,P|105:200|155:183,1,62.5,10|10,1:3|0:3,0:0:0:0:
190,244,78009,6,2,P|173:168|178:96,1,125,6|0,1:0|0:0,0:1:0:0:
116,63,78459,1,2,0:0:0:0:
221,0,78609,2,0,P|235:40|237:89,1,62.5,10|0,0:0|0:0,0:0:0:0:
301,110,78909,1,2,0:0:0:0:
376,80,79059,2,0,B|446:67|439:91|513:66,1,125,10|0,0:0|0:0,0:0:0:0:
441,164,79509,2,0,P|472:171|530:189,1,62.5,2|2,3:2|1:2,0:0:0:0:
458,251,79809,2,0,P|481:272|522:317,1,62.5,8|0,0:0|0:0,0:0:0:0:
418,323,80109,2,0,P|427:353|440:412,1,62.5,2|0,0:0|0:0,0:0:0:0:
324,338,80409,6,2,P|337:296|275:234,2,125,6|0|8,1:2|3:0|0:0,0:1:0:0:
162,314,81309,1,0,1:0:0:0:
122,384,81459,2,2,P|78:342|88:282,1,125,2|8,3:2|0:0,0:1:0:0:
150,228,81909,2,0,B|151:197|151:197|137:157,1,62.5,2|0,1:2|0:0,0:0:0:0:
66,134,82209,2,0,P|129:116|202:96,1,125,10|10,0:0|3:0,0:0:0:0:
263,124,82659,1,10,0:3:0:0:
326,73,82809,2,2,P|351:156|350:273,1,187.5,6|0,1:0|0:0,0:1:0:0:
287,305,83409,6,0,P|297:334|302:365,1,62.5,8|0,0:3|0:0,0:0:0:0:
382,346,83709,2,0,P|410:355|461:382,1,62.5,0|0,1:0|0:0,0:0:0:0:
445,282,84009,2,0,P|471:268|526:251,1,62.5,10|8,1:3|3:3,0:0:0:0:
456,193,84309,2,0,P|465:165|491:113,1,62.5,2|0,1:2|0:0,0:0:0:0:
389,53,84609,5,8,0:0:0:0:
389,53,84759,1,8,0:3:0:0:
389,53,84909,2,0,P|343:62|303:73,1,62.5,8|8,1:3|0:3,0:0:0:0:
252,34,85209,5,10,1:3:0:0:
186,82,85359,2,0,B|113:66|128:93|45:68,1,125,0|0,1:0|1:0,0:0:0:0:
133,161,85809,2,0,P|91:176|54:191,1,62.5,14|0,0:0|0:0,0:0:0:0:
15,238,86109,2,0,P|52:323|63:375,2,125,2|2|2,1:3|1:3|1:2,0:0:0:0:
175,303,87009,1,8,0:0:0:0:
175,303,87159,1,8,0:3:0:0:
175,303,87309,2,0,B|175:270|175:270|190:229,1,62.5,8|8,1:3|0:3,0:0:0:0:
240,183,87609,2,0,P|223:248|284:294,1,125,6|10,1:2|3:3,0:0:0:0:
404,358,88209,5,10,1:3:0:0:
470,310,88359,1,2,3:3:0:0:
457,229,88509,1,10,3:0:0:0:
503,162,88659,2,0,P|507:97|488:20,1,125,4|0,1:2|0:0,0:0:0:0:
422,0,89109,2,0,P|406:43|401:98,1,62.5,2|0,0:0|0:0,0:0:0:0:
331,98,89409,1,10,0:0:0:0:
331,98,89559,1,8,0:3:0:0:
331,98,89709,1,2,1:2:0:0:
187,22,90009,6,0,B|114:4|132:34|53:14,2,125,6|0|10,1:2|0:0|0:0,0:0:0:0:
242,87,90759,1,0,0:0:0:0:
242,87,90909,2,0,P|232:123|223:181,1,62.5,2|0,0:0|0:0,0:0:0:0:
156,189,91209,2,0,P|217:200|289:213,2,125,2|0|10,1:2|3:0|0:0,0:0:0:0:
15,362,92109,2,0,B|-14:247|36:276|-4:166,1,187.499994277954,2|0,1:2|0:0,0:0:0:0:
51,114,93009,6,0,P|107:128|198:149,1,125,8|0,0:0|0:0,0:0:0:0:
224,205,93459,1,0,0:0:0:0:
224,205,93609,2,0,B|234:237|234:237|230:282,1,62.5,2|0,1:2|0:0,0:0:0:0:
155,296,93909,2,0,P|127:305|85:320,1,62.5,2|0,3:2|0:0,0:0:0:0:
45,380,94209,2,0,P|56:320|1:287,1,125,10|2,0:0|0:3,0:0:0:0:
222,359,94809,6,0,B|330:330|316:375|424:341,1,187.5,2|0,1:2|0:0,0:0:0:0:
486,364,95409,2,0,P|492:328|511:281,1,62.5,10|0,0:0|0:0,0:0:0:0:
449,239,95709,2,0,P|497:182|473:130,1,125,2|0,0:0|1:0,0:0:0:0:
353,42,96309,2,0,P|308:53|271:63,1,62.5,2|0,1:2|0:0,0:0:0:0:
185,134,96609,2,0,P|186:100|195:64,1,62.5,10|0,0:0|0:0,0:0:0:0:
103,97,96909,2,0,P|158:131|125:251,1,187.499994277954,2|0,1:2|0:0,0:0:0:0:
75,286,97809,6,0,P|46:297|-3:311,1,62.5,8|0,0:0|0:0,0:0:0:0:
123,362,98109,2,0,P|128:281|150:223,2,125,2|0|0,0:0|1:0|1:0,0:0:0:0:
280,319,99009,1,8,0:0:0:0:
438,356,99309,2,0,P|445:323|465:274,1,62.5,2|0,0:3|0:0,0:0:0:0:
503,207,99609,5,8,0:0:0:0:
423,221,99759,2,0,P|355:199|283:180,1,125,0|8,1:0|0:3,0:0:0:0:
233,226,100209,2,0,P|248:268|252:306,1,62.5,2|2,1:2|0:0,0:0:0:0:
336,278,100509,2,0,B|363:194|325:217|372:103,1,149.999995422363,6|0,1:2|0:0,0:0:0:0:
210,25,101409,6,0,P|204:-1|196:-14,3,24.9999992370606,8|8|8|6,0:3|0:3|0:3|1:2,0:0:0:0:
59,131,102309,1,8,0:3:0:0:
128,251,102609,1,0,1:0:0:0:
53,213,102909,2,0,P|27:220|2:229,1,37.4999988555909
133,169,103209,6,0,B|194:175|178:195|251:193,1,100,8|2,0:0|0:0,0:0:0:0:
295,242,103659,1,8,0:3:0:0:
366,202,103809,2,0,P|357:147|351:85,1,100,2|0,1:2|0:0,0:0:0:0:
488,164,104409,6,0,P|476:232|470:278,1,87.499997329712,2|0,1:2|0:0,0:0:0:0:
382,334,105009,2,0,P|346:327|319:323,1,43.749998664856,10|0,0:0|0:0,0:0:0:0:
265,353,105309,2,0,P|257:316|249:295,1,43.749998664856,2|0,3:2|0:0,0:0:0:0:
189,269,105609,2,0,B|209:205|239:240|263:149,1,112.499996566773,2|2,1:2|0:0,0:0:0:0:
138,68,106209,2,0,P|89:61|59:60,1,56.2499982833863,8|0,0:0|0:0,0:0:0:0:
22,116,106509,2,0,P|42:171|72:284,1,149.999995422363,2|0,1:2|0:0,0:0:0:0:
183,353,107409,5,8,0:0:0:0:
183,353,107709,1,0,0:0:0:0:
280,279,108009,2,0,P|291:229|305:193,1,74.9999977111817,0|2,1:0|3:2,0:0:0:0:
189,80,108609,6,0,P|178:113|176:135,1,37.4999988555909,10|0,0:0|0:0,0:0:0:0:
101,137,108909,2,0,P|110:166|117:188,1,37.4999988555909
145,248,109209,2,0,P|68:268|56:275,1,74.9999977111817,2|0,1:2|0:0,0:0:0:0:
186,340,109809,1,10,0:0:0:0:
275,245,110109,1,2,3:2:0:0:
380,328,110409,2,0,P|425:320|441:246,1,112.499996566773,2|0,1:2|0:0,0:0:0:0:
413,193,111009,1,10,0:0:0:0:
293,175,111309,6,0,P|306:106|326:6,1,149.999995422363,2|0,1:2|1:0,0:0:0:0:
222,0,112209,1,8,0:0:0:0:
194,93,112509,2,0,P|167:103|133:117,1,37.4999988555909
78,74,112809,2,0,P|71:138|59:195,1,87.499997329712,0|2,1:0|3:2,0:0:0:0:
3,257,113409,1,10,0:0:0:0:
112,303,113709,1,10,0:3:0:0:
170,208,114009,6,0,B|266:183|226:251|345:214,1,168.749994850159,6|2,1:2|0:0,0:0:0:0:
376,142,114609,1,8,0:0:0:0:
456,273,114909,2,0,P|470:183|489:102,1,149.999995422363,2|2,1:2|1:2,0:0:0:0:
401,35,115809,1,8,0:0:0:0:
374,141,116109,2,0,P|351:149|314:163,1,50,2|0,0:2|0:0,0:0:0:0:
275,223,116409,6,0,P|207:199|209:107,1,150,2|2,1:2|0:0,0:0:0:0:
213,47,117009,1,8,0:0:0:0:
95,132,117309,2,0,P|80:199|60:309,1,150,2|0,1:2|3:0,0:0:0:0:
11,349,117909,1,2,1:2:0:0:
143,380,118209,1,8,0:0:0:0:
200,279,118509,2,0,P|186:251|183:228,1,50,2|0,0:0|0:0,0:0:0:0:
197,151,118809,6,0,B|230:147|230:147|265:165|265:165|320:154,1,100,2|0,1:2|0:0,0:0:0:0:
442,175,119409,2,0,P|432:137|422:101,1,50,10|0,0:0|0:0,0:0:0:0:
355,87,119709,2,0,P|343:160|326:306,1,200,2|0,1:2|3:0,0:0:0:0:
358,380,120609,1,8,0:0:0:0:
435,315,120909,1,8,0:3:0:0:
394,215,121209,2,0,P|333:205|262:192,1,100,6|0,1:2|0:0,0:0:0:0:
253,126,121659,2,0,P|209:134|188:138,1,50,10|0,0:2|0:0,0:0:0:0:
121,201,122109,2,0,P|126:266|212:263,1,150,6|0,1:2|0:0,0:0:0:0:
276,302,122709,2,0,P|290:256|298:223,1,50,10|0,3:3|0:0,0:0:0:0:
378,235,123009,1,10,0:0:0:0:
378,235,123159,1,8,0:3:0:0:
378,235,123309,2,0,P|367:199|356:165,1,50,2|0,1:2|0:0,0:0:0:0:
369,98,123609,6,0,B|285:77|281:143|191:117,1,174.999994659424,6|8,1:2|0:0,0:0:0:0:
115,99,124359,1,0,0:0:0:0:
115,99,124509,2,0,P|134:184|158:277,1,174.999994659424,2|2,1:2|1:2,0:0:0:0:
69,323,125409,1,8,0:0:0:0:
172,376,125709,1,0,3:3:0:0:
264,310,126009,6,0,P|313:300|395:364,1,131.249995994568,2|2,1:2|0:0,0:0:0:0:
458,358,126609,2,0,P|465:315|465:302,1,43.749998664856,8|0,0:0|0:0,0:0:0:0:
413,252,126909,1,0,0:0:0:0:
512,200,127209,2,0,B|498:117|438:137|443:52,1,131.249995994568,0|0,1:0|0:0,0:0:0:0:
428,47,127809,1,10,0:2:0:0:
349,147,128109,1,0,0:0:0:0:
266,52,128409,6,0,P|193:43|111:41,1,112.499996566773,6|0,1:2|0:0,0:0:0:0:
75,14,128859,1,2,0:0:0:0:
75,14,129009,2,0,P|72:63|66:86,1,56.2499982833863,8|0,0:0|0:0,0:0:0:0:
7,125,129309,2,0,B|25:173|25:173|68:184|68:184|101:263,1,174.999994659424,2|2,1:2|1:2,0:0:0:0:
242,226,130209,6,0,P|276:216|314:209,1,43.749998664856,8|0,0:0|0:0,0:0:0:0:
322,141,130509,2,0,P|289:132|262:121,1,43.749998664856,0|0,3:0|0:0,0:0:0:0:
216,64,130809,6,0,P|159:81|94:80,1,112.499996566773,6|8,1:2|0:3,0:0:0:0:
19,69,131259,1,10,0:0:0:0:
51,149,131409,2,0,P|60:191|70:239,1,56.2499982833863,0|0,1:0|0:0,0:0:0:0:
54,295,131709,5,2,1:2:0:0:
54,295,131859,1,8,3:3:0:0:
145,247,132009,2,0,P|188:259|226:275,1,56.2499982833863,8|8,0:0|0:0,0:0:0:0:
281,305,132309,2,0,P|290:251|309:168,1,112.499996566773,2|0,1:2|0:0,0:0:0:0:
497,26,133209,6,2,P|422:71|452:162,1,187.5,6|0,1:1|0:0,0:1:0:0:
397,223,133809,2,2,P|414:255|429:304,1,62.5,10|0,0:0|0:0,0:1:0:0:
379,368,134109,1,0,3:0:0:0:
460,346,134259,2,2,B|392:335|415:310|325:296,1,125,2|0,1:2|0:0,0:1:0:0:
273,260,134709,2,0,P|230:277|195:287,1,62.5,0|0,1:0|0:0,0:0:0:0:
105,357,135009,1,10,0:0:0:0:
105,357,135159,1,2,0:0:0:0:
41,306,135309,1,10,0:3:0:0:
41,306,135459,1,2,0:0:0:0:
70,230,135609,6,2,P|59:156|39:91,2,125,2|0|10,1:2|0:0|0:2,0:1:0:0:
207,317,136509,1,0,3:0:0:0:
272,269,136659,2,2,P|344:260|377:318,1,125,2|0,1:2|0:0,0:1:0:0:
447,262,137109,2,0,P|480:273|527:286,1,62.5,0|0,1:0|0:0,0:0:0:0:
396,191,137409,2,0,P|393:124|376:55,1,125,8|0,0:0|0:0,0:0:0:0:
320,12,137859,1,2,0:0:0:0:
396,58,138009,6,2,P|314:45|266:154,1,187.5,2|2,1:2|0:0,0:1:0:0:
201,178,138609,2,0,P|165:191|123:202,1,62.5,8|0,0:0|0:0,0:0:0:0:
47,311,138909,1,2,3:2:0:0:
2,242,139059,2,2,B|86:255|59:272|134:280,1,125,2|2,1:2|0:2,0:1:0:0:
223,354,139509,2,0,P|259:340|301:331,1,62.5,0|0,1:0|0:0,0:0:0:0:
345,282,139809,2,0,P|314:257|286:225,1,62.5,8|0,0:0|0:0,0:0:0:0:
222,213,140109,2,0,P|216:251|202:292,1,62.5,10|0,0:3|0:0,0:0:0:0:
102,370,140409,6,2,P|103:292|78:181,1,187.5,2|0,1:2|0:0,0:1:0:0:
23,125,141009,2,2,P|59:109|101:86,1,62.5,10|0,0:0|0:0,0:1:0:0:
131,35,141309,1,2,3:2:0:0:
228,14,141459,2,2,P|173:63|203:118,1,125,2|8,1:2|0:0,0:1:0:0:
267,107,141909,2,0,P|306:122|354:136,1,62.5,0|8,1:0|0:3,0:0:0:0:
395,223,142209,1,10,0:0:0:0:
395,223,142359,1,10,1:3:0:0:
343,285,142509,1,10,0:3:0:0:
343,285,142659,1,2,3:2:0:0:
379,357,142809,6,2,P|369:275|331:170,1,187.5,6|0,1:1|0:0,0:1:0:0:
388,115,143409,2,0,P|418:122|470:130,1,62.5,10|0,0:0|0:0,0:0:0:0:
506,186,143709,1,0,3:0:0:0:
450,244,143859,2,2,B|348:220|364:268|250:237,1,187.5,2|0,1:2|3:0,0:1:0:0:
139,137,144609,1,10,0:0:0:0:
139,137,144759,1,2,0:0:0:0:
63,166,144909,1,2,0:0:0:0:
63,166,145059,1,2,0:0:0:0:
3,110,145209,6,2,P|-10:62|58:11,2,125,6|0|10,1:2|0:0|0:0,0:1:0:0:
61,166,145959,2,0,P|49:208|50:253,1,62.5,0|0,0:0|1:0,0:0:0:0:
132,303,146259,2,2,B|212:283|199:307|272:285,1,125,6|8,3:2|0:0,0:1:0:0:
328,252,146709,1,0,1:0:0:0:
356,95,147009,1,10,0:0:0:0:
356,95,147159,1,2,0:0:0:0:
285,131,147309,1,8,1:3:0:0:
285,131,147459,1,10,0:3:0:0:
393,170,147609,6,2,P|389:110|473:86,1,125,6|2,1:2|0:0,0:1:0:0:
477,149,148059,1,0,0:0:0:0:
454,227,148209,2,0,P|463:258|471:291,1,62.5,10|0,0:0|0:0,0:0:0:0:
370,324,148509,1,0,3:0:0:0:
312,384,148659,2,2,P|328:327|268:287,1,125,6|0,1:2|0:0,0:1:0:0:
212,247,149109,2,0,P|171:261|134:269,1,62.5,2|0,1:2|0:0,0:0:0:0:
69,362,149409,1,8,0:0:0:0:
69,362,149559,1,0,0:0:0:0:
11,305,149709,2,0,P|14:269|31:228,1,62.5,2|0,0:0|0:0,0:0:0:0:
4,132,150009,6,2,P|27:209|146:197,1,187.5,2|0,1:2|0:0,0:1:0:0:
178,158,150609,2,0,P|213:169|265:182,1,62.5,8|2,0:0|0:0,0:1:0:0:
337,244,150909,1,2,3:2:0:0:
394,186,151059,2,0,B|381:112|408:129|381:49,1,125,2|8,1:2|0:0,0:0:0:0:
330,1,151509,1,0,1:0:0:0:
199,97,151809,1,10,0:0:0:0:
199,97,151959,1,10,0:0:0:0:
249,160,152109,1,10,1:3:0:0:
253,164,152259,1,10,0:3:0:0:
163,217,152409,6,2,P|101:200|32:185,1,125,6|0,1:0|0:0,0:1:0:0:
3,258,152859,1,2,0:0:0:0:
83,249,153009,2,0,P|80:280|75:310,1,62.5,10|0,1:3|0:0,0:0:0:0:
169,374,153309,2,0,P|166:342|161:312,1,62.5,2|10,0:0|0:3,0:0:0:0:
225,261,153609,2,2,B|301:242|289:264|359:238,1,125,10|8,0:0|0:3,0:1:0:0:
489,247,154059,1,2,0:0:0:0:
426,297,154209,1,8,0:0:0:0:
426,297,154359,1,10,0:3:0:0:
353,259,154509,2,0,P|361:222|382:171,1,62.5,2|0,1:2|0:0,0:0:0:0:
417,59,154809,6,0,B|439:55|470:75|465:129|435:167|373:185|373:185|281:216|296:334|419:342|436:225|372:185|372:185|328:153|318:117|329:77,1,599.999981689454,4|6,1:1|1:2,0:0:0:0:
133,190,157509,5,0,1:0:0:0:
23,84,157809,2,0,B|97:93|84:68|168:81,1,125,8|0,0:0|0:0,0:0:0:0:
215,123,158259,1,0,1:0:0:0:
133,190,158409,2,0,P|95:180|47:172,1,62.5,2|8,0:2|0:0,0:0:0:0:
14,229,158709,1,8,0:3:0:0:
69,288,158859,2,0,P|79:331|85:380,1,62.5,2|8,0:0|0:0,0:0:0:0:
168,384,159159,2,0,P|178:341|184:292,1,62.5,10|8,0:3|3:3,0:0:0:0:
247,276,159459,1,2,1:2:0:0:
230,192,159609,6,0,P|280:241|337:233,2,112.499996566773,6|0|8,1:2|1:0|1:3,0:0:0:0:
160,62,160509,2,0,P|155:21|145:-17,1,56.2499982833863,2|10,3:0|0:3,0:0:0:0:
76,53,160809,2,0,P|70:107|60:166,2,112.499996566773,2|0|8,1:2|1:0|0:0,0:0:0:0:
285,93,161709,2,0,P|316:84|358:64,1,56.2499982833863,0|2,0:0|0:0,0:0:0:0:
388,135,162009,6,0,P|381:75|430:40,1,112.499996566773,2|0,1:2|1:0,0:0:0:0:
508,104,162459,2,0,P|515:164|466:199,1,112.499996566773,0|2,1:3|0:0,0:0:0:0:
416,243,162909,1,0,3:0:0:0:
459,308,163059,2,0,P|487:321|526:346,1,56.2499982833863,10|0,0:3|1:0,0:0:0:0:
384,365,163359,2,0,B|317:349|324:372|255:349,1,112.499996566773,2|0,3:2|0:0,0:0:0:0:
151,272,163809,2,0,P|149:181|135:101,1,168.749994850159,10|8,0:0|0:3,0:0:0:0:
66,142,164409,6,0,P|55:202|32:273,2,112.499996566773,2|0|8,1:2|1:0|1:3,0:0:0:0:
186,40,165309,1,2,3:2:0:0:
186,40,165459,1,10,0:3:0:0:
256,75,165609,2,0,B|336:58|322:79|401:51,1,112.499996566773,2|0,1:2|1:0,0:0:0:0:
435,20,166059,1,2,0:0:0:0:
500,64,166209,2,0,P|488:123|477:206,1,112.499996566773,8|2,0:0|3:2,0:0:0:0:
412,214,166659,1,10,0:3:0:0:
460,329,166809,6,2,P|416:257|310:271,1,168.749994850159,6|0,1:1|0:0,0:1:0:0:
278,304,167409,2,0,P|292:345|303:381,2,56.2499982833863,10|10|2,0:3|3:0|3:2,0:0:0:0:
376,325,167859,2,0,P|392:267|405:194,1,112.499996566773,10|2,1:3|1:2,0:0:0:0:
380,139,168309,1,8,0:3:0:0:
238,207,168609,1,10,0:0:0:0:
238,207,168759,1,8,0:3:0:0:
163,167,168909,2,0,P|130:181|96:193,1,56.2499982833863,10|0,3:0|3:0,0:0:0:0:
211,286,169209,6,2,P|186:216|272:152,1,187.5,6|0,1:2|0:0,0:1:0:0:
320,93,169809,2,0,P|297:77|254:55,1,62.5,10|2,0:0|0:0,0:0:0:0:
363,21,170109,1,2,3:2:0:0:
431,65,170259,2,0,B|399:140|425:130|392:206,1,125,2|10,1:2|0:0,0:0:0:0:
455,245,170709,1,0,3:0:0:0:
321,371,171009,2,2,P|324:294|297:173,1,187.5,10|2,0:2|0:0,3:1:0:0:
236,137,171609,6,0,B|170:122|189:151|103:123,2,125,2|0|8,1:2|1:0|0:0,0:0:0:0:
162,251,172509,1,2,3:2:0:0:
84,226,172659,2,0,P|36:242|4:249,1,62.5,2|0,1:2|0:0,0:0:0:0:
7,324,172959,1,0,0:0:0:0:
78,384,173109,2,0,P|86:349|89:306,1,62.5,2|0,1:2|0:0,0:0:0:0:
199,231,173409,1,10,0:0:0:0:
279,255,173559,1,10,0:0:0:0:
242,142,173709,2,0,P|184:187|120:172,1,125,2|0,3:0|0:0,0:0:0:0:
43,202,183609,6,0,B|136:192|95:228|200:214,1,150,8|0,0:0|3:0,0:0:0:0:
282,226,184209,5,8,1:3:0:0:
282,226,184359,1,8,0:3:0:0:
234,137,184509,1,8,0:3:0:0:
234,137,184659,1,0,1:0:0:0:
303,51,184809,2,0,P|316:94|318:112,1,50,8|0,1:3|3:0,0:0:0:0:
418,98,185109,2,0,P|407:130|402:151,1,50,8|0,0:0|0:0,0:0:0:0:
407,244,185409,5,10,0:0:0:0:
462,308,185559,1,10,0:3:0:0:
397,360,185709,2,0,P|361:351|342:348,1,50,10|10,3:0|1:3,0:0:0:0:
265,384,186009,2,2,B|240:297|319:294|264:196,1,187.5,6|0,1:1|0:0,0:1:0:0:
206,144,186609,2,0,B|143:126|143:126|111:194,1,125,2|0,1:0|0:0,0:0:0:0:
39,206,187059,2,2,P|54:262|178:274,1,187.500007152558,6|0,1:0|0:0,0:1:0:0:
248,322,187809,6,0,P|252:290|258:273,1,46.8750017881394,10|8,3:0|0:3,0:0:0:0:
336,266,188109,2,0,P|332:234|326:217,1,46.8750017881394,10|0,1:3|1:0,0:0:0:0:
254,169,188409,6,2,B|241:106|285:112|267:39,1,125,6|10,1:1|0:0,0:1:0:0:
194,10,188859,1,8,0:0:0:0:
158,82,189009,2,0,P|126:75|97:64,2,62.5,10|8|8,0:0|0:3|3:0,0:0:0:0:
122,174,189459,2,2,B|204:158|169:195|257:168,1,125,6|0,1:1|0:0,0:1:0:0:
303,237,189909,1,8,0:3:0:0:
303,237,190059,1,8,0:3:0:0:
341,165,190209,2,0,B|346:134|346:134|326:107,1,62.5,0|0,1:0|0:0,0:0:0:0:
358,33,190509,2,0,P|401:20|426:14,1,62.5,2|0,3:2|0:0,0:0:0:0:
494,93,190809,6,2,P|514:155|463:194,1,125,6|0,1:1|0:0,0:1:0:0:
465,273,191259,1,2,0:0:0:0:
398,225,191409,2,0,P|390:189|385:154,1,62.5,8|0,0:0|0:0,0:0:0:0:
302,153,191709,1,4,3:1:0:0:
302,153,191859,2,2,B|183:140|231:194|103:169,1,187.5,2|0,1:2|3:0,0:1:0:0:
336,254,192609,2,0,P|352:298|361:326,1,62.5,12|0,0:2|0:0,0:0:0:0:
430,278,192909,2,0,P|460:242|479:220,1,62.5,8|8,0:3|0:3,0:0:0:0:
390,182,193209,2,2,B|304:165|326:203|238:175,1,125,2|0,1:2|0:0,0:1:0:0:
96,223,193809,6,2,P|105:263|108:308,1,62.5,8|0,0:0|0:0,0:1:0:0:
26,293,194109,1,0,3:0:0:0:
1,215,194259,2,2,B|14:164|53:166|57:100,1,125,2|8,1:0|0:0,0:1:0:0:
46,24,194709,2,0,P|88:18|127:10,1,62.5,2|0,1:2|0:0,0:0:0:0:
165,90,195009,5,10,0:0:0:0:
165,90,195159,1,8,0:3:0:0:
247,41,195309,1,10,3:0:0:0:
247,41,195459,1,0,1:0:0:0:
229,148,195609,2,2,P|212:205|191:325,1,125,6|0,1:1|0:0,0:1:0:0:
198,269,196209,2,2,B|268:255|245:294|335:276,1,125,10|0,0:0|3:0,0:1:0:0:
401,327,196659,2,2,B|412:281|412:281|409:273|409:273|441:114,1,187.5,2|0,1:2|1:0,0:1:0:0:
222,75,197409,5,10,0:0:0:0:
222,75,197559,1,0,0:0:0:0:
290,130,197709,2,0,P|279:184|273:214,1,62.5,2|0,0:0|0:0,0:0:0:0:
202,235,198009,5,0,3:0:0:0:
202,235,198159,2,0,B|186:162|144:204|132:96,1,125,12|0,0:0|0:0,0:0:0:0:
71,78,198609,2,0,B|54:110|54:110|60:148,1,62.5,10|8,0:0|0:3,0:0:0:0:
13,214,198909,1,0,1:0:0:0:
13,214,199059,2,2,P|25:281|98:281,1,125,6|8,1:2|0:0,0:1:0:0:
139,341,199509,2,0,P|191:328|219:324,1,62.5,0|0,1:0|0:0,0:0:0:0:
310,349,199809,5,8,0:0:0:0:
275,275,199959,2,0,B|294:204|234:202|261:127,1,125,2|2,0:0|0:0,0:0:0:0:
323,112,200409,2,2,P|358:106|395:100,1,62.5,6|0,1:0|0:0,0:1:0:0:
464,120,200709,2,0,P|470:165|476:198,1,62.5,2|0,0:0|0:0,0:0:0:0:
467,263,201009,2,2,B|397:244|416:277|322:259,1,125,14|0,0:2|0:0,0:1:0:0:
277,309,201459,6,2,P|299:266|225:240,1,125,0|8,1:2|0:0,0:0:0:0:
167,202,201909,1,2,1:2:0:0:
143,279,202059,2,0,P|156:333|161:380,1,62.5,0|8,0:0|0:0,0:0:0:0:
77,357,202359,1,0,3:0:0:0:
20,298,202509,2,0,P|34:257|56:232,1,62.5,2|0,3:2|0:0,0:0:0:0:
31,161,202809,6,2,P|88:155|252:126,1,187.5,2|0,1:2|0:0,0:1:0:0:
288,95,203409,1,10,0:0:0:0:
359,241,203709,1,0,3:0:0:0:
437,221,203859,2,2,P|451:171|484:78,1,125,2|8,1:2|0:0,0:1:0:0:
422,38,204309,2,0,P|380:65|346:70,1,62.5,0|0,1:0|0:0,0:0:0:0:
306,120,204609,5,8,0:0:0:0:
306,120,204759,1,8,0:3:0:0:
306,120,204909,2,0,P|252:107|221:108,1,62.5,8|8,3:0|1:3,0:0:0:0:
197,172,205209,2,2,B|126:165|138:230|46:206,1,125,6|0,1:0|3:0,0:1:0:0:
20,157,205659,1,0,0:0:0:0:
20,157,205809,2,2,P|37:109|77:20,1,125,10|8,0:0|3:0,0:1:0:0:
143,16,206259,6,0,P|178:55|259:31,1,125,4|8,1:0|0:0,0:0:0:0:
315,87,206709,2,0,B|325:54|325:54|314:9,1,62.5,0|0,1:0|0:0,0:0:0:0:
418,9,207009,5,8,0:0:0:0:
418,9,207159,1,8,0:3:0:0:
484,71,207309,1,8,1:3:0:0:
484,71,207459,1,0,1:0:0:0:
401,119,207609,2,2,B|385:180|334:167|326:249,1,125,6|0,1:0|3:0,0:1:0:0:
321,301,208059,2,2,B|261:338|261:338|227:282,1,125,8|0,0:3|0:0,0:1:0:0:
153,309,208509,2,2,P|151:221|138:50,1,250,14|10,0:2|3:3,0:1:0:0:
381,110,209409,5,10,0:0:0:0:
381,110,209559,1,0,3:0:0:0:
440,180,209709,1,10,3:0:0:0:
440,180,209859,1,8,3:0:0:0:
385,240,210009,6,2,B|272:208|326:289|179:245,1,187.5,6|0,1:2|0:0,0:1:0:0:
147,189,210609,1,2,1:2:0:0:
471,157,210909,2,0,P|457:105|446:70,1,62.5,2|0,1:2|0:0,0:0:0:0:
451,16,211209,2,0,P|399:29|364:40,1,62.5,10|0,1:2|0:0,0:0:0:0:
310,36,211509,2,0,P|323:87|334:122,1,62.5,10|0,1:2|0:0,0:0:0:0:
330,177,211809,2,0,P|382:164|417:153,1,62.5,10|0,1:2|0:0,0:0:0:0:
471,157,212109,1,10,1:2:0:0:
256,192,213609,12,2,220872,0:0:0:0:
