osu file format v14

[General]
AudioFilename: audio.mp3
AudioLeadIn: 0
PreviewTime: 208819
Countdown: 0
SampleSet: Soft
StackLeniency: 0.7
Mode: 0
LetterboxInBreaks: 0
WidescreenStoryboard: 0

[Editor]
Bookmarks: 145754,189698,196036,225402
DistanceSpacing: 1.5
BeatDivisor: 4
GridSize: 32
TimelineZoom: 2.2

[Metadata]
Title:Hi wa Mata Noboru kara
TitleUnicode:陽はまた昇るから
Artist:Ryokuoushoku Shakai
ArtistUnicode:緑黄色社会
Creator:KixoKixo
Version:Sunny Day
Source:映画クレヨンしんちゃん もののけニンジャ珍⾵伝
Tags:ryokushaka jpop j-pop japanese pop Crayon Shin-chan Shinchan Mononoke Ninja Chinpuden anime movie theme song female vocalist
BeatmapID:3604780
BeatmapSetID:1761238

[Difficulty]
HPDrainRate:5.2
CircleSize:4
OverallDifficulty:8
ApproachRate:9
SliderMultiplier:1.7
SliderTickRate:1

[Events]
//Background and Video events
0,0,"bg.jpeg",0,0
//Break Periods
//Storyboard Layer 0 (Background)
//Storyboard Layer 1 (Fail)
//Storyboard Layer 2 (Pass)
//Storyboard Layer 3 (Foreground)
//Storyboard Layer 4 (Overlay)
//Storyboard Sound Samples

[TimingPoints]
3783,422.535211267606,4,2,17,100,1,0
5473,-200,4,2,17,40,0,0
10332,-125,4,2,17,40,0,0
11811,-100,4,2,17,60,0,0
18994,-125,4,2,17,40,0,0
32515,-111.111111111111,4,2,17,50,0,0
46036,-125,4,2,17,40,0,0
52797,-111.111111111111,4,2,17,60,0,0
66318,-100,4,2,17,80,0,1
94839,-100,4,2,17,80,0,0
96318,-142.857142857143,4,2,17,80,0,0
98008,-100,4,2,17,60,0,0
104557,-125,4,2,17,60,0,0
105191,-166.666666666667,4,2,17,40,0,0
111952,-125,4,2,17,40,0,0
118712,-111.111111111111,4,2,17,50,0,0
132233,-125,4,2,17,50,0,0
138994,-111.111111111111,4,2,17,60,0,0
145754,-99.9999999999999,4,2,17,60,0,1
174275,-99.9999999999999,4,2,17,60,0,0
189698,-166.666666666667,4,2,17,25,0,0
196036,-125,4,2,17,50,0,0
196459,-111.111111111111,4,2,17,60,0,0
208923,-142.857142857143,4,2,17,60,0,0
209980,-166.666666666666,4,2,17,60,0,0
212937,-125,4,2,17,60,0,0
213360,-100,4,2,17,80,0,1
223501,-166.666666666667,4,2,17,30,0,1
223923,-83.3333333333333,4,2,17,80,0,1
224346,-100,4,2,17,80,0,1
238501,-100,4,2,17,60,0,0
239980,-142.857142857143,4,2,17,60,0,0
241670,-100,4,2,17,60,0,0
255613,-166.666666666667,4,2,17,50,0,0
256523,444.444444444445,4,2,17,40,1,0
256523,-200,4,2,17,40,0,0
257411,-200,4,2,17,35,0,0
258300,-200,4,2,17,30,0,0
259254,422.535211267606,4,2,17,30,1,0
259254,-200,4,2,17,25,0,0
260246,392.156862745098,4,2,17,25,1,0
260246,-166.666666666667,4,2,17,25,0,0
260442,-277.777777777778,4,2,17,20,0,0
261814,-277.777777777778,4,2,17,5,0,0

[Colours]
Combo1 : 176,211,182
Combo2 : 211,141,199
Combo3 : 178,204,222
Combo4 : 242,219,142

[HitObjects]
428,220,5473,6,0,B|361:195|313:243|341:266|275:334|208:289,1,255,2|0,2:2|2:2,2:2:0:0:
169,89,7163,6,0,P|135:167|120:207,1,127.5,2|0,2:2|2:2,2:2:0:0:
20,175,8008,2,0,P|55:253|70:293,1,127.5,2|0,2:2|2:2,2:2:0:0:
152,384,8853,6,0,P|159:364|167:344,1,42.5,2|0,2:2|2:2,2:2:0:0:
238,281,9275,1,0,0:0:0:0:
165,219,9487,2,0,P|145:226|125:234,1,42.5,2|0,2:2|2:2,2:2:0:0:
45,189,9909,1,0,0:0:0:0:
127,83,10332,6,0,P|190:99|269:124,1,136,2|0,2:2|2:2,2:2:0:0:
328,210,10966,2,0,P|362:193|398:180,1,68,2|0,2:2|2:2,2:2:0:0:
410,181,11283,1,2,2:2:0:0:
410,181,11388,1,2,2:2:0:0:
491,253,11599,1,2,2:2:0:0:
357,343,11811,6,0,P|320:322|281:305,1,85,8|2,2:2|2:2,2:2:0:0:
261,284,12128,1,2,2:2:0:0:
261,284,12233,2,0,P|200:345|102:314,1,170,6|0,1:2|2:2,2:2:0:0:
58,162,12867,2,0,P|97:178|134:199,1,85,8|0,2:2|2:2,2:2:0:0:
291,95,13290,1,0,1:2:0:0:
153,31,13501,2,0,P|174:68|191:107,1,85,0|0,1:2|2:2,2:2:0:0:
269,272,13923,6,0,P|286:233|307:196,1,85,6|0,1:2|2:2,2:2:0:0:
320,186,14240,1,2,2:2:0:0:
320,186,14346,1,2,1:2:0:0:
137,321,14557,2,0,P|101:300|62:283,1,85,10|0,2:2|2:2,2:2:0:0:
166,120,14980,1,2,2:2:0:0:
1,194,15191,1,0,1:2:0:0:
1,194,15402,1,0,1:2:0:0:
33,64,15613,6,0,P|54:100|71:139,1,85,6|0,1:2|2:2,2:2:0:0:
217,89,16036,1,0,1:2:0:0:
119,3,16247,1,2,1:2:0:0:
221,213,16459,1,0,1:2:0:0:
373,57,16670,1,10,2:2:0:0:
263,0,16881,1,8,2:2:0:0:
350,203,17092,5,2,1:2:0:0:
377,298,18994,6,0,P|409:252|508:271,2,136,6|0|0,1:2|1:2|1:2,2:2:0:0:
260,182,20050,2,0,P|278:211|292:242,1,68,2|0,3:2|1:2,2:2:0:0:
365,139,20473,1,2,2:2:0:0:
251,88,20684,6,0,P|184:109|101:148,1,136,0|0,1:2|1:2,2:2:0:0:
18,116,21318,2,0,P|36:145|50:176,1,68,0|0,3:2|1:2,2:2:0:0:
134,240,21740,1,2,2:2:0:0:
62,323,21952,2,0,P|33:305|2:291,1,68,2|0,1:2|2:2,2:2:0:0:
145,381,22374,5,2,1:2:0:0:
145,381,22585,1,2,2:2:0:0:
220,290,22797,2,0,P|251:304|281:321,1,68,2|0,1:2|2:2,2:2:0:0:
414,262,23219,2,0,P|397:291|383:322,1,68,2|0,1:2|3:2,2:2:0:0:
478,186,23642,2,0,P|496:215|510:246,1,68,2|0,1:2|2:2,2:2:0:0:
371,166,24064,5,0,1:2:0:0:
445,84,24275,2,0,P|476:98|506:115,1,68,2|0,2:2|1:2,2:2:0:0:
358,15,24698,2,0,P|328:29|298:46,1,68,2|0,3:2|1:2,2:2:0:0:
176,122,25121,1,2,2:2:0:0:
198,15,25332,2,0,P|216:44|230:75,1,68,2|0,1:2|2:2,2:2:0:0:
83,173,25754,6,0,P|101:143|115:112,1,68,2|0,1:2|2:2,2:2:0:0:
184,146,26071,1,2,2:2:0:0:
184,146,26177,2,0,P|167:175|153:206,1,68,2|0,3:2|2:2,2:2:0:0:
207,297,26599,1,2,1:2:0:0:
104,377,26811,1,2,3:2:0:0:
63,271,27022,2,0,P|94:285|124:302,1,68,2|0,1:2|1:2,2:2:0:0:
180,354,27339,5,0,1:2:0:0:
180,354,27444,2,0,P|210:336|241:322,1,68,2|0,1:2|2:2,2:2:0:0:
325,228,27867,1,2,1:2:0:0:
255,186,28078,2,0,P|294:249|332:330,1,136
385,381,28712,1,0,1:0:0:0:
455,264,28923,1,2,2:2:0:0:
505,368,29135,6,0,P|475:351|444:336,1,68,10|0,2:2|2:2,2:2:0:0:
512,214,29557,1,2,1:2:0:0:
340,283,29768,1,8,2:2:0:0:
377,150,29980,2,0,P|395:179|409:210,1,68,2|0,1:2|2:2,2:2:0:0:
416,220,30297,1,8,2:2:0:0:
416,220,30402,1,10,2:2:0:0:
240,336,30613,5,2,1:2:0:0:
79,167,31036,5,2,1:2:0:0:
270,55,31459,5,2,1:2:0:0:
302,231,32304,5,8,2:2:0:0:
302,231,32409,1,8,2:2:0:0:
302,231,32515,2,0,P|279:181|251:136,1,76.4999976654053,6|0,1:2|2:2,2:2:0:0:
387,51,32937,1,8,2:2:0:0:
451,186,33149,2,0,P|417:167|382:152,1,76.4999976654053,0|0,1:2|0:2,2:2:0:0:
292,19,33571,2,0,P|258:37|223:52,1,76.4999976654053,10|0,2:2|2:2,2:2:0:0:
89,11,33994,1,2,1:2:0:0:
34,138,34205,6,0,P|52:171|67:206,1,76.4999976654053,0|0,1:2|2:2,2:2:0:0:
35,377,34628,1,8,2:2:0:0:
161,330,34839,2,0,P|196:345|229:363,1,76.4999976654053,0|0,1:2|2:2,2:2:0:0:
328,181,35261,1,8,2:2:0:0:
214,258,35473,1,2,1:2:0:0:
324,378,35684,5,0,1:2:0:0:
331,384,35790,1,0,1:2:0:0:
331,384,35895,2,0,P|345:348|364:315,1,76.4999976654053,2|0,1:2|2:2,2:2:0:0:
273,202,36318,1,8,2:2:0:0:
395,106,36529,1,0,1:2:0:0:
441,239,36740,2,0,P|407:220|372:205,1,76.4999976654053,2|8,2:2|2:2,2:2:0:0:
496,104,37163,1,2,2:2:0:0:
360,37,37374,6,0,P|379:70|394:105,1,76.4999976654053,2|0,1:2|1:2,2:2:0:0:
511,229,37797,1,2,2:2:0:0:
375,183,38008,1,10,2:2:0:0:
367,350,38219,2,0,P|400:332|435:317,1,76.4999976654053,2|0,1:2|2:2,2:2:0:0:
375,183,38642,2,0,P|341:201|306:216,1,76.4999976654053,2|0,1:2|2:2,2:2:0:0:
262,278,38959,2,8,P|228:259|193:244,1,76.4999976654053,10|0,1:2|2:2,2:2:0:0:
135,190,39275,6,0,P|120:225|101:258,1,76.4999976654053,6|0,1:2|2:2,2:2:0:0:
13,141,39698,1,10,2:2:0:0:
130,68,39909,2,0,P|163:86|198:101,1,76.4999976654053,0|0,1:2|2:2,2:2:0:0:
289,206,40332,2,0,P|322:188|357:173,1,76.4999976654053,10|0,2:2|2:2,2:2:0:0:
511,251,40754,1,2,1:2:0:0:
481,113,40966,6,0,P|462:146|447:181,1,76.4999976654053,0|0,1:2|2:2,2:2:0:0:
341,254,41388,1,10,2:2:0:0:
429,366,41599,2,0,P|462:348|497:333,1,76.4999976654053,2|0,1:2|2:2,2:2:0:0:
341,254,42022,1,8,2:2:0:0:
414,145,42233,1,0,1:2:0:0:
414,145,42444,1,0,1:2:0:0:
512,227,42656,6,0,P|494:260|479:295,1,76.4999976654053,6|0,1:2|2:2,2:2:0:0:
414,145,43078,1,10,2:2:0:0:
308,243,43290,2,0,P|230:210|148:185,1,152.999995330811,2|0,1:2|1:2,2:2:0:0:
51,260,43923,1,10,2:2:0:0:
161,384,44135,6,0,P|175:348|194:315,1,76.4999976654053,2|0,1:2|2:2,2:2:0:0:
308,243,44557,1,2,1:2:0:0:
210,162,44768,1,10,2:2:0:0:
288,340,44980,1,0,1:2:0:0:
419,223,45191,1,2,1:2:0:0:
323,147,45402,1,8,2:2:0:0:
323,147,45508,1,8,2:2:0:0:
323,147,45613,2,8,P|314:166|299:203,1,38.2499988327027,10|8,2:2|2:2,2:2:0:0:
417,83,45825,1,10,2:2:0:0:
312,15,46036,6,0,B|264:37|264:37|254:63|254:63|189:96,1,136,6|0,1:2|2:2,2:2:0:0:
93,59,46670,2,0,P|125:122|162:204,1,136,2|0,1:2|2:2,2:2:0:0:
201,285,47304,2,0,P|215:254|233:224,1,68,10|0,2:2|2:2,2:2:0:0:
288,142,47726,6,0,P|302:172|319:201,1,68,2|0,1:2|2:2,2:2:0:0:
380,283,48149,1,2,2:2:0:0:
310,357,48360,2,0,P|281:339|250:325,1,68,2|0,1:2|2:2,2:2:0:0:
172,273,48783,1,8,2:2:0:0:
120,360,48994,2,0,P|91:342|60:328,1,68,0|0,1:2|2:2,2:2:0:0:
0,251,49416,6,0,P|30:236|59:219,1,68,2|0,1:2|2:2,2:2:0:0:
138,263,49839,1,2,2:2:0:0:
198,179,50050,2,0,P|258:201|330:236,1,136,2|0,1:2|2:2,2:2:0:0:
440,211,50684,2,0,P|422:240|408:271,1,68,10|0,2:2|2:2,2:2:0:0:
365,374,51106,6,0,P|350:343|333:314,1,68,2|0,1:2|2:2,2:2:0:0:
275,227,51529,2,0,P|260:257|243:286,1,68,2|0,2:2|1:2,2:2:0:0:
370,183,51952,1,8,2:2:0:0:
238,92,52163,1,0,1:2:0:0:
332,37,52374,1,8,2:2:0:0:
243,193,52585,5,10,2:2:0:0:
243,193,52691,1,8,2:2:0:0:
243,193,52797,2,0,P|193:165|126:136,1,114.749996498108,6|0,1:2|2:2,2:2:0:0:
124,135,53219,2,0,P|109:170|91:203,1,76.4999976654053,10|0,2:2|2:2,2:2:0:0:
186,361,53642,1,10,2:2:0:0:
329,227,53853,1,2,1:2:0:0:
200,173,54064,2,0,P|218:206|233:241,1,76.4999976654053,10|0,2:2|1:2,2:2:0:0:
336,384,54487,6,0,P|351:349|369:316,1,76.4999976654053,8|0,2:2|2:2,2:2:0:0:
470,170,54909,1,10,2:2:0:0:
287,253,55121,1,2,1:2:0:0:
322,105,55332,2,0,P|340:138|355:173,1,76.4999976654053,8|0,2:2|1:2,2:2:0:0:
177,68,55754,2,0,P|195:34|210:-1,1,76.4999976654053,8|0,2:2|1:2,2:2:0:0:
55,192,56177,6,0,P|90:207|123:225,1,76.4999976654053,10|0,2:2|2:2,2:2:0:0:
261,332,56599,2,0,P|225:347|192:365,1,76.4999976654053,10|0,2:2|2:2,2:2:0:0:
184,375,56916,1,2,2:2:0:0:
184,375,57022,1,10,2:2:0:0:
45,248,57233,1,2,1:2:0:0:
178,186,57444,2,0,P|159:219|144:254,1,76.4999976654053,10|0,2:2|1:2,2:2:0:0:
79,36,57867,6,0,P|112:54|147:69,1,76.4999976654053,10|0,2:2|2:2,2:2:0:0:
289,38,58290,1,10,2:2:0:0:
178,186,58501,1,2,1:2:0:0:
306,232,58712,2,0,P|290:196|272:163,1,76.4999976654053,8|0,2:2|1:2,2:2:0:0:
196,12,59135,2,0,P|180:47|162:80,1,76.4999976654053,8|2,2:2|1:2,2:2:0:0:
73,242,59557,6,0,P|106:223|141:208,1,76.4999976654053,10|0,2:2|2:2,2:2:0:0:
283,264,59980,1,10,2:2:0:0:
169,134,60191,1,2,2:2:0:0:
291,92,60402,2,0,P|272:125|257:160,1,76.4999976654053,10|0,2:2|1:2,2:2:0:0:
198,314,60825,2,0,P|182:278|164:245,1,76.4999976654053,10|0,2:2|1:2,2:2:0:0:
34,163,61247,5,8,2:2:0:0:
187,65,61459,1,2,1:2:0:0:
67,18,61670,2,0,P|85:51|100:86,1,76.4999976654053,8|0,2:2|2:2,2:2:0:0:
175,237,62092,2,0,P|190:202|208:168,1,76.4999976654053,8|0,2:2|1:2,2:2:0:0:
287,0,62515,2,0,P|253:18|218:33,1,76.4999976654053,8|0,2:2|2:2,2:2:0:0:
306,191,62937,5,10,2:2:0:0:
393,80,63149,1,0,1:2:0:0:
284,29,63360,1,0,1:2:0:0:
384,222,63571,1,0,1:2:0:0:
512,74,63783,1,0,1:2:0:0:
385,0,63994,1,2,1:2:0:0:
508,204,64205,1,2,1:2:0:0:
367,0,64416,1,2,1:2:0:0:
304,176,64628,6,0,P|337:157|372:142,1,76.4999976654053,6|0,1:2|2:2,2:2:0:0:
426,89,64944,1,0,1:2:0:0:
426,89,65050,2,0,P|408:79|390:68,1,38.2499988327027,10|0,2:2|2:2,2:2:0:0:
237,274,66319,6,0,P|277:253|325:233,1,85,14|0,2:2|2:2,2:2:0:0:
452,134,66741,2,0,P|413:116|375:97,1,85,10|0,2:2|2:2,2:2:0:0:
430,287,67164,1,10,2:2:0:0:
279,136,67375,1,2,1:2:0:0:
437,33,67586,1,10,2:2:0:0:
270,143,67797,6,0,P|231:126|193:106,1,85,2|8,1:2|2:2,2:2:0:0:
133,318,68220,2,0,P|170:298|209:281,1,85,2|8,1:2|2:2,2:2:0:0:
0,143,68643,2,0,P|19:180|36:219,1,85,2|8,1:2|2:2,2:2:0:0:
143,170,69065,1,2,1:2:0:0:
76,372,69276,2,0,P|38:352|0:335,1,85,10|0,2:2|2:2,2:2:0:0:
237,238,69699,6,0,P|217:275|200:314,1,85,8|0,2:2|2:2,2:2:0:0:
40,118,70121,2,0,P|59:155|76:194,1,85,10|0,2:2|2:2,2:2:0:0:
193,134,70544,1,8,2:2:0:0:
124,308,70755,1,0,1:2:0:0:
303,159,70966,1,8,2:2:0:0:
128,55,71178,1,0,1:2:0:0:
229,283,71389,6,0,P|266:263|305:246,1,85,8|0,2:2|2:2,2:2:0:0:
502,384,71812,2,0,P|464:364|425:347,1,85,8|0,2:2|2:2,2:2:0:0:
405,354,72128,1,8,2:2:0:0:
405,354,72233,2,8,P|414:335|422:311,2,42.5,10|8|8,2:2|2:2|2:2,2:2:0:0:
494,188,72656,1,10,0:0:0:0:
467,176,72762,1,8,0:0:0:0:
440,161,72867,1,8,0:0:0:0:
282,89,73079,6,0,P|308:170|335:250,2,170,10|8|10,2:2|2:2|2:2,2:2:0:0:
115,150,74135,1,0,1:2:0:0:
190,281,74346,2,0,P|206:243|227:205,1,85,10|0,2:2|1:2,2:2:0:0:
81,309,74769,5,10,2:2:0:0:
220,384,74980,1,0,1:2:0:0:
110,205,75191,1,8,2:2:0:0:
298,115,75403,1,0,1:2:0:0:
263,288,75614,2,0,P|247:249|226:211,1,85,10|0,2:2|1:2,2:2:0:0:
109,59,76036,2,0,P|91:97|71:135,1,85,10|0,2:2|1:2,2:2:0:0:
262,28,76459,6,0,B|355:39|319:95|414:106,1,170,10|0,2:2|1:2,2:2:0:0:
504,63,77093,1,2,1:2:0:0:
415,211,77304,1,2,1:2:0:0:
512,161,77516,1,0,1:2:0:0:
369,103,77727,1,10,1:2:0:0:
483,315,77937,1,10,1:2:0:0:
280,249,78150,5,4,2:3:0:0:
510,120,78361,1,2,1:2:0:0:
267,259,78572,1,0,1:2:0:0:
355,59,78783,1,2,1:2:0:0:
512,262,78995,1,0,1:2:0:0:
316,176,79206,2,8,P|335:166|353:155,1,42.5,8|8,2:2|2:2,2:2:0:0:
461,109,79417,2,8,P|441:118|423:129,1,42.5,8|8,2:2|2:2,2:2:0:0:
338,269,79628,1,4,2:3:0:0:
264,95,79840,6,0,P|225:111|187:132,1,85,14|0,2:2|2:2,2:2:0:0:
76,247,80261,2,0,P|38:226|-1:209,1,85,2|0,2:2|1:2,2:2:0:0:
113,383,80685,1,10,2:2:0:0:
210,196,80896,1,2,2:2:0:0:
76,247,81107,1,2,1:2:0:0:
235,384,81318,6,0,P|271:363|310:346,1,85,2|0,1:2|2:2,2:2:0:0:
428,228,81740,2,0,P|389:210|351:190,1,85,2|0,1:2|1:2,2:2:0:0:
190,103,82164,2,0,P|210:140|227:179,1,85,2|8,2:2|2:2,2:2:0:0:
305,94,82586,1,2,1:2:0:0:
218,285,82797,1,2,2:2:0:0:
351,190,83008,1,10,2:2:0:0:
387,384,83219,6,0,P|349:363|310:346,1,85,0|0,1:2|2:2,2:2:0:0:
512,217,83643,2,0,P|491:254|474:293,1,85,2|0,1:2|2:2,2:2:0:0:
473,310,83959,1,8,2:2:0:0:
473,310,84065,1,8,2:2:0:0:
326,188,84276,1,0,1:2:0:0:
504,115,84488,1,8,2:2:0:0:
368,37,84699,6,0,P|399:115|430:208,1,170,6|0,1:2|1:2,2:2:0:0:
486,376,85333,2,0,P|449:355|410:338,1,85,8|0,2:2|2:2,2:2:0:0:
284,208,85755,1,2,1:2:0:0:
229,383,85966,1,4,2:3:0:0:
83,256,86178,1,10,2:2:0:0:
83,256,86283,1,8,2:2:0:0:
83,256,86389,1,8,2:2:0:0:
205,160,86599,6,0,P|181:225|144:336,1,170,2|8,1:2|2:2,2:2:0:0:
287,384,87234,1,2,2:2:0:0:
349,228,87445,2,0,P|310:244|273:265,1,85,10|0,2:2|2:2,2:2:0:0:
131,78,87867,2,0,P|167:98|207:115,1,85,10|0,2:2|2:2,2:2:0:0:
411,83,88290,5,10,2:2:0:0:
411,83,88502,1,2,2:2:0:0:
247,201,88713,1,10,2:2:0:0:
285,61,88923,2,0,P|305:97|322:137,1,85,10|8,2:2|2:2,2:2:0:0:
283,279,89347,1,2,1:2:0:0:
400,138,89558,1,10,2:2:0:0:
501,318,89769,1,2,2:2:0:0:
512,189,89981,6,0,P|473:205|436:226,1,85,10|0,2:2|2:2,2:2:0:0:
313,207,90403,1,0,1:2:0:0:
367,320,90614,1,2,1:2:0:0:
219,210,90826,1,0,1:2:0:0:
365,115,91037,1,2,1:2:0:0:
263,304,91248,1,2,1:2:0:0:
371,101,91459,1,2,1:2:0:0:
214,176,91671,5,2,1:2:0:0:
356,365,91882,1,2,1:2:0:0:
512,196,92093,1,0,1:2:0:0:
371,101,92304,1,2,1:2:0:0:
460,329,92516,1,0,1:2:0:0:
270,233,92727,1,2,1:2:0:0:
410,180,92937,1,10,2:2:0:0:
396,205,93042,1,8,2:2:0:0:
383,232,93148,1,10,2:3:0:0:
334,379,93360,6,0,P|296:358|257:342,1,85,6|0,1:2|2:2,2:2:0:0:
120,384,93783,1,0,1:2:0:0:
291,228,93995,1,2,1:2:0:0:
109,147,94206,1,8,2:2:0:0:
109,147,94312,1,8,2:2:0:0:
109,147,94417,2,8,P|120:165|134:194,1,42.5,8|8,2:2|2:2,2:2:0:0:
238,90,94628,2,8,P|228:108|214:137,1,42.5,8|8,2:2|2:2,2:2:0:0:
152,281,94839,5,6,1:2:0:0:
476,337,96318,6,0,B|535:258|476:177|386:175|333:259|381:251|321:336|237:271,1,386.749988197327,2|0,0:0|0:0,0:0:0:0:
161,206,98008,5,8,0:2:0:0:
164,216,98430,6,0,P|200:195|239:178,1,85,6|0,1:2|0:2,0:2:0:0:
254,177,98747,1,8,0:2:0:0:
254,177,98853,1,10,0:2:0:0:
99,10,99064,2,0,P|120:46|137:85,1,85,2|0,1:2|0:2,0:2:0:0:
144,99,99381,1,8,0:2:0:0:
144,99,99487,1,10,0:2:0:0:
0,249,99698,2,0,P|16:210|38:173,1,85,6|0,1:2|0:2,0:2:0:0:
135,335,100121,1,2,1:2:0:0:
254,177,100332,6,0,B|354:192|300:242|416:258,1,170,6|0,1:2|1:2,0:2:0:0:
512,173,100966,1,8,0:2:0:0:
382,63,101177,1,8,0:2:0:0:
492,4,101388,1,4,0:3:0:0:
492,4,101599,1,0,1:2:0:0:
360,179,101811,6,0,P|382:216|399:255,1,85,6|0,1:2|0:2,0:2:0:0:
512,173,102233,1,10,0:2:0:0:
436,377,102444,2,0,P|399:355|360:338,1,85,6|0,1:2|0:2,0:2:0:0:
187,384,102867,1,2,1:2:0:0:
225,219,103078,2,0,P|252:304|277:396,1,170,6|0,1:2|0:2,0:2:0:0:
12,267,103923,6,0,P|50:250|87:228,1,85,6|0,1:2|0:2,0:2:0:0:
160,293,104346,1,2,0:2:0:0:
241,221,104557,2,0,B|313:233|288:278|371:287,1,136,2|0,0:2|0:2,0:2:0:0:
482,189,105191,6,0,P|454:278|425:385,1,203.999993774414,6|0,1:2|0:2,0:2:0:0:
317,307,106247,1,2,0:2:0:0:
317,307,106459,2,0,P|339:295|362:283,1,50.9999984436036,2|0,0:2|0:2,0:2:0:0:
274,384,106881,6,0,P|227:364|158:344,1,101.999996887207,0|0,1:2|0:2,0:2:0:0:
69,308,107515,2,0,P|81:330|92:353,1,50.9999984436036,8|0,0:2|0:2,0:2:0:0:
159,258,107937,1,6,0:3:0:0:
159,258,108149,1,6,0:3:0:0:
58,203,108360,5,2,0:2:0:0:
58,203,108466,1,2,0:2:0:0:
58,203,108571,2,0,P|88:123|110:53,1,152.999995330811,2|0,1:2|0:2,0:2:0:0:
192,168,109416,1,10,0:2:0:0:
317,74,109733,1,8,0:2:0:0:
197,0,110050,5,10,0:2:0:0:
197,0,110156,1,8,0:2:0:0:
197,0,110261,2,0,P|209:21|220:45,1,50.9999984436036,6|0,1:2|0:2,0:2:0:0:
178,132,110684,1,2,1:2:0:0:
269,179,110895,2,0,P|317:155|375:134,1,101.999996887207,6|0,1:2|0:2,0:2:0:0:
425,76,111529,2,0,P|436:98|448:121,1,50.9999984436036,10|0,0:2|0:2,0:2:0:0:
512,231,111952,6,0,P|494:260|480:291,1,68,6|0,1:2|0:2,0:2:0:0:
464,370,112268,1,2,0:2:0:0:
464,370,112374,2,0,P|435:352|404:338,1,68,2|0,1:2|0:2,0:2:0:0:
391,337,112691,1,2,0:2:0:0:
391,337,112797,1,2,1:2:0:0:
292,384,113008,1,2,0:2:0:0:
238,290,113219,2,0,P|256:261|270:230,1,68,2|0,1:2|0:2,0:2:0:0:
344,148,113642,6,0,P|358:178|375:207,1,68,0|0,1:2|0:2,0:2:0:0:
424,106,114064,1,2,1:2:0:0:
323,60,114275,2,0,P|266:82|195:116,1,136,2|0,0:2|0:2,0:2:0:0:
126,187,114909,2,0,P|97:169|66:155,1,68,0|0,1:2|0:2,0:2:0:0:
178,296,115332,6,0,P|192:265|209:236,1,68,10|0,0:2|0:2,0:2:0:0:
222,229,115649,1,2,1:2:0:0:
222,229,115754,1,2,1:2:0:0:
330,320,115966,1,10,0:2:0:0:
446,180,116177,1,2,1:2:0:0:
309,120,116388,1,10,0:2:0:0:
318,142,116493,1,8,0:2:0:0:
329,163,116599,1,10,0:2:0:0:
161,101,116811,5,2,1:2:0:0:
447,17,117233,5,2,1:2:0:0:
296,274,117656,5,2,1:2:0:0:
487,226,118712,6,0,P|453:207|418:192,1,76.4999976654053,6|0,1:2|0:2,0:2:0:0:
299,241,119135,1,8,0:2:0:0:
375,348,119346,2,0,P|390:312|408:279,1,76.4999976654053,0|0,1:2|0:2,0:2:0:0:
219,351,119768,2,0,P|254:366|287:384,1,76.4999976654053,10|0,0:2|0:2,0:2:0:0:
407,279,120191,1,2,1:2:0:0:
306,189,120402,6,0,P|269:199|233:213,1,76.4999976654053,0|0,1:2|0:2,0:2:0:0:
115,113,120825,1,8,0:2:0:0:
239,62,121036,2,0,P|220:95|205:130,1,76.4999976654053,0|0,1:2|0:2,0:2:0:0:
105,212,121459,1,10,0:2:0:0:
206,315,121670,1,2,1:2:0:0:
206,315,121881,1,2,1:2:0:0:
300,238,122092,6,0,P|335:253|368:271,1,76.4999976654053,2|0,1:2|0:2,0:2:0:0:
475,347,122515,1,8,0:2:0:0:
502,192,122726,2,0,P|466:207|433:225,1,76.4999976654053,0|0,1:2|0:2,0:2:0:0:
337,340,123149,2,0,P|372:355|405:373,1,76.4999976654053,10|0,0:2|0:2,0:2:0:0:
279,247,123571,1,2,1:2:0:0:
209,376,123783,2,0,P|175:357|140:342,1,76.4999976654053,0|0,1:2|0:2,0:2:0:0:
33,225,124205,1,10,0:2:0:0:
168,173,124416,6,0,P|149:207|134:242,1,76.4999976654053,2|0,1:2|0:2,0:2:0:0:
216,363,124839,2,0,P|249:344|284:329,1,76.4999976654053,2|0,1:2|0:2,0:2:0:0:
328,266,125156,2,0,P|361:284|396:299,1,76.4999976654053,0|0,1:2|0:2,0:2:0:0:
486,296,125473,6,0,P|467:329|453:364,1,76.4999976654053,6|0,1:2|0:2,0:2:0:0:
452,384,125790,1,2,0:2:0:0:
452,384,125895,1,10,0:2:0:0:
321,220,126106,2,0,P|339:253|354:288,1,76.4999976654053,2|0,1:2|0:2,0:2:0:0:
484,126,126529,2,0,P|450:144|415:159,1,76.4999976654053,10|0,0:2|0:2,0:2:0:0:
292,95,126952,1,2,1:2:0:0:
227,218,127163,6,0,P|245:251|260:286,1,76.4999976654053,0|0,1:2|0:2,0:2:0:0:
345,225,127585,1,10,0:2:0:0:
284,384,127797,2,0,P|212:351|134:328,1,152.999995330811,2|8,1:2|0:2,0:2:0:0:
86,225,128430,1,0,1:2:0:0:
86,225,128642,1,0,1:2:0:0:
213,169,128853,6,0,P|194:203|179:238,1,76.4999976654053,6|0,1:2|0:2,0:2:0:0:
115,101,129275,1,10,0:2:0:0:
239,47,129487,2,0,B|329:70|281:108|378:126,1,152.999995330811,6|4,1:2|0:3,0:2:0:0:
463,60,130121,1,2,1:2:0:0:
512,185,130332,6,0,P|484:248|458:330,1,152.999995330811,6|0,1:2|1:2,0:2:0:0:
355,384,130966,2,0,P|339:348|321:315,1,76.4999976654053,10|0,0:2|0:2,0:2:0:0:
315,291,131283,1,8,0:2:0:0:
316,291,131388,2,8,P|299:299|282:309,1,38.2499988327027,10|8,0:2|0:2,0:2:0:0:
207,384,131599,1,0,1:2:0:0:
207,384,131705,1,0,1:2:0:0:
207,384,131811,2,0,P|173:365|138:350,1,76.4999976654053,2|0,1:2|1:2,0:2:0:0:
75,383,132128,5,0,1:2:0:0:
75,383,132233,2,0,P|60:352|43:323,1,68,6|0,1:2|0:2,0:2:0:0:
0,221,132656,1,2,1:2:0:0:
93,188,132867,2,0,P|160:207|229:241,1,136,2|0,0:2|0:2,0:2:0:0:
335,181,133501,1,10,0:2:0:0:
269,130,133712,1,2,1:2:0:0:
335,273,133923,6,0,P|363:255|394:241,1,68,2|0,1:2|0:2,0:2:0:0:
449,131,134346,1,2,1:2:0:0:
337,100,134557,2,0,P|355:129|369:160,1,68,2|0,0:2|1:2,0:2:0:0:
461,55,134980,1,2,0:2:0:0:
461,55,135191,2,0,P|430:41|400:23,1,68,8|0,0:2|0:2,0:2:0:0:
295,116,135613,6,0,P|266:98|235:84,1,68,2|0,1:2|0:2,0:2:0:0:
142,26,136036,1,2,1:2:0:0:
77,109,136247,2,0,P|104:174|126:241,1,136,2|0,0:2|0:2,0:2:0:0:
86,377,136881,1,10,0:2:0:0:
24,308,137092,1,2,0:2:0:0:
183,380,137304,6,0,P|212:362|243:348,1,68,2|0,1:2|0:2,0:2:0:0:
325,256,137726,2,0,P|353:273|384:287,1,68,2|0,1:2|0:2,0:2:0:0:
512,234,138149,1,8,0:2:0:0:
437,384,138360,1,0,1:2:0:0:
310,270,138571,1,8,0:2:0:0:
387,184,138783,5,10,0:2:0:0:
387,184,138888,1,8,0:2:0:0:
387,184,138994,2,0,P|405:217|420:252,1,76.4999976654053,6|0,1:2|0:2,0:2:0:0:
303,45,139416,2,0,P|288:80|269:113,1,76.4999976654053,8|0,0:2|0:2,0:2:0:0:
180,278,139839,1,8,0:2:0:0:
318,214,140050,1,2,1:2:0:0:
175,103,140261,2,0,P|193:136|208:171,1,76.4999976654053,8|0,0:2|1:2,0:2:0:0:
154,365,140684,6,0,P|168:329|187:296,1,76.4999976654053,10|0,0:2|0:2,0:2:0:0:
281,152,141106,2,0,P|295:187|314:220,1,76.4999976654053,8|0,0:2|0:2,0:2:0:0:
421,381,141529,2,0,P|387:362|352:347,1,76.4999976654053,8|0,0:2|1:2,0:2:0:0:
211,384,141952,1,10,0:2:0:0:
314,220,142163,1,2,1:2:0:0:
176,179,142374,6,0,P|194:212|209:247,1,76.4999976654053,8|0,0:2|0:2,0:2:0:0:
350,145,142797,1,0,1:2:0:0:
280,341,143008,1,2,1:2:0:0:
403,218,143219,1,2,1:2:0:0:
223,128,143430,1,2,1:2:0:0:
312,52,143642,1,2,1:2:0:0:
219,260,143853,6,0,P|185:241|150:226,1,76.4999976654053,2|0,1:2|0:2,0:2:0:0:
93,178,144170,1,0,1:2:0:0:
93,178,144275,2,0,P|66:192|27:206,1,38.2499988327027,0|0,1:2|1:2,0:2:0:0:
146,71,144487,1,8,0:2:0:0:
219,260,144698,1,2,1:2:0:0:
130,38,144909,6,0,P|165:52|198:71,1,76.4999976654053,10|0,0:2|0:2,0:2:0:0:
267,175,145332,2,8,P|289:163|332:145,1,38.2499988327027,10|8,0:2|0:2,0:2:0:0:
352,63,145543,2,8,P|374:76|411:104,1,38.2499988327027,8|8,0:2|0:2,0:2:0:0:
512,62,145754,6,0,P|492:98|475:137,1,85,6|0,1:2|0:2,0:2:0:0:
329,248,146177,2,0,P|312:209|291:171,1,85,10|0,0:2|0:2,0:2:0:0:
450,248,146600,1,10,2:2:0:0:
316,384,146811,1,2,1:2:0:0:
211,195,147022,1,10,0:2:0:0:
144,348,147233,6,0,P|180:328|218:311,1,85,2|8,1:2|0:2,0:2:0:0:
326,142,147656,2,0,P|287:125|249:104,1,85,2|8,0:2|0:2,0:2:0:0:
401,342,148078,2,0,P|417:303|438:265,1,85,2|8,0:2|0:2,0:2:0:0:
261,384,148501,1,2,1:2:0:0:
181,189,148712,2,0,P|219:205|257:226,1,85,10|0,0:2|0:2,0:2:0:0:
86,384,149135,6,0,P|102:345|123:307,1,85,8|0,0:2|0:2,0:2:0:0:
0,118,149557,2,0,P|20:155|37:194,1,85,10|0,0:2|0:2,0:2:0:0:
140,106,149980,1,8,0:2:0:0:
48,42,150191,1,0,1:2:0:0:
143,224,150402,1,8,0:2:0:0:
259,16,150613,1,0,1:2:0:0:
321,184,150825,6,0,P|284:164|245:147,1,85,8|0,0:2|0:2,0:2:0:0:
428,314,151247,2,0,P|389:330|352:351,1,85,8|0,0:2|0:2,0:2:0:0:
343,362,151564,1,8,0:2:0:0:
343,362,151670,1,10,0:2:0:0:
149,267,151881,1,6,0:3:0:0:
262,141,152092,1,10,0:2:0:0:
271,168,152197,1,8,0:2:0:0:
279,196,152303,1,8,0:2:0:0:
343,362,152515,6,0,P|379:275|417:195,2,170,10|8|8,0:2|0:2|0:2,0:2:0:0:
479,301,153571,1,0,1:2:0:0:
328,168,153783,2,0,P|288:184|251:204,1,85,10|0,0:2|1:2,0:2:0:0:
115,298,154205,5,10,0:2:0:0:
233,363,154416,1,0,1:2:0:0:
101,185,154628,1,8,0:2:0:0:
283,91,154839,1,0,1:2:0:0:
322,270,155050,2,0,P|284:249|245:233,1,85,10|0,0:2|1:2,0:2:0:0:
128,58,155473,2,0,P|167:41|204:21,1,85,10|0,0:2|0:2,0:2:0:0:
69,276,155895,6,0,P|52:236|32:199,1,85,10|0,0:2|0:2,0:2:0:0:
185,246,156318,1,0,1:2:0:0:
123,359,156529,1,2,1:2:0:0:
267,243,156740,1,2,1:2:0:0:
137,167,156952,1,0,1:2:0:0:
230,325,157163,1,2,1:2:0:0:
384,157,157374,1,2,0:2:0:0:
241,109,157585,5,0,1:2:0:0:
370,292,157797,1,2,1:2:0:0:
228,92,158008,1,0,1:2:0:0:
384,157,158219,1,10,0:2:0:0:
244,332,158430,1,8,0:2:0:0:
162,194,158642,1,0,1:2:0:0:
162,194,158747,1,0,1:2:0:0:
162,194,158853,2,8,P|180:204|198:215,1,42.5,8|8,0:2|0:2,0:2:0:0:
280,310,159064,2,8,P|261:320|243:331,1,42.5,8|8,0:2|0:2,0:2:0:0:
419,227,159275,6,0,P|399:265|382:304,1,85,6|0,1:2|0:2,0:2:0:0:
372,332,159592,1,2,0:2:0:0:
372,332,159698,2,0,P|410:349|448:369,1,85,2|0,0:2|1:2,0:2:0:0:
391,212,160121,1,10,0:2:0:0:
277,345,160332,1,2,0:2:0:0:
405,195,160543,1,2,1:2:0:0:
272,139,160754,6,0,P|289:177|309:215,1,85,2|0,1:2|0:2,0:2:0:0:
133,76,161177,2,0,P|153:38|170:-1,1,85,2|0,1:2|1:2,0:2:0:0:
205,172,161599,1,2,0:2:0:0:
86,246,161811,2,0,P|48:225|9:208,1,85,8|0,0:2|1:2,0:2:0:0:
148,384,162233,1,2,0:2:0:0:
254,219,162444,1,10,0:2:0:0:
326,373,162656,6,0,P|288:352|249:335,1,85,0|0,1:2|0:2,0:2:0:0:
409,241,163078,2,0,P|446:220|485:203,1,85,10|0,0:2|0:2,0:2:0:0:
503,203,163395,1,8,0:2:0:0:
503,203,163501,1,8,0:2:0:0:
418,359,163712,1,0,1:2:0:0:
272,214,163923,1,8,0:2:0:0:
406,138,164135,6,0,P|373:218|342:306,1,170,4|0,1:2|1:2,0:2:0:0:
237,167,164768,2,0,P|198:184|160:204,1,85,12|0,0:2|0:2,0:2:0:0:
30,104,165191,1,2,1:2:0:0:
140,0,165402,1,8,0:2:0:0:
140,0,165508,1,8,0:2:0:0:
140,0,165613,2,8,P|157:11|176:22,1,42.5,10|8,0:2|0:2,0:2:0:0:
243,136,165825,2,8,P|260:124|279:113,1,42.5,8|8,0:2|0:2,0:2:0:0:
436,17,166036,6,0,P|404:95|375:175,1,170,2|8,1:2|0:2,0:2:0:0:
443,313,166670,1,2,0:2:0:0:
295,384,166881,2,0,P|257:363|218:346,1,85,2|0,1:2|1:2,0:2:0:0:
41,213,167304,2,0,P|79:195|117:175,1,85,10|0,0:2|0:2,0:2:0:0:
271,254,167726,5,2,1:2:0:0:
189,66,167937,1,0,1:2:0:0:
341,136,168149,1,10,0:2:0:0:
174,63,168360,2,0,P|135:80|97:100,1,85,2|0,1:2|0:2,0:2:0:0:
86,112,168677,1,0,1:2:0:0:
86,112,168783,1,2,1:2:0:0:
8,335,168994,1,10,0:2:0:0:
161,222,169205,1,2,0:2:0:0:
10,144,169416,6,0,P|30:181|47:220,1,85,10|0,0:2|0:2,0:2:0:0:
8,335,169839,1,0,1:2:0:0:
124,250,170050,1,2,1:2:0:0:
189,384,170261,1,0,1:2:0:0:
41,236,170473,1,2,1:2:0:0:
241,129,170684,1,2,1:2:0:0:
29,244,170895,1,2,1:2:0:0:
248,304,171106,5,2,1:2:0:0:
86,147,171318,1,2,1:2:0:0:
0,335,171529,1,0,1:2:0:0:
186,236,171740,1,2,1:2:0:0:
3,108,171952,1,0,1:2:0:0:
126,311,172163,1,2,1:2:0:0:
211,125,172374,1,10,0:2:0:0:
185,139,172479,1,8,0:2:0:0:
158,152,172585,1,10,0:3:0:0:
269,288,172797,6,0,P|285:249|306:211,1,85,6|0,1:2|0:2,0:2:0:0:
397,35,173219,2,0,P|413:73|434:111,1,85,0|0,1:2|0:2,0:2:0:0:
512,235,173642,2,8,P|489:244|458:264,1,42.5,8|8,0:2|0:2,0:2:0:0:
419,374,173853,2,8,P|400:363|380:356,1,42.5,8|8,0:2|0:2,0:2:0:0:
305,292,174064,2,8,P|286:302|266:309,1,42.5,8|8,0:2|0:2,0:2:0:0:
190,369,174275,5,6,1:2:0:0:
318,0,175754,5,8,0:2:0:0:
330,9,176177,6,0,P|309:46|292:85,1,85,2|0,1:2|0:2,0:2:0:0:
165,159,176599,2,0,P|148:119|127:82,1,85,14|0,0:2|0:2,0:2:0:0:
315,199,177022,2,8,P|290:213|254:234,1,42.5,10|8,0:2|0:2,0:2:0:0:
175,300,177233,1,8,0:2:0:0:
156,290,177338,1,8,0:2:0:0:
138,280,177444,1,8,0:2:0:0:
119,271,177549,1,8,0:2:0:0:
101,261,177656,6,0,P|80:298|63:337,1,85,6|0,1:2|0:2,0:2:0:0:
227,243,178078,1,0,1:2:0:0:
128,122,178290,2,0,P|90:142|51:159,1,85,8|0,0:2|0:2,0:2:0:0:
36,169,178606,1,0,1:2:0:0:
36,169,178712,2,0,P|49:192|60:225,1,42.5,2|8,1:2|0:2,0:2:0:0:
112,32,178923,1,2,1:2:0:0:
265,130,179135,2,0,P|302:109|341:92,1,85,10|0,0:2|0:2,0:2:0:0:
355,59,179452,5,2,0:2:0:0:
355,59,179557,2,0,P|412:93|474:114,1,127.5,2|0,1:2|0:2,0:2:0:0:
494,123,179980,2,0,P|473:160|456:199,1,85,14|0,0:2|0:2,0:2:0:0:
304,260,180402,1,10,0:2:0:0:
292,232,180507,1,8,0:2:0:0:
279,205,180613,1,10,0:2:0:0:
424,314,180825,2,0,P|406:322|377:339,1,42.5,2|0,1:2|1:2,0:2:0:0:
248,384,181036,6,0,P|166:351|80:323,1,170,6|0,1:2|1:2,0:2:0:0:
0,214,181670,2,0,P|39:197|76:176,1,85,8|0,0:2|0:2,0:2:0:0:
95,154,181987,1,0,1:2:0:0:
95,154,182092,2,0,P|124:172|149:178,1,42.5,0|8,1:2|0:2,0:2:0:0:
270,84,182304,1,2,1:2:0:0:
141,0,182515,1,10,0:2:0:0:
252,205,182726,5,8,0:2:0:0:
252,205,182832,1,8,0:2:0:0:
252,205,182937,2,0,P|289:184|328:167,1,85,2|0,1:2|0:2,0:2:0:0:
343,167,183254,1,2,0:2:0:0:
343,167,183360,1,10,0:2:0:0:
444,316,183571,1,2,1:2:0:0:
444,316,183677,1,0,1:2:0:0:
444,316,183783,2,0,P|407:295|368:278,1,85,2|0,1:2|1:2,0:2:0:0:
203,364,184205,1,10,0:2:0:0:
231,224,184416,6,0,P|252:261|269:300,1,85,2|0,1:2|0:2,0:2:0:0:
382,384,184839,2,0,P|398:345|419:308,1,85,2|8,1:2|0:2,0:2:0:0:
512,152,185261,2,0,P|475:172|436:189,1,85,2|0,1:2|0:2,0:2:0:0:
425,197,185578,1,0,1:2:0:0:
425,197,185684,1,0,1:2:0:0:
293,36,185895,2,0,P|330:57|369:74,1,85,8|0,0:2|0:2,0:2:0:0:
228,255,186318,6,0,P|248:218|265:179,1,85,14|0,0:2|0:2,0:2:0:0:
134,67,186740,1,2,1:2:0:0:
95,230,186952,1,2,1:2:0:0:
250,98,187163,1,0,1:2:0:0:
32,173,187374,1,10,0:2:0:0:
253,245,187585,1,0,1:2:0:0:
11,337,187797,1,8,0:2:0:0:
108,136,188008,5,10,0:2:0:0:
206,376,188219,1,10,0:2:0:0:
206,376,188325,1,8,0:2:0:0:
206,376,188430,1,2,1:2:0:0:
5,245,188642,1,2,1:2:0:0:
202,155,188853,6,0,P|191:175|166:227,1,42.5,0|8,1:2|0:2,0:2:0:0:
124,296,189064,1,2,1:2:0:0:
124,296,189170,1,0,1:2:0:0:
124,296,189275,2,8,P|114:277|104:258,1,42.5,8|8,0:2|0:2,0:2:0:0:
37,147,189487,2,8,P|55:156|74:166,1,42.5,10|8,0:2|0:2,0:2:0:0:
240,239,189698,5,2,0:2:0:0:
240,239,189909,2,0,P|268:224|300:209,1,50.9999984436036,2|0,0:2|0:2,0:2:0:0:
343,139,190332,2,0,P|387:164|457:191,1,101.999996887207,2|0,0:2|0:2,0:2:0:0:
481,284,190966,2,0,P|491:260|504:238,1,50.9999984436036,2|0,0:2|0:2,0:2:0:0:
409,341,191388,6,0,P|398:317|385:295,1,50.9999984436036,2|0,0:2|0:2,0:2:0:0:
305,257,191811,1,2,0:2:0:0:
254,328,192022,2,0,P|208:305|139:275,1,101.999996887207,2|0,0:2|0:2,0:2:0:0:
105,218,192656,2,0,P|128:207|150:194,1,50.9999984436036,2|0,0:2|0:2,0:2:0:0:
35,276,193078,6,0,P|24:252|11:230,1,50.9999984436036,2|0,0:2|0:2,0:2:0:0:
64,147,193501,1,2,0:2:0:0:
150,194,193712,2,0,P|201:169|242:152,1,101.999996887207,2|0,0:2|0:2,0:2:0:0:
313,95,194346,1,2,0:2:0:0:
313,95,194557,1,2,0:2:0:0:
375,173,194768,6,0,P|360:201|345:233,1,50.9999984436036,2|0,0:2|0:2,0:2:0:0:
283,281,195191,1,2,0:2:0:0:
358,350,195402,2,0,P|402:326|463:304,1,101.999996887207,2|0,0:2|0:2,0:2:0:0:
512,138,196036,6,0,P|486:124|464:109,1,34,8|0,0:2|0:2,0:2:0:0:
397,43,196247,1,0,1:2:0:0:
397,43,196353,1,0,1:2:0:0:
397,43,196459,2,0,P|361:58|328:76,1,76.4999976654053,6|0,1:2|0:2,0:2:0:0:
253,198,196881,2,0,P|219:179|184:164,1,76.4999976654053,2|0,1:2|0:2,0:2:0:0:
105,49,197304,1,2,1:2:0:0:
105,49,197515,1,2,1:2:0:0:
238,2,197726,2,0,P|219:35|204:70,1,76.4999976654053,2|0,1:2|0:2,0:2:0:0:
136,216,198149,6,0,P|169:197|204:182,1,76.4999976654053,0|0,1:2|1:2,0:2:0:0:
345,252,198571,1,2,1:2:0:0:
251,109,198783,1,2,1:2:0:0:
384,65,198994,1,0,1:2:0:0:
245,221,199205,1,0,1:2:0:0:
426,299,199416,1,0,1:2:0:0:
257,109,199628,1,0,1:2:0:0:
227,342,199839,6,0,P|260:323|295:308,1,76.4999976654053,2|0,1:2|0:2,0:2:0:0:
172,252,200261,1,2,1:2:0:0:
119,384,200473,1,0,1:2:0:0:
272,251,200683,1,2,1:2:0:0:
112,157,200895,1,2,1:2:0:0:
223,367,201106,1,2,1:2:0:0:
105,145,201317,1,2,1:2:0:0:
56,341,201529,5,8,0:2:0:0:
56,341,201635,1,8,0:2:0:0:
56,341,201740,2,8,P|72:331|90:324,1,38.2499988327027,10|8,0:2|0:2,0:2:0:0:
167,237,201952,1,10,0:2:0:0:
251,384,202163,5,10,0:2:0:0:
251,384,202269,1,8,0:2:0:0:
251,384,202374,2,0,P|268:376|285:367,1,38.2499988327027,0|8,1:2|0:2,0:2:0:0:
342,265,202585,2,0,P|358:274|376:281,1,38.2499988327027,0|0,1:2|1:2,0:2:0:0:
453,359,202797,5,8,0:2:0:0:
453,359,202903,1,8,0:2:0:0:
453,359,203008,2,0,P|469:349|487:342,1,38.2499988327027,2|0,1:2|0:2,0:2:0:0:
367,176,203219,6,0,P|348:209|333:244,1,76.4999976654053,10|0,0:2|0:2,0:2:0:0:
239,384,203642,2,0,P|223:348|205:315,1,76.4999976654053,10|0,0:2|0:2,0:2:0:0:
269,170,204064,1,8,0:2:0:0:
104,257,204275,1,2,1:2:0:0:
137,110,204487,2,0,P|155:143|170:178,1,76.4999976654053,10|0,0:2|1:2,0:2:0:0:
250,378,204909,6,0,P|216:359|181:344,1,76.4999976654053,8|0,0:2|0:2,0:2:0:0:
291,205,205331,1,8,0:2:0:0:
384,384,205543,1,2,1:2:0:0:
452,250,205754,2,0,P|416:265|383:283,1,76.4999976654053,8|0,0:2|1:2,0:2:0:0:
205,190,206177,2,0,P|223:223|238:258,1,76.4999976654053,8|0,0:2|0:2,0:2:0:0:
247,272,206494,5,0,1:2:0:0:
247,272,206599,1,0,1:2:0:0:
334,185,206811,1,0,1:2:0:0:
224,119,207022,1,0,1:2:0:0:
356,289,207233,1,0,1:2:0:0:
436,111,207444,1,0,1:2:0:0:
222,223,207656,1,0,1:2:0:0:
393,384,207867,1,0,1:2:0:0:
473,219,208078,6,8,P|456:227|439:237,1,38.2499988327027,8|8,0:2|0:2,0:2:0:0:
292,384,208290,1,8,0:2:0:0:
292,384,208395,1,8,0:2:0:0:
292,384,208501,2,8,P|275:374|258:365,1,38.2499988327027,8|8,0:3|0:3,0:3:0:0:
109,222,208712,1,6,1:2:0:0:
257,133,208923,5,2,0:0:0:0:
257,133,209135,2,0,P|244:159|231:186,1,59.4999981842042,2|0,0:3|0:3,0:3:0:0:
328,72,209557,2,0,P|341:99|354:126,1,59.4999981842042,2|0,1:2|0:3,0:3:0:0:
439,157,209980,6,0,B|367:113|298:176|337:215|255:306|161:231,1,305.999990661621,6|8,1:2|0:2,0:2:0:0:
68,108,211459,5,2,1:2:0:0:
296,25,211881,1,2,1:2:0:0:
106,318,212304,1,2,1:2:0:0:
342,213,212726,1,2,1:2:0:0:
165,104,212937,6,0,P|188:141|219:215,1,102,8|0,0:2|0:2,0:2:0:0:
221,211,213360,2,0,P|182:228|144:247,1,85,8|0,0:2|0:2,0:2:0:0:
11,178,213783,1,2,1:2:0:0:
113,112,213994,1,2,1:2:0:0:
37,303,214205,1,0,1:2:0:0:
221,211,214416,1,0,1:2:0:0:
39,42,214628,1,0,1:2:0:0:
229,225,214839,6,0,P|267:205|305:189,1,85,4|0,1:2|0:2,0:2:0:0:
318,189,215156,1,8,0:2:0:0:
318,189,215261,1,8,0:2:0:0:
460,337,215473,1,8,0:2:0:0:
511,202,215684,1,8,0:2:0:0:
484,214,215790,1,8,0:2:0:0:
458,229,215895,1,10,0:2:0:0:
388,355,216106,1,8,0:3:0:0:
388,355,216212,1,8,0:3:0:0:
388,355,216318,2,0,P|370:343|351:334,1,42.5,10|0,0:2|0:2,0:2:0:0:
264,228,216529,1,0,1:2:0:0:
181,384,216740,6,0,P|142:364|104:348,1,85,10|0,0:2|0:2,0:2:0:0:
0,187,217163,2,0,P|38:170|76:151,1,85,8|0,0:2|0:2,0:2:0:0:
217,248,217585,1,10,0:2:0:0:
88,70,217797,1,0,1:2:0:0:
244,14,218008,2,0,P|224:52|208:90,1,85,10|0,0:2|1:2,0:2:0:0:
143,280,218430,5,8,0:2:0:0:
279,201,218642,1,0,1:2:0:0:
114,122,218853,1,8,0:2:0:0:
225,351,219064,1,0,1:2:0:0:
34,275,219275,2,0,P|71:255|110:238,1,85,10|0,0:2|1:2,0:2:0:0:
248,77,219698,2,0,P|208:60|171:40,1,85,10|0,0:2|0:2,0:2:0:0:
305,304,220121,6,0,P|321:264|341:227,1,85,10|0,0:2|0:2,0:2:0:0:
403,112,220543,1,0,1:2:0:0:
229,161,220754,1,2,1:2:0:0:
367,335,220966,1,2,1:2:0:0:
459,193,221177,1,0,1:2:0:0:
265,286,221388,1,2,1:2:0:0:
447,384,221599,1,2,0:2:0:0:
354,152,221811,5,0,1:2:0:0:
270,384,222022,1,2,1:2:0:0:
360,136,222233,1,0,1:2:0:0:
192,251,222444,1,2,1:2:0:0:
368,384,222656,1,0,1:2:0:0:
374,235,222867,6,8,P|355:245|339:259,1,42.5,8|8,0:2|0:2,0:2:0:0:
273,338,223078,2,8,P|272:316|269:295,1,42.5,8|8,0:2|0:2,0:2:0:0:
229,197,223290,2,0,P|247:207|267:214,1,42.5,0|0,1:2|1:2,1:2:0:0:
383,320,223501,6,0,P|415:294|460:286,1,76.4999976654053,2|0,0:2|0:2,0:2:0:0:
503,221,223923,6,0,P|478:301|458:369,1,152.999995330811,14|0,0:2|0:2,0:2:0:0:
453,384,224346,1,10,0:2:0:0:
310,221,224557,1,10,0:2:0:0:
337,209,224662,1,8,0:2:0:0:
363,195,224768,1,10,0:2:0:0:
272,384,224980,6,0,P|234:364|195:346,1,85,6|0,1:2|0:2,0:2:0:0:
112,178,225402,1,2,1:2:0:0:
286,128,225613,2,0,P|266:165|248:204,1,85,8|0,0:2|1:2,0:2:0:0:
236,218,225930,1,8,0:2:0:0:
236,218,226036,2,0,P|249:239|260:265,1,42.5,0|0,1:2|1:2,0:2:0:0:
379,155,226247,1,2,1:2:0:0:
212,71,226459,1,10,0:2:0:0:
344,8,226670,5,10,0:2:0:0:
344,8,226775,1,8,0:2:0:0:
344,8,226881,2,0,P|324:45|306:84,1,85,0|0,1:2|0:2,0:2:0:0:
192,251,227304,2,0,P|174:212|154:174,1,85,10|0,0:2|0:2,0:2:0:0:
144,162,227620,1,8,0:2:0:0:
144,162,227726,1,8,0:2:0:0:
292,219,227937,1,0,1:2:0:0:
152,366,228149,1,8,0:2:0:0:
303,207,228360,6,0,B|364:236|364:236|377:270|377:270|442:300,1,170,6|0,1:2|1:2,0:2:0:0:
512,111,228994,2,0,P|473:128|435:148,1,85,8|0,0:2|0:2,0:2:0:0:
280,67,229416,1,2,1:2:0:0:
280,67,229522,1,0,1:2:0:0:
280,67,229628,2,8,P|293:89|302:110,1,42.5,8|8,0:2|0:2,0:2:0:0:
233,243,229839,1,2,1:2:0:0:
233,243,229944,1,8,0:3:0:0:
233,243,230050,1,8,0:3:0:0:
351,346,230261,6,0,P|429:310|517:278,1,170,2|8,1:2|0:2,0:2:0:0:
367,146,230895,1,2,0:2:0:0:
512,69,231106,2,0,P|492:106|474:145,1,85,10|0,0:2|1:2,0:2:0:0:
394,323,231529,2,0,P|376:284|356:246,1,85,10|0,0:2|1:2,0:2:0:0:
260,76,231952,6,0,P|297:95|336:113,1,85,10|0,0:2|0:2,0:2:0:0:
512,241,232374,1,10,0:2:0:0:
479,79,232585,2,0,P|459:116|441:155,1,85,2|8,0:2|0:2,0:2:0:0:
319,263,233008,1,2,1:2:0:0:
436,384,233219,2,0,P|473:364|512:346,1,85,10|0,0:2|0:2,0:2:0:0:
287,198,233642,6,0,P|306:235|324:274,1,85,10|0,0:2|0:2,0:2:0:0:
196,227,234064,1,0,1:2:0:0:
158,354,234275,1,2,1:2:0:0:
287,198,234487,1,0,1:2:0:0:
124,130,234698,1,2,1:2:0:0:
263,347,234909,1,2,1:2:0:0:
117,119,235121,1,2,1:2:0:0:
309,177,235332,5,2,1:2:0:0:
140,300,235543,1,2,1:2:0:0:
264,42,235754,1,0,1:2:0:0:
101,162,235966,1,2,1:2:0:0:
307,297,236177,1,0,1:2:0:0:
220,122,236388,1,2,1:2:0:0:
104,283,236599,1,2,1:2:0:0:
130,268,236704,1,8,0:2:0:0:
156,255,236811,1,10,0:3:0:0:
296,159,237022,6,0,P|257:141|219:121,1,85,6|0,1:2|0:2,0:2:0:0:
294,290,237444,1,0,1:2:0:0:
452,106,237656,1,2,1:2:0:0:
287,25,237867,1,8,0:2:0:0:
287,25,237973,1,8,0:2:0:0:
287,25,238078,2,8,P|303:54|316:92,1,42.5,8|8,0:2|0:2,0:2:0:0:
359,176,238290,2,8,P|367:156|378:138,1,42.5,8|8,0:2|0:2,0:2:0:0:
454,2,238501,5,6,1:2:0:0:
269,126,239980,6,0,B|234:99|230:53|259:7|336:-21|417:76|345:213,1,356.999989105225,2|0,0:0|0:0,0:0:0:0:
229,265,241670,6,8,P|237:245|247:226,1,42.5,8|8,0:2|0:2,0:2:0:0:
149,165,241881,2,8,P|158:184|167:203,1,42.5,10|8,0:2|0:2,0:2:0:0:
223,364,242092,6,0,P|260:343|299:326,1,85,6|0,1:2|0:2,0:2:0:0:
404,207,242515,2,0,P|365:190|327:169,1,85,10|0,0:2|0:2,0:2:0:0:
204,256,242937,1,10,0:2:0:0:
295,64,243149,1,2,1:2:0:0:
170,129,243360,1,10,0:2:0:0:
305,287,243571,6,0,P|342:266|381:249,1,85,2|8,1:2|0:2,0:2:0:0:
479,177,243994,1,2,0:2:0:0:
331,85,244205,1,10,0:2:0:0:
450,43,244416,2,0,P|429:80|412:119,1,85,2|8,0:2|0:2,0:2:0:0:
310,202,244839,1,0,1:2:0:0:
426,311,245050,2,0,P|463:290|502:273,1,85,10|0,0:2|0:2,0:2:0:0:
306,384,245473,6,0,P|268:363|229:346,1,85,10|0,0:2|0:2,0:2:0:0:
153,233,245895,2,0,P|191:216|229:195,1,85,10|0,0:2|0:2,0:2:0:0:
355,245,246318,1,10,0:2:0:0:
235,93,246529,1,2,1:2:0:0:
412,0,246740,1,10,0:2:0:0:
219,103,246952,6,0,P|181:82|142:65,1,85,2|8,1:2|0:2,0:2:0:0:
0,146,247374,1,0,1:2:0:0:
29,6,247585,2,0,P|49:43|66:82,1,85,8|0,0:2|1:2,0:2:0:0:
141,226,248008,2,0,P|157:187|178:149,1,85,10|0,0:2|1:2,0:2:0:0:
271,44,248430,1,8,0:2:0:0:
368,215,248642,1,0,1:2:0:0:
437,78,248853,6,0,P|398:94|360:115,1,85,10|0,0:2|0:2,0:2:0:0:
276,249,249275,1,8,0:2:0:0:
440,300,249487,1,2,0:2:0:0:
440,300,249592,1,2,0:2:0:0:
440,300,249698,2,0,P|419:262|402:223,1,85,10|0,0:2|1:2,0:2:0:0:
321,93,250121,2,0,P|304:131|283:169,1,85,8|0,0:2|1:2,0:2:0:0:
191,96,250543,5,10,0:2:0:0:
264,284,250754,1,2,0:2:0:0:
117,146,250966,1,10,0:2:0:0:
304,55,251177,2,0,P|283:92|266:131,1,85,2|8,0:2|0:2,0:2:0:0:
168,239,251599,1,2,1:2:0:0:
291,332,251811,2,0,P|352:303|411:285,1,127.5,10|0,0:2|0:2,0:2:0:0:
435,283,252233,6,0,P|414:245|397:206,1,85,10|0,0:2|0:2,0:2:0:0:
325,54,252656,2,0,P|345:91|362:130,1,85,8|0,0:2|0:2,0:2:0:0:
369,140,252973,1,8,0:2:0:0:
369,140,253078,1,10,0:2:0:0:
506,244,253290,1,2,1:2:0:0:
376,329,253501,1,2,1:2:0:0:
450,384,253712,5,14,1:2:0:0:
119,0,254980,5,0,1:2:0:0:
214,78,255191,2,0,P|193:115|176:154,1,85,8|0,0:2|1:2,0:2:0:0:
74,221,255613,6,0,P|144:238|221:290,1,152.999995330811,4|0,1:2|0:2,0:2:0:0:
372,195,256523,6,0,P|345:250|321:324,1,127.5,2|0,0:2|0:2,0:2:0:0:
364,384,257411,6,0,P|318:336|252:346,1,127.5,2|0,0:2|0:2,0:2:0:0:
188,384,258300,6,0,P|130:356|64:328,1,127.5,2|0,0:2|0:2,0:2:0:0:
0,384,259254,6,0,P|52:320|22:229,1,170,2|0,0:2|0:2,0:2:0:0:
81,148,260246,2,2,P|70:140|60:135,1,25.4999992218018,2|2,0:2|0:2,0:2:0:0:
129,223,260442,6,0,B|180:191|243:222|216:255|279:291|334:243,1,214.200005229492,2|0,0:2|0:2,0:2:0:0:
