osu file format v14

[General]
AudioFilename: audio.ogg
AudioLeadIn: 0
PreviewTime: 59614
Countdown: 0
SampleSet: Soft
StackLeniency: 0.7
Mode: 0
LetterboxInBreaks: 0
WidescreenStoryboard: 1

[Editor]
Bookmarks: 5413,15413,25413,34163,45413,50413,52913,55413,60256,65256,70256,75413,80413
DistanceSpacing: 0.6
BeatDivisor: 4
GridSize: 32
TimelineZoom: 4.299998

[Metadata]
Title:Hana ni Natte (TV Size)
TitleUnicode:花になって (TV Size)
Artist:Ryokuoushoku Shakai
ArtistUnicode:緑黄色社会
Creator:Nakazawa
Version:Creamy's Expert
Source:薬屋のひとりごと
Tags:be a flower Kusuriya no Hitorigoto The Apothecary Diaries japanese anime jpop j-pop pop j-rock rock リョクシャカ ryokushaka 穴見真吾 Shingo Anami 小林壱誓 Kobayashi Issei 川口圭太 Keita Kawaguchi 長屋晴子 Nagaya Haruko peppe arutama creamy candy shurelia supav
BeatmapID:4354480
BeatmapSetID:2078340

[Difficulty]
HPDrainRate:5.5
CircleSize:4
OverallDifficulty:8.4
ApproachRate:9
SliderMultiplier:1.39
SliderTickRate:1

[Events]
//Background and Video events
0,0,"shureliabg.png",0,0
Video,0,"MV.mp4"
//Break Periods
//Storyboard Layer 0 (Background)
//Storyboard Layer 1 (Fail)
//Storyboard Layer 2 (Pass)
//Storyboard Layer 3 (Foreground)
//Storyboard Layer 4 (Overlay)
//Storyboard Sound Samples

[TimingPoints]
626,312.5,4,2,2,65,1,0
626,-125,4,2,2,65,0,0
1563,-125,4,2,2,65,0,0
2657,-125,4,2,3,65,0,0
3126,-125,4,2,1,65,0,0
3907,-125,4,2,2,65,0,0
4376,-62.5,4,2,1,65,0,0
4532,-76.9230769230769,4,2,1,65,0,0
4766,-76.9230769230769,4,2,1,5,0,0
4844,-62.5,4,2,1,65,0,0
5079,-62.5,4,2,1,5,0,0
5157,-166.666666666667,4,2,1,65,0,0
5547,-166.666666666667,4,2,1,5,0,0
5626,-50,4,2,2,80,0,0
5860,-50,4,2,2,5,0,0
5938,-50,4,2,1,80,0,0
6094,-100,4,2,1,80,0,0
9688,-71.4285714285714,4,2,1,80,0,0
10469,-100,4,2,1,80,0,0
12188,-100,4,2,1,80,0,0
12969,-100,4,2,1,80,0,0
14376,-62.5,4,2,1,80,0,0
15469,-62.5,4,2,2,80,0,0
15547,-62.5,4,2,1,80,0,0
15626,-100,4,2,1,60,0,0
16407,-100,4,2,2,60,0,0
16876,-100,4,2,2,60,0,0
17344,-100,4,2,1,60,0,0
25001,-62.5,4,2,1,60,0,0
25626,-100,4,2,1,70,0,0
32813,-62.5,4,2,1,70,0,0
33594,-45.4545454545455,4,2,2,70,0,0
33751,-100,4,2,1,70,0,0
33828,-100,4,2,1,5,0,0
33907,-1000,4,2,1,70,0,0
34297,-1000,4,2,1,5,0,0
34376,-100,4,2,2,70,0,0
35313,-100,4,2,1,70,0,0
35391,-100,4,2,2,70,0,0
35469,-100,4,2,1,70,0,0
35547,-100,4,2,2,70,0,0
35626,-100,4,2,2,60,0,0
35665,-100,4,2,1,60,0,0
36563,-100,4,2,2,60,0,0
36876,-125,4,2,2,60,0,0
38126,-125,4,2,1,60,0,0
39063,-125,4,2,2,60,0,0
40626,-125,4,2,1,60,0,0
41563,-125,4,2,2,60,0,0
43126,-125,4,2,1,60,0,0
44063,-125,4,2,2,60,0,0
44219,-71.4285714285714,4,2,2,60,0,0
45001,-76.9230769230769,4,2,1,60,0,0
45157,-76.9230769230769,4,2,1,60,0,0
45313,-50,4,2,1,60,0,0
45469,-50,4,2,2,60,0,0
45626,-125,4,2,1,60,0,0
47813,-76.9230769230769,4,2,1,60,0,0
48047,-76.9230769230769,4,2,1,5,0,0
48126,-125,4,2,2,60,0,0
48165,-125,4,2,1,60,0,0
49688,-83.3333333333333,4,2,1,60,0,0
49844,-125,4,2,1,60,0,0
50626,-125,4,2,99,60,0,0
50665,-125,4,2,1,60,0,0
53126,-125,4,2,1,70,0,0
53165,-125,4,2,1,70,0,0
53282,-125,4,2,3,70,0,0
54063,-125,4,2,1,70,0,0
54102,-125,4,2,1,70,0,0
54219,-125,4,2,3,70,0,0
55001,-125,4,2,1,70,0,0
55040,-125,4,2,1,70,0,0
55157,-125,4,2,3,70,0,0
55626,-125,4,2,2,70,0,0
55665,-125,4,2,1,70,0,0
56251,-100,4,2,99,70,0,0
56290,-100,4,2,1,70,0,0
56876,-62.5,4,2,1,70,0,0
57188,-71.4285714285714,4,2,1,70,0,0
57501,-125,4,2,1,70,0,0
57813,-100,4,2,1,70,0,0
58438,-71.4285714285714,4,2,1,70,0,0
58751,-55.5555555555556,4,2,1,70,0,0
59063,-45.4545454545455,4,2,1,70,0,0
59376,-45.4545454545455,4,2,3,70,0,0
60313,-62.5,4,2,1,90,0,0
60391,-62.5,4,2,1,90,0,0
60469,-83.3333333333333,4,2,1,90,0,1
61251,-83.3333333333333,4,2,1,90,0,1
61407,-83.3333333333333,4,2,1,90,0,1
61719,-83.3333333333333,4,2,1,90,0,1
61876,-83.3333333333333,4,2,1,90,0,1
63126,-83.3333333333333,4,2,4,90,0,1
64297,-83.3333333333333,4,2,4,5,0,1
64376,-83.3333333333333,4,2,4,90,0,1
65313,-100,4,2,1,90,0,1
65469,-83.3333333333333,4,2,1,90,0,1
66954,-83.3333333333333,4,2,1,5,0,1
67032,-83.3333333333333,4,2,1,90,0,1
67579,-83.3333333333333,4,2,1,5,0,1
67657,-83.3333333333333,4,2,1,90,0,1
70938,-83.3333333333333,4,2,4,90,0,1
73126,-83.3333333333333,4,2,1,90,0,1
73594,-83.3333333333333,4,2,2,90,0,1
73907,-83.3333333333333,4,2,1,90,0,1
74532,-83.3333333333333,4,2,2,90,0,1
74844,-83.3333333333333,4,2,1,90,0,1
75626,-125,4,2,1,90,0,0
75938,-250,4,2,1,65,0,0
76251,-125,4,2,1,70,0,0
76563,-83.3333333333333,4,2,1,75,0,0
76876,-62.5,4,2,1,80,0,0
77188,-50,4,2,1,85,0,0
77501,-41.6666666666667,4,2,1,90,0,0
77657,-100,4,2,1,90,0,0
78907,-100,4,2,3,90,0,0
79219,-100,4,2,1,90,0,0
79688,-71.4285714285714,4,2,1,75,0,0
80157,-100,4,2,2,75,0,0
80313,-100,4,2,1,75,0,0
80626,-100,4,2,1,70,0,0
83126,-125,4,2,1,70,0,0
83438,-100,4,2,1,70,0,0
83751,-83.3333333333333,4,2,1,70,0,0
84063,-62.5,4,2,1,70,0,0
84844,-200,4,2,1,70,0,0
85157,-50,4,2,1,70,0,0
85626,-62.5,4,2,1,60,0,0
85938,-83.3333333333333,4,2,1,60,0,0
86251,-125,4,2,1,60,0,0
86563,-250,4,2,1,60,0,0
86876,-250,4,2,2,70,0,0
86915,-250,4,2,1,70,0,0
87188,-125,4,2,1,70,0,0
87344,-125,4,2,2,70,0,0
87501,-83.3333333333333,4,2,2,70,0,0
87657,-83.3333333333333,4,2,1,70,0,0
87813,-62.5,4,2,1,70,0,0
88126,-62.5,4,2,3,70,0,0

[Colours]
Combo1 : 236,211,74
Combo2 : 127,46,73
Combo3 : 116,154,146
Combo4 : 120,58,156
Combo5 : 213,118,126

[HitObjects]
26,319,626,6,0,P|75:293|128:276,1,111.2,0|0,3:2|0:0,0:0:0:0:
128,276,1094,1,0,3:2:0:0:
128,276,1407,1,8,0:2:0:0:
190,171,1563,2,0,P|197:197|210:222,1,55.6
307,305,1876,6,0,P|318:251|357:183,1,111.2,0|0,3:2|0:0,0:0:0:0:
343,201,2344,1,0,3:2:0:0:
343,201,2657,1,8,0:2:0:0:
462,318,2813,2,0,P|427:304|403:296,1,55.6
268,384,3126,6,0,P|218:357|226:292,1,111.2,0|0,3:2|0:0,0:0:0:0:
215,307,3594,1,0,3:2:0:0:
215,307,3907,1,8,0:2:0:0:
96,186,4063,2,0,P|76:231|73:260,1,55.6
115,341,4376,1,0,3:2:0:0:
303,199,4532,6,0,B|302:172|338:158|338:158|289:160|269:221,1,135.524993796158,10|0,3:2|0:0,0:0:0:0:
173,245,4844,6,0,P|214:313|294:316,1,166.8,6|0,2:3|0:0,0:0:0:0:
429,253,5157,6,0,B|429:240|429:240|417:240|417:253|417:253|417:265|429:265|429:265|442:265|442:253|442:253|442:240|429:240|429:240|429:253,1,104.249996818543,6|0,3:2|0:0,0:0:0:0:
416,351,5626,6,0,P|379:239|311:116,1,208.5,6|0,3:2|0:0,0:0:0:0:
338,158,5938,1,10,0:2:0:0:
261,364,6094,6,0,P|239:298|209:236,1,139,2|0,3:2|3:2,0:0:0:0:
107,341,6563,1,8,0:2:0:0:
209,236,6719,1,0,0:0:0:0:
26,169,6876,2,0,P|41:232|106:243,1,139,0|8,3:2|0:2,0:0:0:0:
294,99,7344,5,2,3:2:0:0:
377,131,7501,1,2,0:2:0:0:
291,189,7657,5,2,3:2:0:0:
335,214,7813,1,10,0:2:0:0:
285,285,7969,5,2,0:2:0:0:
299,293,8126,2,0,P|378:249|447:232,1,139,0|8,3:2|0:2,0:0:0:0:
176,177,8594,2,0,P|116:212|50:234,1,139,0|0,3:2|3:2,0:0:0:0:
239,93,9063,5,8,0:2:0:0:
304,166,9219,1,2,0:0:0:0:
304,166,9297,1,2,0:0:0:0:
304,166,9376,1,2,3:2:0:0:
327,77,9532,1,0,3:2:0:0:
189,237,9688,5,10,0:2:0:0:
104,196,9844,1,2,3:2:0:0:
85,313,10001,5,2,0:2:0:0:
194,132,10157,1,2,3:2:0:0:
287,239,10313,5,10,0:2:0:0:
66,109,10469,1,2,0:2:0:0:
215,324,10626,6,0,B|286:304|234:274|327:250,1,139,0|8,3:2|0:2,0:0:0:0:
431,381,11094,2,0,P|397:381|372:358,1,69.5,0|0,3:2|0:2,0:0:0:0:
432,200,11407,1,0,3:0:0:0:
432,200,11563,2,0,P|491:212|501:306,1,139,8|0,0:0|3:0,0:0:0:0:
425,292,12032,1,0,3:2:0:0:
206,296,12188,5,10,0:2:0:0:
160,222,12344,1,2,3:2:0:0:
194,299,12501,2,0,P|181:331|169:363,1,69.5,2|0,0:2|3:2,0:0:0:0:
108,95,12813,5,10,0:2:0:0:
263,210,12969,1,2,0:2:0:0:
263,210,13047,1,2,0:0:0:0:
263,210,13126,2,0,P|324:190|352:107,1,139,0|8,3:2|0:2,0:0:0:0:
160,222,13594,2,0,P|128:208|95:196,1,69.5,0|0,3:2|0:0,0:0:0:0:
309,350,13907,5,2,3:2:0:0:
383,266,14063,1,10,0:2:0:0:
255,190,14219,1,2,0:2:0:0:
390,279,14376,6,0,P|413:266|450:250,1,55.6,8|8,0:2|0:2,0:0:0:0:
502,140,14532,1,8,0:2:0:0:
507,152,14610,1,8,0:2:0:0:
511,162,14688,1,8,0:2:0:0:
307,118,14844,5,8,0:2:0:0:
295,135,14922,2,0,P|281:110|269:85,1,55.6,8|0,0:2|0:0,0:0:0:0:
103,220,15079,5,8,0:2:0:0:
129,146,15157,2,0,P|142:170|154:195,1,55.6,8|0,0:2|0:0,0:0:0:0:
275,256,15313,5,8,0:2:0:0:
85,362,15469,1,8,2:3:0:0:
85,362,15547,1,4,2:3:0:0:
84,362,15626,2,0,P|19:344|1:276,1,139,4|2,3:2|0:2,0:0:0:0:
0,281,16094,1,2,3:2:0:0:
0,281,16407,1,2,0:0:0:0:
143,171,16876,6,0,P|158:236|229:249,1,139,8|0,3:2|0:0,0:0:0:0:
221,251,17344,1,2,3:2:0:0:
221,251,17657,1,2,0:0:0:0:
176,330,18126,6,0,P|220:301|321:269,1,139,2|2,3:2|0:2,0:0:0:0:
300,272,18594,1,2,3:2:0:0:
300,272,18907,1,2,0:0:0:0:
302,174,19219,6,0,P|309:162|312:151,2,23.1666666666667,2|2|2,0:0|0:0|0:0,0:0:0:0:
261,193,19376,2,0,P|271:248|302:331,1,139,0|2,3:2|0:0,0:0:0:0:
450,352,19844,2,0,P|482:363|512:381,2,69.5,2|2|2,3:2|0:0|0:0,0:0:0:0:
299,325,20313,1,2,3:2:0:0:
357,255,20469,1,0,0:0:0:0:
189,151,20626,6,0,P|130:171|128:261,1,139,2|2,3:2|0:2,0:0:0:0:
115,240,21094,1,2,3:2:0:0:
115,240,21407,1,2,0:0:0:0:
238,380,21876,6,0,P|253:320|284:236,1,139,2|0,3:2|0:0,0:0:0:0:
279,247,22344,1,2,3:2:0:0:
279,247,22657,1,2,0:0:0:0:
394,101,23126,6,0,B|472:84|411:50|511:23,1,139,2|2,3:2|0:2,0:0:0:0:
504,25,23595,1,2,3:2:0:0:
503,25,23907,1,2,0:0:0:0:
503,199,24219,2,0,L|517:167,2,23.1666666666667,2|2|2,0:0|0:0|0:0,0:0:0:0:
502,281,24376,5,0,3:2:0:0:
502,281,24532,2,0,P|442:275|434:182,1,139,2|2,3:2|3:2,0:0:0:0:
296,91,25001,5,0,3:0:0:0:
283,79,25079,2,0,L|297:134,1,55.6,8|0,0:2|3:2,0:0:0:0:
196,191,25235,5,0,3:0:0:0:
131,135,25313,2,0,L|145:80,1,55.6,8|8,0:0|0:0,0:0:0:0:
23,224,25469,5,8,0:0:0:0:
20,233,25547,1,8,0:0:0:0:
16,243,25626,2,0,P|26:277|42:320,1,69.5,4|2,3:2|0:2,0:0:0:0:
196,191,25938,1,10,0:2:0:0:
131,288,26094,2,0,P|121:254|105:211,1,69.5,0|2,3:2|0:2,0:0:0:0:
131,135,26329,1,8,0:0:0:0:
137,128,26407,1,0,3:0:0:0:
236,56,26563,1,10,0:2:0:0:
375,194,26719,6,0,P|406:188|418:151,1,69.5,2|2,0:2|3:2,0:0:0:0:
243,227,27032,1,2,0:0:0:0:
268,140,27188,2,0,P|284:204|306:273,1,139,8|2,0:2|0:2,0:0:0:0:
279,349,27579,1,8,0:2:0:0:
272,359,27657,1,0,3:2:0:0:
322,281,27813,1,10,0:0:0:0:
179,207,27969,1,0,0:0:0:0:
368,366,28126,6,0,B|446:349|385:315|485:288,1,139,2|10,3:2|0:2,0:0:0:0:
502,373,28594,1,2,0:2:0:0:
367,163,28829,1,8,0:2:0:0:
361,172,28907,1,0,3:2:0:0:
293,219,29063,2,0,P|248:197|200:184,1,69.5,8|2,0:2|0:0,0:0:0:0:
230,190,29297,1,2,0:2:0:0:
230,190,29376,1,2,3:2:0:0:
375,266,29532,5,0,3:2:0:0:
236,111,29688,1,8,0:2:0:0:
387,31,29844,1,0,3:0:0:0:
392,42,29922,1,8,0:2:0:0:
441,136,30079,1,8,0:0:0:0:
445,125,30157,1,0,3:2:0:0:
512,50,30313,1,8,0:2:0:0:
512,50,30469,1,0,3:3:0:0:
338,126,30626,6,0,P|274:110|263:37,1,139,0|10,3:2|0:2,0:0:0:0:
138,165,31094,2,0,P|88:143|54:133,1,69.5,2|2,3:2|0:2,0:0:0:0:
74,138,31329,1,8,0:2:0:0:
74,138,31407,1,0,3:2:0:0:
13,234,31563,1,10,0:2:0:0:
109,332,31719,2,0,B|205:298|205:298|237:237,1,139,2|2,0:2|3:2,0:0:0:0:
138,165,32188,1,8,0:2:0:0:
195,87,32344,1,2,3:2:0:0:
353,195,32501,5,2,3:2:0:0:
355,203,32579,1,8,3:3:0:0:
358,211,32657,1,4,3:3:0:0:
361,219,32735,1,4,3:3:0:0:
359,308,32813,6,0,P|368:281|375:253,1,55.6,10|8,0:2|0:2,0:0:0:0:
213,78,32969,2,0,P|222:105|229:133,1,55.6,8|8,0:2|0:2,0:0:0:0:
77,342,33125,5,2,3:2:0:0:
11,293,33282,1,0,3:0:0:0:
66,348,33438,1,2,3:2:0:0:
225,220,33594,6,0,B|260:192|261:158|261:158|211:177|194:243|208:314,1,229.350006999207,6|0,2:3|0:0,0:0:0:0:
236,366,33907,6,0,P|240:376|242:383,1,17.375,14|0,3:2|0:0,0:0:0:0:
241,382,34376,5,4,3:2:0:0:
372,312,34532,1,2,0:2:0:0:
268,200,34688,5,2,0:2:0:0:
359,279,34844,1,2,3:2:0:0:
351,167,35001,5,2,0:2:0:0:
379,242,35157,1,2,3:2:0:0:
387,180,35313,5,8,2:3:0:0:
394,227,35391,1,8,2:3:0:0:
404,192,35469,1,6,2:3:0:0:
403,207,35547,1,4,3:0:0:0:
412,209,35626,5,4,3:1:0:0:
212,273,36094,5,6,2:3:0:0:
164,200,36407,1,6,2:3:0:0:
212,273,36563,1,6,2:3:0:0:
164,200,36876,6,0,P|173:171|198:92,1,111.2,2|2,0:2|0:2,0:0:0:0:
97,89,37344,2,0,P|88:115|80:142,1,55.6,2|0,0:2|0:0,0:0:0:0:
164,200,37657,2,0,P|173:171|198:92,1,111.2
97,89,38126,1,4,2:3:0:0:
325,201,38594,5,6,2:3:0:0:
255,249,38907,1,4,2:3:0:0:
325,201,39063,1,6,2:3:0:0:
255,249,39376,6,0,P|263:294|335:312,1,111.2,2|2,0:2|0:2,0:0:0:0:
361,235,39844,2,0,P|350:210|320:200,1,55.6,2|0,0:2|0:0,0:0:0:0:
255,249,40157,2,0,P|263:294|335:312,1,111.2
361,235,40626,1,4,2:3:0:0:
448,89,40938,5,2,0:2:0:0:
448,89,41094,1,6,2:3:0:0:
448,89,41251,1,2,0:2:0:0:
448,89,41563,1,6,2:3:0:0:
270,172,41876,6,0,P|240:126|177:125,1,111.2,2|2,0:2|0:2,0:0:0:0:
145,188,42344,2,0,P|174:234|228:240,1,111.2,2|2,0:2|0:2,0:0:0:0:
226,240,43126,6,0,P|172:233|144:187,1,111.2,6|2,2:3|0:2,0:0:0:0:
187,119,43594,2,0,P|240:125|268:171,1,111.2,6|6,2:3|2:3,0:0:0:0:
226,240,44063,1,6,2:3:0:0:
18,69,44219,6,0,P|4:110|-6:132,1,48.6499985153199,2|0,0:0|0:0,0:0:0:0:
52,184,44376,5,2,0:0:0:0:
38,271,44532,1,2,0:0:0:0:
116,317,44688,1,2,0:0:0:0:
186,246,44844,1,2,0:0:0:0:
143,168,45001,6,0,P|131:148|122:127,1,45.1749979320527,4|4,2:3|2:3,0:0:0:0:
210,100,45157,2,0,P|198:80|191:59,1,45.1749979320527,4|4,2:3|2:3,0:0:0:0:
281,261,45313,6,0,P|297:228|307:194,1,69.5,4|4,2:3|2:3,0:0:0:0:
376,309,45469,2,0,P|385:275|400:244,1,69.5,4|4,2:3|2:3,0:0:0:0:
438,99,45626,6,0,P|481:95|509:24,1,111.2,4|2,3:2|0:2,0:0:0:0:
265,0,46094,2,0,P|222:4|194:75,1,111.2,0|0,3:2|0:0,0:0:0:0:
153,135,46563,1,10,0:2:0:0:
258,296,46876,5,2,3:2:0:0:
176,361,47032,2,0,P|158:312|149:293,1,55.6,8|2,0:2|0:2,0:0:0:0:
35,290,47344,2,0,P|37:244|101:216,1,111.2,2|0,3:2|3:2,0:0:0:0:
258,296,47813,2,0,B|360:259|360:259|380:215,1,135.524993796158,10|0,0:2|0:0,0:0:0:0:
371,234,48126,6,0,P|319:214|261:189,1,111.2,4|2,3:1|0:2,0:0:0:0:
409,90,48594,2,0,P|460:70|512:48,1,111.2,0|0,3:2|0:0,0:0:0:0:
330,25,49063,1,10,0:2:0:0:
330,25,49376,5,10,0:2:0:0:
182,193,49610,1,8,0:2:0:0:
182,193,49688,2,0,P|176:174|167:155,1,41.699998727417,2|0,3:0|0:0,0:0:0:0:
93,69,49844,2,0,P|32:87|34:148,1,111.2,2|0,3:2|3:2,0:0:0:0:
24,127,50313,1,6,2:3:0:0:
230,284,50469,1,0,3:2:0:0:
299,220,50626,1,12,0:2:0:0:
211,274,53126,6,0,L|203:249,1,13.9,8|8,0:2|0:0,0:0:0:0:
256,352,53282,1,4,3:2:0:0:
318,198,54063,6,0,L|326:173,1,13.9,10|8,0:2|0:0,0:0:0:0:
256,352,54219,1,6,3:2:0:0:
223,94,55001,6,0,L|215:69,1,13.9,8|8,0:2|0:0,0:0:0:0:
256,352,55157,1,4,3:2:0:0:
138,131,55626,6,0,P|152:175|265:197,1,166.8,4|2,3:1|3:2,0:0:0:0:
75,288,56251,2,0,P|147:231|281:201,1,208.5,14|2,0:2|3:2,0:0:0:0:
465,160,56876,6,0,P|497:146|511:105,2,74.1333333333333,2|2|2,0:2|0:2|0:2,0:0:0:0:
379,56,57188,6,0,P|392:30|377:-1,2,64.8666646870932,0|2|2,3:2|0:2|0:2,0:0:0:0:
273,46,57501,6,0,P|270:21|246:5,2,37.0666666666667,10|2|2,0:2|0:2|0:2,0:0:0:0:
191,54,57813,5,2,0:0:0:0:
8,124,58126,6,0,P|1:153|-5:172,1,34.75,0|0,3:3|3:3,0:3:0:0:
3,171,58282,2,0,P|7:154|11:137,1,34.75,0|0,3:3|3:3,0:3:0:0:
119,107,58438,6,0,P|112:136|106:155,1,48.6499985153199,0|0,3:3|3:3,0:3:0:0:
106,222,58594,2,0,P|113:198|118:175,1,48.6499985153199,0|0,3:3|3:3,0:3:0:0:
249,78,58751,6,0,P|239:108|232:139,1,62.5499980911255,0|0,3:3|3:3,0:3:0:0:
249,297,58907,2,0,P|256:266|265:236,1,62.5499980911255,0|0,3:3|3:3,0:3:0:0:
397,36,59063,6,0,P|388:76|376:115,1,76.4500023330689,0|0,3:3|3:3,0:3:0:0:
374,364,59219,2,0,P|382:326|393:290,1,76.4500023330689,0|0,3:3|3:3,0:3:0:0:
507,198,59376,5,4,3:2:0:0:
123,70,60313,6,0,P|98:59|73:45,1,55.6,8|0,0:2|0:0,0:0:0:0:
41,219,60469,2,0,P|107:181|225:153,1,166.799994909668,6|0,3:2|3:2,0:0:0:0:
193,156,60938,5,8,0:2:0:0:
244,85,61094,1,0,3:2:0:0:
292,175,61251,5,0,0:0:0:0:
138,82,61407,1,0,3:2:0:0:
300,0,61563,5,8,0:2:0:0:
230,244,61719,1,0,0:0:0:0:
487,181,61876,6,0,P|467:140|456:94,1,83.3999974548341,0|0,3:2|3:2,0:0:0:0:
324,267,62188,2,0,P|344:308|355:354,1,83.3999974548341,8|0,0:2|3:2,0:0:0:0:
385,192,62501,1,2,0:2:0:0:
228,343,62657,2,0,P|147:315|146:218,1,166.799994909668,2|2,3:2|0:2,0:0:0:0:
224,190,63126,5,4,3:2:0:0:
42,78,63282,1,2,0:2:0:0:
42,78,63360,1,2,0:0:0:0:
42,78,63438,1,14,0:2:0:0:
216,9,63594,1,10,0:2:0:0:
148,108,63751,2,0,P|140:67|127:27,1,83.3999974548341,6|0,0:2|3:2,0:0:0:0:
341,162,64063,2,0,P|333:203|286:287,1,125.099996182251,14|0,0:2|0:0,0:0:0:0:
295,276,64376,6,0,P|308:316|316:357,1,83.3999974548341,6|0,3:2|3:2,0:0:0:0:
224,190,64688,1,14,0:2:0:0:
10,343,64844,1,2,3:2:0:0:
110,132,65001,6,0,P|118:151|124:171,1,41.699998727417,10|8,0:2|0:2,0:0:0:0:
199,370,65157,1,10,0:2:0:0:
109,312,65313,1,8,0:3:0:0:
386,207,65469,6,0,B|477:197|427:147|531:128,1,166.799994909668,6|0,3:2|3:2,0:0:0:0:
379,119,65938,1,8,0:2:0:0:
512,270,66094,2,0,P|436:237|356:213,1,166.799994909668,0|0,3:2|3:2,0:0:0:0:
236,267,66563,1,10,0:2:0:0:
41,58,66719,6,0,P|48:107|136:115,1,125.099996182251,2|0,0:2|0:0,0:0:0:0:
113,129,67032,2,0,P|148:107|188:95,1,83.3999974548341,2|8,3:2|0:2,0:0:0:0:
428,7,67344,2,0,P|413:68|385:123,1,125.099996182251,2|0,3:2|0:0,0:0:0:0:
384,123,67657,2,0,P|400:175|406:217,1,83.3999974548341,2|8,3:2|0:2,0:0:0:0:
180,262,67969,6,0,P|214:349|290:346,1,166.799994909668,2|2,0:2|0:2,0:0:0:0:
314,253,68438,1,10,0:2:0:0:
277,352,68594,1,10,0:2:0:0:
492,317,68751,2,0,P|454:300|414:289,1,83.3999974548341,2|0,0:2|3:2,0:0:0:0:
167,148,69063,2,0,P|129:165|89:176,1,83.3999974548341,10|0,0:2|0:0,0:0:0:0:
326,37,69376,6,0,P|337:70|343:106,1,41.699998727417,10|8,0:2|0:2,0:0:0:0:
314,253,69532,1,8,0:2:0:0:
432,150,69688,1,4,3:0:0:0:
243,56,69844,6,0,P|249:76|256:96,1,41.699998727417,10|8,0:2|0:2,0:0:0:0:
314,346,70001,1,10,0:2:0:0:
225,291,70157,1,10,2:3:0:0:
432,150,70313,1,4,3:3:0:0:
225,291,70469,6,0,P|139:263|141:167,1,166.799994909668,6|0,3:2|3:2,0:0:0:0:
126,196,70938,5,12,0:2:0:0:
66,122,71094,1,0,3:2:0:0:
51,253,71251,5,4,0:2:0:0:
156,89,71407,1,0,3:2:0:0:
244,176,71563,5,12,0:2:0:0:
75,34,71719,1,0,0:0:0:0:
300,0,71876,6,0,P|283:53|272:99,1,83.3999974548341,4|0,3:2|3:2,0:0:0:0:
379,268,72188,2,0,P|396:215|407:169,1,83.3999974548341,12|0,0:2|3:2,0:0:0:0:
511,7,72501,2,0,P|484:73|379:70,1,166.799994909668,6|14,0:2|0:2,0:0:0:0:
397,82,72969,1,2,0:2:0:0:
172,228,73126,5,4,3:2:0:0:
239,154,73282,1,2,0:2:0:0:
331,179,73438,1,10,0:2:0:0:
148,142,73594,5,4,3:2:0:0:
269,252,73751,1,2,0:2:0:0:
308,90,73907,1,10,0:2:0:0:
78,213,74063,5,4,3:2:0:0:
210,65,74219,1,2,0:2:0:0:
395,110,74376,1,10,0:2:0:0:
269,252,74532,5,4,3:2:0:0:
269,252,74688,1,2,0:2:0:0:
282,0,74844,5,8,0:2:0:0:
196,318,75001,1,10,0:2:0:0:
366,270,75157,1,2,3:2:0:0:
115,51,75313,1,8,3:2:0:0:
239,154,75469,1,10,0:2:0:0:
239,154,75547,1,8,0:2:0:0:
239,154,75626,1,12,3:2:0:0:
443,346,75938,5,0,3:2:0:0:
436,338,76094,5,0,3:2:0:0:
447,325,76251,5,2,3:2:0:0:
479,292,76407,5,0,3:2:0:0:
496,231,76563,5,2,3:2:0:0:
496,155,76719,5,0,3:2:0:0:
455,74,76876,5,10,3:2:0:0:
371,23,77032,5,8,3:2:0:0:
253,21,77188,5,10,3:2:0:0:
156,93,77344,5,10,3:2:0:0:
120,245,77501,5,10,3:2:0:0:
226,362,77657,5,10,3:2:0:0:
309,359,77735,1,8,0:2:0:0:
348,295,77813,1,8,0:2:0:0:
334,245,77891,1,8,0:2:0:0:
307,216,77969,1,10,0:2:0:0:
291,203,78047,1,8,0:2:0:0:
292,189,78126,1,8,3:2:0:0:
323,46,78751,6,0,L|327:29,1,17.375,10|8,0:2|0:0,0:0:0:0:
256,352,78907,1,6,3:2:0:0:
143,142,79219,6,0,P|184:237|269:228,1,173.75,6|0,3:2|0:0,0:0:0:0:
244,241,79688,5,4,2:3:0:0:
270,217,79766,1,4,2:3:0:0:
300,195,79844,1,4,2:3:0:0:
331,176,79922,1,4,2:3:0:0:
364,162,80000,1,4,2:3:0:0:
399,150,80078,1,4,2:3:0:0:
435,143,80156,1,4,2:3:0:0:
471,140,80234,1,4,2:3:0:0:
508,140,80313,1,0,3:2:0:0:
391,289,80626,6,0,P|384:323|372:355,2,69.5,4|0|0,3:2|0:0|0:0,0:0:0:0:
469,352,81094,1,0,3:2:0:0:
137,216,81407,6,0,P|104:202|75:185,2,69.5
87,307,81875,1,0,3:2:0:0:
87,307,82032,2,0,P|57:289|25:276,2,69.5,0|0|0,0:0|0:0|3:2,0:0:0:0:
169,384,82501,6,0,P|214:355|215:321,1,69.5,2|0,0:2|0:0,0:0:0:0:
307,344,82813,2,0,P|298:291|268:276,1,69.5,2|0,0:2|0:0,0:0:0:0:
175,118,83126,6,0,P|190:128|207:133,5,37.0666666666667,2|2|2|2|2|2,0:2|0:2|0:2|0:0|0:0|0:0,0:0:0:0:
225,163,83751,6,0,P|247:147|274:140,2,55.6,2|2|2,0:2|0:2|0:2,0:0:0:0:
351,102,84063,6,0,P|375:118|439:133,2,74.1333333333333,2|2|2,0:2|0:0|0:0,0:0:0:0:
509,179,84376,5,8,3:2:0:0:
509,179,84532,1,8,3:2:0:0:
255,363,84844,5,4,2:3:0:0:
255,363,85157,1,12,3:2:0:0:
0,169,85469,5,2,0:2:0:0:
0,169,85626,6,0,P|10:226|47:270,1,111.2,10|2,3:2|0:2,0:0:0:0:
135,153,85938,6,0,P|116:190|112:231,1,83.3999974548341,2|2,0:2|0:2,0:0:0:0:
197,209,86251,6,0,P|173:225|160:251,1,55.6,2|2,0:2|0:2,0:0:0:0:
205,250,86563,6,0,P|186:250|170:259,1,27.8,2|2,0:2|0:2,0:0:0:0:
201,270,86876,5,4,3:1:0:0:
297,360,87032,6,0,L|303:347,1,13.9,6|4,2:3|2:3,0:0:0:0:
319,271,87188,6,0,P|343:264|366:254,1,27.8,6|4,2:3|2:3,0:0:0:0:
358,290,87344,2,0,P|348:266|341:242,1,27.8,6|4,2:3|2:3,0:0:0:0:
301,188,87501,6,0,P|327:180|353:169,1,41.699998727417,6|4,2:3|2:3,0:0:0:0:
434,248,87657,2,0,P|423:222|415:195,1,41.699998727417,2|0,3:2|3:2,0:0:0:0:
305,92,87813,6,0,P|331:84|357:73,1,55.6,10|0,3:2|3:2,0:0:0:0:
512,184,87969,2,0,P|501:158|493:131,1,55.6,10|8,0:2|0:2,0:0:0:0:
457,13,88126,5,6,3:2:0:0:
