osu file format v14

[General]
AudioFilename: audio.ogg
AudioLeadIn: 0
PreviewTime: 59397
Countdown: 0
SampleSet: Soft
StackLeniency: 0.7
Mode: 2
LetterboxInBreaks: 0
WidescreenStoryboard: 1

[Editor]
Bookmarks: 5413,15413,34163,50413,59163,80413
DistanceSpacing: 1
BeatDivisor: 4
GridSize: 16
TimelineZoom: 1

[Metadata]
Title:Hana ni Natte (TV Size)
TitleUnicode:花になって (TV Size)
Artist:Ryokuoushoku Shakai
ArtistUnicode:緑黄色社会
Creator:Greaper
Version:Rustyy's Overdose
Source:薬屋のひとりごと
Tags:-Rustyy Ascendance Kusuriya no Hitorigoto The Apothecary Diaries japanese anime jpop j-pop pop リョクシャカ ryokushaka 穴見真吾 shingo anami 小林壱誓 kobayashi issei 川口圭太 keita kawaguchi 長屋晴子 nagaya haruko peppe
BeatmapID:4416801
BeatmapSetID:2103123

[Difficulty]
HPDrainRate:6
CircleSize:4
OverallDifficulty:9.2
ApproachRate:9.2
SliderMultiplier:2
SliderTickRate:2

[Events]
//Background and Video events
0,0,"newbg.jpg",0,0
//Break Periods
2,50613,52343
//Storyboard Layer 0 (Background)
//Storyboard Layer 1 (Fail)
//Storyboard Layer 2 (Pass)
//Storyboard Layer 3 (Foreground)
//Storyboard Layer 4 (Overlay)
//Storyboard Sound Samples

[TimingPoints]
413,312.5,4,2,11,65,1,0
4163,-100,4,2,11,70,0,0
5413,-100,4,2,11,75,0,0
15413,-100,4,2,11,65,0,0
34163,-100,4,2,11,60,0,0
35413,-100,4,2,11,55,0,0
45413,-100,4,2,11,65,0,0
55413,-100,4,2,11,70,0,0
60256,-90.9090909090909,4,2,11,80,0,1
77913,-100,4,2,11,75,0,0
80413,-100,4,2,11,65,0,0

[Colours]
Combo1 : 241,164,141
Combo2 : 189,243,139
Combo3 : 149,202,234
Combo4 : 165,218,189

[HitObjects]
141,323,413,5,8,0:0:0:0:
91,232,569,1,0,0:0:0:0:
141,323,725,1,0,0:0:0:0:
285,268,881,1,8,0:0:0:0:
285,268,1194,5,0,0:0:0:0:
375,221,1350,1,0,0:0:0:0:
465,184,1506,1,0,0:0:0:0:
323,123,1663,6,0,L|224:89,2,100,8|0|0,0:0|0:0|0:0,0:0:0:0:
183,196,2131,1,8,0:0:0:0:
183,196,2444,6,0,L|296:237,2,100
42,135,2913,5,8,0:0:0:0:
139,114,3069,1,0,0:0:0:0:
237,93,3225,1,0,0:0:0:0:
99,42,3381,1,8,0:0:0:0:
99,42,3694,6,0,P|59:94|150:178,1,200
365,230,4163,5,8,0:0:0:0:
136,303,4319,2,0,L|31:294,1,100,8|0,0:0|0:0,0:0:0:0:
277,352,4631,2,0,L|393:349,1,100,8|0,0:0|0:0,0:0:0:0:
133,348,4944,2,0,P|87:302|181:172,1,250,12|0,0:0|0:0,0:0:0:0:
398,100,5413,6,0,L|284:73,1,100,4|0,0:0|0:0,0:0:0:0:
410,34,5725,1,8,0:0:0:0:
194,108,5881,2,0,L|402:147,1,200,0|0,3:0|3:0,0:0:0:0:
290,181,6350,1,8,0:0:0:0:
427,262,6506,2,0,L|346:255,1,50
208,326,6663,6,0,L|251:300,1,50,0|0,3:0|0:0,0:0:0:0:
305,297,6819,1,0,3:0:0:0:
184,245,6975,2,0,L|169:135,1,100,8|0,0:0|3:0,0:0:0:0:
387,134,7288,2,0,L|399:20,1,100,0|0,0:0|3:0,0:0:0:0:
258,59,7600,1,8,0:0:0:0:
391,100,7756,1,0,0:0:0:0:
167,165,7913,5,0,3:0:0:0:
264,189,8069,1,0,3:0:0:0:
361,213,8225,1,8,0:0:0:0:
130,313,8381,2,0,P|97:263|185:178,1,200,0|0,3:0|3:0,0:0:0:0:
280,162,8850,1,8,0:0:0:0:
139,85,9006,2,0,L|195:80,1,50,0|0,3:0|0:0,0:0:0:0:
367,37,9163,6,0,L|390:100,2,50,0|0|0,3:0|0:0|3:0,0:0:0:0:
227,52,9475,2,0,L|122:32,1,100,8|0,0:0|3:0,0:0:0:0:
358,160,9788,2,0,L|461:177,1,100,0|0,0:0|3:0,0:0:0:0:
319,232,10100,1,8,0:0:0:0:
455,297,10256,1,0,0:0:0:0:
225,335,10413,6,0,L|218:274,1,50,0|0,3:0|0:0,0:0:0:0:
279,265,10569,1,0,3:0:0:0:
339,243,10647,2,0,L|346:185,1,50,0|8,0:0|0:0,0:0:0:0:
116,165,10881,2,0,P|195:123|313:128,1,200,0|0,3:0|3:0,0:0:0:0:
203,80,11350,1,8,0:0:0:0:
344,43,11506,2,0,L|401:47,1,50
217,113,11663,6,0,L|163:101,2,50,0|0|0,3:0|0:0|3:0,0:0:0:0:
347,182,11975,2,0,L|236:184,1,100,8|0,0:0|3:0,0:0:0:0:
26,221,12288,2,0,L|132:244,1,100,0|0,0:0|3:0,0:0:0:0:
252,301,12600,1,8,0:0:0:0:
122,344,12756,1,0,0:0:0:0:
356,265,12913,6,0,L|459:283,2,100,0|0|8,3:0|3:0|0:0,0:0:0:0:
136,194,13381,2,0,L|348:169,1,200,0|0,3:0|3:0,0:0:0:0:
234,128,13850,1,8,0:0:0:0:
95,88,14006,1,0,0:0:0:0:
337,52,14163,6,0,L|399:48,1,50,8|8,0:0|0:0,0:0:0:0:
207,31,14319,2,0,L|199:82,1,50,8|8,0:0|0:0,0:0:0:0:
385,155,14475,1,8,0:0:0:0:
285,248,14631,1,8,0:0:0:0:
122,237,14709,1,8,0:0:0:0:
222,325,14866,1,8,0:0:0:0:
378,332,14944,1,8,0:0:0:0:
151,339,15100,2,0,L|141:279,1,50,8|0,0:0|0:0,0:0:0:0:
213,265,15256,2,0,L|220:202,1,50,8|8,0:0|0:0,0:0:0:0:
32,143,15413,5,4,0:0:0:0:
132,122,15569,2,0,L|146:17,1,100,2|2,0:0|0:0,0:0:0:0:
286,33,15881,1,10,3:0:0:0:
153,51,16038,2,0,P|148:152|247:180,1,200,2|2,0:0|0:0,0:0:0:0:
451,307,16506,6,0,L|463:189,1,100,2|8,0:0|3:0,0:0:0:0:
321,256,16819,2,0,L|312:154,1,100,2|2,0:0|0:0,0:0:0:0:
171,120,17131,1,10,3:0:0:0:
312,80,17288,2,0,P|241:52|117:46,1,200,2|2,0:0|0:0,0:0:0:0:
218,95,17756,1,0,0:0:0:0:
458,190,17913,6,0,L|341:172,2,100,10|0|2,3:0|0:0|0:0,0:0:0:0:
318,259,18381,2,0,L|303:57,1,200,10|2,3:0|0:0,0:0:0:0:
203,70,18850,1,2,0:0:0:0:
345,114,19006,2,0,L|402:98,1,50,2|0,0:0|0:0,0:0:0:0:
213,191,19163,6,0,L|87:176,2,100,10|0|2,3:0|0:0|0:0,0:0:0:0:
354,238,19631,1,10,3:0:0:0:
213,227,19788,2,0,L|201:339,1,100,2|2,0:0|0:0,0:0:0:0:
343,337,20100,2,0,L|463:330,1,100,10|0,3:0|0:0,0:0:0:0:
393,303,20334,1,0,0:0:0:0:
208,281,20413,5,10,3:0:0:0:
110,255,20569,2,0,L|96:137,1,100,2|2,0:0|0:0,0:0:0:0:
239,124,20881,1,10,3:0:0:0:
142,98,21037,1,2,0:0:0:0:
48,62,21193,1,0,0:0:0:0:
191,27,21350,2,0,L|207:150,1,100,2|2,0:0|0:0,0:0:0:0:
441,155,21663,5,8,3:0:0:0:
340,175,21819,2,0,P|290:233|381:324,1,200,2|10,0:0|3:0,0:0:0:0:
490,262,22288,2,0,L|378:237,1,100,2|0,0:0|0:0,0:0:0:0:
273,204,22600,2,0,L|397:187,1,100,2|0,0:0|0:0,0:0:0:0:
144,90,22913,5,10,3:0:0:0:
243,85,23069,1,0,0:0:0:0:
343,81,23225,1,2,0:0:0:0:
204,26,23381,2,0,L|179:237,1,200,10|0,3:0|0:0,0:0:0:0:
41,263,23850,2,0,L|143:292,1,100
187,301,24084,1,0,0:0:0:0:
366,342,24163,5,10,3:0:0:0:
266,286,24319,2,0,L|253:178,1,100,8|2,3:0|0:0,0:0:0:0:
122,150,24631,1,10,3:0:0:0:
261,91,24788,2,0,L|282:37,2,50,8|8|8,0:0|0:0|3:0,0:0:0:0:
206,98,25022,1,0,0:0:0:0:
381,172,25100,2,0,L|430:172,1,50,8|8,0:0|0:0,0:0:0:0:
256,233,25256,2,0,L|173:223,1,50,8|8,0:0|0:0,0:0:0:0:
425,333,25413,6,0,L|433:219,1,100,4|0,0:0|0:0,0:0:0:0:
300,181,25725,1,8,0:0:0:0:
431,113,25881,1,8,0:3:0:0:
290,93,26038,2,0,L|184:77,1,100,4|8,0:3|0:3,0:0:0:0:
330,30,26350,1,8,0:0:0:0:
98,57,26506,6,0,L|82:167,1,100,0|8,0:0|0:3,0:0:0:0:
222,157,26819,2,0,L|236:273,1,100,8|8,0:3|0:0,0:0:0:0:
370,283,27131,1,8,0:3:0:0:
230,339,27288,2,0,L|282:296,1,50,8|8,0:0|0:0,0:0:0:0:
323,304,27444,1,8,0:0:0:0:
181,251,27600,2,0,L|55:237,1,100,8|0,0:0|0:0,0:0:0:0:
310,132,27913,6,0,L|203:113,2,100,8|0|8,0:3|0:0|0:0,0:0:0:0:
168,49,28381,1,8,0:3:0:0:
268,34,28538,2,0,L|287:103,2,50,4|8|8,0:3|0:0|0:0,0:0:0:0:
131,105,28850,1,8,0:0:0:0:
271,190,29006,2,0,L|337:194,1,50
142,273,29163,6,0,L|26:256,1,100,8|8,3:0|3:0,0:0:0:0:
174,201,29475,2,0,L|190:102,1,100,8|8,0:0|3:0,0:0:0:0:
325,72,29788,2,0,L|255:35,1,50,4|0,0:3|0:0,0:0:0:0:
226,41,29944,1,8,3:0:0:0:
350,24,30100,1,8,0:0:0:0:
216,87,30256,1,0,0:0:0:0:
446,141,30413,5,8,3:0:0:0:
346,159,30569,2,0,L|333:274,1,100,0|8,0:0|0:0,0:0:0:0:
470,290,30881,1,8,3:0:0:0:
336,328,31038,2,0,L|275:302,1,50,4|0,0:3|0:0,0:0:0:0:
235,311,31194,1,8,3:0:0:0:
371,235,31350,2,0,L|386:99,1,100,8|0,0:0|0:0,0:0:0:0:
164,84,31663,6,0,L|303:96,1,100,8|8,0:3|3:0,0:0:0:0:
43,47,31975,2,0,L|32:151,1,100,4|8,0:0|3:0,0:0:0:0:
262,184,32288,2,0,L|221:215,1,50,8|8,0:3|0:3,0:0:0:0:
166,225,32444,2,0,L|110:214,1,50,8|8,0:3|0:3,0:0:0:0:
292,295,32600,2,0,L|361:305,1,50,8|8,0:0|0:0,0:0:0:0:
173,343,32756,2,0,L|121:343,1,50,8|8,0:0|0:0,0:0:0:0:
343,257,32913,5,8,0:0:0:0:
443,223,33069,2,0,L|456:117,1,100,0|0,0:0|3:0,0:0:0:0:
237,94,33381,2,0,L|117:69,1,100,8|0,3:0|0:0,0:0:0:0:
376,33,33694,2,0,P|405:99|288:220,1,250,4|0,0:0|0:0,0:0:0:0:
98,296,34163,5,4,0:0:0:0:
28,220,34319,1,0,0:0:0:0:
138,203,34475,1,0,0:0:0:0:
68,123,34631,1,8,3:0:0:0:
179,132,34788,1,0,0:0:0:0:
110,55,34944,1,8,3:0:0:0:
253,55,35100,2,0,L|312:55,1,50,8|8,3:0|3:0,0:0:0:0:
139,117,35256,2,0,L|196:122,1,50,8|8,3:0|3:0,0:0:0:0:
381,170,35413,5,4,0:0:0:0:
217,239,35725,2,0,L|106:221,1,100,2|10,0:0|3:0,0:0:0:0:
284,323,36194,2,0,L|296:207,1,100,10|10,3:0|3:0,0:0:0:0:
48,171,36663,6,0,L|167:146,1,100,2|2,0:0|0:0,0:0:0:0:
364,89,37131,2,0,L|220:256,2,200,2|0|0,0:0|0:0|0:0,0:0:0:0:
131,46,37913,5,10,3:0:0:0:
311,101,38225,2,0,L|194:128,1,100,2|10,0:0|3:0,0:0:0:0:
377,172,38694,2,0,L|477:194,1,100,8|10,3:0|3:0,0:0:0:0:
242,257,39163,5,2,0:0:0:0:
448,216,39631,2,0,L|253:137,1,200,2|0,0:0|0:0,0:0:0:0:
85,108,40256,1,0,0:0:0:0:
308,57,40413,5,10,3:0:0:0:
140,107,40725,2,0,L|120:225,1,100,2|10,0:0|3:0,0:0:0:0:
323,252,41194,2,0,L|198:273,1,100,10|10,3:0|3:0,0:0:0:0:
456,325,41663,5,2,0:0:0:0:
295,267,41975,2,0,L|422:238,1,100,0|2,0:0|0:0,0:0:0:0:
213,211,42444,2,0,L|207:108,1,100,2|0,0:0|0:0,0:0:0:0:
297,89,42756,1,0,0:0:0:0:
73,48,42913,5,10,3:0:0:0:
235,67,43225,2,0,L|241:198,1,100,2|10,0:0|3:0,0:0:0:0:
55,225,43694,2,0,L|153:249,2,100,10|10|0,3:0|3:0|0:0,0:0:0:0:
189,364,44163,6,0,L|209:249,1,100,2|0,0:0|0:0,0:0:0:0:
338,254,44475,2,0,L|465:232,1,100,2|0,0:0|0:0,0:0:0:0:
289,194,44788,2,0,L|337:167,1,50,8|8,3:0|3:0,0:0:0:0:
394,162,44944,2,0,L|443:168,1,50,8|8,3:0|3:0,0:0:0:0:
271,74,45100,1,8,3:0:0:0:
216,46,45178,2,0,L|198:99,2,50,8|8|8,3:0|3:0|3:0,0:0:0:0:
417,55,45413,6,0,P|455:117|366:194,1,200,8|4,3:0|0:3,0:0:0:0:
230,219,45881,2,0,P|310:254|429:259,1,200,8|0,3:0|0:0,0:0:0:0:
282,324,46350,2,0,L|171:341,1,100,8|0,0:0|0:0,0:0:0:0:
399,236,46663,5,8,3:0:0:0:
299,208,46819,2,0,L|289:105,1,100,8|4,0:0|0:3,0:0:0:0:
430,93,47131,2,0,P|369:64|225:46,1,200,8|8,3:0|3:0,0:0:0:0:
379,109,47600,2,0,L|271:129,1,100,8|0,0:0|0:0,0:0:0:0:
53,165,47913,6,0,P|139:194|275:198,1,200,8|4,3:0|0:3,0:0:0:0:
148,226,48381,1,8,3:0:0:0:
289,298,48538,2,0,L|407:309,1,100
240,354,48850,2,0,L|234:233,1,100,8|0,0:0|0:0,0:0:0:0:
456,183,49163,5,8,0:0:0:0:
356,165,49319,1,0,0:0:0:0:
350,115,49397,1,8,0:0:0:0:
344,65,49475,1,8,0:0:0:0:
205,56,49631,1,8,0:0:0:0:
302,78,49787,1,4,3:0:0:0:
399,101,49943,1,0,3:0:0:0:
255,149,50100,2,0,L|356:168,1,100,8|0,3:0|3:0,0:0:0:0:
80,212,50413,5,12,0:0:0:0:
330,319,52913,6,0,L|276:308,1,50,8|0,0:0|0:0,0:0:0:0:
102,294,53069,1,10,0:0:0:0:
245,229,53850,6,0,L|303:231,1,50,8|0,0:0|0:0,0:0:0:0:
471,230,54006,1,10,0:0:0:0:
279,293,54788,6,0,L|340:293,1,50,8|0,0:0|0:0,0:0:0:0:
140,344,54944,2,0,P|73:308|119:156,1,250,10|0,0:0|0:0,0:0:0:0:
311,123,55413,6,0,P|238:95|113:95,1,200,4|0,0:0|0:0,0:0:0:0:
217,73,55881,1,8,3:0:0:0:
356,62,56038,2,0,L|241:45,1,100,8|0,0:0|0:0,0:0:0:0:
401,110,56350,2,0,L|413:220,1,100,0|8,0:0|3:0,0:0:0:0:
184,278,56663,6,0,L|301:306,2,100,0|8|8,0:0|3:0|3:0,0:0:0:0:
49,219,57131,1,0,0:0:0:0:
180,185,57288,2,0,L|192:74,1,100,8|0,0:0|0:0,0:0:0:0:
329,61,57600,2,0,L|221:43,1,100
450,113,57913,6,0,L|502:117,1,50,8|8,3:0|3:0,0:0:0:0:
312,151,58069,2,0,L|301:223,1,50,8|8,3:0|3:0,0:0:0:0:
372,246,58225,2,0,L|294:257,1,50,8|8,3:0|3:0,0:0:0:0:
146,319,58381,5,8,3:0:0:0:
91,349,58459,2,0,L|76:295,2,50,8|8|8,3:0|3:0|3:0,0:0:0:0:
252,261,58694,2,0,L|313:262,1,50,8|8,3:0|3:0,0:0:0:0:
134,199,58850,2,0,L|68:187,1,50,8|8,3:0|3:0,0:0:0:0:
247,153,59006,2,0,L|256:93,1,50,8|8,3:0|3:0,0:0:0:0:
56,49,59163,5,4,0:0:0:0:
331,90,60100,1,8,0:0:0:0:
91,44,60256,6,0,P|59:117|126:157,1,165.000005035401,4|0,0:0|0:0,0:0:0:0:
299,202,60569,1,8,3:0:0:0:
68,226,60725,2,0,L|56:340,1,110.000003356934,8|8,0:0|3:0,0:0:0:0:
202,348,61038,2,0,L|221:222,1,110.000003356934,4|8,3:0|3:0,0:0:0:0:
357,189,61350,1,8,0:0:0:0:
222,143,61506,2,0,L|160:135,1,55.0000016784668
364,70,61663,6,0,L|493:54,1,110.000003356934,8|8,3:0|3:0,0:0:0:0:
317,124,61975,2,0,L|465:132,1,110.000003356934,8|8,0:0|3:0,0:0:0:0:
170,170,62288,1,4,3:0:0:0:
281,187,62444,2,0,L|294:318,1,110.000003356934,8|8,3:0|0:0,0:0:0:0:
147,338,62756,1,0,0:0:0:0:
376,309,62913,6,0,L|391:190,1,110.000003356934,6|0,0:0|0:0,0:0:0:0:
256,146,63225,2,0,L|383:140,1,110.000003356934,10|8,0:0|3:0,0:0:0:0:
138,90,63538,2,0,L|24:73,1,110.000003356934,6|8,3:0|3:0,0:0:0:0:
154,29,63850,2,0,L|167:147,1,110.000003356934,10|0,0:0|0:0,0:0:0:0:
389,212,64163,6,0,L|498:232,1,110.000003356934,10|8,3:0|3:0,0:0:0:0:
263,296,64475,2,0,L|377:320,1,110.000003356934,8|0,0:0|0:0,0:0:0:0:
134,243,64788,2,0,L|48:237,1,55.0000016784668,8|8,0:0|0:0,0:0:0:0:
252,188,64944,2,0,L|261:123,1,55.0000016784668,8|0,0:0|0:0,0:0:0:0:
75,96,65100,1,8,3:0:0:0:
332,26,65256,6,0,P|364:92|295:143,1,165.000005035401,4|0,0:0|0:0,0:0:0:0:
103,205,65569,6,0,L|208:240,2,110.000003356934,8|8|8,3:0|0:0|3:0,0:0:0:0:
325,348,66038,2,0,L|333:235,1,110.000003356934,4|8,3:0|3:0,0:0:0:0:
184,201,66350,1,8,0:0:0:0:
428,143,66506,6,0,L|294:118,1,110.000003356934,0|8,0:0|3:0,0:0:0:0:
191,86,66819,2,0,L|326:63,1,110.000003356934,8|8,3:0|0:0,0:0:0:0:
155,40,67131,2,0,L|149:157,1,110.000003356934,8|4,3:0|3:0,0:0:0:0:
380,177,67444,2,0,L|405:303,1,110.000003356934,8|8,3:0|0:0,0:0:0:0:
143,343,67756,6,0,L|409:374,1,220.000006713867
138,262,68225,2,0,L|17:236,1,110.000003356934,8|8,0:0|3:0,0:0:0:0:
179,189,68538,2,0,L|195:79,1,110.000003356934,4|8,3:0|3:0,0:0:0:0:
345,60,68850,2,0,L|228:41,1,110.000003356934,8|0,0:0|0:0,0:0:0:0:
466,70,69163,6,0,L|407:83,1,55.0000016784668,8|8,0:0|0:0,0:0:0:0:
234,109,69319,2,0,L|341:155,1,110.000003356934,8|8,0:0|3:0,0:0:0:0:
189,222,69631,2,0,L|97:222,1,55.0000016784668,8|8,0:0|0:0,0:0:0:0:
309,309,69788,1,8,0:0:0:0:
199,318,69944,1,8,3:0:0:0:
89,328,70100,1,8,3:0:0:0:
337,347,70256,6,0,P|371:289|292:232,1,165.000005035401,4|0,0:0|0:0,0:0:0:0:
126,183,70569,1,8,3:0:0:0:
357,118,70725,2,0,L|216:94,1,110.000003356934,8|8,0:0|3:0,0:0:0:0:
407,45,71038,2,0,L|418:193,1,110.000003356934,4|8,3:0|3:0,0:0:0:0:
262,197,71350,2,0,L|408:227,1,110.000003356934,8|0,0:0|0:0,0:0:0:0:
138,347,71663,6,0,L|128:216,1,110.000003356934,8|8,3:0|3:0,0:0:0:0:
263,186,71975,2,0,L|143:160,1,110.000003356934,8|8,0:0|3:0,0:0:0:0:
384,41,72288,2,0,P|436:98|360:195,1,220.000006713867,4|8,3:0|0:0,0:0:0:0:
130,208,72756,5,0,0:0:0:0:
241,213,72913,2,0,L|250:335,1,110.000003356934,8|0,3:0|0:0,0:0:0:0:
94,332,73225,1,8,0:0:0:0:
198,299,73381,1,8,3:0:0:0:
308,292,73537,1,0,0:0:0:0:
161,220,73694,1,8,0:0:0:0:
392,172,73850,2,0,L|409:55,1,110.000003356934,8|8,3:0|3:0,0:0:0:0:
180,63,74163,6,0,L|335:98,1,110.000003356934,8|8,3:0|0:0,0:0:0:0:
136,137,74475,2,0,L|14:147,1,110.000003356934,0|8,0:0|0:0,0:0:0:0:
178,193,74788,2,0,L|186:310,1,110.000003356934,8|8,0:0|3:0,0:0:0:0:
329,282,75100,1,8,3:0:0:0:
188,344,75256,2,0,L|121:331,1,55.0000016784668,8|8,0:0|0:0,0:0:0:0:
361,336,75413,5,4,0:0:0:0:
138,262,75725,1,8,3:0:0:0:
193,200,75881,1,0,3:0:0:0:
100,187,76038,1,8,3:0:0:0:
215,142,76194,1,0,3:0:0:0:
76,127,76350,1,8,3:0:0:0:
230,81,76506,1,0,3:0:0:0:
451,63,76663,5,8,3:0:0:0:
308,37,76819,1,0,3:0:0:0:
451,63,76975,1,8,3:0:0:0:
173,132,77131,1,8,3:0:0:0:
51,114,77288,1,8,3:0:0:0:
276,199,77444,2,0,L|334:201,1,55.0000016784668,8|8,0:0|0:0,0:0:0:0:
147,214,77600,2,0,L|89:217,1,55.0000016784668,8|8,0:0|0:0,0:0:0:0:
275,270,77756,2,0,L|284:345,1,55.0000016784668,8|8,0:0|0:0,0:0:0:0:
72,326,77913,5,4,0:0:0:0:
327,256,78538,1,8,0:0:0:0:
110,232,78694,2,0,P|75:174|137:125,1,150,8|0,0:0|0:0,0:0:0:0:
329,30,79006,6,0,P|373:81|257:246,1,300,4|8,0:0|3:0,0:0:0:0:
212,270,79553,2,0,L|195:326,2,50,8|8|8,3:0|3:0|3:0,0:0:0:0:
370,313,79788,2,0,L|441:333,1,50,8|8,3:0|3:0,0:0:0:0:
349,354,79944,2,0,L|335:286,1,50,8|8,3:0|3:0,0:0:0:0:
495,178,80100,5,8,3:0:0:0:
86,135,80413,6,0,L|204:148,2,100,6|2|2,0:0|0:0|0:0,0:0:0:0:
209,40,80881,2,0,L|220:278,1,200,10|0,3:0|0:0,0:0:0:0:
344,282,81350,2,0,L|235:305,1,100
463,323,81663,5,8,3:0:0:0:
359,338,81819,2,0,L|350:226,1,100
213,191,82131,1,8,3:0:0:0:
347,138,82288,2,0,L|231:117,1,100,2|0,0:0|0:0,0:0:0:0:
386,56,82600,2,0,L|489:78,1,100,2|0,0:0|0:0,0:0:0:0:
253,84,82913,6,0,L|141:93,1,100,10|0,3:0|0:0,0:0:0:0:
143,29,83225,1,0,0:0:0:0:
283,124,83381,2,0,L|237:156,1,50,8|0,3:0|0:0,0:0:0:0:
186,167,83538,1,2,0:0:0:0:
286,220,83694,1,0,0:0:0:0:
149,297,83850,2,0,L|136:182,1,100
359,142,84163,5,8,0:0:0:0:
142,35,84319,2,0,P|90:94|152:127,1,150,8|0,0:0|0:0,0:0:0:0:
297,192,84631,2,0,L|174:219,1,100,8|0,3:0|0:0,0:0:0:0:
423,345,84944,2,0,P|461:280|368:204,1,200,4|2,0:0|0:0,0:0:0:0:
116,138,85413,5,6,0:0:0:0:
256,113,85569,1,2,0:0:0:0:
133,164,85725,1,2,0:0:0:0:
243,158,85881,1,2,0:0:0:0:
147,194,86038,1,2,0:0:0:0:
229,204,86194,1,2,0:0:0:0:
163,234,86350,1,2,0:0:0:0:
206,259,86506,1,2,0:0:0:0:
436,307,86663,5,8,0:0:0:0:
179,347,86819,2,0,L|238:342,1,50,8|8,3:0|3:0,0:0:0:0:
431,325,86975,2,0,L|367:319,1,50,8|8,3:0|3:0,0:0:0:0:
199,313,87131,2,0,L|256:287,1,50,8|8,3:0|3:0,0:0:0:0:
409,285,87288,2,0,L|360:254,1,50,8|8,3:0|3:0,0:0:0:0:
223,258,87444,2,0,L|271:224,1,50,8|8,3:0|3:0,0:0:0:0:
352,223,87600,2,0,L|336:165,1,50,8|8,0:0|3:0,0:0:0:0:
261,190,87756,2,0,L|281:126,1,50,8|8,3:0|3:0,0:0:0:0:
466,90,87913,5,4,0:0:0:0:
