osu file format v14

[General]
AudioFilename: audio.ogg
AudioLeadIn: 0
PreviewTime: 59397
Countdown: 0
SampleSet: Soft
StackLeniency: 0.7
Mode: 2
LetterboxInBreaks: 0
WidescreenStoryboard: 1

[Editor]
Bookmarks: 4163,4944,5413,7756,10256,12756,14163,15413,25413,30413,31975,32913,34163,35413,44163,44788,45413,47913,49163,50413,55413,57288,57913,60256,62913,65256,67756,69163,70256,72756,74163,75413,76663,77913,79006,80413,84163,84944,85413,86663,87913
DistanceSpacing: 1
BeatDivisor: 4
GridSize: 16
TimelineZoom: 2

[Metadata]
Title:Hana ni Natte (TV Size)
TitleUnicode:花になって (TV Size)
Artist:Ryokuoushoku Shakai
ArtistUnicode:緑黄色社会
Creator:Greaper
Version:Platter
Source:薬屋のひとりごと
Tags:-Rustyy Ascendance Kusuriya no Hitorigoto The Apothecary Diaries japanese anime jpop j-pop pop リョクシャカ ryokushaka 穴見真吾 shingo anami 小林壱誓 kobayashi issei 川口圭太 keita kawaguchi 長屋晴子 nagaya haruko peppe
BeatmapID:4412675
BeatmapSetID:2103123

[Difficulty]
HPDrainRate:4
CircleSize:3.5
OverallDifficulty:8
ApproachRate:8
SliderMultiplier:1.45
SliderTickRate:1

[Events]
//Background and Video events
0,0,"newbg.jpg",0,0
//Break Periods
2,50613,52013
//Storyboard Layer 0 (Background)
//Storyboard Layer 1 (Fail)
//Storyboard Layer 2 (Pass)
//Storyboard Layer 3 (Foreground)
//Storyboard Layer 4 (Overlay)
//Storyboard Sound Samples

[TimingPoints]
413,312.5,4,2,11,65,1,0
4163,-100,4,2,11,70,0,0
5413,-100,4,2,11,75,0,0
15413,-100,4,2,11,65,0,0
34163,-100,4,2,11,60,0,0
35413,-100,4,2,11,55,0,0
45413,-100,4,2,11,65,0,0
55413,-100,4,2,11,70,0,0
60256,-100,4,2,11,80,0,1
77913,-100,4,2,11,75,0,0
80413,-100,4,2,11,65,0,0

[Colours]
Combo1 : 241,164,141
Combo2 : 189,243,139
Combo3 : 149,202,234
Combo4 : 165,218,189

[HitObjects]
413,317,413,6,0,L|412:143,1,145,8|0,0:0|0:0,0:0:0:0:
339,171,881,2,0,L|492:157,1,145,8|0,0:0|0:0,0:0:0:0:
491,81,1350,1,0,0:0:0:0:
418,45,1506,1,0,0:0:0:0:
263,67,1663,6,0,L|262:218,1,145,8|0,0:0|0:0,0:0:0:0:
335,269,2131,2,0,L|183:275,1,145,8|0,0:0|0:0,0:0:0:0:
181,177,2600,1,0,0:0:0:0:
254,153,2756,1,0,0:0:0:0:
98,126,2913,6,0,L|97:273,1,145,8|0,0:0|0:0,0:0:0:0:
170,303,3381,2,0,L|15:311,2,145,8|0|0,0:0|0:0|0:0,0:0:0:0:
328,278,4163,6,0,L|411:274,1,72.5,8|8,0:0|0:0,0:0:0:0:
266,192,4631,1,8,0:0:0:0:
496,192,4944,2,0,L|493:37,1,145,12|0,0:0|0:0,0:0:0:0:
267,82,5413,6,0,L|101:73,1,145,4|8,0:0|0:0,0:0:0:0:
214,285,5881,2,0,P|254:224|203:170,1,145,0|0,3:0|3:0,0:0:0:0:
145,159,6350,2,0,L|141:67,1,72.5,8|0,0:0|0:0,0:0:0:0:
229,97,6663,6,0,L|324:93,1,72.5,0|0,3:0|3:0,0:0:0:0:
145,159,6975,2,0,L|143:254,1,72.5,8|0,0:0|3:0,0:0:0:0:
214,243,7288,2,0,L|58:258,1,145,0|8,0:0|0:0,0:0:0:0:
231,311,7756,6,0,L|392:321,1,145,0|0,0:0|3:0,0:0:0:0:
380,234,8225,1,8,0:0:0:0:
307,216,8381,2,0,L|296:58,1,145,0|0,3:0|3:0,0:0:0:0:
370,33,8850,2,0,L|281:34,1,72.5,8|0,0:0|3:0,0:0:0:0:
213,35,9163,6,0,L|133:36,1,72.5,0|0,3:0|3:0,0:0:0:0:
301,122,9475,2,0,L|305:217,1,72.5,8|0,0:0|3:0,0:0:0:0:
230,241,9788,2,0,L|395:254,1,145,0|8,0:0|0:0,0:0:0:0:
222,229,10256,6,0,P|186:180|234:104,1,145,0|0,0:0|3:0,0:0:0:0:
292,103,10725,2,0,L|365:97,2,72.5,8|0|0,0:0|3:0|0:0,0:0:0:0:
218,110,11194,1,0,3:0:0:0:
293,173,11350,2,0,L|298:249,1,72.5,8|0,0:0|0:0,0:0:0:0:
223,188,11663,6,0,L|133:191,1,72.5,0|0,3:0|3:0,0:0:0:0:
295,318,11975,2,0,L|203:311,1,72.5,8|0,0:0|3:0,0:0:0:0:
144,87,12288,2,0,L|298:100,1,145,0|8,0:0|0:0,0:0:0:0:
447,298,12756,6,0,P|483:239|439:186,1,145,0|0,0:0|3:0,0:0:0:0:
370,182,13225,1,8,0:0:0:0:
442,143,13381,2,0,L|445:65,1,72.5,0|0,3:0|0:0,0:0:0:0:
293,71,13694,2,0,L|213:66,2,72.5,0|8|0,3:0|0:0|0:0,0:0:0:0:
66,65,14163,5,8,0:0:0:0:
33,78,14241,1,8,0:0:0:0:
16,112,14319,1,8,0:0:0:0:
29,144,14397,1,8,0:0:0:0:
60,161,14475,1,8,0:0:0:0:
217,207,14631,1,8,0:0:0:0:
181,211,14709,1,8,0:0:0:0:
145,216,14788,1,8,0:0:0:0:
109,220,14866,1,8,0:0:0:0:
73,225,14944,1,8,0:0:0:0:
226,294,15100,2,0,L|301:299,1,72.5,8|8,0:0|0:0,0:0:0:0:
72,319,15413,5,4,0:0:0:0:
72,319,15569,2,0,L|145:325,2,72.5,2|2|10,0:0|0:0|3:0,0:0:0:0:
148,250,16038,2,0,L|154:92,1,145,2|2,0:0|0:0,0:0:0:0:
57,79,16506,6,0,L|54:156,1,72.5,2|8,0:0|3:0,0:0:0:0:
127,33,16819,2,0,L|297:43,1,145,2|10,0:0|3:0,0:0:0:0:
198,100,17288,2,0,L|188:248,1,145,2|2,0:0|0:0,0:0:0:0:
262,257,17756,1,0,0:0:0:0:
418,303,17913,6,0,L|423:154,1,145,10|2,3:0|0:0,0:0:0:0:
350,97,18381,2,0,L|505:92,1,145,10|2,3:0|0:0,0:0:0:0:
496,16,18850,1,2,0:0:0:0:
424,11,19006,1,2,0:0:0:0:
264,244,19163,6,0,L|171:238,2,72.5,10|0|2,3:0|0:0|0:0,0:0:0:0:
423,253,19631,2,0,L|425:170,1,72.5,10|2,3:0|0:0,0:0:0:0:
353,169,19944,1,2,0:0:0:0:
196,154,20100,2,0,L|121:147,1,72.5,10|0,3:0|0:0,0:0:0:0:
286,52,20413,5,10,3:0:0:0:
359,78,20569,2,0,L|361:153,1,72.5,2|2,0:0|0:0,0:0:0:0:
287,128,20881,2,0,L|285:203,1,72.5,10|2,3:0|0:0,0:0:0:0:
440,132,21350,2,0,L|444:207,1,72.5,2|2,0:0|0:0,0:0:0:0:
281,312,21663,5,8,3:0:0:0:
281,312,21819,2,0,L|434:320,1,145,2|10,0:0|3:0,0:0:0:0:
351,232,22288,2,0,L|345:154,1,72.5,2|0,0:0|0:0,0:0:0:0:
420,147,22600,2,0,L|426:69,1,72.5,2|0,0:0|0:0,0:0:0:0:
265,56,22913,6,0,L|114:48,1,145,10|2,3:0|0:0,0:0:0:0:
195,125,23381,2,0,L|40:117,1,145,10|0,3:0|0:0,0:0:0:0:
49,196,23850,1,0,0:0:0:0:
121,238,24006,1,0,0:0:0:0:
285,237,24163,6,0,L|361:233,2,72.5,10|8|2,3:0|3:0|0:0,0:0:0:0:
111,122,24631,1,10,3:0:0:0:
43,169,24788,1,8,0:0:0:0:
36,204,24866,1,8,0:0:0:0:
42,240,24944,1,8,3:0:0:0:
204,72,25100,1,8,0:0:0:0:
240,73,25178,1,8,0:0:0:0:
276,74,25256,1,8,0:0:0:0:
43,100,25413,6,0,L|37:23,1,72.5,4|0,0:0|0:0,0:0:0:0:
108,16,25725,1,8,0:0:0:0:
182,10,25881,1,8,0:3:0:0:
25,191,26038,2,0,L|20:276,1,72.5,4|8,0:3|0:3,0:0:0:0:
92,279,26350,1,8,0:0:0:0:
252,336,26506,6,0,L|259:254,1,72.5,0|8,0:0|0:3,0:0:0:0:
184,205,26819,2,0,L|91:203,2,72.5,8|8|8,0:3|0:0|0:3,0:0:0:0:
347,163,27288,2,0,L|349:62,1,72.5,8|0,0:0|0:0,0:0:0:0:
277,114,27600,2,0,L|275:13,1,72.5,8|0,0:0|0:0,0:0:0:0:
438,326,27913,6,0,P|471:263|427:210,1,145,8|8,0:3|0:0,0:0:0:0:
351,181,28381,2,0,L|508:176,1,145,8|8,0:3|0:0,0:0:0:0:
496,80,28850,1,8,0:0:0:0:
421,36,29006,1,0,0:0:0:0:
261,41,29163,6,0,L|260:192,1,145,8|8,3:0|0:0,0:0:0:0:
331,197,29631,1,8,3:0:0:0:
172,218,29788,2,0,L|95:223,2,72.5,4|8|8,0:3|3:0|0:0,0:0:0:0:
244,209,30256,1,0,0:0:0:0:
475,269,30413,5,8,3:0:0:0:
476,230,30569,2,0,L|399:228,2,72.5,0|8|8,0:0|0:0|3:0,0:0:0:0:
327,149,31038,1,4,0:3:0:0:
318,112,31116,1,0,0:0:0:0:
324,76,31194,1,8,3:0:0:0:
399,50,31350,1,8,0:0:0:0:
240,25,31506,6,0,L|141:31,2,72.5,0|8|8,0:0|0:3|3:0,0:0:0:0:
473,88,31975,2,0,L|476:166,1,72.5,4|8,0:0|3:0,0:0:0:0:
403,189,32288,1,8,0:3:0:0:
367,193,32366,1,8,0:3:0:0:
331,197,32444,1,8,0:3:0:0:
401,262,32600,1,8,0:0:0:0:
408,292,32678,1,8,0:0:0:0:
401,342,32756,1,8,0:0:0:0:
165,341,32913,6,0,P|126:288|175:232,1,145,8|0,0:0|3:0,0:0:0:0:
241,176,33381,2,0,L|160:170,1,72.5,8|0,3:0|0:0,0:0:0:0:
20,88,33694,2,0,L|189:80,1,145,4|0,0:0|0:0,0:0:0:0:
400,84,34163,6,0,L|486:82,2,72.5,4|0|0,0:0|0:0|0:0,0:0:0:0:
243,188,34631,2,0,L|150:195,2,72.5,8|0|8,3:0|0:0|3:0,0:0:0:0:
315,196,35100,1,8,3:0:0:0:
324,231,35178,1,8,3:0:0:0:
320,268,35256,1,8,3:0:0:0:
85,308,35413,6,0,L|-7:317,1,72.5,4|0,0:0|0:0,0:0:0:0:
86,237,35725,1,2,0:0:0:0:
160,212,35881,2,0,L|165:59,1,145,10|10,3:0|3:0,0:0:0:0:
91,60,36350,1,10,3:0:0:0:
379,46,36663,6,0,L|454:50,2,72.5,2|2|0,0:0|0:0|0:0,0:0:0:0:
306,131,37131,2,0,L|461:141,1,145,2|0,0:0|0:0,0:0:0:0:
376,203,37600,2,0,L|370:282,1,72.5,2|0,0:0|0:0,0:0:0:0:
212,284,37913,6,0,L|141:293,1,72.5,10|0,3:0|0:0,0:0:0:0:
216,219,38225,2,0,L|218:143,1,72.5,2|10,0:0|3:0,0:0:0:0:
145,114,38538,2,0,L|302:107,1,145,2|10,0:0|3:0,0:0:0:0:
362,103,39006,1,0,0:0:0:0:
202,249,39163,6,0,L|39:236,1,145,2|2,0:0|0:0,0:0:0:0:
129,195,39631,2,0,L|134:38,1,145,2|0,0:0|0:0,0:0:0:0:
61,166,40100,2,0,L|59:89,1,72.5,2|0,0:0|0:0,0:0:0:0:
221,108,40413,6,0,L|375:117,1,145,10|2,3:0|0:0,0:0:0:0:
368,190,40881,1,10,3:0:0:0:
292,243,41038,2,0,L|454:257,1,145,0|10,0:0|3:0,0:0:0:0:
139,302,41663,6,0,L|288:316,1,145,2|0,0:0|0:0,0:0:0:0:
211,237,42131,2,0,L|205:76,1,145,2|2,0:0|0:0,0:0:0:0:
279,70,42600,1,0,0:0:0:0:
352,57,42756,1,0,0:0:0:0:
191,31,42913,6,0,L|35:26,1,145,10|2,3:0|0:0,0:0:0:0:
119,94,43381,2,0,P|132:166|113:242,1,145,10|10,3:0|3:0,0:0:0:0:
44,256,43850,1,10,3:0:0:0:
116,305,44006,1,0,0:0:0:0:
349,266,44163,6,0,L|432:275,2,72.5,2|0|2,0:0|0:0|0:0,0:0:0:0:
277,261,44631,1,0,0:0:0:0:
438,177,44788,1,8,3:0:0:0:
443,141,44866,1,8,3:0:0:0:
437,105,44944,1,8,3:0:0:0:
418,74,45022,1,8,3:0:0:0:
390,52,45100,1,8,3:0:0:0:
356,40,45178,1,8,3:0:0:0:
320,40,45256,1,8,3:0:0:0:
87,47,45413,6,0,P|45:117|62:189,1,145,8|4,3:0|0:3,0:0:0:0:
130,196,45881,1,8,3:0:0:0:
290,198,46038,2,0,L|293:112,1,72.5
128,260,46350,2,0,L|45:267,1,72.5,8|0,0:0|0:0,0:0:0:0:
220,70,46663,6,0,L|304:64,2,72.5,8|8|4,3:0|0:0|0:3,0:0:0:0:
147,161,47131,2,0,L|311:151,1,145,8|8,3:0|3:0,0:0:0:0:
137,197,47600,2,0,L|129:279,1,72.5,8|0,0:0|0:0,0:0:0:0:
286,250,47913,6,0,L|440:261,1,145,8|4,3:0|0:3,0:0:0:0:
428,179,48381,1,8,3:0:0:0:
351,116,48538,2,0,L|504:110,1,145,0|8,0:0|0:0,0:0:0:0:
117,45,49163,5,8,0:0:0:0:
189,57,49319,1,0,0:0:0:0:
199,94,49397,1,8,0:0:0:0:
189,129,49475,1,8,0:0:0:0:
36,186,49631,2,0,L|207:197,1,145,8|0,0:0|3:0,0:0:0:0:
25,256,50100,2,0,L|17:342,1,72.5,8|0,3:0|3:0,0:0:0:0:
256,320,50413,5,12,0:0:0:0:
99,238,52913,5,8,0:0:0:0:
258,238,53069,1,10,0:0:0:0:
258,238,53850,1,8,0:0:0:0:
417,238,54006,1,10,0:0:0:0:
226,174,54788,1,8,0:0:0:0:
385,174,54944,2,0,P|423:122|375:49,1,145,10|0,0:0|0:0,0:0:0:0:
163,44,55413,6,0,L|5:37,1,145,4|0,0:0|0:0,0:0:0:0:
16,112,55881,1,8,3:0:0:0:
177,203,56038,2,0,L|250:211,2,72.5,8|0|0,0:0|0:0|0:0,0:0:0:0:
104,195,56506,1,8,3:0:0:0:
265,313,56663,6,0,L|351:314,2,72.5,0|8|8,0:0|3:0|3:0,0:0:0:0:
256,237,57131,1,0,0:0:0:0:
481,197,57288,1,8,0:0:0:0:
481,197,57444,2,0,L|329:185,1,145
103,162,57913,5,8,3:0:0:0:
256,192,58069,12,4,59163,0:0:0:0:
91,306,60100,5,8,0:0:0:0:
322,285,60256,6,0,L|327:128,1,145,4|8,0:0|3:0,0:0:0:0:
251,168,60725,2,0,L|246:86,1,72.5,8|8,0:0|3:0,0:0:0:0:
326,118,61038,2,0,L|331:36,1,72.5,4|8,3:0|3:0,0:0:0:0:
412,88,61350,2,0,L|417:6,1,72.5,8|0,0:0|0:0,0:0:0:0:
255,35,61663,6,0,L|159:35,1,72.5,8|8,3:0|3:0,0:0:0:0:
337,147,61975,2,0,L|342:228,1,72.5,8|8,0:0|3:0,0:0:0:0:
268,227,62288,1,4,3:0:0:0:
423,244,62444,2,0,L|429:317,1,72.5,8|8,3:0|0:0,0:0:0:0:
356,330,62756,1,0,0:0:0:0:
123,302,62913,6,0,L|19:298,1,72.5,6|0,0:0|0:0,0:0:0:0:
205,211,63225,2,0,L|209:114,1,72.5,10|8,0:0|3:0,0:0:0:0:
134,111,63538,2,0,L|57:105,2,72.5,6|8|10,3:0|3:0|0:0,0:0:0:0:
393,126,64163,6,0,L|400:214,1,72.5,10|8,3:0|3:0,0:0:0:0:
319,205,64475,2,0,L|236:218,1,72.5,8|0,0:0|0:0,0:0:0:0:
405,278,64788,1,8,0:0:0:0:
406,314,64866,1,8,0:0:0:0:
408,350,64944,1,8,0:0:0:0:
336,361,65100,1,8,3:0:0:0:
103,334,65256,6,0,L|247:320,1,145,4|8,0:0|3:0,0:0:0:0:
88,234,65725,2,0,L|82:136,1,72.5,8|8,0:0|3:0,0:0:0:0:
243,129,66038,2,0,L|241:36,1,72.5,4|8,3:0|3:0,0:0:0:0:
170,47,66350,1,8,0:0:0:0:
332,54,66506,6,0,L|421:57,1,72.5,0|8,0:0|3:0,0:0:0:0:
324,130,66819,2,0,L|320:209,1,72.5,8|8,3:0|0:0,0:0:0:0:
402,239,67131,2,0,L|239:245,1,145,8|8,3:0|3:0,0:0:0:0:
184,254,67600,1,8,0:0:0:0:
417,328,67756,6,0,L|496:334,2,72.5,0|8|0,0:0|3:0|0:0,0:0:0:0:
263,224,68225,2,0,L|259:147,1,72.5,8|8,0:0|3:0,0:0:0:0:
334,130,68538,2,0,L|338:33,1,72.5,4|8,3:0|3:0,0:0:0:0:
416,92,68850,2,0,L|412:-5,1,72.5,8|0,0:0|0:0,0:0:0:0:
179,60,69163,5,8,0:0:0:0:
142,58,69241,1,8,0:0:0:0:
106,56,69319,1,8,0:0:0:0:
261,118,69475,2,0,L|266:198,1,72.5,8|8,3:0|0:0,0:0:0:0:
229,200,69709,1,8,0:0:0:0:
192,204,69788,1,8,0:0:0:0:
118,215,69944,2,0,L|116:303,1,72.5,8|8,3:0|3:0,0:0:0:0:
348,297,70256,6,0,L|198:304,1,145,4|8,0:0|3:0,0:0:0:0:
364,229,70725,2,0,L|368:156,1,72.5,8|8,0:0|3:0,0:0:0:0:
292,164,71038,2,0,L|288:91,1,72.5,4|8,3:0|3:0,0:0:0:0:
444,111,71350,2,0,L|448:38,1,72.5,8|0,0:0|0:0,0:0:0:0:
281,349,71663,6,0,L|200:350,2,72.5,8|8|8,3:0|3:0|0:0,0:0:0:0:
354,341,72131,1,8,3:0:0:0:
198,242,72288,2,0,L|40:234,1,145,4|8,3:0|0:0,0:0:0:0:
279,191,72756,6,0,L|358:191,2,72.5,0|8|0,0:0|3:0|0:0,0:0:0:0:
204,102,73225,1,8,0:0:0:0:
277,78,73381,2,0,L|279:-4,1,72.5,8|0,3:0|0:0,0:0:0:0:
123,39,73694,2,0,L|49:36,2,72.5,8|8|8,0:0|3:0|3:0,0:0:0:0:
357,81,74163,6,0,P|389:114|346:199,1,145,8|0,3:0|0:0,0:0:0:0:
283,206,74631,1,8,0:0:0:0:
119,247,74788,2,0,L|43:243,2,72.5,8|8|8,0:0|3:0|3:0,0:0:0:0:
192,253,75256,1,8,0:0:0:0:
426,83,75413,6,0,L|423:238,1,145,4|8,0:0|3:0,0:0:0:0:
351,239,75881,1,0,3:0:0:0:
186,225,76038,2,0,L|182:145,1,72.5,8|0,3:0|3:0,0:0:0:0:
338,126,76350,2,0,L|411:120,1,72.5,8|0,3:0|3:0,0:0:0:0:
175,77,76663,6,0,L|90:75,2,72.5,8|0|8,3:0|3:0|3:0,0:0:0:0:
323,172,77131,2,0,L|324:261,1,72.5,8|8,3:0|3:0,0:0:0:0:
161,277,77444,1,8,0:0:0:0:
131,256,77522,1,8,0:0:0:0:
119,223,77600,1,8,0:0:0:0:
129,188,77678,1,8,0:0:0:0:
157,166,77756,1,8,0:0:0:0:
389,131,77913,5,4,0:0:0:0:
112,128,78538,2,0,L|112:213,1,72.5,8|8,0:0|0:0,0:0:0:0:
496,256,79006,5,4,0:0:0:0:
332,269,79475,1,8,3:0:0:0:
311,239,79553,1,8,3:0:0:0:
300,205,79631,1,8,3:0:0:0:
301,169,79709,1,8,3:0:0:0:
314,135,79788,1,8,3:0:0:0:
337,107,79866,1,8,3:0:0:0:
368,88,79944,1,8,3:0:0:0:
403,80,80022,1,8,3:0:0:0:
439,84,80100,1,8,3:0:0:0:
60,296,80413,6,0,L|57:145,1,145,6|2,0:0|0:0,0:0:0:0:
128,146,80881,1,10,3:0:0:0:
276,81,81194,1,0,0:0:0:0:
203,75,81350,1,0,0:0:0:0:
131,69,81506,1,0,0:0:0:0:
287,156,81663,6,0,L|361:159,2,72.5,8|0|0,3:0|0:0|0:0,0:0:0:0:
213,158,82131,1,8,3:0:0:0:
369,175,82288,2,0,L|372:257,1,72.5,2|0,0:0|0:0,0:0:0:0:
295,254,82600,2,0,L|207:259,1,72.5,2|0,0:0|0:0,0:0:0:0:
377,66,82913,6,0,L|474:59,2,72.5,10|0|0,3:0|0:0|0:0,0:0:0:0:
294,75,83381,1,8,3:0:0:0:
132,151,83538,2,0,L|58:152,3,72.5,2|0|0|0,0:0|0:0|0:0|0:0,0:0:0:0:
297,169,84163,5,8,0:0:0:0:
297,169,84319,2,0,L|212:175,1,72.5,8|0,0:0|0:0,0:0:0:0:
147,233,84631,2,0,L|143:329,1,72.5,8|0,3:0|0:0,0:0:0:0:
376,280,84944,2,0,P|420:242|376:175,1,145,4|2,0:0|0:0,0:0:0:0:
154,123,85413,5,6,0:0:0:0:
150,113,85569,2,0,L|225:118,2,72.5,2|2|2,0:0|0:0|0:0,0:0:0:0:
309,193,86038,2,0,L|408:197,3,72.5,2|2|2|2,0:0|0:0|0:0|0:0,0:0:0:0:
143,251,86663,5,8,0:0:0:0:
92,202,86819,1,8,3:0:0:0:
86,167,86897,1,8,3:0:0:0:
95,132,86975,1,8,3:0:0:0:
118,104,87053,1,8,3:0:0:0:
150,89,87131,1,8,3:0:0:0:
311,77,87288,2,0,L|373:74,2,36.25,8|8|8,3:0|3:0|3:0,0:0:0:0:
146,39,87600,2,0,L|84:36,2,36.25,8|8|8,0:0|3:0|3:0,0:0:0:0:
380,23,87913,5,4,0:0:0:0:
