osu file format v14

[General]
AudioFilename: audio.ogg
AudioLeadIn: 0
PreviewTime: 59610
Countdown: 0
SampleSet: Soft
StackLeniency: 0.7
Mode: 0
LetterboxInBreaks: 0
WidescreenStoryboard: 0

[Editor]
Bookmarks: 15630,33130,45630,50630,80630
DistanceSpacing: 1.2
BeatDivisor: 4
GridSize: 32
TimelineZoom: 2.1

[Metadata]
Title:Hana ni Natte (TV Size)
TitleUnicode:花になって (TV Size)
Artist:Ryokuoushoku Shakai
ArtistUnicode:緑黄色社会
Creator:Booliix
Version:Medical Emergency
Source:薬屋のひとりごと
Tags:Kusuriya no Hitorigoto The Apothecary Diaries op opening Japanese Anime Jpop J Pop Rock Jrock Maomao 猫猫 長屋晴子 Haruko Nagaya 小林壱誓 Issei Kobayashi peppe 穴見真吾 Shingo Anami リョクシャカ Ryokushaka J-Pop J-Rock Be a Flower -_nilou_- nilou lighscrap 川口圭太 keita kawaguchi
BeatmapID:4399021
BeatmapSetID:2097428

[Difficulty]
HPDrainRate:5
CircleSize:4.2
OverallDifficulty:9.3
ApproachRate:9.2
SliderMultiplier:1.74
SliderTickRate:1

[Events]
//Background and Video events
0,0,"azazaaaaa.png",0,0
Video,0,"video.avi"
//Break Periods
//Storyboard Layer 0 (Background)
//Storyboard Layer 1 (Fail)
//Storyboard Layer 2 (Pass)
//Storyboard Layer 3 (Foreground)
//Storyboard Layer 4 (Overlay)
//Storyboard Sound Samples

[TimingPoints]
626,312.5,4,2,1,80,1,0
626,-111.111111111111,4,2,1,55,0,0
4376,-100,4,2,1,70,0,0
15626,-117.647058823529,4,2,1,60,0,0
25001,-105.263157894737,4,2,1,65,0,0
33594,-90.9090909090909,4,2,1,65,0,0
34688,-111.111111111111,4,2,1,65,0,0
35626,-117.647058823529,4,2,1,55,0,0
45626,-105.263157894737,4,2,1,60,0,0
60469,-95.2380952380952,4,2,1,80,0,1
64063,-86.9565217391304,4,2,1,80,0,1
65469,-95.2380952380952,4,2,1,80,0,1
78751,-71.4285714285714,4,2,1,80,0,1
79688,-100,4,2,1,70,0,0
80626,-111.111111111111,4,2,1,60,0,0
87188,-100,4,2,1,60,0,0

[Colours]
Combo1 : 0,166,166
Combo2 : 128,128,255

[HitObjects]
453,210,626,6,0,P|443:251|434:291,1,78.2999976104737,4|0,1:0|1:0,0:0:0:0:
435,286,938,1,0,1:0:0:0:
501,137,1094,2,0,P|455:181|363:167,1,156.599995220947,4|0,1:0|1:0,0:0:0:0:
223,100,1876,6,0,P|238:45|249:10,1,78.2999976104737,4|0,1:0|1:0,0:0:0:0:
244,24,2188,1,0,1:0:0:0:
128,122,2344,2,0,P|195:121|248:213,1,156.599995220947,4|0,1:0|1:0,0:0:0:0:
356,351,2969,5,0,1:0:0:0:
295,299,3126,2,0,P|241:313|202:321,1,78.2999976104737,4|0,1:0|1:0,0:0:0:0:
218,317,3438,1,0,1:0:0:0:
94,217,3594,2,0,P|116:282|145:375,1,156.599995220947,4|0,1:0|1:0,0:0:0:0:
142,365,4219,1,0,1:0:0:0:
313,190,4376,5,6,3:2:0:0:
234,75,4532,2,0,P|221:128|210:172,1,87,6|0,3:2|0:0,0:0:0:0:
452,344,4844,2,0,P|439:291|428:247,1,87,6|0,3:2|0:0,0:0:0:0:
219,268,5157,2,0,P|232:327|337:348,1,174,6|0,3:2|0:0,0:0:0:0:
498,173,5626,6,0,P|437:153|393:140,1,87,6|2,3:2|0:0,0:0:0:0:
298,283,5938,1,10,0:0:0:0:
245,74,6094,1,2,3:2:0:0:
249,82,6172,1,0,3:2:0:0:
253,90,6251,2,0,P|266:140|276:176,1,87,0|2,3:2|3:2,0:0:0:0:
343,18,6563,1,10,0:0:0:0:
186,165,6719,1,0,0:2:0:0:
65,14,6876,6,0,P|108:8|141:34,1,87,0|2,3:2|3:2,0:0:0:0:
61,214,7188,1,10,0:0:0:0:
236,66,7344,1,2,3:2:0:0:
241,61,7422,1,0,3:2:0:0:
247,56,7501,1,2,3:2:0:0:
24,126,7657,1,2,3:2:0:0:
267,258,7813,1,10,0:0:0:0:
46,206,7969,1,2,0:0:0:0:
326,71,8126,6,0,P|312:133|305:168,1,87,6|0,3:2|0:0,0:0:0:0:
186,228,8438,1,10,0:0:0:0:
388,324,8594,1,2,3:2:0:0:
390,315,8672,1,0,3:2:0:0:
393,308,8751,1,0,3:2:0:0:
182,371,8907,1,0,3:2:0:0:
375,230,9063,2,0,P|420:230|459:274,1,87,10|0,0:0|0:2,0:0:0:0:
290,362,9376,6,0,P|274:290|268:262,1,87,0|2,3:2|3:2,0:0:0:0:
122,111,9688,1,10,0:0:0:0:
304,193,9844,1,2,3:2:0:0:
308,186,9922,1,0,3:2:0:0:
311,180,10001,1,2,3:2:0:0:
117,303,10157,1,2,3:2:0:0:
232,85,10313,2,0,P|220:144|202:228,1,130.5,10|0,0:0|0:0,0:0:0:0:
193,251,10626,6,0,P|177:184|171:160,1,87,2|2,3:2|3:2,0:0:0:0:
55,362,10938,1,10,0:0:0:0:
286,287,11094,2,0,P|351:308|466:348,1,174,2|0,3:2|3:2,0:0:0:0:
286,177,11563,1,10,0:0:0:0:
470,134,11719,5,0,3:2:0:0:
478,130,11797,1,0,3:2:0:0:
487,128,11876,2,0,P|422:143|378:152,1,87,0|2,3:2|3:2,0:0:0:0:
239,51,12188,1,10,0:0:0:0:
380,229,12344,1,2,3:2:0:0:
387,233,12422,1,0,3:2:0:0:
394,236,12501,1,2,3:2:0:0:
423,13,12657,1,2,3:2:0:0:
277,157,12813,2,0,P|219:159|191:137,1,87,10|2,0:0|0:0,0:0:0:0:
31,17,13126,6,0,B|83:17|91:49|91:49|51:169,1,174,6|10,3:2|0:0,0:0:0:0:
126,309,13594,1,2,3:2:0:0:
128,299,13672,1,0,3:2:0:0:
129,289,13751,1,0,3:2:0:0:
241,84,13907,1,0,3:2:0:0:
325,295,14063,1,8,0:0:0:0:
234,93,14219,1,0,3:2:0:0:
48,317,14376,5,8,3:2:0:0:
19,283,14454,1,8,0:0:0:0:
18,239,14532,1,8,0:0:0:0:
38,201,14610,1,8,0:0:0:0:
78,185,14688,1,0,3:2:0:0:
322,275,14844,5,8,0:0:0:0:
364,263,14922,1,8,0:0:0:0:
386,225,15000,1,0,3:2:0:0:
388,182,15078,1,8,0:0:0:0:
363,147,15156,1,8,0:0:0:0:
161,58,15313,6,0,L|175:111,1,43.5,0|8,3:2|2:3,0:0:0:0:
234,148,15469,2,0,L|220:201,1,43.5,4|4,2:3|2:3,0:0:0:0:
131,350,15626,5,4,3:2:0:0:
124,340,15782,6,0,P|84:350|46:365,2,73.9500014104843,0|2|2,0:0|0:0|3:2,0:0:0:0:
199,302,16251,2,0,P|249:321|344:351,1,147.900002820969,2|2,0:0|0:0,0:0:0:0:
445,307,16719,6,0,P|456:263|465:227,1,73.9500014104843,2|0,0:0|3:2,0:0:0:0:
347,126,17032,2,0,P|358:170|367:206,1,73.9500014104843,2|0,0:0|0:0,0:0:0:0:
436,50,17344,1,2,3:2:0:0:
268,154,17501,1,2,0:0:0:0:
455,224,17657,1,0,0:2:0:0:
332,328,17813,6,0,P|276:329|229:276,1,110.925002115727,2|0,0:0|0:0,0:0:0:0:
231,281,18126,2,0,P|290:263|328:255,1,73.9500014104843,2|0,3:2|0:0,0:0:0:0:
164,177,18438,1,2,0:0:0:0:
361,103,18594,2,0,P|297:87|208:68,1,147.900002820969,2|0,3:2|0:0,0:0:0:0:
10,214,19219,5,2,0:0:0:0:
13,221,19297,1,2,0:0:0:0:
16,229,19376,2,0,P|51:242|146:174,1,147.900002820969,2|2,3:2|0:0,0:0:0:0:
247,85,19844,1,2,3:2:0:0:
93,44,20001,1,0,0:0:0:0:
232,212,20157,1,0,0:0:0:0:
337,103,20313,2,0,P|326:146|316:185,1,73.9500014104843,0|0,3:2|0:0,0:0:0:0:
238,304,20626,5,0,3:2:0:0:
235,291,20782,2,0,P|224:248|214:209,2,73.9500014104843,2|2|2,0:0|0:0|3:2,0:0:0:0:
351,362,21251,2,0,P|364:299|385:212,1,147.900002820969,2|2,0:0|0:0,0:0:0:0:
498,136,21719,1,2,0:0:0:0:
497,125,22032,6,0,B|410:93|410:93|393:123|359:134,1,147.900002820969,2|2,0:0|3:2,0:0:0:0:
276,15,22501,2,0,P|291:60|304:97,1,73.9500014104843,2|0,0:0|0:2,0:0:0:0:
169,198,22813,2,0,P|198:155|265:161,1,110.925002115727,2|0,0:0|0:0,0:0:0:0:
274,168,23126,6,0,P|262:216|255:249,1,73.9500014104843,2|0,3:2|0:0,0:0:0:0:
354,353,23438,1,2,0:0:0:0:
191,308,23594,2,0,P|142:322|41:353,1,147.900002820969,2|0,3:2|0:0,0:0:0:0:
131,242,24063,1,0,0:0:0:0:
46,186,24219,5,2,0:0:0:0:
40,180,24297,1,2,0:0:0:0:
34,175,24376,2,0,P|43:135|49:102,1,73.9500014104843,2|0,3:2|3:2,0:0:0:0:
231,19,24688,1,2,0:0:0:0:
130,161,24844,1,2,3:2:0:0:
44,16,25001,6,0,L|104:30,1,41.3249988965035,4|4,0:3|0:3,0:0:0:0:
134,78,25157,2,0,L|194:73,1,41.3249988965035,8|8,0:3|0:3,0:0:0:0:
339,17,25313,1,8,0:0:0:0:
376,33,25391,1,8,0:0:0:0:
390,71,25469,1,8,0:0:0:0:
386,112,25547,1,8,0:0:0:0:
360,144,25626,6,0,P|301:133|262:127,1,82.649997793007,4|2,3:2|0:0,0:0:0:0:
370,323,25938,1,10,0:2:0:0:
485,187,26094,1,2,3:2:0:0:
292,244,26251,1,2,0:0:0:0:
283,245,26329,1,8,0:2:0:0:
274,246,26407,1,0,3:2:0:0:
465,351,26563,5,10,0:2:0:0:
383,154,26719,2,0,P|372:206|364:242,1,82.649997793007,2|0,0:0|3:2,0:0:0:0:
196,355,27032,2,0,P|182:280|162:187,1,165.299995586014,2|2,3:2|3:2,0:0:0:0:
275,88,27501,1,2,0:0:0:0:
281,84,27579,1,8,0:2:0:0:
289,80,27657,1,0,3:2:0:0:
116,14,27813,1,10,0:2:0:0:
250,162,27969,1,0,0:0:0:0:
410,44,28126,6,0,P|351:29|315:19,1,82.649997793007,2|0,3:2|0:0,0:0:0:0:
511,6,28438,1,10,0:2:0:0:
394,152,28594,1,2,3:2:0:0:
385,156,28672,1,0,3:2:0:0:
377,160,28751,2,0,P|322:146|308:142,1,41.3249988965035,0|8,3:2|0:2,0:0:0:0:
178,85,28907,1,0,3:2:0:0:
300,247,29063,1,8,0:2:0:0:
356,21,29219,5,2,3:2:0:0:
347,24,29297,1,2,3:2:0:0:
338,26,29376,2,0,P|294:37|251:46,1,82.649997793007,2|0,3:2|3:2,0:0:0:0:
89,193,29688,1,10,0:2:0:0:
174,16,29844,1,2,3:2:0:0:
177,25,29922,1,8,0:2:0:0:
180,34,30001,2,0,L|171:94,1,41.3249988965035,0|8,3:2|0:2,0:0:0:0:
249,230,30157,1,0,3:2:0:0:
70,104,30313,1,8,0:2:0:0:
150,319,30469,5,8,3:2:0:0:
145,310,30547,1,0,3:2:0:0:
143,302,30626,2,0,P|155:251|164:217,1,82.649997793007,0|2,3:2|0:0,0:0:0:0:
41,361,30938,1,10,0:2:0:0:
242,312,31094,1,2,3:2:0:0:
78,188,31251,1,2,0:0:0:0:
70,185,31329,1,8,0:0:0:0:
62,183,31407,1,0,3:2:0:0:
196,369,31563,1,10,0:2:0:0:
365,229,31719,6,0,P|318:250|272:238,1,82.649997793007,2|0,0:0|3:2,0:0:0:0:
423,101,32032,2,0,P|464:131|477:177,1,82.649997793007,2|8,3:2|0:2,0:0:0:0:
229,104,32344,1,2,3:2:0:0:
363,7,32501,1,6,0:3:0:0:
359,31,32579,1,4,0:3:0:0:
354,55,32657,1,8,0:3:0:0:
350,79,32735,1,8,0:3:0:0:
346,103,32813,2,0,L|295:116,1,41.3249988965035,10|8,0:0|0:0,0:0:0:0:
145,215,32969,2,0,L|185:225,1,41.3249988965035,10|8,0:0|0:0,0:0:0:0:
358,362,33126,5,6,3:2:0:0:
228,134,33282,1,2,3:2:0:0:
122,363,33438,1,2,3:2:0:0:
408,221,33594,6,0,P|461:235|507:257,1,95.7000029205323,10|2,0:2|0:0,0:0:0:0:
454,13,33907,2,0,P|425:91|311:87,1,191.400005841065,6|0,3:2|0:0,0:0:0:0:
170,89,34376,6,0,P|96:68|56:53,1,95.7000029205323,6|0,3:2|0:0,0:0:0:0:
257,29,34688,1,0,0:0:0:0:
117,166,34844,1,0,3:2:0:0:
106,170,35001,1,0,0:0:0:0:
257,252,35157,1,0,3:2:0:0:
233,127,35313,5,8,0:3:0:0:
230,130,35391,1,8,0:3:0:0:
227,132,35469,2,0,L|209:192,1,39.1499988052369,4|4,0:3|0:3,0:0:0:0:
158,358,35626,5,12,0:0:0:0:
161,350,35938,2,0,P|207:364|236:372,1,73.9500014104843,2|6,0:0|2:3,0:0:0:0:
292,309,36251,1,2,0:0:0:0:
293,301,36407,1,6,2:3:0:0:
426,357,36563,2,0,P|415:303|407:274,1,73.9500014104843,10|0,2:3|0:0,0:0:0:0:
480,124,36876,6,0,P|446:179|351:174,1,147.900002820969,2|2,0:0|0:0,0:0:0:0:
363,107,37344,2,0,P|348:164|321:270,1,147.900002820969,2|2,0:0|0:0,0:0:0:0:
325,250,37813,1,2,0:0:0:0:
148,196,38126,6,0,P|195:180|238:173,1,73.9500014104843,8|0,2:3|0:0,0:0:0:0:
110,111,38438,1,2,0:0:0:0:
102,108,38594,1,6,2:3:0:0:
225,20,38751,2,0,P|253:56|292:65,1,73.9500014104843,2|6,0:0|2:3,0:0:0:0:
399,127,39063,2,0,P|388:79|379:53,1,73.9500014104843,10|0,2:3|0:0,0:0:0:0:
489,149,39376,6,0,P|426:147|375:232,1,147.900002820969,2|2,0:0|0:0,0:0:0:0:
443,279,39844,2,0,P|385:251|293:229,1,147.900002820969,2|2,0:0|0:0,0:0:0:0:
304,231,40313,1,2,0:0:0:0:
56,273,40626,6,0,P|66:318|74:358,1,73.9500014104843,8|0,2:3|0:0,0:0:0:0:
154,250,40938,1,2,0:0:0:0:
160,243,41094,1,6,2:3:0:0:
38,134,41251,2,0,P|10:160|3:209,1,73.9500014104843,2|6,0:0|2:3,0:0:0:0:
144,92,41563,2,0,P|135:54|96:24,1,73.9500014104843,8|0,2:3|0:0,0:0:0:0:
204,167,41876,6,0,P|253:177|347:222,1,147.900002820969,2|2,0:0|0:0,0:0:0:0:
341,218,42344,1,2,0:0:0:0:
471,48,42657,1,2,0:0:0:0:
470,38,43126,6,0,P|409:45|321:76,1,147.900002820969,10|2,2:3|0:0,0:0:0:0:
163,19,43594,2,0,P|109:27|75:109,1,147.900002820969,6|6,2:3|2:3,0:0:0:0:
20,164,44063,2,0,P|34:210|46:259,1,73.9500014104843,10|0,2:3|0:0,0:0:0:0:
168,356,44376,5,0,0:0:0:0:
1,298,44532,1,0,0:0:0:0:
144,191,44688,1,0,0:0:0:0:
149,198,44844,1,0,0:0:0:0:
248,272,45001,6,0,L|255:228,1,36.9750007052422,8|8,0:3|0:3,0:0:0:0:
359,158,45157,2,0,L|352:202,1,36.9750007052422,8|8,0:3|0:3,0:0:0:0:
256,258,45313,6,0,L|261:220,1,36.9750007052422,4|4,0:3|0:3,0:0:0:0:
349,161,45469,2,0,L|343:198,1,36.9750007052422,4|4,0:3|0:3,0:0:0:0:
324,371,45626,5,12,0:0:0:0:
325,362,45938,2,0,P|278:350|240:346,1,82.649997793007,2|0,0:0|3:2,0:0:0:0:
427,258,46251,2,0,P|465:278|477:329,1,82.649997793007,2|0,0:0|0:0,0:0:0:0:
321,235,46563,2,0,P|334:181|346:147,1,82.649997793007,10|0,0:0|0:0,0:0:0:0:
287,46,46876,5,2,3:2:0:0:
423,169,47032,1,8,0:0:0:0:
242,219,47188,1,2,0:0:0:0:
141,81,47344,6,0,P|88:67|17:143,1,165.299995586014,2|2,3:2|3:2,0:0:0:0:
114,234,47813,2,0,P|96:168|87:144,1,82.649997793007,10|0,0:2|0:0,0:0:0:0:
245,27,48126,5,0,3:2:0:0:
250,20,48438,2,0,P|298:34|336:47,1,82.649997793007,2|0,0:0|3:2,0:0:0:0:
442,158,48751,2,0,P|474:117|473:76,1,82.649997793007,2|0,0:0|0:0,0:0:0:0:
316,151,49063,2,0,P|331:207|340:248,1,82.649997793007,10|0,0:2|0:0,0:0:0:0:
434,371,49376,5,10,0:0:0:0:
255,274,49532,1,8,0:3:0:0:
247,271,49610,1,8,0:3:0:0:
239,269,49688,1,10,0:3:0:0:
461,129,49844,2,0,P|448:179|414:308,1,165.299995586014,14|0,0:0|3:2,0:0:0:0:
251,119,50313,1,10,0:2:0:0:
330,340,50469,1,0,3:2:0:0:
414,50,50626,5,12,0:2:0:0:
52,340,53126,5,10,0:0:0:0:
108,115,53282,1,2,3:2:0:0:
347,16,54063,5,10,0:0:0:0:
403,264,54219,1,2,3:2:0:0:
52,340,55001,5,10,0:0:0:0:
108,115,55157,1,2,3:2:0:0:
464,345,55626,6,0,P|430:299|356:298,1,123.97499668951,6|0,3:2|0:0,0:0:0:0:
349,321,55938,2,0,P|333:266|324:237,1,82.649997793007,2|2,0:0|3:2,0:0:0:0:
465,117,56251,2,0,P|449:172|440:201,1,82.649997793007,14|2,0:0|0:0,0:0:0:0:
306,84,56563,1,2,0:0:0:0:
482,14,56719,1,2,3:2:0:0:
328,161,56876,5,2,0:2:0:0:
318,166,56980,6,0,P|273:158|255:142,1,55.0999985286713,2|2,0:0|0:0,0:0:0:0:
158,80,57188,5,2,3:2:0:0:
167,86,57292,6,0,P|182:128|177:152,1,55.0999985286713,2|2,0:0|0:0,0:0:0:0:
178,266,57501,5,10,0:0:0:0:
178,255,57605,6,0,P|207:220|230:212,1,55.0999985286713,2|2,0:0|0:0,0:0:0:0:
321,240,57813,6,0,P|351:250|385:263,2,55.0999985286713,2|2|2,0:0|0:0|0:0,0:0:0:0:
64,173,58126,5,8,3:2:0:0:
32,140,58204,1,8,3:0:0:0:
27,94,58282,1,8,3:0:0:0:
49,54,58360,1,8,3:0:0:0:
91,38,58438,1,8,3:0:0:0:
135,45,58516,1,8,3:0:0:0:
169,73,58594,1,8,3:0:0:0:
185,115,58672,1,8,3:0:0:0:
200,163,58751,1,8,3:0:0:0:
239,193,58829,1,8,3:0:0:0:
288,199,58907,1,8,3:0:0:0:
333,178,58985,1,8,3:0:0:0:
360,136,59063,1,8,3:0:0:0:
360,85,59141,1,8,3:0:0:0:
322,51,59219,6,0,P|315:86|307:122,1,41.3249988965035,8|8,3:0|3:0,0:0:0:0:
250,366,59376,1,4,3:2:0:0:
123,200,60313,5,8,0:0:0:0:
424,363,60469,2,0,B|470:264|470:264|436:247|426:205,1,182.699994424439,6|0,3:2|3:2,0:0:0:0:
257,360,60938,2,0,P|204:359|172:322,1,91.3499972122193,10|0,0:0|3:2,0:0:0:0:
63,144,61251,1,2,0:0:0:0:
283,263,61407,1,0,3:2:0:0:
61,369,61563,1,10,0:0:0:0:
234,187,61719,5,2,3:2:0:0:
238,179,61797,1,0,3:2:0:0:
242,173,61876,2,0,P|230:114|219:83,1,91.3499972122193,2|0,3:2|3:2,0:0:0:0:
19,12,62188,2,0,P|55:67|95:70,1,91.3499972122193,8|0,0:0|3:2,0:0:0:0:
282,13,62501,5,2,0:0:0:0:
97,152,62657,1,2,3:2:0:0:
311,223,62813,1,8,0:0:0:0:
449,119,62969,5,2,3:2:0:0:
455,113,63047,1,2,3:2:0:0:
461,107,63126,2,0,P|441:167|431:205,1,91.3499972122193,6|2,3:2|0:0,0:0:0:0:
198,360,63438,5,10,0:0:0:0:
483,289,63594,1,10,0:0:0:0:
167,272,63751,5,6,0:2:0:0:
432,362,63907,1,0,3:2:0:0:
240,96,64063,2,0,P|254:157|275:248,1,150.075002862454,10|0,0:0|0:0,0:0:0:0:
283,281,64376,2,0,P|296:223|305:184,1,100.050001908302,6|0,3:2|3:2,0:0:0:0:
127,98,64688,1,10,0:0:0:0:
346,12,64844,1,0,3:2:0:0:
163,243,65001,5,10,0:2:0:0:
160,236,65079,1,8,0:2:0:0:
158,229,65157,1,10,0:2:0:0:
52,186,65313,1,0,3:2:0:0:
295,372,65469,6,0,P|313:292|339:189,1,182.699994424439,6|0,3:2|3:2,0:0:0:0:
472,71,65938,2,0,P|485:125|498:178,1,91.3499972122193,10|0,0:0|3:2,0:0:0:0:
271,113,66251,1,0,0:0:0:0:
441,0,66407,1,0,3:2:0:0:
249,193,66563,5,10,0:0:0:0:
66,43,66719,2,0,B|163:8|163:8|187:54|228:64,1,182.699994424439,2|2,0:0|3:2,0:0:0:0:
105,276,67188,1,8,0:0:0:0:
358,135,67344,2,0,P|316:104|271:109,1,91.3499972122193,2|2,3:2|0:0,0:0:0:0:
380,278,67657,2,0,P|428:257|446:216,1,91.3499972122193,2|8,3:2|0:0,0:0:0:0:
218,364,67969,6,0,P|202:282|181:177,1,182.699994424439,6|0,3:2|3:2,0:0:0:0:
32,140,68438,5,10,0:0:0:0:
314,218,68594,1,10,0:0:0:0:
22,273,68751,5,2,0:0:0:0:
281,144,68907,1,0,3:2:0:0:
125,1,69063,2,0,P|116:60|110:99,1,91.3499972122193,10|0,0:0|0:0,0:0:0:0:
370,107,69376,5,8,3:2:0:0:
355,73,69454,1,8,0:0:0:0:
323,54,69532,1,8,0:0:0:0:
286,49,69610,1,8,0:0:0:0:
254,67,69688,2,0,L|269:146,1,45.6749986061097,10|0,0:0|0:0,0:0:0:0:
364,262,69844,2,0,L|377:195,1,45.6749986061097,10|4,2:3|2:3,0:0:0:0:
495,88,70001,5,10,2:3:0:0:
275,201,70157,1,6,2:3:0:0:
457,293,70313,1,4,2:3:0:0:
176,136,70469,6,0,P|161:203|136:326,1,182.699994424439,6|0,3:2|3:2,0:0:0:0:
376,359,70938,2,0,P|364:300|358:264,1,91.3499972122193,8|0,0:0|3:2,0:0:0:0:
460,117,71251,1,0,0:0:0:0:
266,271,71407,1,0,3:2:0:0:
488,351,71563,1,10,0:0:0:0:
380,146,71719,5,0,3:2:0:0:
374,139,71797,1,0,3:2:0:0:
367,131,71876,2,0,P|324:109|277:121,1,91.3499972122193,2|0,3:2|3:2,0:0:0:0:
119,217,72188,1,10,0:0:0:0:
280,350,72344,1,0,3:2:0:0:
284,340,72422,1,0,3:2:0:0:
288,332,72501,2,0,P|302:269|310:229,1,91.3499972122193,6|0,3:2|0:0,0:0:0:0:
192,98,72813,1,10,0:0:0:0:
409,242,72969,6,0,P|395:176|378:91,1,137.024995818329,6|0,0:0|0:0,0:0:0:0:
378,93,73282,1,2,0:0:0:0:
291,254,73438,1,10,0:0:0:0:
487,138,73594,1,4,3:2:0:0:
296,13,73751,1,2,0:0:0:0:
133,210,73907,6,0,P|82:215|29:132,1,137.024995818329,10|0,0:0|0:0,0:0:0:0:
20,134,74219,1,2,0:0:0:0:
199,20,74376,2,0,P|211:73|221:118,1,91.3499972122193,14|0,0:0|3:2,0:0:0:0:
301,313,74688,2,0,P|313:260|323:215,1,91.3499972122193,6|8,3:2|0:0,0:0:0:0:
378,361,75001,1,6,2:3:0:0:
214,258,75157,1,10,2:3:0:0:
383,158,75313,1,10,0:0:0:0:
477,325,75469,5,10,0:0:0:0:
479,318,75547,1,8,0:0:0:0:
482,312,75626,2,0,P|472:254|466:218,1,91.3499972122193,12|0,3:2|0:2,0:0:0:0:
460,107,75938,5,0,3:2:0:0:
372,234,76094,1,8,0:0:0:0:
292,79,76251,1,2,3:2:0:0:
459,187,76407,1,8,0:0:0:0:
272,312,76563,5,2,3:2:0:0:
370,78,76719,1,8,0:0:0:0:
175,334,76876,1,10,3:2:0:0:
125,23,77032,1,8,0:0:0:0:
335,226,77188,1,10,3:2:0:0:
35,271,77344,5,10,0:0:0:0:
384,111,77501,1,10,3:2:0:0:
28,22,77657,1,10,0:0:0:0:
32,30,77735,1,8,0:0:0:0:
36,38,77813,2,0,L|49:88,1,45.6749986061097,8|8,3:2|3:2,0:0:0:0:
174,277,77969,2,0,L|187:219,1,45.6749986061097,10|10,3:2|3:2,0:0:0:0:
260,8,78126,5,14,3:2:0:0:
400,343,78751,6,0,L|417:261,1,60.8999981414796,14|0,0:0|0:0,0:0:0:0:
503,112,78907,6,0,B|439:133|439:133|422:175|422:175|349:199,1,182.699994424439,6|0,3:2|0:0,0:0:0:0:
275,188,79219,6,0,B|198:173|190:86|243:48|243:48|229:87|238:116,1,243.599992565918,6|0,3:2|0:0,0:0:0:0:
307,84,79688,6,0,L|379:107,3,43.5,4|4|8|4,2:3|2:3|2:3|2:3,0:0:0:0:
460,38,80001,6,0,L|388:61,3,43.5,8|8|4|8,2:3|2:3|2:3|2:3,0:0:0:0:
348,13,80313,5,8,2:3:0:0:
481,334,80626,6,0,P|415:334|357:266,1,156.599995220947,4|0,3:2|0:0,0:0:0:0:
341,189,81094,2,0,P|329:250|305:374,1,156.599995220947,0|0,3:2|3:2,0:0:0:0:
120,232,81719,5,0,0:0:0:0:
46,201,81876,2,0,P|92:156|190:194,1,156.599995220947,0|0,3:2|0:0,0:0:0:0:
227,252,82344,2,0,P|201:144|182:68,1,156.599995220947,0|0,3:2|3:2,0:0:0:0:
489,71,82969,5,0,0:0:0:0:
461,179,83126,2,0,L|474:126,3,39.1499988052369,2|0|0|0,3:2|0:0|0:0|0:0,0:0:0:0:
376,27,83438,2,0,L|389:80,3,39.1499988052369,2|0|0|0,0:0|0:0|3:2|0:0,0:0:0:0:
286,187,83751,1,2,0:0:0:0:
254,187,83829,1,0,0:0:0:0:
225,174,83907,1,0,0:0:0:0:
207,148,83985,1,0,0:0:0:0:
209,116,84063,2,0,L|265:103,1,39.1499988052369,2|0,0:0|0:0,0:0:0:0:
367,262,84219,2,0,L|311:249,1,39.1499988052369
69,308,84376,5,10,0:2:0:0:
366,181,84532,1,8,0:2:0:0:
54,9,84844,6,0,P|69:69|92:155,1,117.449996415711,8|0,2:3|0:0,0:0:0:0:
93,217,85157,2,0,P|113:120|130:46,1,156.599995220947,4|2,2:3|0:0,0:0:0:0:
299,9,85626,5,2,3:2:0:0:
419,66,85782,1,2,0:0:0:0:
300,2,85938,5,2,0:0:0:0:
420,59,86094,1,2,0:0:0:0:
265,191,86251,5,2,0:0:0:0:
321,96,86407,1,2,0:0:0:0:
269,195,86563,5,2,0:0:0:0:
325,100,86719,1,2,0:0:0:0:
476,250,86876,5,14,3:0:0:0:
445,241,86954,1,8,3:0:0:0:
414,232,87032,1,10,3:0:0:0:
383,225,87110,1,8,3:0:0:0:
353,213,87188,2,0,L|340:279,1,43.5,2|8,3:2|3:0,0:0:0:0:
244,366,87344,2,0,L|229:300,1,43.5,10|8,3:0|3:0,0:0:0:0:
70,253,87501,5,10,3:0:0:0:
83,249,87579,1,8,3:0:0:0:
95,246,87657,2,0,L|156:235,1,43.5,10|8,3:0|3:0,0:0:0:0:
282,148,87813,2,0,L|221:137,1,43.5,10|12,3:2|3:0,0:0:0:0:
87,83,87969,2,0,L|148:72,1,43.5,14|4,3:0|3:0,0:0:0:0:
374,8,88126,5,6,3:2:0:0:
