osu file format v14

[General]
AudioFilename: audio.ogg
AudioLeadIn: 0
PreviewTime: 59610
Countdown: 0
SampleSet: Soft
StackLeniency: 0.7
Mode: 0
LetterboxInBreaks: 0
WidescreenStoryboard: 1

[Editor]
Bookmarks: 15630,33130,45630,50630,80630
DistanceSpacing: 0.7
BeatDivisor: 4
GridSize: 32
TimelineZoom: 2

[Metadata]
Title:Hana ni Natte (TV Size)
TitleUnicode:花になって (TV Size)
Artist:Ryokuoushoku Shakai
ArtistUnicode:緑黄色社会
Creator:Booliix
Version:Insane
Source:薬屋のひとりごと
Tags:Kusuriya no Hitorigoto The Apothecary Diaries op opening Japanese Anime Jpop J Pop Rock Jrock Maomao 猫猫 長屋晴子 Haruko Nagaya 小林壱誓 Issei Kobayashi peppe 穴見真吾 Shingo Anami リョクシャカ Ryokushaka J-Pop J-Rock Be a Flower -_nilou_- nilou lighscrap 川口圭太 keita kawaguchi
BeatmapID:4399438
BeatmapSetID:2097428

[Difficulty]
HPDrainRate:5
CircleSize:4
OverallDifficulty:8.5
ApproachRate:9
SliderMultiplier:1.72
SliderTickRate:1

[Events]
//Background and Video events
0,0,"azazaaaaa.png",0,0
Video,0,"video.avi"
//Break Periods
//Storyboard Layer 0 (Background)
//Storyboard Layer 1 (Fail)
//Storyboard Layer 2 (Pass)
//Storyboard Layer 3 (Foreground)
//Storyboard Layer 4 (Overlay)
//Storyboard Sound Samples

[TimingPoints]
626,312.5,4,2,1,55,1,0
626,-125,4,2,1,55,0,0
4376,-105.263157894737,4,2,1,70,0,0
15626,-142.857142857143,4,2,1,60,0,0
25001,-125,4,2,1,65,0,0
33594,-117.647058823529,4,2,1,65,0,0
34688,-111.111111111111,4,2,1,65,0,0
35626,-133.333333333333,4,2,1,55,0,0
45626,-117.647058823529,4,2,1,60,0,0
60469,-100,4,2,1,80,0,1
75626,-90.9090909090909,4,2,1,80,0,1
78751,-71.4285714285714,4,2,1,80,0,1
79219,-86.9565217391304,4,2,1,80,0,1
79688,-100,4,2,1,70,0,0
80626,-125,4,2,1,60,0,0
86251,-142.857142857143,4,2,1,60,0,0

[Colours]
Combo1 : 0,166,166
Combo2 : 128,128,255

[HitObjects]
423,349,626,6,0,P|435:301|445:268,2,68.8,4|0|0,1:0|1:0|1:0,0:0:0:0:
504,357,1094,1,4,1:0:0:0:
371,237,1407,1,0,1:0:0:0:
366,228,1876,6,0,P|328:241|300:251,2,68.8,4|0|0,1:0|1:0|1:0,0:0:0:0:
402,142,2344,1,4,1:0:0:0:
316,327,2657,1,0,1:0:0:0:
314,318,3126,6,0,P|300:263|294:238,2,68.8,4|0|0,1:0|1:0|1:0,0:0:0:0:
402,328,3594,1,4,1:0:0:0:
207,230,3907,1,0,1:0:0:0:
207,221,4376,5,6,3:2:0:0:
111,164,4532,2,0,P|178:148|211:95,1,122.549996727562,6|0,3:2|0:0,0:0:0:0:
213,87,4844,2,0,P|155:72|118:62,1,81.6999978183747,6|0,3:2|0:0,0:0:0:0:
319,9,5157,2,0,P|331:67|355:183,1,163.399995636749,6|0,3:2|0:0,0:0:0:0:
485,283,5626,6,0,P|421:263|386:254,1,81.6999978183747,6|2,3:2|0:0,0:0:0:0:
471,193,5938,1,10,0:0:0:0:
351,332,6094,1,2,3:2:0:0:
347,325,6172,1,0,3:2:0:0:
342,318,6251,2,0,P|292:329|252:342,1,81.6999978183747,0|2,3:2|3:2,0:0:0:0:
92,275,6563,2,0,P|151:275|194:204,1,122.549996727562,10|0,0:0|0:0,0:0:0:0:
190,219,6876,6,0,P|176:168|163:136,1,81.6999978183747,0|2,3:2|3:2,0:0:0:0:
197,40,7188,1,10,0:0:0:0:
69,140,7344,1,2,3:2:0:0:
256,183,7501,2,0,P|301:192|341:168,1,81.6999978183747,2|2,3:2|3:2,0:0:0:0:
437,59,7813,2,0,P|423:113|414:144,1,81.6999978183747,10|2,0:0|0:0,0:0:0:0:
506,281,8126,6,0,B|410:242|410:242|392:283|346:284,1,163.399995636749,6|10,3:2|0:0,0:0:0:0:
262,358,8594,1,2,3:2:0:0:
261,349,8672,1,0,3:2:0:0:
259,340,8751,2,0,P|246:283|236:249,1,81.6999978183747,0|0,3:2|3:2,0:0:0:0:
125,192,9063,1,10,0:0:0:0:
263,106,9219,1,0,0:2:0:0:
138,20,9376,6,0,P|89:29|66:57,1,81.6999978183747,0|2,3:2|3:2,0:0:0:0:
200,172,9688,1,10,0:0:0:0:
236,22,9844,1,2,3:2:0:0:
116,114,10001,2,0,P|108:159|101:202,1,81.6999978183747,2|2,3:2|3:2,0:0:0:0:
10,291,10313,2,0,P|57:273|114:325,1,122.549996727562,10|0,0:0|0:0,0:0:0:0:
123,329,10626,6,0,P|184:344|234:356,1,81.6999978183747,2|2,3:2|3:2,0:0:0:0:
363,235,10938,1,10,0:0:0:0:
294,357,11094,1,2,3:2:0:0:
292,349,11172,1,0,3:2:0:0:
291,341,11251,2,0,P|278:286|271:253,1,81.6999978183747,0|0,3:2|3:2,0:0:0:0:
216,93,11563,6,0,P|202:148|182:233,1,122.549996727562,10|0,0:0|0:2,0:0:0:0:
186,225,11876,2,0,P|170:154|163:131,1,81.6999978183747,0|2,3:2|3:2,0:0:0:0:
126,20,12188,1,10,0:0:0:0:
275,153,12344,1,2,3:2:0:0:
386,32,12501,6,0,P|374:86|366:116,1,81.6999978183747,2|2,0:2|3:2,0:0:0:0:
470,8,12813,1,10,0:0:0:0:
291,73,12969,1,2,0:0:0:0:
471,190,13126,6,0,P|458:117|453:81,1,81.6999978183747,6|0,3:2|0:0,0:0:0:0:
326,228,13438,1,10,0:0:0:0:
473,299,13594,2,0,P|415:280|302:246,1,163.399995636749,2|0,3:2|3:2,0:0:0:0:
378,358,14063,1,8,0:0:0:0:
491,217,14219,1,0,3:2:0:0:
374,144,14376,5,8,3:2:0:0:
369,139,14454,1,8,0:0:0:0:
364,134,14532,2,0,L|284:157,1,81.6999978183747,8|0,0:0|3:2,0:0:0:0:
222,64,14844,1,8,0:0:0:0:
219,56,14922,1,8,0:0:0:0:
216,50,15001,2,0,L|211:7,2,40.8499989091873,0|8|8,3:2|0:0|0:0,0:0:0:0:
101,76,15313,1,0,3:2:0:0:
103,85,15391,1,0,3:2:0:0:
105,92,15469,2,0,L|114:137,1,40.8499989091873,4|4,2:3|2:3,0:0:0:0:
146,267,15626,5,4,3:2:0:0:
153,279,15782,2,0,P|201:290|232:300,2,60.1999981628419,0|2|2,0:0|0:0|3:2,0:0:0:0:
70,295,16251,2,0,P|114:270|134:190,1,120.399996325684,2|2,0:0|0:0,0:0:0:0:
113,96,16719,6,0,P|71:90|35:85,1,60.1999981628419,2|0,0:0|3:2,0:0:0:0:
170,35,17032,2,0,P|212:42|301:55,1,120.399996325684,2|2,0:0|3:2,0:0:0:0:
389,151,17501,1,2,0:0:0:0:
301,67,17657,1,0,0:2:0:0:
422,3,17813,2,0,P|411:48|404:79,1,60.1999981628419,2|0,0:0|0:0,0:0:0:0:
294,156,18126,6,0,P|302:196|322:287,1,120.399996325684,2|2,3:2|0:0,0:0:0:0:
341,358,18594,2,0,P|354:300|373:224,1,120.399996325684,2|0,3:2|0:0,0:0:0:0:
477,191,19219,5,2,0:0:0:0:
480,181,19297,1,2,0:0:0:0:
483,171,19376,2,0,P|426:157|351:140,1,120.399996325684,2|2,3:2|0:0,0:0:0:0:
289,133,19844,2,0,P|347:119|406:105,1,120.399996325684,2|0,3:2|0:0,0:0:0:0:
475,35,20313,1,0,3:2:0:0:
481,25,20469,1,0,0:0:0:0:
339,13,20626,5,0,3:2:0:0:
339,24,20782,2,0,P|348:67|353:93,2,60.1999981628419,2|2|2,0:0|0:0|3:2,0:0:0:0:
393,147,21251,2,0,P|352:114|283:127,1,120.399996325684,2|2,0:0|0:0,0:0:0:0:
201,92,21719,6,0,L|217:22,1,60.1999981628419,2|0,0:0|0:0,0:0:0:0:
116,131,22032,2,0,P|129:180|150:256,1,120.399996325684,2|2,0:0|3:2,0:0:0:0:
205,361,22501,1,2,0:0:0:0:
82,309,22657,1,0,0:2:0:0:
240,208,22813,2,0,P|230:253|225:273,1,60.1999981628419,2|0,0:0|0:0,0:0:0:0:
328,353,23126,6,0,P|381:361|425:300,1,120.399996325684,2|2,3:2|0:0,0:0:0:0:
505,292,23594,2,0,P|441:274|373:255,1,120.399996325684,2|0,3:2|0:0,0:0:0:0:
302,107,24219,5,2,0:0:0:0:
299,97,24297,1,2,0:0:0:0:
296,88,24376,2,0,P|339:58|408:87,1,120.399996325684,2|2,3:2|0:0,0:0:0:0:
468,173,24844,1,2,3:2:0:0:
348,189,25001,2,0,L|303:204,3,34.4,4|4|8|8,0:3|0:3|0:3|0:3,0:0:0:0:
253,247,25313,2,0,L|208:232,3,34.4,8|8|8|8,0:0|0:0|0:0|0:0,0:0:0:0:
140,211,25626,6,0,P|151:267|157:299,1,68.8,4|2,3:2|0:0,0:0:0:0:
190,121,25938,1,10,0:2:0:0:
64,216,26094,1,2,3:2:0:0:
242,327,26251,2,0,P|252:278|258:254,1,68.8,2|0,0:0|3:2,0:0:0:0:
424,133,26563,5,10,0:2:0:0:
415,140,26719,2,0,P|372:153|336:144,1,68.8,2|0,0:0|3:2,0:0:0:0:
300,90,27032,2,0,P|311:137|335:239,1,137.6,2|2,3:2|3:2,0:0:0:0:
405,311,27501,2,0,L|452:323,2,34.4,2|8|0,0:0|0:2|3:2,0:0:0:0:
282,329,27813,2,0,P|240:342|211:352,1,68.8,10|0,0:2|0:0,0:0:0:0:
65,216,28126,5,2,3:2:0:0:
207,275,28282,1,0,0:0:0:0:
92,332,28438,1,10,0:2:0:0:
148,190,28594,2,0,P|136:143|111:52,1,137.6,2|0,3:2|3:2,0:0:0:0:
51,182,29063,1,8,0:2:0:0:
204,107,29219,5,2,3:2:0:0:
207,99,29297,1,2,3:2:0:0:
210,91,29376,2,0,P|220:38|226:4,1,68.8,2|0,3:2|3:2,0:0:0:0:
315,152,29688,2,0,P|325:205|331:239,1,68.8,10|2,0:2|3:2,0:0:0:0:
388,103,30001,2,0,L|401:61,2,34.4,0|8|0,3:2|0:2|3:2,0:0:0:0:
241,197,30313,1,8,0:2:0:0:
404,250,30469,1,8,3:2:0:0:
274,301,30626,6,0,P|238:311|206:321,1,68.8,0|2,3:2|0:0,0:0:0:0:
325,201,30938,1,10,0:2:0:0:
370,330,31094,1,2,3:2:0:0:
227,222,31251,2,0,P|237:171|254:83,1,137.6,2|10,0:0|0:2,0:0:0:0:
337,22,31719,5,2,0:0:0:0:
340,29,31797,1,0,0:0:0:0:
344,36,31876,2,0,P|354:78|361:112,1,68.8,0|2,3:2|3:2,0:0:0:0:
454,211,32188,2,0,P|464:169|471:135,1,68.8,8|2,0:2|3:2,0:0:0:0:
333,232,32501,1,6,0:3:0:0:
454,315,32657,1,8,0:3:0:0:
329,323,32813,5,10,0:0:0:0:
315,326,32891,1,8,0:0:0:0:
301,329,32969,1,10,0:0:0:0:
287,332,33047,1,8,0:0:0:0:
273,334,33126,2,0,P|218:324|187:318,1,68.8,6|2,3:2|3:2,0:0:0:0:
100,206,33438,1,2,3:2:0:0:
106,354,33594,6,0,P|122:291|131:267,1,73.1000013942719,10|2,0:2|0:0,0:0:0:0:
306,120,33907,2,0,P|272:182|199:192,1,146.200002788544,6|0,3:2|0:0,0:0:0:0:
104,112,34376,5,6,3:2:0:0:
98,104,34532,1,0,0:0:0:0:
42,179,34688,5,0,0:0:0:0:
32,184,34844,1,0,3:2:0:0:
76,253,35001,5,0,0:0:0:0:
69,261,35157,1,0,3:2:0:0:
155,197,35313,6,0,L|208:210,3,38.6999988189698,8|8|4|4,0:3|0:3|0:3|0:3,0:0:0:0:
259,163,35626,1,12,0:0:0:0:
447,296,35938,6,0,P|407:309|377:319,1,64.5000024604798,2|6,0:0|2:3,0:0:0:0:
316,361,36251,2,0,L|245:348,1,64.5000024604798,2|6,0:0|2:3,0:0:0:0:
192,283,36563,1,10,2:3:0:0:
188,275,36719,1,0,0:0:0:0:
141,365,36876,6,0,B|172:287|172:287|148:264|138:230,1,129.00000492096,2|2,0:0|0:0,0:0:0:0:
51,238,37344,2,0,P|107:235|131:165,1,129.00000492096,2|2,0:0|0:0,0:0:0:0:
93,109,37813,1,2,0:0:0:0:
257,176,38126,5,8,2:3:0:0:
264,165,38438,2,0,P|311:175|330:197,1,64.5000024604798,2|6,0:0|2:3,0:0:0:0:
393,298,38751,2,0,P|378:252|387:224,1,64.5000024604798,2|6,0:0|2:3,0:0:0:0:
444,164,39063,1,10,2:3:0:0:
449,157,39219,1,0,0:0:0:0:
297,246,39376,6,0,P|313:177|339:102,1,129.00000492096,2|2,0:0|0:0,0:0:0:0:
373,38,39844,2,0,P|316:86|253:56,1,129.00000492096,2|2,0:0|0:0,0:0:0:0:
216,20,40313,1,2,0:0:0:0:
36,142,40626,5,8,2:3:0:0:
37,133,40938,2,0,P|85:146|112:155,1,64.5000024604798,2|6,0:0|2:3,0:0:0:0:
170,217,41251,2,0,P|219:206|304:192,1,129.00000492096,2|8,0:0|2:3,0:0:0:0:
468,325,41876,6,0,P|418:311|387:305,1,64.5000024604798,2|0,0:0|0:0,0:0:0:0:
497,243,42188,1,2,0:0:0:0:
333,362,42344,2,0,P|367:339|366:256,1,129.00000492096,2|2,0:0|0:0,0:0:0:0:
365,65,43126,6,0,P|401:81|439:93,1,64.5000024604798,10|0,2:3|0:0,0:0:0:0:
481,142,43438,1,2,0:0:0:0:
250,136,43594,6,0,P|286:120|324:108,1,64.5000024604798,6|0,2:3|0:0,0:0:0:0:
366,59,43906,1,6,2:3:0:0:
123,71,44063,6,0,P|159:87|197:99,1,64.5000024604798,10|0,2:3|0:0,0:0:0:0:
255,146,44376,5,0,0:0:0:0:
264,154,44532,1,0,0:0:0:0:
193,217,44688,5,0,0:0:0:0:
200,229,44844,1,0,0:0:0:0:
105,182,45001,6,0,L|96:226,1,32.2500012302399,8|8,0:3|0:3,0:0:0:0:
32,305,45157,2,0,L|41:261,1,32.2500012302399,8|8,0:3|0:3,0:0:0:0:
116,188,45313,6,0,L|107:228,1,32.2500012302399,4|4,0:3|0:3,0:0:0:0:
48,301,45469,2,0,L|56:260,1,32.2500012302399,4|4,0:3|0:3,0:0:0:0:
20,108,45626,5,12,0:0:0:0:
24,95,45938,2,0,P|78:106|107:112,1,73.1000013942719,2|0,0:0|3:2,0:0:0:0:
208,221,46251,2,0,P|189:161|181:137,1,73.1000013942719,2|0,0:0|0:0,0:0:0:0:
211,63,46563,1,10,0:0:0:0:
111,181,46719,1,0,0:0:0:0:
269,129,46876,6,0,P|321:141|348:147,1,73.1000013942719,2|8,3:2|0:0,0:0:0:0:
473,117,47188,1,2,0:0:0:0:
368,226,47344,2,0,P|382:170|405:83,1,146.200002788544,2|2,3:2|3:2,0:0:0:0:
285,213,47813,1,10,0:2:0:0:
417,310,47969,1,0,0:0:0:0:
329,340,48126,5,0,3:2:0:0:
328,331,48438,2,0,P|276:314|245:312,1,73.1000013942719,2|0,0:0|3:2,0:0:0:0:
106,362,48751,2,0,P|153:337|168:299,1,73.1000013942719,2|0,0:0|0:0,0:0:0:0:
197,168,49063,1,10,0:2:0:0:
80,269,49219,1,0,0:0:0:0:
256,271,49376,5,10,0:0:0:0:
96,162,49532,2,0,L|84:113,2,36.5500006971359,8|8|10,0:3|0:3|0:3,0:0:0:0:
163,292,49844,2,0,P|178:222|198:135,1,146.200002788544,14|0,0:0|3:2,0:0:0:0:
274,297,50313,5,10,0:2:0:0:
102,190,50469,1,0,3:2:0:0:
289,113,50626,1,12,0:2:0:0:
475,29,53126,5,10,0:0:0:0:
434,175,53282,1,2,3:2:0:0:
362,231,54063,5,10,0:0:0:0:
323,72,54219,1,2,3:2:0:0:
246,21,55001,5,10,0:0:0:0:
209,178,55157,1,2,3:2:0:0:
20,57,55626,6,0,P|68:17|149:40,1,146.200002788544,6|2,3:2|0:0,0:0:0:0:
113,147,56094,1,2,3:2:0:0:
223,61,56251,2,0,P|270:74|306:83,1,73.1000013942719,14|2,0:0|0:0,0:0:0:0:
366,165,56563,2,0,P|330:174|295:183,1,73.1000013942719,2|2,0:0|3:2,0:0:0:0:
182,232,56876,6,0,P|214:242|234:272,2,48.7333342628479,2|2|2,0:2|0:0|0:0,0:0:0:0:
104,264,57188,6,0,P|96:231|112:198,2,48.7333342628479,2|2|2,3:2|0:0|0:0,0:0:0:0:
173,314,57501,6,0,P|148:336|112:339,2,48.7333342628479,10|2|2,0:0|0:0|0:0,0:0:0:0:
277,315,57813,6,0,P|314:325|347:337,2,48.7333342628479,2|2|2,0:0|0:0|0:0,0:0:0:0:
223,180,58126,6,0,L|232:138,3,36.5500006971359,8|8|8|8,3:2|3:0|3:0|3:0,0:0:0:0:
123,103,58438,2,0,L|132:145,3,36.5500006971359,8|8|8|8,3:0|3:0|3:0|3:0,0:0:0:0:
33,214,58751,5,8,3:0:0:0:
44,220,58829,1,8,3:0:0:0:
54,225,58907,2,0,L|117:238,1,36.5500006971359,8|8,3:0|3:0,0:0:0:0:
230,288,59063,1,8,3:0:0:0:
219,294,59141,1,8,3:0:0:0:
209,299,59219,2,0,L|146:312,1,36.5500006971359,8|8,3:0|3:0,0:0:0:0:
18,354,59376,1,4,3:2:0:0:
377,209,60313,5,8,0:0:0:0:
499,56,60469,2,0,P|458:99|354:72,1,172,6|0,3:2|3:2,0:0:0:0:
226,59,60938,2,0,P|241:110|250:144,1,86,10|0,0:0|3:2,0:0:0:0:
339,279,61251,2,0,P|354:228|363:194,1,86,2|0,0:0|3:2,0:0:0:0:
421,370,61563,1,10,0:0:0:0:
251,257,61719,5,2,3:2:0:0:
247,252,61797,1,0,3:2:0:0:
243,246,61876,2,0,P|200:258|159:271,1,86,2|0,3:2|3:2,0:0:0:0:
35,356,62188,2,0,B|82:249|82:249|64:272|21:285,1,172,8|2,0:0|0:0,0:0:0:0:
156,288,62657,5,2,3:2:0:0:
14,208,62813,1,8,0:0:0:0:
140,129,62969,1,2,3:2:0:0:
147,131,63047,1,2,3:2:0:0:
154,133,63126,2,0,P|208:144|243:152,1,86,6|2,3:2|0:0,0:0:0:0:
381,64,63438,5,10,0:0:0:0:
238,164,63594,1,10,0:0:0:0:
390,251,63751,1,6,0:2:0:0:
401,244,63907,1,0,3:2:0:0:
502,156,64063,6,0,P|452:131|403:150,1,86,10|0,0:0|0:0,0:0:0:0:
289,277,64376,2,0,P|305:210|314:168,1,86,6|0,3:2|3:2,0:0:0:0:
196,339,64688,1,10,0:0:0:0:
379,269,64844,1,0,3:2:0:0:
221,170,65001,5,10,0:2:0:0:
212,169,65079,1,8,0:2:0:0:
204,168,65157,1,10,0:2:0:0:
280,96,65313,1,0,3:2:0:0:
66,23,65469,6,0,P|132:16|201:96,1,172,6|0,3:2|3:2,0:0:0:0:
51,190,65938,2,0,P|20:142|29:101,1,86,10|0,0:0|3:2,0:0:0:0:
188,209,66251,2,0,P|170:276|164:301,1,86,0|0,0:0|3:2,0:0:0:0:
88,358,66563,5,10,0:0:0:0:
243,268,66719,2,0,P|228:204|203:98,1,172,2|2,0:0|3:2,0:0:0:0:
326,202,67188,1,8,0:0:0:0:
442,58,67344,6,0,P|423:124|413:158,1,86,2|2,3:2|0:0,0:0:0:0:
281,35,67657,2,0,P|342:42|370:83,1,86,2|8,3:2|0:0,0:0:0:0:
497,202,67969,6,0,P|426:217|319:252,1,172,6|0,3:2|3:2,0:0:0:0:
454,300,68438,1,10,0:0:0:0:
328,160,68594,1,10,0:0:0:0:
234,327,68751,6,0,P|186:319|159:282,1,86,2|0,0:0|3:2,0:0:0:0:
227,129,69063,2,0,P|244:174|225:216,1,86,10|0,0:0|0:0,0:0:0:0:
45,235,69376,2,0,L|60:179,3,43,8|8|8|8,3:2|0:0|0:0|0:0,0:0:0:0:
32,70,69688,6,0,L|59:132,1,43,10|0,0:0|0:0,0:0:0:0:
141,223,69844,2,0,L|153:158,1,43,10|4,2:3|2:3,0:0:0:0:
254,20,70001,5,10,2:3:0:0:
132,94,70157,1,6,2:3:0:0:
258,175,70313,1,4,2:3:0:0:
435,82,70469,6,0,B|341:48|341:48|319:84|282:93,1,172,6|0,3:2|3:2,0:0:0:0:
455,226,70938,2,0,P|489:184|489:149,1,86,8|0,0:0|3:2,0:0:0:0:
341,258,71251,2,0,P|356:306|369:349,1,86,0|0,0:0|3:2,0:0:0:0:
416,167,71563,1,10,0:0:0:0:
260,270,71719,5,0,3:2:0:0:
255,265,71797,1,0,3:2:0:0:
250,259,71876,2,0,P|265:177|282:78,1,172,2|10,3:2|0:0,0:0:0:0:
148,37,72344,1,0,3:2:0:0:
148,47,72422,1,0,3:2:0:0:
150,56,72501,2,0,P|167:114|176:140,1,86,6|0,3:2|0:0,0:0:0:0:
248,0,72813,1,10,0:0:0:0:
369,132,72969,6,0,P|424:126|453:94,1,86,6|0,0:0|0:0,0:0:0:0:
477,38,73282,1,2,0:0:0:0:
293,179,73438,6,0,P|325:223|367:232,1,86,10|4,0:0|3:2,0:0:0:0:
428,225,73751,1,2,0:0:0:0:
251,288,73907,6,0,P|199:302|157:322,1,86,10|0,0:0|0:0,0:0:0:0:
106,360,74219,1,2,0:0:0:0:
9,175,74376,6,0,P|54:218|131:201,1,129,14|0,0:0|0:0,0:0:0:0:
129,201,74688,2,0,P|142:141|154:99,1,86,6|8,3:2|0:0,0:0:0:0:
209,10,75001,5,6,2:3:0:0:
73,78,75157,1,10,2:3:0:0:
219,164,75313,1,10,0:0:0:0:
334,67,75469,5,10,0:0:0:0:
338,61,75547,1,8,0:0:0:0:
343,56,75626,2,0,P|327:113|291:239,1,189.200005773926,12|0,3:2|3:2,0:0:0:0:
140,184,76094,1,8,0:0:0:0:
350,297,76251,1,2,3:2:0:0:
134,364,76407,1,8,0:0:0:0:
354,287,76563,6,0,P|337:362|329:395,1,94.600002886963,2|8,3:2|0:0,0:0:0:0:
133,241,76876,2,0,P|159:207|215:199,1,94.600002886963,10|8,3:2|0:0,0:0:0:0:
353,124,77188,1,10,3:2:0:0:
239,296,77344,1,10,0:0:0:0:
149,105,77501,1,10,3:2:0:0:
349,279,77657,6,0,L|400:288,3,47.3000014434815,10|8|8|8,0:0|0:0|3:2|3:2,0:0:0:0:
506,190,77969,2,0,L|458:202,1,47.3000014434815,10|10,3:2|3:2,0:0:0:0:
288,228,78126,5,14,3:2:0:0:
366,44,78751,5,14,0:0:0:0:
288,228,78907,1,6,3:2:0:0:
118,52,79219,6,0,B|205:82|205:82|206:86|206:86|322:125,1,197.800003772736,6|0,3:2|0:0,0:0:0:0:
384,143,79688,6,0,L|434:131,3,43,4|4|8|4,2:3|2:3|2:3|2:3,0:0:0:0:
500,64,80001,2,0,L|450:52,3,43,8|8|4|8,2:3|2:3|2:3|2:3,0:0:0:0:
386,33,80313,1,8,2:3:0:0:
215,156,80626,6,0,P|162:166|101:102,1,137.6,4|0,3:2|0:0,0:0:0:0:
99,31,81094,2,0,P|80:97|57:178,1,137.6,0|0,3:2|3:2,0:0:0:0:
216,271,81876,6,0,P|255:233|341:254,1,137.6,0|0,3:2|0:0,0:0:0:0:
381,312,82344,2,0,P|360:246|336:165,1,137.6,0|0,3:2|3:2,0:0:0:0:
486,70,83126,6,0,L|472:116,3,34.4,2|0|0|0,3:2|0:0|0:0|0:0,0:0:0:0:
424,188,83438,2,0,L|410:142,3,34.4,2|0|0|0,0:0|0:0|3:2|0:0,0:0:0:0:
368,69,83751,5,2,0:0:0:0:
348,75,83829,1,0,0:0:0:0:
328,80,83907,1,0,0:0:0:0:
308,85,83985,1,0,0:0:0:0:
288,90,84063,2,0,L|242:76,3,34.4,2|0|0|0,0:0|0:0|0:0|0:0,0:0:0:0:
175,26,84376,5,10,0:2:0:0:
228,160,84532,1,8,0:2:0:0:
36,232,84844,6,0,P|81:243|166:265,1,103.2,8|0,2:3|0:0,0:0:0:0:
143,286,85157,2,0,P|194:271|304:246,1,137.6,4|2,2:3|0:0,0:0:0:0:
436,235,85626,6,0,P|403:262|393:303,1,68.8,2|2,3:2|0:0,0:0:0:0:
483,174,85938,2,0,P|443:158|402:170,1,68.8,2|2,0:0|0:0,0:0:0:0:
277,152,86251,6,0,P|308:178|318:217,1,60.1999981628419,2|2,0:0|0:0,0:0:0:0:
231,93,86563,2,0,P|269:78|308:89,1,60.1999981628419,2|2,0:0|0:0,0:0:0:0:
487,45,86876,5,14,3:0:0:0:
441,134,87032,1,10,3:0:0:0:
441,134,87110,1,8,3:0:0:0:
441,134,87188,2,0,L|358:113,1,60.1999981628419,2|10,3:2|3:0,0:0:0:0:
297,100,87422,1,8,3:0:0:0:
297,100,87501,2,0,L|284:156,3,30.0999990814209,10|8|10|8,3:0|3:0|3:0|3:0,0:0:0:0:
186,193,87813,6,0,L|232:202,1,30.0999990814209,10|12,3:2|3:0,0:0:0:0:
315,252,87969,2,0,L|269:261,1,30.0999990814209,14|4,3:0|3:0,0:0:0:0:
169,298,88126,5,6,3:2:0:0:
