osu file format v14

[General]
AudioFilename: audio.ogg
AudioLeadIn: 0
PreviewTime: 156897
Countdown: 0
SampleSet: Soft
StackLeniency: 0.3
Mode: 0
LetterboxInBreaks: 0
WidescreenStoryboard: 1

[Editor]
DistanceSpacing: 1.4
BeatDivisor: 4
GridSize: 16
TimelineZoom: 1.9

[Metadata]
Title:Hana ni Natte
TitleUnicode:花になって
Artist:Ryokuoushoku Shakai
ArtistUnicode:緑黄色社会
Creator:SupaV
Version:Nakazawa's Extra
Source:薬屋のひとりごと
Tags:nakazawa hinsvar leominexd leomine the cosmic chef the_cosmic_chef Kusuriya no Hitorigoto The Apothecary Diaries maomao 猫猫 anime first opening op japanese jpop j-pop pop j-rock rock リョクシャカ ryokushaka 穴見真吾 shingo anami 小林壱誓 kobayashi issei 川口圭太 keita kawaguchi 長屋晴子 nagaya haruko be a flower female vocals vocalist
BeatmapID:4370986
BeatmapSetID:2085236

[Difficulty]
HPDrainRate:5.6
CircleSize:4
OverallDifficulty:9
ApproachRate:9.2
SliderMultiplier:1.7
SliderTickRate:1

[Events]
//Background and Video events
0,0,"among us.jpg",0,0
//Break Periods
//Storyboard Layer 0 (Background)
//Storyboard Layer 1 (Fail)
//Storyboard Layer 2 (Pass)
//Storyboard Layer 3 (Foreground)
//Storyboard Layer 4 (Overlay)
//Storyboard Sound Samples

[TimingPoints]
418,312.5,4,2,2,55,1,0
418,-166.666666666667,4,2,2,55,0,0
4168,-71.4285714285714,4,2,1,70,0,0
4324,-100,4,2,1,70,0,0
4949,-250,4,2,1,70,0,0
5418,-100,4,2,1,80,0,0
9480,-83.3333333333333,4,2,1,80,0,0
10261,-100,4,2,1,80,0,0
11980,-83.3333333333333,4,2,1,80,0,0
12761,-100,4,2,1,80,0,0
15418,-142.857142857143,4,2,2,60,0,0
24324,-142.857142857143,4,2,1,60,0,0
24636,-142.857142857143,4,2,2,60,0,0
24793,-142.857142857143,4,2,1,60,0,0
25418,-111.111111111111,4,2,1,70,0,0
32918,-125,4,2,1,78,0,0
33386,-71.4285714285714,4,2,1,78,0,0
33699,-166.666666666667,4,2,1,78,0,0
34168,-125,4,2,1,70,0,0
35418,-125,4,2,2,60,0,0
35730,-166.666666666667,4,2,2,60,0,0
44793,-166.666666666667,4,2,1,60,0,0
45418,-142.857142857143,4,2,1,65,0,0
47918,-125,4,2,1,65,0,0
48230,-111.111111111111,4,2,1,65,0,0
52918,-125,4,2,1,65,0,0
54949,-166.666666666667,4,2,1,65,0,0
55418,-125,4,2,1,70,0,0
57918,-100,4,2,1,70,0,0
59480,-100,4,2,1,50,0,0
60105,-100,4,2,1,70,0,0
60261,-83.3333333333333,4,2,1,85,0,0
75730,-111.111111111111,4,2,1,85,0,0
76668,-100,4,2,1,85,0,0
77918,-125,4,2,1,70,0,0
78543,-100,4,2,1,70,0,0
79011,-83.3333333333333,4,2,1,75,0,0
79480,-166.666666666667,4,2,1,75,0,0
80418,-166.666666666667,4,2,2,60,0,0
84168,-166.666666666667,4,2,1,60,0,0
85418,-125,4,2,1,75,0,0
92918,-125,4,2,1,75,0,0
94011,-166.666666666667,4,2,1,75,0,0
94168,-166.666666666667,4,2,1,45,0,0
95418,-111.111111111111,4,2,1,70,0,0
102918,-125,4,2,1,78,0,0
103386,-71.4285714285714,4,2,1,78,0,0
103699,-166.666666666667,4,2,1,78,0,0
104168,-125,4,2,1,70,0,0
105418,-62.5,4,2,1,78,0,0
106043,-83.3333333333333,4,2,1,78,0,0
106668,-125,4,2,1,65,0,0
107918,-250,4,2,1,65,0,0
109168,-250,4,2,1,65,0,0
111668,-166.666666666667,4,2,1,65,0,0
112918,-250,4,2,1,65,0,0
114168,-166.666666666667,4,2,1,65,0,0
115418,-250,4,2,1,65,0,0
119168,-250,4,2,1,65,0,0
124168,-166.666666666667,4,2,2,75,0,0
124480,-125,4,2,2,75,0,0
124793,-100,4,2,2,75,0,0
125105,-83.3333333333333,4,2,2,75,0,0
125418,-71.4285714285714,4,2,2,75,0,0
125730,-100,4,2,2,75,0,0
126043,-166.666666666667,4,2,2,75,0,0
126355,-500,4,2,2,75,0,0
126668,-166.666666666667,4,2,1,50,0,0
130418,-125,4,2,1,65,0,0
143230,-111.111111111111,4,2,1,65,0,0
145418,-166.666666666667,4,2,1,65,0,0
145730,-125,4,2,1,65,0,0
149949,-166.666666666667,4,2,1,65,0,0
150418,-125,4,2,1,70,0,0
155418,-100,4,2,1,78,0,0
156980,-100,4,2,1,50,0,0
158230,-83.3333333333333,4,2,1,85,0,0
183230,-125,4,2,1,85,0,0
184168,-100,4,2,1,85,0,0
185418,-125,4,2,1,70,0,0
186043,-100,4,2,1,70,0,0
186511,-83.3333333333333,4,2,1,75,0,0
186980,-166.666666666667,4,2,1,75,0,0
187918,-125,4,2,2,60,0,0
191668,-125,4,2,1,60,0,0
192918,-166.666666666667,4,2,1,50,0,0
194168,-166.666666666667,4,2,1,75,0,0
195418,-100,4,2,1,70,0,0
195730,-100,4,2,1,5,0,0

[Colours]
Combo1 : 87,19,215
Combo2 : 133,228,135
Combo3 : 183,142,244
Combo4 : 128,152,71

[HitObjects]
139,133,418,6,0,P|171:138|198:157,1,50.9999984436036,0|0,3:3|0:0,0:0:0:0:
256,192,730,1,8,2:3:0:0:
263,322,886,2,0,P|252:291|254:259,1,50.9999984436036,0|0,3:3|0:0,0:0:0:0:
365,120,1199,2,0,P|343:145|314:159,2,50.9999984436036,8|0|8,2:3|0:0|2:3,0:0:0:0:
258,0,1668,6,0,P|290:11|314:16,1,50.9999984436036,0|0,3:3|0:0,0:0:0:0:
385,31,1980,1,8,2:3:0:0:
258,14,2136,2,0,P|225:25|201:30,1,50.9999984436036,0|0,3:3|0:0,0:0:0:0:
82,6,2449,2,0,P|103:19|126:29,2,50.9999984436036,8|0|8,2:3|0:0|2:3,0:0:0:0:
0,122,2918,6,0,P|24:101|41:70,1,50.9999984436036,0|0,3:3|0:0,0:0:0:0:
82,6,3230,1,8,2:3:0:0:
198,88,3386,2,0,P|176:64|145:47,1,50.9999984436036,0|0,3:3|0:0,0:0:0:0:
84,162,3699,2,0,P|115:158|147:142,2,50.9999984436036,8|0|8,2:3|0:0|2:3,0:0:0:0:
198,88,4168,6,0,P|218:124|225:158,1,59.4999981842042,8|0,2:2|0:0,0:0:0:0:
90,344,4324,2,0,P|95:298|207:229,1,170,10|2,2:2|3:2,0:0:0:0:
265,32,4949,2,0,B|276:4|261:-17|261:-17|265:0,1,68,8|0,1:1|0:0,0:0:0:0:
222,141,5418,6,0,B|287:152|287:152|318:181|318:181|392:197,1,170,4|8,1:2|2:2,0:0:0:0:
510,101,5886,2,0,P|500:56|500:9,1,85,2|0,1:2|0:0,0:0:0:0:
415,110,6199,1,0,1:1:0:0:
512,247,6355,2,0,P|480:264|432:269,1,85,10|2,2:2|2:2,0:0:0:0:
314,129,6668,1,0,1:1:0:0:
314,129,6824,1,2,1:2:0:0:
261,317,6980,1,8,2:2:0:0:
336,238,7136,1,2,1:2:0:0:
218,98,7293,6,0,P|162:69|69:128,1,170,2|10,2:2|2:2,0:0:0:0:
5,266,7761,1,2,2:2:0:0:
5,266,7918,2,0,B|70:277|70:277|101:306|101:306|175:322,1,170,2|10,1:2|2:2,0:0:0:0:
355,384,8386,2,0,P|393:363|446:352,1,85,2|0,1:2|0:0,0:0:0:0:
254,376,8699,1,0,1:1:0:0:
343,226,8855,1,10,2:2:0:0:
188,190,9011,5,2,0:0:0:0:
188,190,9089,1,2,0:0:0:0:
188,190,9168,1,0,1:1:0:0:
244,279,9324,1,2,1:2:0:0:
277,23,9480,6,0,B|300:24|320:38|320:38|341:26|369:23|369:23|391:41|420:43,1,152.999995330811,10|0,2:2|0:0,0:0:0:0:
430,121,9793,2,0,B|409:149|409:149|371:96|421:39,1,152.999995330811,2|0,2:2|0:0,0:0:0:0:
487,0,10105,1,10,2:2:0:0:
512,229,10261,2,0,P|466:206|347:195,1,170,2|0,2:2|0:0,0:0:0:0:
186,281,10730,1,8,2:2:0:0:
262,384,10886,2,0,P|276:342|277:288,1,85,2|0,1:2|0:0,0:0:0:0:
187,190,11199,1,0,1:1:0:0:
366,287,11355,1,10,2:2:0:0:
168,371,11511,5,2,2:2:0:0:
168,371,11589,1,2,2:2:0:0:
168,371,11668,1,0,1:1:0:0:
271,222,11824,1,2,1:2:0:0:
85,148,11980,6,0,B|139:98|105:42|105:42|83:69,1,152.999995330811,10|0,2:2|0:0,0:0:0:0:
0,149,12293,2,0,P|61:161|68:262,1,152.999995330811,2|0,2:2|0:0,0:0:0:0:
7,285,12605,1,10,2:2:0:0:
180,342,12761,2,0,B|153:345|132:363|132:363|106:351|74:351|74:351|50:374|17:379,1,170,2|0,2:2|0:0,0:0:0:0:
170,245,13230,1,8,2:2:0:0:
265,384,13386,2,0,P|272:326|282:278,1,85,2|0,1:2|0:0,0:0:0:0:
360,218,13699,5,2,1:2:0:0:
512,325,13855,1,10,2:2:0:0:
394,384,14011,1,2,2:2:0:0:
469,231,14168,1,12,2:2:0:0:
480,203,14246,1,8,2:2:0:0:
487,174,14324,1,8,2:2:0:0:
490,145,14402,1,8,2:2:0:0:
490,115,14480,1,8,2:2:0:0:
333,230,14636,5,10,2:2:0:0:
358,245,14714,1,8,2:2:0:0:
333,40,14871,5,8,2:2:0:0:
307,54,14949,1,0,0:0:0:0:
388,137,15105,2,0,L|406:97,1,42.5,10|0,2:2|3:3,0:0:0:0:
258,157,15261,5,0,3:3:0:0:
258,157,15339,1,0,3:3:0:0:
258,157,15418,1,4,3:2:0:0:
190,98,15574,1,2,2:2:0:0:
108,143,15730,1,2,2:2:0:0:
40,84,15886,1,2,3:2:0:0:
33,96,16199,5,2,0:0:0:0:
101,155,16355,1,2,2:2:0:0:
183,110,16511,1,2,2:2:0:0:
104,6,16668,1,0,3:3:0:0:
104,6,16824,2,0,P|101:33|111:66,1,59.4999981842042,2|0,2:2|0:0,0:0:0:0:
266,134,17136,2,0,P|274:105|272:75,2,59.4999981842042,2|2|0,3:2|2:2|0:0,0:0:0:0:
201,10,17605,2,0,B|228:8|228:8|236:0|236:0|269:0,1,59.4999981842042,2|0,2:2|0:0,0:0:0:0:
362,115,17918,5,2,3:2:0:0:
442,84,18074,1,0,0:0:0:0:
511,142,18230,1,2,2:2:0:0:
430,172,18386,1,2,3:2:0:0:
431,184,18699,5,2,2:2:0:0:
512,154,18855,1,2,2:2:0:0:
443,96,19011,1,2,2:2:0:0:
443,96,19089,1,2,2:2:0:0:
443,96,19168,2,0,P|429:65|425:27,2,59.4999981842042,2|0|2,3:2|0:0|2:2,0:0:0:0:
503,244,19636,6,0,B|500:262|488:277|488:277|498:298|496:317|496:317|480:334|477:357,1,118.999996368408,2|2,3:2|2:2,0:0:0:0:
347,307,20105,2,0,P|380:310|415:325,1,59.4999981842042,2|2,3:2|2:2,0:0:0:0:
292,384,20418,1,0,3:3:0:0:
237,307,20574,1,2,2:2:0:0:
347,307,20730,1,2,2:2:0:0:
294,225,20886,1,2,3:2:0:0:
304,232,21199,5,0,0:0:0:0:
357,314,21355,1,2,2:2:0:0:
247,314,21511,1,2,2:2:0:0:
201,221,21668,1,0,3:3:0:0:
201,221,21824,2,0,P|169:207|136:202,1,59.4999981842042,2|0,2:2|0:0,0:0:0:0:
0,307,22136,1,2,3:2:0:0:
0,307,22292,2,0,P|28:286|48:260,1,59.4999981842042,2|0,2:2|0:0,0:0:0:0:
61,164,22605,2,0,P|57:129|44:98,1,59.4999981842042,2|0,2:2|0:0,0:0:0:0:
50,270,22918,5,2,3:2:0:0:
150,205,23074,1,0,0:0:0:0:
67,167,23230,1,2,2:2:0:0:
126,309,23386,1,2,3:2:0:0:
114,315,23699,5,0,0:0:0:0:
55,173,23855,1,2,2:2:0:0:
41,263,24011,1,2,2:2:0:0:
198,286,24168,1,2,3:2:0:0:
198,286,24324,2,0,B|227:291|227:291|239:288|239:288|276:294,1,59.4999981842042,0|2,1:1|2:2,0:0:0:0:
359,384,24636,6,0,B|342:370|342:370|334:314,1,59.4999981842042,2|0,3:2|3:3,0:0:0:0:
355,302,24871,1,0,3:3:0:0:
355,302,24949,1,0,1:1:0:0:
506,258,25105,1,8,2:2:0:0:
477,265,25183,1,0,3:3:0:0:
448,259,25261,1,0,3:3:0:0:
425,242,25339,1,8,2:2:0:0:
412,215,25417,5,4,1:2:0:0:
489,177,25574,1,2,1:2:0:0:
329,201,25730,1,10,2:2:0:0:
399,119,25886,1,2,1:2:0:0:
477,265,26043,2,0,P|456:304|449:338,1,76.4999976654053,2|0,2:2|1:1,0:0:0:0:
329,201,26355,1,10,2:2:0:0:
265,375,26511,6,0,P|219:369|184:367,1,76.4999976654053,2|0,2:2|1:1,0:0:0:0:
252,193,26824,2,0,P|298:199|333:201,1,76.4999976654053,2|8,1:2|2:2,0:0:0:0:
187,273,27136,1,2,1:2:0:0:
120,144,27293,1,2,3:2:0:0:
120,144,27371,1,8,2:2:0:0:
120,144,27449,1,0,1:1:0:0:
0,246,27605,2,0,P|6:199|8:165,1,76.4999976654053,10|0,2:2|0:0,0:0:0:0:
84,0,27918,6,0,P|74:67|-7:83,1,152.999995330811,2|10,1:2|2:2,0:0:0:0:
120,144,28386,2,0,P|163:124|199:123,1,76.4999976654053,2|0,1:2|0:0,0:0:0:0:
209,136,28621,1,8,2:2:0:0:
209,136,28699,1,0,1:1:0:0:
326,71,28855,2,0,P|306:28|305:-7,1,76.4999976654053,8|2,2:2|2:2,0:0:0:0:
301,162,29168,5,2,1:2:0:0:
222,48,29324,1,0,1:1:0:0:
309,174,29480,1,10,2:2:0:0:
177,219,29636,1,2,1:2:0:0:
222,141,29793,5,0,3:3:0:0:
222,141,29871,1,8,2:2:0:0:
222,141,29949,1,0,1:1:0:0:
312,258,30105,1,8,2:2:0:0:
228,287,30261,1,0,0:0:0:0:
400,206,30418,6,0,P|446:235|447:327,1,152.999995330811,0|10,1:1|2:2,0:0:0:0:
360,384,30886,1,2,1:2:0:0:
312,258,31043,1,2,2:2:0:0:
312,258,31121,1,8,2:2:0:0:
312,258,31199,1,0,1:1:0:0:
354,370,31355,1,10,2:2:0:0:
448,327,31511,5,2,2:2:0:0:
448,327,31668,2,0,P|476:352|516:368,1,76.4999976654053,0|2,1:1|1:2,0:0:0:0:
409,237,31980,2,0,P|418:190|436:151,1,76.4999976654053,12|2,2:2|1:2,0:0:0:0:
365,6,32293,1,2,1:2:0:0:
365,12,32371,1,0,3:3:0:0:
366,19,32449,1,0,3:3:0:0:
367,26,32527,1,0,3:3:0:0:
387,54,32605,5,10,2:2:0:0:
353,47,32683,1,8,2:2:0:0:
321,55,32761,1,8,2:2:0:0:
295,77,32839,1,8,2:2:0:0:
282,108,32918,2,0,P|322:120|369:125,1,68,12|0,2:2|0:0,0:0:0:0:
452,0,33230,1,2,3:2:0:0:
512,235,33386,6,0,B|432:206|389:277|389:277|430:284,1,178.499994552612,2|0,1:2|0:0,0:0:0:0:
501,250,33699,2,0,P|510:205|512:142,1,101.999996887207,14|0,2:2|0:0,0:0:0:0:
332,207,34168,1,4,1:2:0:0:
262,260,34324,1,2,0:2:0:0:
190,210,34480,1,0,0:0:0:0:
254,263,34636,1,2,1:2:0:0:
182,213,34792,1,0,0:0:0:0:
113,267,34949,1,2,1:2:0:0:
144,350,35105,5,0,1:1:0:0:
144,350,35183,1,0,3:3:0:0:
144,350,35261,2,0,P|156:339|185:330,1,34,0|0,3:3|3:3,0:0:0:0:
239,384,35418,1,0,3:0:0:0:
11,251,35730,6,0,P|8:222|-4:197,2,50.9999984436036,2|2|2,2:2|3:2|2:2,0:0:0:0:
137,195,36199,1,2,2:2:0:0:
137,195,36355,2,0,P|108:188|81:192,1,50.9999984436036,2|2,3:2|2:2,0:0:0:0:
133,58,36668,2,0,P|118:83|113:110,2,50.9999984436036,2|0|2,2:2|0:0|2:2,0:0:0:0:
0,0,37136,1,2,2:2:0:0:
0,0,37293,2,0,P|19:21|43:34,1,50.9999984436036
133,58,37605,2,0,P|159:28|234:20,1,101.999996887207,2|0,2:2|3:3,0:0:0:0:
512,103,38230,6,0,P|486:86|480:61,1,50.9999984436036,2|2,2:2|3:2,0:0:0:0:
427,1,38543,2,0,P|403:20|377:17,1,50.9999984436036,2|0,2:2|0:0,0:0:0:0:
304,50,38855,2,0,P|315:78|304:102,1,50.9999984436036,2|0,3:2|0:0,0:0:0:0:
312,182,39168,2,0,P|367:178|403:209,1,101.999996887207,2|2,2:2|2:2,0:0:0:0:
459,306,39636,2,0,P|472:251|513:227,1,101.999996887207,2|0,2:2|0:0,0:0:0:0:
465,159,40105,1,2,2:2:0:0:
254,384,40418,1,0,3:3:0:0:
254,384,40730,5,2,2:2:0:0:
254,384,40886,2,0,P|248:345|237:326,1,50.9999984436036,2|2,3:2|2:2,0:0:0:0:
261,190,41199,1,0,0:0:0:0:
261,190,41355,2,0,P|288:218|308:226,1,50.9999984436036,2|0,3:2|0:0,0:0:0:0:
178,289,41668,2,0,P|139:282|117:287,1,50.9999984436036,2|0,2:2|0:0,0:0:0:0:
54,337,41980,1,2,2:2:0:0:
54,337,42136,2,0,P|47:298|36:279,1,50.9999984436036,2|0,2:2|0:0,0:0:0:0:
0,212,42449,2,0,P|60:181|86:153,1,101.999996887207,2|0,2:2|0:0,0:0:0:0:
0,0,42918,6,0,P|17:59|26:114,1,101.999996887207,2|2,3:2|2:2,0:0:0:0:
241,95,43386,2,0,P|202:128|167:165,1,101.999996887207,2|2,3:2|2:2,0:0:0:0:
83,157,43855,1,2,3:2:0:0:
117,75,44011,1,0,0:0:0:0:
117,75,44168,2,0,P|112:39|103:12,1,50.9999984436036,2|2,2:2|2:2,0:0:0:0:
167,165,44480,2,0,P|192:191|215:207,1,50.9999984436036,2|2,2:2|2:2,0:0:0:0:
256,280,44793,5,0,3:3:0:0:
256,290,44871,1,0,3:3:0:0:
257,300,44949,1,0,3:3:0:0:
258,310,45027,1,0,3:3:0:0:
259,320,45105,2,0,L|253:355,1,25.4999992218018,0|0,1:1|1:1,0:0:0:0:
321,384,45261,5,0,1:1:0:0:
325,373,45339,1,0,1:1:0:0:
330,364,45418,2,0,P|380:354|464:353,1,118.999996368408,4|2,1:2|2:2,0:0:0:0:
512,299,45886,1,0,1:1:0:0:
512,299,46043,2,0,P|492:265|486:235,1,59.4999981842042,2|0,2:2|0:0,0:0:0:0:
331,163,46355,2,0,P|327:202|314:230,1,59.4999981842042,10|0,2:2|0:0,0:0:0:0:
399,265,46668,1,2,1:2:0:0:
454,155,46824,2,0,P|482:164|511:166,1,59.4999981842042,8|2,2:2|2:2,0:0:0:0:
383,95,47136,6,0,P|370:57|412:-10,1,118.999996368408,2|0,1:2|1:1,0:0:0:0:
331,163,47605,2,0,P|302:172|273:174,1,59.4999981842042,10|0,2:2|0:0,0:0:0:0:
181,57,47918,1,0,1:1:0:0:
181,57,48230,6,0,P|193:93|196:131,1,76.4999976654053,2|0,2:2|1:1,0:0:0:0:
130,187,48543,2,0,P|88:169|53:166,1,76.4999976654053,2|0,2:2|0:0,0:0:0:0:
0,360,48855,2,0,P|44:349|74:331,1,76.4999976654053,10|0,2:2|0:0,0:0:0:0:
0,229,49168,5,10,2:2:0:0:
155,358,49324,1,0,3:3:0:0:
163,384,49402,1,8,2:2:0:0:
273,174,49636,6,0,P|255:214|240:325,1,152.999995330811,10|0,2:2|1:1,0:0:0:0:
304,384,50105,1,2,1:2:0:0:
378,314,50261,1,0,1:1:0:0:
488,384,50418,2,0,B|542:349|517:288|517:288|514:311|499:327,1,152.999995330811,8|2,2:2|2:2,0:0:0:0:
512,303,52918,5,8,2:2:0:0:
323,260,53074,2,0,B|285:254|285:254|276:257|276:257|245:252,1,68,8|2,1:1|2:2,0:0:0:0:
256,253,53855,5,8,2:2:0:0:
434,176,54011,2,0,B|468:158|468:158|473:150|473:150|501:136,1,68,8|2,1:1|2:2,0:0:0:0:
491,141,54793,5,8,2:2:0:0:
395,292,54949,2,0,B|371:337|371:337|372:349|372:349|353:386,1,101.999996887207,8|0,1:1|0:0,0:0:0:0:
347,175,55418,6,0,B|336:110|336:110|327:97|327:97|318:44,1,136,4|2,1:2|2:2,0:0:0:0:
393,0,55886,1,2,1:2:0:0:
256,154,56043,2,0,P|218:168|175:164,1,68,10|2,2:2|2:2,0:0:0:0:
138,0,56355,2,0,P|171:1|203:13,1,68,2|2,2:2|1:2,0:0:0:0:
347,175,56668,6,0,L|338:226,2,45.3333333333333,2|2|2,2:2|0:0|0:0,0:0:0:0:
254,239,56980,6,0,L|205:256,2,45.3333333333333,2|2|2,1:2|0:0|0:0,0:0:0:0:
127,225,57293,1,8,2:2:0:0:
127,225,57449,2,0,P|75:187|3:181,1,136,2|0,2:2|0:0,0:0:0:0:
219,384,57918,5,2,1:2:0:0:
219,384,57996,1,0,3:3:0:0:
219,384,58074,2,0,P|215:350|207:320,1,42.5,0|0,3:3|3:3,0:0:0:0:
289,128,58230,5,0,3:3:0:0:
289,128,58308,1,0,3:3:0:0:
289,128,58386,2,0,P|261:148|239:170,1,42.5,0|0,3:3|3:3,0:0:0:0:
32,195,58543,5,0,3:3:0:0:
32,195,58621,1,0,3:3:0:0:
32,195,58699,2,0,P|63:208|93:216,1,42.5,0|0,3:3|3:3,0:0:0:0:
216,243,58855,5,0,3:3:0:0:
200,203,58933,1,0,3:3:0:0:
159,206,59011,1,0,3:3:0:0:
150,246,59089,1,0,3:3:0:0:
185,267,59167,1,8,1:1:0:0:
183,234,60105,5,8,2:2:0:0:
334,204,60261,2,0,B|368:226|409:228|409:228|425:246|437:264|437:264|481:266|517:285,1,203.999993774414,4|2,1:2|1:2,0:0:0:0:
316,384,60730,2,0,P|355:337|367:287,1,101.999996887207,10|0,2:2|1:1,0:0:0:0:
263,155,61043,1,2,2:2:0:0:
484,189,61199,1,0,1:1:0:0:
286,280,61355,1,10,2:2:0:0:
329,39,61511,5,2,2:2:0:0:
329,39,61589,1,2,2:2:0:0:
329,39,61668,2,0,P|358:90|447:116,1,152.999995330811,0|0,1:1|0:0,0:0:0:0:
467,95,61980,1,8,2:2:0:0:
263,130,62136,2,0,P|209:113|150:108,1,101.999996887207,0|2,1:1|2:2,0:0:0:0:
2,189,62449,1,2,1:2:0:0:
57,0,62605,2,0,B|85:45|85:45|76:103,1,101.999996887207,8|2,2:2|2:2,0:0:0:0:
286,280,62918,6,0,B|228:236|275:171|275:171|296:213,1,152.999995330811,4|0,1:2|0:0,0:0:0:0:
304,200,63230,1,10,2:2:0:0:
87,268,63386,1,10,2:2:0:0:
164,108,63543,2,0,P|150:156|155:221,1,101.999996887207,2|0,1:2|1:1,0:0:0:0:
353,384,63855,2,0,P|354:333|340:284,1,101.999996887207,10|0,2:2|0:0,0:0:0:0:
246,146,64168,1,2,1:2:0:0:
246,146,64324,1,0,1:1:0:0:
160,343,64480,2,0,P|103:346|50:360,1,101.999996887207,10|2,2:2|1:2,0:0:0:0:
256,384,64793,5,10,2:2:0:0:
256,384,64871,1,8,2:2:0:0:
256,384,64949,1,2,3:2:0:0:
358,197,65105,1,0,1:1:0:0:
512,384,65261,2,0,P|444:375|422:252,1,203.999993774414,4|0,1:2|1:1,0:0:0:0:
512,91,65730,1,8,2:2:0:0:
358,197,65886,1,2,1:2:0:0:
344,0,66043,2,0,B|388:33|388:33|452:23,1,101.999996887207,2|0,0:0|1:1,0:0:0:0:
264,185,66355,5,10,2:2:0:0:
165,0,66511,2,0,P|177:46|180:115,1,101.999996887207,2|0,2:2|1:1,0:0:0:0:
103,199,66824,1,2,1:2:0:0:
271,82,66980,1,8,2:2:0:0:
296,284,67136,2,0,P|284:330|281:399,1,101.999996887207,2|0,1:2|0:0,0:0:0:0:
35,273,67449,2,0,P|81:285|150:288,1,101.999996887207,2|8,1:2|2:2,0:0:0:0:
354,129,67761,5,2,2:2:0:0:
354,129,67839,1,2,2:2:0:0:
354,129,67918,2,0,B|412:116|412:116|438:91|438:91|494:81,1,152.999995330811,0|0,1:1|0:0,0:0:0:0:
512,105,68230,1,10,2:2:0:0:
279,61,68386,1,10,2:2:0:0:
458,285,68543,2,0,P|465:235|468:176,1,101.999996887207,2|0,1:2|1:1,0:0:0:0:
187,0,68855,2,0,P|189:50|196:101,1,101.999996887207,10|0,2:2|1:1,0:0:0:0:
412,0,69168,5,14,2:2:0:0:
412,0,69246,1,8,2:2:0:0:
412,0,69324,1,0,3:3:0:0:
244,175,69480,1,10,2:2:0:0:
512,226,69636,1,2,3:2:0:0:
512,226,69714,1,0,3:3:0:0:
512,226,69793,1,10,2:2:0:0:
363,102,69949,1,2,3:2:0:0:
337,297,70105,1,0,1:1:0:0:
512,133,70261,6,0,B|476:151|435:150|435:150|417:166|404:183|404:183|360:181|322:197,1,203.999993774414,4|2,1:2|1:2,0:0:0:0:
477,330,70730,2,0,P|481:262|491:219,1,101.999996887207,10|0,2:2|1:1,0:0:0:0:
232,74,71043,2,0,P|241:124|243:174,1,101.999996887207,2|0,2:2|1:1,0:0:0:0:
189,384,71355,1,10,2:2:0:0:
99,175,71511,1,2,2:2:0:0:
174,362,71668,6,0,P|234:344|282:349,1,101.999996887207,0|0,1:1|1:1,0:0:0:0:
89,147,71980,1,8,2:2:0:0:
98,261,72136,2,0,P|38:279|-10:274,1,101.999996887207,0|2,1:1|2:2,0:0:0:0:
0,178,72449,1,0,1:1:0:0:
149,0,72605,2,0,P|167:60|162:108,1,101.999996887207,10|2,2:2|2:2,0:0:0:0:
339,207,72918,6,0,B|410:214|432:152|432:152|397:151,1,152.999995330811,0|0,1:1|0:0,0:0:0:0:
377,141,73230,1,10,2:2:0:0:
177,238,73386,6,0,B|114:274|133:337|133:337|162:317,1,152.999995330811,0|0,1:1|0:0,0:0:0:0:
183,313,73698,1,10,2:2:0:0:
288,117,73855,6,0,B|317:50|265:11|265:11|253:44,1,152.999995330811,0|0,1:1|0:0,0:0:0:0:
239,60,74167,1,10,2:2:0:0:
269,280,74324,6,0,B|283:350|349:352|349:352|339:318,1,152.999995330811,0|0,1:1|0:0,0:0:0:0:
341,297,74636,1,8,2:2:0:0:
188,135,74793,5,10,2:2:0:0:
339,207,74949,1,2,1:2:0:0:
177,238,75105,1,0,1:1:0:0:
288,117,75261,1,10,2:2:0:0:
288,117,75339,1,8,2:2:0:0:
288,117,75418,1,4,1:2:0:0:
177,238,75730,5,0,1:1:0:0:
339,207,75886,1,0,0:0:0:0:
188,135,76043,2,0,P|178:93|167:59,1,76.4999976654053,2|0,1:2|3:3,0:0:0:0:
269,280,76355,2,0,P|299:307|328:327,1,76.4999976654053,2|0,1:2|3:3,0:0:0:0:
288,117,76668,5,10,2:2:0:0:
191,310,76824,1,8,2:2:0:0:
362,175,76980,1,10,2:2:0:0:
219,57,77136,1,10,2:2:0:0:
295,299,77293,1,8,2:2:0:0:
449,80,77449,2,0,L|442:130,1,42.5,10|8,2:2|2:2,0:0:0:0:
433,375,77605,5,8,2:2:0:0:
473,363,77683,1,8,2:2:0:0:
504,334,77761,1,10,2:2:0:0:
512,294,77839,1,8,2:2:0:0:
512,253,77918,6,0,B|460:260|460:260|432:282|432:282|377:289,1,136,10|0,2:2|0:0,0:0:0:0:
512,8,78543,5,8,2:2:0:0:
288,117,78699,2,0,B|256:70|291:32|291:32|282:58|288:75,1,127.5,8|0,1:1|0:0,0:0:0:0:
234,198,79011,6,0,B|197:214|156:208|156:208|137:223|122:239|122:239|79:233|40:246,1,203.999993774414,4|0,1:2|0:0,0:0:0:0:
229,385,79480,1,0,3:3:0:0:
230,369,79558,1,0,3:3:0:0:
231,353,79636,1,0,3:3:0:0:
233,338,79714,1,0,3:3:0:0:
234,323,79793,2,0,L|237:293,1,25.4999992218018,0|0,3:3|3:3,0:0:0:0:
145,372,79949,1,0,3:3:0:0:
136,373,80027,1,0,3:3:0:0:
127,376,80105,1,0,1:1:0:0:
512,304,80418,6,0,P|486:314|459:313,2,50.9999984436036,4|2|2,3:2|2:2|2:2,0:0:0:0:
402,258,80886,1,2,3:2:0:0:
230,369,81199,6,0,P|256:379|283:378,2,50.9999984436036
340,323,81667,1,0,3:3:0:0:
435,384,81824,2,0,B|439:359|439:359|444:350|444:350|447:326,2,50.9999984436036,0|0|0,0:0|0:0|3:3,0:0:0:0:
319,234,82293,2,0,B|315:209|315:209|310:200|310:200|307:176,2,50.9999984436036,2|0|2,2:2|0:0|2:2,0:0:0:0:
402,258,82761,1,0,0:0:0:0:
512,190,82918,5,2,3:2:0:0:
452,131,83074,1,2,2:2:0:0:
368,132,83230,1,2,2:2:0:0:
512,178,83386,5,2,3:2:0:0:
451,119,83542,1,2,2:2:0:0:
451,35,83698,1,2,2:2:0:0:
445,138,83855,1,2,2:2:0:0:
361,139,84011,1,2,2:2:0:0:
512,263,84168,5,8,2:2:0:0:
366,51,84324,1,8,2:2:0:0:
512,349,84636,5,0,3:3:0:0:
83,301,84949,2,0,P|116:256|178:258,1,101.999996887207,4|2,1:2|2:2,0:0:0:0:
306,384,85418,6,0,B|332:352|332:352|336:315,1,68,4|0,1:2|0:0,0:0:0:0:
261,174,85730,1,8,2:2:0:0:
250,323,85886,2,0,B|216:327|216:327|210:331|210:331|179:335,1,68,2|0,1:2|3:3,0:0:0:0:
164,347,86121,1,8,2:2:0:0:
164,347,86199,1,0,1:1:0:0:
345,298,86355,6,0,B|330:259|330:259|300:237,1,68,10|0,2:2|0:0,0:0:0:0:
250,323,86668,1,0,1:1:0:0:
229,180,86824,2,0,B|212:211|212:211|214:217|214:217|203:247,1,68,2|8,1:2|2:2,0:0:0:0:
308,243,87136,1,0,1:1:0:0:
140,143,87293,6,0,B|118:127|118:127|103:88,1,68,2|0,3:2|1:1,0:0:0:0:
290,0,87605,1,8,2:2:0:0:
183,70,87761,2,0,B|194:39|194:39|199:35|199:35|207:6,2,68,2|0|0,2:2|1:1|0:0,0:0:0:0:
0,190,88230,6,0,B|27:165|27:165|66:170,1,68,10|0,2:2|1:1,0:0:0:0:
120,310,88543,1,0,3:3:0:0:
120,310,88621,1,8,2:2:0:0:
120,310,88699,2,0,B|116:272|116:272|112:264|112:264|110:237,1,68,2|8,1:2|2:2,0:0:0:0:
140,143,89011,1,0,0:0:0:0:
243,266,89168,6,0,B|270:291|270:291|300:287,1,68,2|0,1:2|1:1,0:0:0:0:
189,206,89480,1,8,2:2:0:0:
302,129,89636,1,2,1:2:0:0:
302,129,89714,1,2,0:0:0:0:
302,129,89793,2,0,B|294:159|294:159|298:169|298:169|293:196,1,68,0|0,3:3|1:1,0:0:0:0:
442,159,90105,6,0,B|469:134|469:134|499:137,1,68,10|0,2:2|3:3,0:0:0:0:
504,310,90418,1,4,1:2:0:0:
504,310,90574,2,0,B|498:276|498:276|499:268|499:268|495:242,1,68,2|8,2:2|2:2,0:0:0:0:
407,243,90886,1,0,1:1:0:0:
500,137,91043,6,0,B|470:134|470:134|443:159,1,68,2|0,3:2|1:1,0:0:0:0:
322,269,91355,1,8,2:2:0:0:
349,160,91511,2,0,B|356:125|356:125|354:121|354:121|357:92,1,68,2|0,2:2|1:1,0:0:0:0:
172,0,91824,2,0,P|175:33|180:67,1,68,2|8,1:2|2:2,0:0:0:0:
272,199,92136,2,0,B|220:211|220:211|192:239|192:239|137:250,1,136,2|2,1:2|1:2,0:0:0:0:
0,208,92605,5,10,2:2:0:0:
0,208,92761,1,2,2:2:0:0:
109,314,92918,1,2,1:2:0:0:
81,201,93074,1,0,1:1:0:0:
0,384,93230,1,10,2:2:0:0:
199,327,93386,5,2,1:2:0:0:
199,327,93464,1,2,0:0:0:0:
199,327,93543,2,0,L|250:335,2,34,2|2|2,0:0|0:0|1:2,0:0:0:0:
27,303,93855,1,10,2:2:0:0:
81,201,94011,2,0,P|95:235|96:262,1,50.9999984436036,8|2,1:1|2:2,0:0:0:0:
0,0,95418,6,0,P|64:5|97:85,1,152.999995330811,4|10,1:2|2:2,0:0:0:0:
4,87,95886,1,2,2:2:0:0:
70,161,96043,2,0,P|34:171|0:190,1,76.4999976654053,2|0,1:2|0:0,0:0:0:0:
182,59,96355,1,10,2:2:0:0:
182,59,96511,1,2,2:2:0:0:
164,148,96668,6,0,P|153:188|151:222,1,76.4999976654053,0|2,1:1|2:2,0:0:0:0:
369,189,96980,2,0,P|366:150|356:114,1,76.4999976654053,8|2,2:2|2:2,0:0:0:0:
266,82,97293,1,2,1:2:0:0:
338,0,97449,1,0,0:0:0:0:
432,60,97605,2,0,P|474:66|508:69,1,76.4999976654053,10|0,2:2|0:0,0:0:0:0:
512,328,97918,6,0,P|482:282|385:270,1,152.999995330811,2|10,1:2|2:2,0:0:0:0:
322,312,98386,1,2,2:2:0:0:
322,312,98464,1,2,2:2:0:0:
322,312,98543,2,0,B|338:347|338:347|334:384,1,76.4999976654053,0|0,1:1|0:0,0:0:0:0:
137,362,98855,2,0,P|90:370|54:383,1,76.4999976654053,8|2,2:2|2:2,0:0:0:0:
245,384,99168,5,2,1:2:0:0:
193,270,99324,1,0,0:0:0:0:
236,364,99480,1,10,2:2:0:0:
276,241,99636,1,2,2:2:0:0:
137,362,99793,5,0,1:1:0:0:
322,312,99949,1,2,2:2:0:0:
130,209,100105,1,10,2:2:0:0:
276,241,100261,1,2,2:2:0:0:
108,288,100418,6,0,P|50:298|7:213,1,152.999995330811,4|10,1:2|2:2,0:0:0:0:
49,90,100886,1,2,2:2:0:0:
49,90,100964,1,2,0:0:0:0:
49,90,101043,2,0,P|56:128|59:169,1,76.4999976654053,2|0,1:2|0:0,0:0:0:0:
0,8,101355,1,10,2:2:0:0:
132,104,101511,2,0,P|170:108|208:75,1,76.4999976654053,2|0,2:2|1:1,0:0:0:0:
237,0,101824,1,2,1:2:0:0:
288,165,101980,2,0,P|278:209|274:255,1,76.4999976654053,12|2,2:2|1:2,0:0:0:0:
491,294,102293,5,2,1:2:0:0:
490,283,102371,1,0,3:3:0:0:
488,273,102449,1,0,3:3:0:0:
486,263,102527,1,0,3:3:0:0:
512,244,102605,5,10,2:2:0:0:
477,240,102683,1,8,2:2:0:0:
447,224,102761,1,8,2:2:0:0:
428,197,102839,1,8,2:2:0:0:
424,163,102918,2,0,P|466:162|512:169,1,68,12|2,2:2|2:2,0:0:0:0:
512,384,103230,1,2,1:2:0:0:
296,295,103386,6,0,P|378:302|398:391,1,178.499994552612,10|0,2:2|0:0,0:0:0:0:
299,277,103699,2,0,B|325:242|316:204|316:204|308:230,1,101.999996887207,14|0,2:2|0:0,0:0:0:0:
512,292,104168,6,0,P|487:290|461:298,1,45.3333333333333,4|0,1:2|0:0,0:0:0:0:
455,198,104376,5,8,2:2:0:0:
437,190,104480,6,0,P|417:206|405:230,1,45.3333333333333,8|8,2:2|2:2,0:0:0:0:
324,175,104688,5,8,2:2:0:0:
305,182,104792,6,0,P|303:207|311:233,1,45.3333333333333,8|8,2:2|2:2,0:0:0:0:
204,360,105001,5,0,3:3:0:0:
223,353,105105,6,0,P|225:328|217:302,2,45.3333333333333,0|0|0,3:3|3:3|3:3,0:0:0:0:
138,309,105418,6,0,P|94:319|54:340,1,90.6666666666667,8|0,2:2|0:0,0:0:0:0:
295,278,105626,6,0,P|340:276|385:286,1,90.6666666666667,4|0,1:2|0:0,0:0:0:0:
182,192,105834,6,0,B|205:234|205:234|206:180,1,90.6666666666667,4|0,1:2|0:0,0:0:0:0:
70,160,106043,6,0,P|77:191|106:212,1,67.9999979248048,12|0,2:2|0:0,0:0:0:0:
257,130,106251,6,0,P|281:106|284:72,1,67.9999979248048,4|0,1:2|0:0,0:0:0:0:
126,0,106459,6,0,P|93:-7|63:6,1,67.9999979248048,4|0,1:2|0:0,0:0:0:0:
0,277,106668,6,0,B|31:295|70:279|70:279|107:301|107:301|153:289|189:317|189:317|253:235|346:269|346:269|316:298|314:332|314:332|294:330|276:343,1,476,4|0,1:2|0:0,0:0:0:0:
396,334,107918,6,0,P|422:354|438:385,1,68,6|0,2:2|0:0,0:0:0:0:
450,250,108386,2,0,P|478:230|512:227,1,68,2|0,2:2|0:0,0:0:0:0:
385,142,108855,2,0,P|381:126|384:110,1,34,2|0,2:2|0:0,0:0:0:0:
451,251,109168,6,0,B|411:210|413:131|462:69|517:86|523:144|482:152,1,238,4|0,1:2|3:3,0:0:0:0:
394,0,110418,2,0,P|404:26|441:36,1,68,10|0,2:2|0:0,0:0:0:0:
358,105,110886,1,2,2:2:0:0:
311,27,111043,2,0,L|284:20,2,22.6666666666667
358,105,111355,2,0,P|356:126|352:151,1,34,2|0,2:2|0:0,0:0:0:0:
256,192,111668,6,0,B|235:205|222:201|222:201|225:194|221:187|221:187|233:182|249:188|249:188|236:176|235:162|235:162|243:163|248:157|248:157|257:168|256:184|256:184|263:167|276:163|276:163|278:171|285:173|285:173|278:185|262:189|262:189|279:191|288:202|288:202|282:206|281:214|281:214|267:211|259:197|259:197|263:214|254:225|254:225|248:220|241:223|241:223|240:206|254:192,1,356.999989105225,6|2,2:2|2:2,0:0:0:0:
294,293,112918,2,0,P|300:324|304:363,1,68,6|0,2:2|0:0,0:0:0:0:
140,321,113386,2,0,P|153:292|173:258,1,68,2|0,2:2|0:0,0:0:0:0:
69,377,113855,2,0,P|49:371|28:367,1,34,2|0,2:2|0:0,0:0:0:0:
0,179,114168,6,0,B|36:163|65:189|65:189|107:193|131:164|131:164|179:194|216:172|216:172|179:168|150:149|134:118|136:81,1,356.999989105225,4|0,1:2|1:1,0:0:0:0:
258,37,115418,2,0,P|248:66|212:92,1,68,10|0,2:2|0:0,0:0:0:0:
136,92,115886,1,2,3:2:0:0:
64,55,116043,2,0,P|36:51|17:50,1,34,0|0,0:0|3:3,0:0:0:0:
138,9,116355,2,0,P|166:13|185:14,1,34,2|0,3:2|0:0,0:0:0:0:
303,141,116668,6,0,B|353:224|292:284|292:284|271:243,1,204,4|0,1:2|0:0,0:0:0:0:
227,177,117761,1,8,2:2:0:0:
303,141,117918,2,0,P|334:148|381:156,1,68,2|0,1:2|0:0,0:0:0:0:
448,134,118386,1,2,1:2:0:0:
512,268,118543,2,0,P|499:233|464:213,1,68,8|2,2:2|2:2,0:0:0:0:
253,376,119168,6,0,B|202:366|202:366|174:341|174:341|96:331|96:331|136:347,1,204,4|0,1:2|0:0,0:0:0:0:
246,291,120261,1,0,1:1:0:0:
184,226,120418,1,2,1:2:0:0:
184,226,120574,2,0,P|172:192|170:154,1,68,8|2,2:2|1:2,0:0:0:0:
331,105,121043,2,0,P|327:129|320:144,1,34,8|0,2:2|0:0,0:0:0:0:
243,116,121355,2,0,P|244:99|246:74,1,34,2|0,2:2|0:0,0:0:0:0:
464,196,121668,6,0,B|479:204|479:204|522:210,2,51,4|2|2,1:2|2:2|1:2,0:0:0:0:
413,127,122293,1,8,2:2:0:0:
480,71,122449,2,0,P|495:77|516:82,1,34
428,0,122761,1,8,2:2:0:0:
363,59,122918,1,2,1:2:0:0:
290,20,123074,2,0,P|260:12|213:5,1,68,8|2,2:2|1:2,0:0:0:0:
39,33,123543,2,0,P|43:16|48:0,1,34,8|0,2:2|0:0,0:0:0:0:
137,47,123855,2,0,P|140:63|144:80,1,34,2|0,2:2|0:0,0:0:0:0:
2,315,124168,6,0,P|27:276|64:249,1,76.4999976654053,4|0,3:2|0:0,0:0:0:0:
59,178,124480,6,0,P|91:228|138:263,1,102,0|0,3:3|0:0,0:0:0:0:
191,310,124793,6,0,P|168:262|184:180,1,127.5,0|0,3:3|0:0,0:0:0:0:
314,160,125105,6,0,P|339:214|321:306,1,152.999995330811,0|0,3:3|0:0,0:0:0:0:
180,325,125418,6,0,P|149:260|170:151,1,178.499994552612,2|2,3:2|2:2,0:0:0:0:
329,159,125730,6,0,P|354:213|336:305,1,127.5,0|0,3:3|0:0,0:0:0:0:
394,212,126043,6,0,P|434:204|473:218,1,76.4999976654053,2|2,3:2|2:2,0:0:0:0:
445,156,126355,6,0,P|442:141|447:127,1,25.5,0|0,3:3|0:0,0:0:0:0:
510,87,126668,6,0,B|461:65|411:95|411:95|381:66|373:86|336:69|336:69|311:118|247:116|247:116|281:154|275:215|246:187|236:237|263:285|263:285|201:228|125:257|154:288|76:317|24:274|24:274|44:273|69:257,1,764.999976654054,4|0,1:2|0:0,0:0:0:0:
16,196,129168,5,2,2:2:0:0:
330,240,129636,5,2,2:2:0:0:
0,384,130105,5,2,2:2:0:0:
90,14,130418,6,0,B|98:69|98:69|80:98|80:98|87:161,1,136,4|0,1:2|1:1,0:0:0:0:
17,195,130886,1,0,1:1:0:0:
176,33,131043,2,0,P|214:26|252:23,1,68,8|2,2:2|2:2,0:0:0:0:
303,90,131355,1,2,2:2:0:0:
303,90,131511,2,0,B|268:147|268:147|297:218,1,136,2|0,1:2|1:1,0:0:0:0:
384,222,131980,1,2,2:2:0:0:
384,222,132136,1,2,1:2:0:0:
507,101,132293,2,0,P|445:128|370:134,1,136,8|2,2:2|1:2,0:0:0:0:
168,384,132918,6,0,P|184:329|256:299,1,136,4|0,1:2|0:0,0:0:0:0:
320,344,133386,1,0,1:1:0:0:
376,229,133543,1,8,2:2:0:0:
376,229,133699,2,0,P|380:269|386:303,1,68,10|2,2:2|1:2,0:0:0:0:
512,384,134011,2,0,B|538:320|538:320|503:263,1,136,2|0,1:2|1:1,0:0:0:0:
451,202,134480,1,2,2:2:0:0:
426,296,134636,1,2,1:2:0:0:
497,84,134793,2,0,P|508:118|513:161,1,68,8|0,2:2|0:0,0:0:0:0:
376,232,135105,2,0,P|328:207|297:204,1,68,2|8,2:2|2:2,0:0:0:0:
139,384,135418,6,0,P|194:341|181:275,1,136,4|0,1:2|0:0,0:0:0:0:
130,217,135886,1,0,1:1:0:0:
66,337,136043,2,0,P|31:341|-1:350,1,68,8|2,2:2|2:2,0:0:0:0:
53,255,136355,1,2,2:2:0:0:
53,255,136511,2,0,B|17:193|17:193|41:126,1,136,2|0,1:2|1:1,0:0:0:0:
176,184,136980,2,0,P|136:169|100:174,1,68,2|2,2:2|1:2,0:0:0:0:
0,64,137293,2,0,P|15:24|10:-12,1,68,8|2,2:2|2:2,0:0:0:0:
38,132,137605,1,0,1:1:0:0:
38,132,137918,6,0,B|90:137|90:137|121:161|121:161|182:169,1,136,4|2,1:2|2:2,0:0:0:0:
237,107,138386,1,2,1:2:0:0:
305,219,138543,2,0,P|309:182|319:141,1,68,8|10,2:2|2:2,0:0:0:0:
165,166,138855,1,2,1:2:0:0:
214,248,139011,5,0,1:1:0:0:
93,321,139168,1,0,0:0:0:0:
200,259,139324,1,0,1:1:0:0:
241,367,139480,1,0,0:0:0:0:
364,309,139636,1,0,1:1:0:0:
254,359,139793,1,8,2:2:0:0:
305,219,139949,5,0,1:1:0:0:
305,219,140027,1,0,1:1:0:0:
305,219,140105,2,0,P|300:241|298:267,1,34,0|0,1:1|1:1,0:0:0:0:
433,372,140261,1,8,2:2:0:0:
433,372,140339,1,8,2:2:0:0:
433,372,140418,2,0,P|481:349|480:266,1,136,4|2,1:2|2:2,0:0:0:0:
416,192,140886,5,0,1:1:0:0:
416,192,141043,2,0,P|413:158|407:120,1,68,2|0,2:2|0:0,0:0:0:0:
512,0,141355,2,0,P|506:33|503:67,1,68,10|0,2:2|0:0,0:0:0:0:
407,124,141668,1,2,1:2:0:0:
334,27,141824,2,0,B|305:9|305:9|268:13,1,68,8|2,2:2|2:2,0:0:0:0:
233,209,142136,2,0,B|273:186|273:186|287:93,1,136,2|0,1:2|1:1,0:0:0:0:
192,137,142605,2,0,B|163:154|163:154|129:150,1,68,10|0,2:2|0:0,0:0:0:0:
0,0,142918,1,4,1:2:0:0:
0,0,143230,6,0,P|21:39|24:88,1,76.4999976654053,2|0,2:2|1:1,0:0:0:0:
192,137,143543,2,0,P|198:99|217:66,1,76.4999976654053,2|0,2:2|0:0,0:0:0:0:
0,169,143855,2,0,P|39:158|75:157,1,76.4999976654053,10|0,2:2|0:0,0:0:0:0:
233,209,144168,1,10,2:2:0:0:
96,322,144324,1,0,3:3:0:0:
93,302,144402,1,8,2:2:0:0:
332,384,144636,6,0,P|294:341|197:311,1,152.999995330811,10|0,2:2|1:1,0:0:0:0:
0,358,145105,1,2,1:2:0:0:
160,250,145261,1,0,1:1:0:0:
0,148,145418,2,0,B|4:194|4:194|12:207|12:207|17:262,1,101.999996887207,8|2,2:2|2:2,0:0:0:0:
15,247,147918,5,8,2:2:0:0:
223,209,148074,2,0,B|193:216|193:216|182:214|182:214|151:220,1,68,8|2,1:1|2:2,0:0:0:0:
223,209,148855,5,8,2:2:0:0:
32,117,149011,2,0,B|60:128|60:128|68:137|68:137|96:150,1,68,8|2,1:1|2:2,0:0:0:0:
32,117,149793,5,8,2:2:0:0:
132,303,149949,2,0,B|108:263|108:263|106:247|106:247|83:206,1,101.999996887207,8|0,1:1|0:0,0:0:0:0:
140,0,150418,6,0,B|134:59|134:59|124:78|124:78|117:139,1,136,4|2,1:2|2:2,0:0:0:0:
223,211,150886,1,2,1:2:0:0:
287,28,151043,2,0,P|248:35|211:39,1,68,10|2,2:2|2:2,0:0:0:0:
319,232,151355,2,0,P|352:236|386:242,1,68,2|2,2:2|1:2,0:0:0:0:
509,74,151668,6,0,L|466:49,2,45.3333333333333,2|2|2,2:2|0:0|0:0,0:0:0:0:
452,139,151980,6,0,L|403:151,2,45.3333333333333,2|2|2,1:2|0:0|0:0,0:0:0:0:
504,211,152293,1,8,2:2:0:0:
504,211,152449,2,0,P|484:261|472:360,1,136,2|0,2:2|0:0,0:0:0:0:
255,384,152918,2,0,P|221:341|141:281,1,136,4|0,1:2|0:0,0:0:0:0:
67,336,153386,1,2,1:2:0:0:
0,190,153543,2,0,P|10:230|15:282,1,68,8|2,2:2|2:2,0:0:0:0:
194,219,153855,1,10,2:2:0:0:
142,149,154011,2,0,B|112:168|112:168|71:166,1,68,0|2,1:1|2:2,0:0:0:0:
15,104,154324,5,2,1:2:0:0:
15,104,154480,1,0,1:1:0:0:
100,66,154636,1,2,1:2:0:0:
194,219,154793,1,10,2:2:0:0:
14,259,154949,2,0,P|69:236|131:295,1,136,0|2,1:1|2:2,0:0:0:0:
254,382,155418,5,0,1:1:0:0:
254,382,155496,1,0,3:3:0:0:
254,382,155574,2,0,L|247:324,1,42.5,2|0,3:2|3:3,0:0:0:0:
397,155,155730,1,0,1:1:0:0:
397,155,155808,1,0,3:3:0:0:
397,155,155886,2,0,L|390:213,1,42.5,2|0,3:2|3:3,0:0:0:0:
512,384,156043,1,0,1:1:0:0:
512,384,156121,1,0,3:3:0:0:
511,383,156199,2,0,L|505:340,1,42.5,2|0,3:2|3:3,0:0:0:0:
256,192,156355,5,0,1:1:0:0:
214,201,156433,1,0,3:3:0:0:
172,206,156511,1,2,3:2:0:0:
129,206,156589,1,0,3:3:0:0:
97,168,156667,1,8,1:1:0:0:
0,4,158230,6,0,P|15:52|23:103,1,101.999996887207,12|0,2:2|1:1,0:0:0:0:
260,311,158543,2,0,P|267:260|282:212,1,101.999996887207,12|0,2:2|1:1,0:0:0:0:
105,40,158855,5,8,2:2:0:0:
185,243,159011,1,0,1:1:0:0:
225,0,159168,5,12,2:2:0:0:
61,175,159324,1,0,1:1:0:0:
305,214,159480,6,0,P|352:230|407:236,1,101.999996887207,8|0,2:2|1:1,0:0:0:0:
180,148,159793,1,10,2:2:0:0:
94,270,159949,1,2,3:2:0:0:
251,312,160105,1,0,3:3:0:0:
183,240,160261,1,0,1:1:0:0:
413,184,160418,6,0,P|469:198|505:290,1,152.999995330811,4|0,1:2|0:0,0:0:0:0:
495,306,160730,1,10,2:2:0:0:
348,125,160886,1,10,2:2:0:0:
315,363,161043,2,0,P|365:347|425:342,1,101.999996887207,2|0,1:2|1:1,0:0:0:0:
510,158,161355,2,0,P|484:113|489:48,1,101.999996887207,10|0,2:2|0:0,0:0:0:0:
337,222,161668,5,2,1:2:0:0:
337,222,161824,1,0,1:1:0:0:
277,0,161980,1,10,2:2:0:0:
153,197,162136,1,2,1:2:0:0:
123,0,162293,1,10,2:2:0:0:
123,0,162371,1,8,2:2:0:0:
123,0,162449,1,10,2:2:0:0:
262,127,162605,1,0,1:1:0:0:
30,223,162761,6,0,B|-41:168|16:88|16:88|42:140,1,203.999993774414,4|2,1:2|1:2,0:0:0:0:
0,324,163230,1,8,2:2:0:0:
172,226,163386,1,0,1:1:0:0:
5,132,163543,2,0,P|3:188|35:226,1,101.999996887207,0|0,0:0|1:1,0:0:0:0:
165,132,163855,5,10,2:2:0:0:
242,285,164011,2,0,P|235:335|220:384,1,101.999996887207,2|0,2:2|1:1,0:0:0:0:
97,286,164324,1,2,1:2:0:0:
270,187,164480,1,8,2:2:0:0:
325,384,164636,2,0,P|376:370|436:362,1,101.999996887207,2|0,1:2|0:0,0:0:0:0:
252,194,164949,2,0,P|202:187|153:172,1,101.999996887207,2|8,1:2|2:2,0:0:0:0:
398,0,165261,5,2,2:2:0:0:
398,0,165339,1,2,2:2:0:0:
398,0,165418,2,0,B|389:60|389:60|362:83|362:83|350:143,1,152.999995330811,0|0,1:1|0:0,0:0:0:0:
353,170,165730,1,10,2:2:0:0:
184,35,165886,1,10,2:2:0:0:
123,253,166043,2,0,P|140:306|146:370,1,101.999996887207,2|0,1:2|1:1,0:0:0:0:
275,98,166355,2,0,P|281:47|297:0,1,101.999996887207,10|0,2:2|0:0,0:0:0:0:
215,228,166668,5,10,2:2:0:0:
215,228,166746,1,8,2:2:0:0:
215,228,166824,1,0,3:3:0:0:
44,98,166980,1,10,2:2:0:0:
91,309,167136,1,2,3:2:0:0:
91,309,167214,1,8,2:2:0:0:
91,309,167293,1,2,1:2:0:0:
151,138,167449,1,10,2:2:0:0:
0,250,167605,1,0,3:3:0:0:
225,384,167761,6,0,B|258:369|302:371|302:371|315:354|333:338|333:338|374:339|410:321,1,203.999993774414,4|2,1:2|1:2,0:0:0:0:
512,172,168230,2,0,P|498:213|489:276,1,101.999996887207,10|0,2:2|1:1,0:0:0:0:
263,297,168543,2,0,P|256:246|240:198,1,101.999996887207,2|0,2:2|1:1,0:0:0:0:
126,0,168855,1,8,2:2:0:0:
92,237,169011,1,2,2:2:0:0:
137,25,169168,6,0,P|181:46|241:39,1,101.999996887207,0|0,1:1|1:1,0:0:0:0:
111,266,169480,2,0,P|60:261|14:283,1,101.999996887207,8|0,2:2|1:1,0:0:0:0:
175,384,169793,2,0,P|181:333|197:285,1,101.999996887207,2|0,2:2|1:1,0:0:0:0:
0,148,170105,1,10,2:2:0:0:
74,346,170261,1,2,2:2:0:0:
205,160,170418,6,0,B|265:169|265:169|288:196|288:196|348:208,1,152.999995330811,0|0,1:1|0:0,0:0:0:0:
377,215,170730,1,10,2:2:0:0:
199,181,170886,6,0,B|208:121|208:121|235:98|235:98|247:38,1,152.999995330811,0|0,1:1|0:0,0:0:0:0:
254,9,171198,1,10,2:2:0:0:
220,187,171355,6,0,B|160:178|160:178|137:151|137:151|77:139,1,152.999995330811,0|0,1:1|0:0,0:0:0:0:
48,132,171667,1,10,2:2:0:0:
225,166,171824,6,0,B|216:226|216:226|189:248|189:248|177:309,1,152.999995330811,0|0,1:1|0:0,0:0:0:0:
171,338,172136,1,8,2:2:0:0:
205,160,172293,1,10,2:2:0:0:
325,300,172449,1,2,1:2:0:0:
359,122,172606,1,0,1:1:0:0:
511,237,172761,5,10,2:2:0:0:
511,237,172839,1,8,2:2:0:0:
511,237,172918,2,0,B|478:252|434:250|434:250|421:267|403:283|403:283|362:282|326:300,1,203.999993774414,4|8,1:2|2:2,0:0:0:0:
262,198,173386,2,0,P|310:206|371:205,1,101.999996887207,0|2,1:1|2:2,0:0:0:0:
479,328,173699,1,0,1:1:0:0:
267,378,173855,2,0,P|245:335|253:274,1,101.999996887207,10|0,2:2|0:0,0:0:0:0:
363,205,174168,5,2,1:2:0:0:
363,205,174324,1,0,1:1:0:0:
239,54,174480,1,10,2:2:0:0:
176,243,174636,1,2,1:2:0:0:
176,243,174714,1,2,0:0:0:0:
176,243,174793,2,0,P|126:277|82:277,1,101.999996887207,2|2,0:0|1:2,0:0:0:0:
7,110,175105,2,0,P|15:160|14:211,1,101.999996887207,8|2,2:2|2:2,0:0:0:0:
262,376,175418,6,0,B|309:325|270:265|270:265|263:304,1,152.999995330811,2|0,1:2|0:0,0:0:0:0:
235,301,175730,1,8,2:2:0:0:
415,383,175886,2,0,P|464:364|516:356,1,101.999996887207,8|0,2:2|1:1,0:0:0:0:
367,306,176199,1,0,1:1:0:0:
496,123,176355,2,0,P|522:181|504:225,1,101.999996887207,8|0,2:2|1:1,0:0:0:0:
414,42,176668,5,8,2:2:0:0:
414,42,176746,1,0,0:0:0:0:
414,42,176824,2,0,L|407:106,1,50.9999984436036,8|8,2:2|2:2,0:0:0:0:
302,252,176980,1,2,1:2:0:0:
302,252,177058,1,2,1:2:0:0:
302,252,177136,2,0,L|295:188,1,50.9999984436036,10|2,2:2|1:2,0:0:0:0:
181,7,177293,5,10,2:2:0:0:
145,0,177371,1,8,2:2:0:0:
110,5,177449,1,10,2:2:0:0:
80,25,177527,1,8,2:2:0:0:
62,55,177605,1,8,2:2:0:0:
35,77,177683,1,8,2:2:0:0:
2,84,177761,6,0,P|75:49|140:101,1,152.999995330811,4|0,1:2|0:0,0:0:0:0:
153,113,178074,1,2,1:2:0:0:
57,298,178230,2,0,P|71:244|72:191,1,101.999996887207,10|0,2:2|1:1,0:0:0:0:
252,12,178543,2,0,P|254:62|267:111,1,101.999996887207,2|0,2:2|1:1,0:0:0:0:
407,267,178855,1,8,2:2:0:0:
479,35,179011,1,2,2:2:0:0:
336,176,179168,6,0,P|296:206|236:199,1,101.999996887207,0|0,1:1|1:1,0:0:0:0:
363,0,179480,1,8,2:2:0:0:
409,103,179636,2,0,P|449:133|509:126,1,101.999996887207,0|2,1:1|2:2,0:0:0:0:
479,35,179949,1,0,1:1:0:0:
336,176,180105,2,0,P|334:226|321:275,1,101.999996887207,10|2,2:2|2:2,0:0:0:0:
63,352,180418,6,0,B|33:371|33:371|15:306|78:273,1,152.999995330811,0|0,1:1|0:0,0:0:0:0:
107,262,180730,1,10,2:2:0:0:
321,173,180886,6,0,B|355:174|355:174|331:236|261:227,1,152.999995330811,0|0,1:1|0:0,0:0:0:0:
235,217,181198,1,10,2:2:0:0:
7,164,181355,6,0,B|-21:142|-21:142|34:105|86:154,1,152.999995330811,0|0,1:1|0:0,0:0:0:0:
106,178,181667,1,10,2:2:0:0:
258,354,181824,6,0,B|266:386|266:386|200:383|187:313,1,152.999995330811,0|0,1:1|0:0,0:0:0:0:
185,286,182136,1,8,2:2:0:0:
183,153,182293,5,10,2:2:0:0:
107,264,182449,1,2,1:2:0:0:
235,217,182605,1,0,1:1:0:0:
106,178,182761,1,10,2:2:0:0:
106,178,182839,1,8,2:2:0:0:
106,178,182918,1,4,1:2:0:0:
235,217,183230,5,0,1:1:0:0:
107,264,183386,1,0,0:0:0:0:
183,153,183543,2,0,P|189:114|183:70,1,68,2|0,1:2|3:3,0:0:0:0:
185,286,183855,2,0,P|202:320|232:352,1,68,10|0,2:2|3:3,0:0:0:0:
93,175,184168,5,2,1:2:0:0:
235,217,184324,1,0,3:3:0:0:
0,306,184480,1,2,1:2:0:0:
183,73,184636,1,2,3:2:0:0:
229,352,184793,1,0,1:1:0:0:
17,216,184949,2,0,L|-4:169,1,42.5,2|8,3:2|2:2,0:0:0:0:
258,242,185105,5,8,2:2:0:0:
298,254,185183,1,8,2:2:0:0:
340,261,185261,1,10,2:2:0:0:
382,263,185339,1,8,2:2:0:0:
425,259,185418,2,0,B|417:307|417:307|396:330|396:330|384:385,1,136,10|0,2:2|0:0,0:0:0:0:
512,0,186043,5,8,2:2:0:0:
314,79,186199,2,0,B|282:126|317:164|317:164|308:138|314:121,1,127.5,8|0,1:1|0:0,0:0:0:0:
231,46,186511,2,0,B|193:30|152:35|152:35|134:20|119:4|119:4|75:10|36:-1,1,203.999993774414,4|0,1:2|0:0,0:0:0:0:
96,181,186980,5,0,3:3:0:0:
95,165,187058,1,0,3:3:0:0:
94,149,187136,1,0,3:3:0:0:
92,134,187214,1,0,3:3:0:0:
91,119,187293,2,0,L|88:89,1,25.4999992218018,0|0,3:3|3:3,0:0:0:0:
180,168,187449,1,0,3:3:0:0:
189,169,187527,1,0,3:3:0:0:
198,172,187605,1,0,1:1:0:0:
0,384,187918,6,0,P|34:360|67:353,2,68,4|2|2,3:2|2:2|2:2,0:0:0:0:
108,281,188386,1,2,3:2:0:0:
322,384,188699,6,0,P|284:366|261:341,2,68
178,341,189167,1,0,3:3:0:0:
265,347,189324,6,0,B|261:310|261:310|263:300|263:300|261:269,2,68,0|0|0,0:0|0:0|3:3,0:0:0:0:
111,213,189793,2,0,B|107:250|107:250|109:260|109:260|107:291,2,68,2|0|2,2:2|0:0|2:2,0:0:0:0:
26,269,190261,1,0,0:0:0:0:
201,217,190418,6,0,B|217:202|217:202|221:171,2,45.3333333333333,2|2|2,3:2|0:0|0:0,0:0:0:0:
154,116,190730,6,0,B|149:94|149:94|124:75,2,45.3333333333333,2|2|2,2:2|0:0|0:0,0:0:0:0:
43,70,191043,6,0,B|22:63|22:63|-6:75,2,45.3333333333333,2|2|2,2:2|0:0|0:0,0:0:0:0:
105,6,191355,6,0,B|143:-1|143:-1|181:22,1,68,2|2,2:2|2:2,0:0:0:0:
114,213,191668,1,8,2:2:0:0:
256,0,191824,1,0,3:3:0:0:
26,269,192136,5,0,3:3:0:0:
374,384,192449,5,4,1:2:0:0:
197,167,192761,5,2,2:2:0:0:
197,167,192918,2,0,P|219:190|226:218,1,50.9999984436036,8|2,1:1|2:2,0:0:0:0:
306,334,193230,2,0,P|301:302|312:275,1,50.9999984436036,2|2,2:2|2:2,0:0:0:0:
329,173,193543,2,0,P|313:201|289:216,1,50.9999984436036,2|2,2:2|2:2,0:0:0:0:
183,297,193855,2,0,P|211:283|240:285,1,50.9999984436036,2|2,2:2|2:2,0:0:0:0:
512,384,194168,5,4,1:2:0:0:
383,252,194324,5,0,3:3:0:0:
383,252,194402,1,0,3:3:0:0:
383,252,194480,2,0,L|389:206,1,25.4999992218018,0|0,3:3|3:3,0:0:0:0:
512,165,194636,1,0,3:3:0:0:
512,165,194714,1,0,3:3:0:0:
512,165,194793,2,0,L|506:119,1,25.4999992218018,0|0,3:3|3:3,0:0:0:0:
404,0,194949,1,0,3:3:0:0:
404,0,195027,1,0,3:3:0:0:
404,0,195106,2,0,L|410:46,1,25.4999992218018,8|0,2:2|1:1,0:0:0:0:
330,168,195261,5,0,1:1:0:0:
330,168,195339,1,0,1:1:0:0:
330,168,195418,2,0,B|301:180|263:179|263:179|252:193|237:207|237:207|202:206|171:222,1,170,14|0,2:2|0:0,0:0:0:0:
