osu file format v14

[General]
AudioFilename: audio.ogg
AudioLeadIn: 0
PreviewTime: 156897
Countdown: 0
SampleSet: Soft
StackLeniency: 0.5
Mode: 0
LetterboxInBreaks: 0
WidescreenStoryboard: 1

[Editor]
Bookmarks: 35413,45413,109163,124163
DistanceSpacing: 1.4
BeatDivisor: 4
GridSize: 16
TimelineZoom: 1.7

[Metadata]
Title:Hana ni Natte
TitleUnicode:花になって
Artist:Ryokuoushoku Shakai
ArtistUnicode:緑黄色社会
Creator:SupaV
Version:Chef & SupaV's Normal
Source:薬屋のひとりごと
Tags:nakazawa hinsvar leominexd leomine the cosmic chef the_cosmic_chef Kusuriya no Hitorigoto The Apothecary Diaries maomao 猫猫 anime first opening op japanese jpop j-pop pop j-rock rock リョクシャカ ryokushaka 穴見真吾 shingo anami 小林壱誓 kobayashi issei 川口圭太 keita kawaguchi 長屋晴子 nagaya haruko be a flower female vocals vocalist
BeatmapID:4370985
BeatmapSetID:2085236

[Difficulty]
HPDrainRate:3
CircleSize:3.2
OverallDifficulty:4
ApproachRate:5.6
SliderMultiplier:1.02
SliderTickRate:1

[Events]
//Background and Video events
0,0,"among us.jpg",0,0
//Break Periods
2,35618,44308
2,80618,81808
2,109368,123058
2,188118,189308
//Storyboard Layer 0 (Background)
//Storyboard Layer 1 (Fail)
//Storyboard Layer 2 (Pass)
//Storyboard Layer 3 (Foreground)
//Storyboard Layer 4 (Overlay)
//Storyboard Sound Samples

[TimingPoints]
418,312.5,4,2,2,55,1,0
418,-111.111111111111,4,2,2,55,0,0
4168,-111.111111111111,4,2,1,70,0,0
5418,-100,4,2,1,80,0,0
15418,-111.111111111111,4,2,2,60,0,0
24324,-111.111111111111,4,2,1,60,0,0
24636,-111.111111111111,4,2,2,60,0,0
24793,-111.111111111111,4,2,1,60,0,0
25418,-100,4,2,1,70,0,0
32918,-100,4,2,1,78,0,0
34168,-100,4,2,1,70,0,0
35418,-100,4,2,2,60,0,0
44793,-100,4,2,1,60,0,0
45418,-100,4,2,1,65,0,0
55418,-100,4,2,1,70,0,0
59480,-100,4,2,1,50,0,0
60105,-90.9090909090909,4,2,1,70,0,0
60261,-90.9090909090909,4,2,1,85,0,0
77918,-100,4,2,1,70,0,0
79011,-100,4,2,1,75,0,0
80418,-100,4,2,2,60,0,0
84168,-100,4,2,1,60,0,0
85418,-100,4,2,1,75,0,0
94168,-100,4,2,1,45,0,0
95418,-100,4,2,1,70,0,0
102918,-100,4,2,1,78,0,0
104168,-100,4,2,1,70,0,0
105418,-100,4,2,1,78,0,0
106668,-111.111111111111,4,2,1,65,0,0
124168,-100,4,2,2,75,0,0
126668,-100,4,2,1,50,0,0
130418,-111.111111111111,4,2,1,65,0,0
140418,-100,4,2,1,65,0,0
150418,-100,4,2,1,70,0,0
155418,-100,4,2,1,78,0,0
156980,-100,4,2,1,50,0,0
158230,-90.9090909090909,4,2,1,85,0,0
185418,-100,4,2,1,70,0,0
186511,-100,4,2,1,75,0,0
187918,-111.111111111111,4,2,2,60,0,0
191668,-111.111111111111,4,2,1,60,0,0
192918,-111.111111111111,4,2,1,50,0,0
194168,-111.111111111111,4,2,1,75,0,0
195418,-111.111111111111,4,2,1,70,0,0
195730,-111.111111111111,4,2,1,5,0,0

[Colours]
Combo1 : 87,19,215
Combo2 : 133,228,135
Combo3 : 183,142,244
Combo4 : 128,152,71

[HitObjects]
217,91,418,6,0,P|274:127|345:106,1,137.69999579773,0|0,3:3|3:3,0:0:0:0:
420,51,1199,2,0,L|410:0,2,45.8999985992432,8|0|8,2:3|0:0|2:3,0:0:0:0:
460,81,1668,2,0,L|446:221,1,137.69999579773,0|0,3:3|3:3,0:0:0:0:
509,296,2449,1,8,2:3:0:0:
449,377,2761,1,8,2:3:0:0:
449,377,2918,2,0,P|384:336|318:357,1,137.69999579773,0|0,3:3|3:3,0:0:0:0:
231,321,3699,2,0,L|168:331,2,45.8999985992432,8|0|8,2:3|0:0|2:3,0:0:0:0:
265,284,4168,5,8,2:2:0:0:
265,284,4324,1,10,2:2:0:0:
330,207,4636,1,2,3:2:0:0:
263,130,4949,2,0,P|255:87|244:30,1,91.7999971984864,8|0,1:1|0:0,0:0:0:0:
206,6,5418,6,0,P|150:3|107:35,1,102,4|8,1:2|2:2,0:0:0:0:
74,60,5886,2,0,P|82:105|94:172,1,102,2|0,1:2|1:1,0:0:0:0:
71,207,6355,1,10,2:2:0:0:
146,275,6668,2,0,P|202:278|245:246,1,102,0|8,1:1|2:2,0:0:0:0:
326,200,7293,1,2,2:2:0:0:
394,275,7605,1,10,2:2:0:0:
485,229,7918,6,0,P|493:178|503:128,1,102,2|10,1:2|2:2,0:0:0:0:
511,78,8386,2,0,P|468:48|409:63,1,102,2|0,1:2|1:1,0:0:0:0:
373,73,8855,2,0,P|323:78|283:49,1,102,10|0,2:2|1:1,0:0:0:0:
193,0,9480,1,10,2:2:0:0:
117,69,9793,1,2,2:2:0:0:
179,149,10105,2,0,P|174:179|170:214,1,51,10|2,2:2|2:2,0:0:0:0:
141,240,10418,6,0,P|154:289|164:344,1,102,2|8,1:2|2:2,0:0:0:0:
127,375,10886,2,0,P|77:380|37:351,1,102,2|0,1:2|1:1,0:0:0:0:
0,315,11355,2,0,P|8:267|21:206,1,102,10|0,2:2|1:1,0:0:0:0:
2,113,11980,1,10,2:2:0:0:
61,29,12293,1,2,2:2:0:0:
155,67,12605,2,0,L|210:58,1,51,10|2,2:2|2:2,0:0:0:0:
249,32,12918,6,0,P|300:41|368:51,1,102,2|8,1:2|2:2,0:0:0:0:
394,24,13386,1,2,1:2:0:0:
486,78,13699,1,2,1:2:0:0:
486,78,13855,2,0,L|495:145,1,51,10|2,2:2|2:2,0:0:0:0:
509,177,14168,1,12,2:2:0:0:
438,250,14480,1,8,2:2:0:0:
438,250,14636,2,0,P|394:224|335:239,1,102,10|0,2:2|0:0,0:0:0:0:
300,255,15105,1,10,2:2:0:0:
223,197,15418,5,4,3:2:0:0:
223,197,15574,2,0,P|231:148|240:96,1,91.7999971984864,2|2,2:2|3:2,0:0:0:0:
227,56,16043,1,2,2:2:0:0:
145,6,16355,1,2,2:2:0:0:
145,6,16511,2,0,P|95:1|62:30,1,91.7999971984864,2|2,2:2|2:2,0:0:0:0:
1,104,17136,1,2,3:2:0:0:
1,104,17293,2,0,P|7:151|16:210,1,91.7999971984864,2|2,2:2|2:2,0:0:0:0:
0,295,17918,6,0,P|45:283|96:310,1,91.7999971984864,2|2,3:2|2:2,0:0:0:0:
124,331,18386,2,0,P|191:369|259:342,1,137.69999579773,2|2,3:2|2:2,0:0:0:0:
330,298,19168,1,2,3:2:0:0:
290,211,19480,1,2,2:2:0:0:
290,211,19636,2,0,P|295:169|305:68,1,137.69999579773,2|2,3:2|3:2,0:0:0:0:
379,6,20418,5,0,3:3:0:0:
379,6,20574,2,0,P|424:-2|476:29,1,91.7999971984864,2|2,2:2|3:2,0:0:0:0:
498,55,21043,1,2,2:2:0:0:
447,143,21355,1,2,2:2:0:0:
447,143,21511,1,2,2:2:0:0:
504,226,21824,2,0,P|496:271|487:329,1,91.7999971984864,2|2,2:2|3:2,0:0:0:0:
456,355,22293,1,2,2:2:0:0:
366,307,22605,1,2,2:2:0:0:
286,370,22918,6,0,P|241:374|202:352,1,91.7999971984864,2|2,3:2|2:2,0:0:0:0:
170,313,23386,2,0,P|178:266|194:171,1,137.69999579773,2|2,3:2|2:2,0:0:0:0:
241,88,24168,1,2,3:2:0:0:
169,26,24480,1,2,2:2:0:0:
169,26,24636,2,0,P|127:31|58:39,1,91.7999971984864,2|0,3:2|1:1,0:0:0:0:
32,60,25105,1,8,2:2:0:0:
4,161,25418,5,4,1:2:0:0:
4,161,25574,2,0,P|65:189|113:172,1,102,2|2,1:2|1:2,0:0:0:0:
143,160,26043,1,2,2:2:0:0:
223,231,26355,1,10,2:2:0:0:
223,231,26511,2,0,P|216:274|208:340,1,102,2|2,2:2|1:2,0:0:0:0:
118,379,27136,1,2,1:2:0:0:
118,379,27293,1,2,3:2:0:0:
30,327,27605,1,10,2:2:0:0:
67,231,27918,6,0,P|60:180|52:130,1,102,2|10,1:2|2:2,0:0:0:0:
57,79,28386,2,0,P|97:51|158:59,1,102,2|0,1:2|1:1,0:0:0:0:
193,78,28855,1,8,2:2:0:0:
271,12,29168,1,2,1:2:0:0:
371,49,29480,1,10,2:2:0:0:
371,49,29636,2,0,P|423:41|472:72,1,102,2|0,1:2|1:1,0:0:0:0:
494,105,30105,1,8,2:2:0:0:
443,195,30418,5,0,1:1:0:0:
443,195,30574,2,0,P|392:201|342:209,1,102,2|2,2:2|1:2,0:0:0:0:
298,181,31043,1,2,2:2:0:0:
209,227,31355,1,10,2:2:0:0:
209,227,31511,2,0,P|184:270|191:327,1,102,2|2,2:2|1:2,0:0:0:0:
223,357,31980,2,0,L|278:367,1,51,12|2,2:2|1:2,0:0:0:0:
322,381,32293,1,2,1:2:0:0:
409,329,32605,2,0,L|465:336,1,51,10|8,2:2|2:2,0:0:0:0:
503,308,32918,6,0,P|518:250|487:207,1,102,12|2,2:2|3:2,0:0:0:0:
456,186,33386,1,2,1:2:0:0:
359,220,33699,2,0,L|248:205,1,102,14|0,2:2|0:0,0:0:0:0:
209,189,34168,2,0,P|194:148|223:84,2,102,4|0|0,1:2|0:0|0:0,0:0:0:0:
146,269,35105,2,0,L|95:276,1,51,0|0,1:1|3:3,0:0:0:0:
46,260,35418,1,0,3:0:0:0:
256,192,45418,5,4,1:2:0:0:
342,139,45730,2,0,L|454:153,1,102,2|2,2:2|2:2,0:0:0:0:
511,228,46355,1,10,2:2:0:0:
439,301,46668,2,0,P|397:326|337:311,1,102,2|2,1:2|2:2,0:0:0:0:
302,291,47136,2,0,P|253:283|209:311,1,102,2|0,1:2|1:1,0:0:0:0:
172,344,47605,1,10,2:2:0:0:
76,308,47918,6,0,L|62:199,1,102,0|2,1:1|2:2,0:0:0:0:
2,124,48543,1,2,2:2:0:0:
66,45,48855,1,10,2:2:0:0:
159,85,49168,2,0,P|195:66|258:77,1,102,10|2,2:2|1:2,0:0:0:0:
292,107,49636,2,0,P|344:121|396:98,1,102,10|0,2:2|1:1,0:0:0:0:
436,90,50105,1,2,1:2:0:0:
506,163,50418,5,8,2:2:0:0:
506,163,52918,5,8,2:2:0:0:
506,163,53074,1,8,1:1:0:0:
290,36,53855,5,8,2:2:0:0:
290,36,54011,1,8,1:1:0:0:
87,191,54793,5,8,2:2:0:0:
87,191,54949,1,8,1:1:0:0:
170,319,55418,5,4,1:2:0:0:
263,279,55730,2,0,P|312:268|368:300,1,102,2|10,2:2|2:2,0:0:0:0:
392,333,56199,1,2,2:2:0:0:
392,333,56355,1,2,2:2:0:0:
480,282,56668,2,0,L|495:170,1,102,2|2,2:2|1:2,0:0:0:0:
511,133,57136,1,2,2:2:0:0:
451,50,57449,2,0,L|330:62,1,102,2|0,2:2|0:0,0:0:0:0:
304,35,57918,5,2,1:2:0:0:
236,111,58230,1,0,3:3:0:0:
291,196,58543,2,0,L|281:254,1,51,0|0,3:3|3:3,0:0:0:0:
314,285,58855,2,0,L|304:343,1,51,0|0,3:3|3:3,0:0:0:0:
328,380,59168,1,8,1:1:0:0:
24,384,60105,5,8,2:2:0:0:
24,384,60261,2,0,P|-14:304|22:232,1,168.300005136109,4|10,1:2|2:2,0:0:0:0:
62,202,60886,1,0,1:1:0:0:
62,202,61043,2,0,L|186:213,1,112.200003424072,2|10,2:2|2:2,0:0:0:0:
269,153,61668,2,0,P|292:86|260:39,1,112.200003424072,0|8,1:1|2:2,0:0:0:0:
178,6,62293,1,2,2:2:0:0:
178,6,62449,2,0,L|112:-2,1,56.1000017120362,2|8,1:2|2:2,0:0:0:0:
66,0,62761,6,0,P|32:63|61:105,1,112.200003424072,2|2,2:2|2:2,0:0:0:0:
79,140,63230,1,10,2:2:0:0:
13,231,63543,1,2,1:2:0:0:
83,317,63855,1,10,2:2:0:0:
190,284,64168,2,0,L|314:302,1,112.200003424072,2|10,1:2|2:2,0:0:0:0:
359,292,64636,1,2,1:2:0:0:
359,292,64793,2,0,P|389:239|359:181,1,112.200003424072,10|0,2:2|1:1,0:0:0:0:
342,147,65261,6,0,L|328:30,1,112.200003424072,4|0,1:2|1:1,0:0:0:0:
377,6,65730,2,0,P|403:-3|446:5,1,56.1000017120362,8|2,2:2|1:2,0:0:0:0:
476,32,66043,1,2,0:0:0:0:
511,143,66355,1,10,2:2:0:0:
511,143,66511,2,0,L|497:254,1,112.200003424072,2|2,2:2|1:2,0:0:0:0:
476,364,67136,2,0,L|362:375,1,112.200003424072,2|2,1:2|1:2,0:0:0:0:
312,382,67605,1,8,2:2:0:0:
312,382,67761,6,0,B|285:335|285:335|305:270,1,112.200003424072,2|2,2:2|2:2,0:0:0:0:
339,238,68230,2,0,L|322:171,1,56.1000017120362,10|10,2:2|2:2,0:0:0:0:
311,128,68543,1,2,1:2:0:0:
260,28,68855,1,10,2:2:0:0:
150,53,69168,6,0,P|103:25|40:44,1,112.200003424072,14|10,2:2|2:2,0:0:0:0:
2,72,69636,1,2,3:2:0:0:
2,72,69793,2,0,L|14:130,1,56.1000017120362,10|2,2:2|3:2,0:0:0:0:
47,170,70105,1,0,1:1:0:0:
47,170,70261,6,0,L|24:285,1,112.200003424072,4|2,1:2|1:2,0:0:0:0:
6,333,70730,1,10,2:2:0:0:
107,382,71043,2,0,L|168:374,1,56.1000017120362,2|0,2:2|1:1,0:0:0:0:
196,330,71355,2,0,L|255:344,1,56.1000017120362,10|2,2:2|2:2,0:0:0:0:
304,327,71668,2,0,P|332:286|312:219,1,112.200003424072,0|8,1:1|2:2,0:0:0:0:
258,133,72293,2,0,P|250:72|288:25,1,112.200003424072,2|10,2:2|2:2,0:0:0:0:
324,1,72761,6,0,L|441:16,1,112.200003424072,2|2,2:2|2:2,0:0:0:0:
487,36,73230,2,0,P|496:72|485:100,1,56.1000017120362,10|0,2:2|1:1,0:0:0:0:
474,145,73543,1,2,2:2:0:0:
474,145,73699,2,0,P|453:210|474:259,1,112.200003424072,10|2,2:2|2:2,0:0:0:0:
507,287,74168,1,10,2:2:0:0:
449,383,74480,2,0,L|382:378,1,56.1000017120362,2|8,2:2|2:2,0:0:0:0:
340,381,74793,1,10,2:2:0:0:
340,381,74949,2,0,P|319:343|342:269,1,112.200003424072,2|10,1:2|2:2,0:0:0:0:
350,224,75418,6,0,L|338:112,1,112.200003424072,4|0,1:2|1:1,0:0:0:0:
271,21,76043,1,2,1:2:0:0:
175,80,76355,1,2,1:2:0:0:
240,171,76668,1,10,2:2:0:0:
155,244,76980,1,10,2:2:0:0:
155,244,77136,2,0,P|91:208|50:222,1,112.200003424072,10|10,2:2|2:2,0:0:0:0:
11,249,77605,2,0,L|22:321,1,56.1000017120362,8|10,2:2|2:2,0:0:0:0:
1,352,77918,1,10,2:2:0:0:
206,384,78543,5,8,2:2:0:0:
206,384,78699,1,8,1:1:0:0:
275,309,79011,2,0,L|247:140,1,153,4|0,1:2|3:3,0:0:0:0:
245,55,79793,1,0,3:3:0:0:
331,1,80105,1,0,1:1:0:0:
404,71,80418,5,4,3:2:0:0:
404,71,82918,6,0,L|427:175,1,102,2|2,3:2|2:2,0:0:0:0:
461,214,83386,1,2,3:2:0:0:
461,214,83543,2,0,L|446:280,1,51,2|2,2:2|2:2,0:0:0:0:
461,313,83855,1,2,2:2:0:0:
378,371,84168,1,8,2:2:0:0:
378,371,84324,2,0,P|333:381|276:349,1,102,8|0,2:2|3:3,0:0:0:0:
243,327,84793,1,0,3:3:0:0:
291,237,85105,1,2,2:2:0:0:
222,161,85418,6,0,P|191:90|212:52,1,102,4|8,1:2|2:2,0:0:0:0:
220,25,85886,1,2,1:2:0:0:
323,5,86199,1,0,1:1:0:0:
323,5,86355,2,0,L|435:31,1,102,10|0,2:2|1:1,0:0:0:0:
468,49,86824,1,2,1:2:0:0:
509,147,87136,1,0,1:1:0:0:
509,147,87293,2,0,P|424:186|404:175,1,102,2|8,3:2|2:2,0:0:0:0:
374,180,87761,6,0,L|273:195,1,102,2|0,2:2|0:0,0:0:0:0:
233,228,88230,1,10,2:2:0:0:
144,188,88543,1,0,3:3:0:0:
144,188,88699,2,0,B|124:134|124:134|161:82,1,102,2|0,1:2|0:0,0:0:0:0:
159,47,89168,2,0,L|259:32,1,102,2|8,1:2|2:2,0:0:0:0:
303,5,89636,1,2,1:2:0:0:
376,83,89949,1,0,1:1:0:0:
376,83,90105,2,0,P|400:129|380:181,1,102,10|4,2:2|1:2,0:0:0:0:
354,214,90574,6,0,P|332:251|345:319,1,102,2|0,2:2|1:1,0:0:0:0:
362,352,91043,1,2,3:2:0:0:
466,337,91355,1,8,2:2:0:0:
466,337,91511,2,0,L|484:234,1,102,2|2,2:2|1:2,0:0:0:0:
508,137,92136,2,0,B|460:115|460:115|409:130,1,102,2|2,1:2|1:2,0:0:0:0:
367,152,92605,2,0,L|316:142,1,51,10|2,2:2|2:2,0:0:0:0:
271,118,92918,5,2,1:2:0:0:
182,165,93230,1,10,2:2:0:0:
182,165,93386,2,0,P|114:176|80:141,1,102,2|2,1:2|1:2,0:0:0:0:
46,135,93855,1,10,2:2:0:0:
46,135,94011,2,0,L|36:78,1,51,8|2,1:1|2:2,0:0:0:0:
253,0,95418,5,4,1:2:0:0:
253,0,95574,2,0,P|281:61|264:109,1,102,2|2,2:2|2:2,0:0:0:0:
241,132,96043,1,2,1:2:0:0:
202,228,96355,1,10,2:2:0:0:
202,228,96511,2,0,P|209:271|217:337,1,102,2|2,2:2|2:2,0:0:0:0:
308,384,97136,1,2,2:2:0:0:
308,384,97293,1,2,1:2:0:0:
385,317,97605,1,10,2:2:0:0:
340,225,97918,6,0,P|333:174|325:124,1,102,2|10,1:2|2:2,0:0:0:0:
327,73,98386,2,0,P|367:45|428:53,1,102,2|0,2:2|0:0,0:0:0:0:
468,55,98855,1,8,2:2:0:0:
510,147,99168,1,2,1:2:0:0:
479,246,99480,1,10,2:2:0:0:
479,246,99636,2,0,P|434:269|385:260,1,102,2|2,2:2|2:2,0:0:0:0:
341,233,100105,1,10,2:2:0:0:
260,295,100418,6,0,L|149:307,1,102,4|10,1:2|2:2,0:0:0:0:
112,320,100886,1,2,2:2:0:0:
112,320,101043,2,0,B|83:273|83:273|99:210,1,102,2|10,1:2|2:2,0:0:0:0:
119,183,101511,2,0,B|144:136|144:136|131:88,1,102,2|2,2:2|1:2,0:0:0:0:
143,39,101980,1,12,2:2:0:0:
238,2,102293,1,2,1:2:0:0:
303,79,102605,1,10,2:2:0:0:
394,32,102918,6,0,P|443:10|496:28,1,102,12|2,2:2|1:2,0:0:0:0:
511,67,103386,2,0,L|493:180,1,102,10|14,2:2|2:2,0:0:0:0:
509,320,104168,2,0,B|336:275|401:380|202:337,1,306,4|0,1:2|3:3,0:0:0:0:
128,279,105418,6,0,L|142:195,2,68,8|4|4,2:2|1:2|1:2,0:0:0:0:
71,317,106043,6,0,L|85:401,2,68,12|4|4,2:2|1:2|1:2,0:0:0:0:
15,290,106668,6,0,P|29:209|56:16,1,275.399991595459,4|0,1:2|0:0,0:0:0:0:
147,27,107918,2,0,P|218:35|279:-19,2,137.69999579773,6|2|2,2:2|2:2|2:2,0:0:0:0:
85,95,109168,1,4,1:2:0:0:
33,0,124168,6,0,P|8:46|22:103,1,102,4|0,3:2|3:3,0:0:0:0:
93,159,124793,1,0,3:3:0:0:
173,96,125105,1,0,3:3:0:0:
256,154,125418,2,0,P|260:189|267:247,2,76.5,2|2|2,3:2|2:2|2:2,0:0:0:0:
300,128,126043,2,0,P|304:93|311:35,2,76.5,2|2|2,3:2|2:2|2:2,0:0:0:0:
340,158,126668,1,4,1:2:0:0:
256,192,126824,12,2,129168,2:2:0:0:
457,196,130418,6,0,P|492:257|465:322,1,137.69999579773,4|0,1:2|1:1,0:0:0:0:
394,381,131199,1,2,2:2:0:0:
394,381,131355,2,0,P|349:373|294:365,1,91.7999971984864,2|2,2:2|2:2,0:0:0:0:
219,320,131980,1,2,2:2:0:0:
219,320,132136,2,0,P|174:328|119:336,1,91.7999971984864,2|0,1:2|0:0,0:0:0:0:
82,357,132605,1,2,1:2:0:0:
13,282,132918,6,0,P|-11:213|27:146,1,137.69999579773,4|0,1:2|1:1,0:0:0:0:
5,60,133699,1,10,2:2:0:0:
5,60,133855,2,0,P|52:52|114:43,1,91.7999971984864,2|2,1:2|2:2,0:0:0:0:
189,4,134480,1,2,2:2:0:0:
189,4,134636,2,0,P|212:43|199:100,1,91.7999971984864,2|0,1:2|0:0,0:0:0:0:
182,132,135105,1,2,2:2:0:0:
238,215,135418,6,0,P|306:222|376:240,1,137.69999579773,4|0,1:2|1:1,0:0:0:0:
460,289,136199,2,0,L|468:345,2,45.8999985992432,2|2|2,2:2|2:2|1:2,0:0:0:0:
498,255,136668,2,0,P|520:215|503:160,1,91.7999971984864,2|2,2:2|2:2,0:0:0:0:
478,132,137136,1,2,1:2:0:0:
422,47,137449,2,0,P|369:41|316:35,1,91.7999971984864,2|0,2:2|0:0,0:0:0:0:
282,20,137918,6,0,P|256:55|264:117,1,91.7999971984864,4|2,1:2|2:2,0:0:0:0:
273,149,138386,1,2,1:2:0:0:
214,232,138699,1,10,2:2:0:0:
214,232,138855,2,0,P|222:277|235:374,1,137.69999579773,2|0,1:2|1:1,0:0:0:0:
334,382,139636,1,0,1:1:0:0:
383,293,139949,2,0,P|376:247|368:202,1,91.7999971984864,0|8,1:1|2:2,0:0:0:0:
395,159,140418,5,4,1:2:0:0:
491,192,140730,2,0,P|518:235|508:292,1,102,2|2,2:2|2:2,0:0:0:0:
456,369,141355,1,10,2:2:0:0:
368,317,141668,2,0,P|322:323|258:332,1,102,2|2,1:2|2:2,0:0:0:0:
228,363,142136,2,0,P|182:356|118:348,1,102,2|0,1:2|1:1,0:0:0:0:
79,328,142605,1,10,2:2:0:0:
16,247,142918,6,0,P|-6:207|10:140,1,102,4|2,1:2|2:2,0:0:0:0:
62,70,143543,1,2,2:2:0:0:
151,119,143855,1,10,2:2:0:0:
223,47,144168,2,0,P|275:39|330:35,1,102,10|2,2:2|2:2,0:0:0:0:
363,3,144636,2,0,P|421:10|483:22,1,102,10|0,2:2|1:1,0:0:0:0:
506,47,145105,2,0,L|513:106,1,51,2|0,1:2|1:1,0:0:0:0:
490,144,145418,5,8,2:2:0:0:
490,144,147918,5,8,2:2:0:0:
490,144,148074,1,8,1:1:0:0:
255,238,148855,5,8,2:2:0:0:
255,238,149011,1,8,1:1:0:0:
107,36,149793,5,8,2:2:0:0:
107,36,149949,1,8,1:1:0:0:
1,147,150418,5,4,1:2:0:0:
64,226,150730,2,0,P|55:275|47:341,1,102,2|10,2:2|2:2,0:0:0:0:
78,374,151199,1,2,2:2:0:0:
78,374,151355,1,2,2:2:0:0:
173,336,151668,2,0,P|224:325|272:347,1,102,2|2,2:2|1:2,0:0:0:0:
309,374,152136,1,2,2:2:0:0:
394,318,152449,2,0,P|386:268|375:201,1,102,2|0,2:2|0:0,0:0:0:0:
347,175,152918,6,0,B|238:144|265:237|141:206,1,204,4|8,1:2|2:2,0:0:0:0:
71,159,153855,1,10,2:2:0:0:
71,159,154011,2,0,P|43:112|58:58,1,102,0|2,1:1|1:2,0:0:0:0:
81,26,154480,1,0,1:1:0:0:
180,50,154793,2,0,P|229:43|286:34,1,102,10|2,2:2|2:2,0:0:0:0:
325,10,155261,1,2,2:2:0:0:
325,10,155418,5,0,1:1:0:0:
398,80,155730,1,0,1:1:0:0:
347,169,156043,2,0,L|340:230,1,51,0|2,1:1|3:2,0:0:0:0:
302,252,156355,2,0,L|312:312,1,51,0|2,1:1|3:2,0:0:0:0:
346,338,156668,1,8,1:1:0:0:
511,192,158230,5,12,2:2:0:0:
444,101,158543,1,12,2:2:0:0:
344,152,158855,1,8,2:2:0:0:
274,63,159168,2,0,P|228:38|164:53,1,112.200003424072,12|8,2:2|2:2,0:0:0:0:
93,129,159793,1,10,2:2:0:0:
93,129,159949,2,0,L|103:192,1,56.1000017120362,2|0,3:2|3:3,0:0:0:0:
135,229,160261,6,0,L|118:358,1,112.200003424072,0|2,1:1|2:2,0:0:0:0:
158,381,160730,2,0,L|222:370,1,56.1000017120362,10|10,2:2|2:2,0:0:0:0:
268,382,161043,1,2,1:2:0:0:
336,292,161355,1,10,2:2:0:0:
276,196,161668,2,0,P|247:155|254:95,1,112.200003424072,2|10,1:2|2:2,0:0:0:0:
281,49,162136,1,2,1:2:0:0:
281,49,162293,2,0,P|340:41|407:32,1,112.200003424072,10|0,2:2|1:1,0:0:0:0:
439,3,162761,6,0,P|509:63|490:147,1,168.300005136109,4|8,1:2|2:2,0:0:0:0:
449,232,163543,1,0,0:0:0:0:
345,205,163855,1,10,2:2:0:0:
345,205,164011,2,0,P|290:213|212:223,1,112.200003424072,2|2,2:2|1:2,0:0:0:0:
127,184,164636,1,2,1:2:0:0:
47,263,164949,1,2,1:2:0:0:
128,339,165261,6,0,P|177:330|244:372,1,112.200003424072,2|2,2:2|2:2,0:0:0:0:
281,382,165730,2,0,L|341:374,1,56.1000017120362,10|10,2:2|2:2,0:0:0:0:
392,383,166043,1,2,1:2:0:0:
457,292,166355,1,10,2:2:0:0:
385,205,166668,2,0,P|333:175|279:191,1,112.200003424072,10|10,2:2|2:2,0:0:0:0:
247,228,167136,1,2,3:2:0:0:
247,228,167293,2,0,P|195:258|141:242,1,112.200003424072,2|0,1:2|3:3,0:0:0:0:
93,228,167761,6,0,P|80:156|57:57,1,168.300005136109,4|10,1:2|2:2,0:0:0:0:
99,24,168386,1,0,1:1:0:0:
99,24,168543,2,0,P|147:-3|221:24,1,112.200003424072,2|8,2:2|2:2,0:0:0:0:
313,2,169168,2,0,P|305:61|295:124,1,112.200003424072,0|8,1:1|2:2,0:0:0:0:
234,206,169793,2,0,P|244:265|255:329,1,112.200003424072,2|10,2:2|2:2,0:0:0:0:
285,361,170261,1,2,2:2:0:0:
389,315,170574,5,2,2:2:0:0:
389,315,170730,2,0,P|449:326|504:290,1,112.200003424072,10|2,2:2|2:2,0:0:0:0:
511,250,171199,2,0,P|501:194|492:139,1,112.200003424072,10|2,2:2|2:2,0:0:0:0:
506,84,171668,1,10,2:2:0:0:
428,3,171980,1,2,2:2:0:0:
327,48,172293,1,10,2:2:0:0:
327,48,172449,2,0,P|265:39|193:29,1,112.200003424072,2|10,1:2|2:2,0:0:0:0:
168,1,172918,6,0,P|106:10|34:20,1,112.200003424072,4|8,1:2|2:2,0:0:0:0:
1,114,173543,1,2,2:2:0:0:
68,203,173855,1,10,2:2:0:0:
173,165,174168,2,0,P|220:153|275:188,1,112.200003424072,2|10,1:2|2:2,0:0:0:0:
303,230,174636,1,2,1:2:0:0:
254,331,174949,2,0,P|200:338|131:351,1,112.200003424072,2|2,1:2|2:2,0:0:0:0:
95,379,175418,6,0,P|64:347|67:278,1,112.200003424072,2|8,1:2|2:2,0:0:0:0:
94,235,175886,1,8,2:2:0:0:
18,159,176199,1,0,1:1:0:0:
18,159,176355,2,0,P|9:106|-1:47,1,112.200003424072,8|8,2:2|2:2,0:0:0:0:
104,9,176980,2,0,P|156:-1|208:31,1,112.200003424072,2|10,1:2|2:2,0:0:0:0:
248,63,177449,2,0,L|239:125,1,56.1000017120362,10|8,2:2|2:2,0:0:0:0:
204,161,177761,6,0,P|213:216|231:330,1,168.300005136109,4|10,1:2|2:2,0:0:0:0:
274,371,178386,1,0,1:1:0:0:
274,371,178543,2,0,P|331:376|383:331,1,112.200003424072,2|8,2:2|2:2,0:0:0:0:
482,314,179168,2,0,P|490:261|502:188,1,112.200003424072,0|8,1:1|2:2,0:0:0:0:
510,91,179793,2,0,P|459:63|403:76,1,112.200003424072,2|10,2:2|2:2,0:0:0:0:
366,110,180261,1,2,2:2:0:0:
267,66,180574,5,2,2:2:0:0:
267,66,180730,2,0,P|258:124|248:194,1,112.200003424072,10|2,2:2|2:2,0:0:0:0:
217,222,181199,2,0,P|226:280|236:350,1,112.200003424072,10|2,2:2|2:2,0:0:0:0:
265,379,181668,1,10,2:2:0:0:
371,344,181980,2,0,L|437:352,1,56.1000017120362,2|8,2:2|2:2,0:0:0:0:
480,381,182293,1,10,2:2:0:0:
480,381,182449,2,0,P|511:335|493:272,1,112.200003424072,2|10,1:2|2:2,0:0:0:0:
507,226,182918,6,0,P|451:218|395:210,1,112.200003424072,4|0,1:2|1:1,0:0:0:0:
299,268,183543,1,2,1:2:0:0:
218,190,183855,1,10,2:2:0:0:
265,88,184168,1,2,1:2:0:0:
182,21,184480,1,2,1:2:0:0:
182,21,184636,2,0,P|118:6|71:40,1,112.200003424072,2|2,3:2|3:2,0:0:0:0:
33,59,185105,2,0,L|44:131,1,56.1000017120362,8|10,2:2|2:2,0:0:0:0:
12,156,185418,1,10,2:2:0:0:
136,324,186043,5,8,2:2:0:0:
136,324,186199,1,8,1:1:0:0:
218,264,186511,2,0,P|226:196|241:101,1,153,4|0,1:2|3:3,0:0:0:0:
294,26,187293,1,0,3:3:0:0:
375,86,187605,1,0,1:1:0:0:
449,17,187918,1,4,3:2:0:0:
449,17,190418,6,0,P|471:53|459:111,1,91.7999971984864,2|2,3:2|2:2,0:0:0:0:
441,146,190886,1,2,3:2:0:0:
441,146,191043,1,2,2:2:0:0:
345,179,191355,2,0,L|284:171,1,45.8999985992432,2|2,2:2|2:2,0:0:0:0:
253,187,191668,5,8,2:2:0:0:
253,187,191824,1,0,3:3:0:0:
184,113,192136,1,0,3:3:0:0:
97,166,192449,2,0,P|105:211|113:256,1,91.7999971984864,4|2,1:2|2:2,0:0:0:0:
146,294,192918,6,0,P|190:300|257:315,2,91.7999971984864,8|2|2,1:1|2:2|2:2,0:0:0:0:
87,375,193855,1,2,2:2:0:0:
0,323,194168,1,4,1:2:0:0:
63,244,194480,1,0,3:3:0:0:
2,162,194793,2,0,L|12:98,1,45.8999985992432,0|0,3:3|3:3,0:0:0:0:
39,78,195105,2,0,L|29:14,1,45.8999985992432,8|0,2:2|1:1,0:0:0:0:
72,1,195418,6,0,P|136:35|197:2,1,137.69999579773,14|0,2:2|0:0,0:0:0:0:
