osu file format v14

[General]
AudioFilename: audio.ogg
AudioLeadIn: 0
PreviewTime: 59435
Countdown: 0
SampleSet: Soft
StackLeniency: 0.7
Mode: 2
LetterboxInBreaks: 0
WidescreenStoryboard: 1

[Editor]
Bookmarks: 5451,25451,35451,60138,80451,95451,105451,130451,158263,187951
DistanceSpacing: 1
BeatDivisor: 4
GridSize: 8
TimelineZoom: 2.2

[Metadata]
Title:Hana ni Natte
TitleUnicode:花になって
Artist:Ryokuoushoku Shakai
ArtistUnicode:緑黄色社会
Creator:Spectator
Version:Rain
Source:薬屋のひとりごと
Tags:greaper -rustyy rustyy midorijeon Kusuriya no Hitorigoto The Apothecary Diaries be a flower japanese anime jpop j-pop pop rock jrock j-rock リョクシャカ ryokushaka 穴見真吾 shingo anami 小林壱誓 kobayashi issei 川口圭太 keita kawaguchi 長屋晴子 nagaya haruko peppe maomao 猫猫
BeatmapID:4439706
BeatmapSetID:2114336

[Difficulty]
HPDrainRate:5
CircleSize:2.7
OverallDifficulty:9
ApproachRate:9
SliderMultiplier:2
SliderTickRate:2

[Events]
//Background and Video events
0,0,"hana ni natte.png",0,0
//Break Periods
2,50613,52313
2,145613,147313
2,156863,157625
//Storyboard Layer 0 (Background)
//Storyboard Layer 1 (Fail)
//Storyboard Layer 2 (Pass)
//Storyboard Layer 3 (Foreground)
//Storyboard Layer 4 (Overlay)
//Storyboard Sound Samples

[TimingPoints]
413,312.5,4,2,1,60,1,0
4319,-100,4,2,1,70,0,0
4631,-100,4,2,1,70,0,0
4944,-100,4,2,1,70,0,0
5413,-100,4,2,1,75,0,0
15413,-100,4,2,1,60,0,0
25413,-100,4,2,1,70,0,0
35413,-100,4,2,1,60,0,0
45413,-100,4,2,1,65,0,0
50413,-100,4,2,1,70,0,0
55413,-100,4,2,1,65,0,0
57913,-100,4,2,1,70,0,0
58069,-100,4,2,1,60,0,0
58225,-100,4,2,1,70,0,0
58381,-100,4,2,1,60,0,0
58538,-100,4,2,1,70,0,0
58694,-100,4,2,1,60,0,0
58850,-100,4,2,1,70,0,0
59006,-100,4,2,1,60,0,0
59163,-100,4,2,1,70,0,0
59475,-100,4,2,1,50,0,0
59944,-100,4,2,1,75,0,0
60256,-100,4,2,1,80,0,1
70256,-100,4,2,1,80,0,1
70569,-100,4,2,1,80,0,1
75569,-100,4,2,1,45,0,1
75725,-100,4,2,1,47,0,1
75881,-100,4,2,1,50,0,1
76038,-100,4,2,1,52,0,1
76194,-100,4,2,1,54,0,1
76350,-100,4,2,1,57,0,1
76506,-100,4,2,1,59,0,1
76663,-100,4,2,1,61,0,1
76819,-100,4,2,1,64,0,1
76975,-100,4,2,1,66,0,1
77131,-100,4,2,1,68,0,1
77288,-100,4,2,1,71,0,1
77444,-100,4,2,1,73,0,1
77600,-100,4,2,1,75,0,1
77756,-100,4,2,1,78,0,1
77913,-100,4,2,1,80,0,0
80413,-100,4,2,1,60,0,0
85413,-100,4,2,1,70,0,0
94163,-100,4,2,1,50,0,0
95413,-100,4,2,1,70,0,0
109163,-100,4,2,1,60,0,0
114163,-100,4,2,1,65,0,0
124163,-100,4,2,1,70,0,0
124475,-100,4,2,1,52,0,0
124788,-100,4,2,1,55,0,0
125100,-100,4,2,1,57,0,0
125413,-100,4,2,1,60,0,0
125725,-100,4,2,1,62,0,0
126038,-100,4,2,1,65,0,0
126350,-100,4,2,1,67,0,0
126663,-100,4,2,1,70,0,0
127288,-100,4,2,1,50,0,0
127600,-100,4,2,1,53,0,0
127913,-100,4,2,1,57,0,0
128225,-100,4,2,1,60,0,0
128538,-100,4,2,1,63,0,0
128850,-100,4,2,1,67,0,0
129163,-100,4,2,1,70,0,0
129631,-100,4,2,1,62,0,0
130100,-100,4,2,1,67,0,0
130413,-100,4,2,1,60,0,0
140413,-100,4,2,1,65,0,0
145413,-100,4,2,1,70,0,0
150413,-100,4,2,1,65,0,0
155413,-100,4,2,1,70,0,0
155569,-100,4,2,1,60,0,0
155725,-100,4,2,1,70,0,0
155881,-100,4,2,1,60,0,0
156038,-100,4,2,1,70,0,0
156194,-100,4,2,1,60,0,0
156350,-100,4,2,1,70,0,0
156506,-100,4,2,1,60,0,0
156663,-100,4,2,1,70,0,0
156975,-100,4,2,1,50,0,0
158225,-100,4,2,1,75,0,1
160334,-100,4,2,1,75,0,0
160413,-100,4,2,1,80,0,1
183069,-100,4,2,1,45,0,1
183225,-100,4,2,1,47,0,1
183381,-100,4,2,1,50,0,1
183538,-100,4,2,1,52,0,1
183694,-100,4,2,1,54,0,1
183850,-100,4,2,1,57,0,1
184006,-100,4,2,1,59,0,1
184163,-100,4,2,1,61,0,1
184319,-100,4,2,1,64,0,1
184475,-100,4,2,1,66,0,1
184631,-100,4,2,1,68,0,1
184788,-100,4,2,1,71,0,1
184944,-100,4,2,1,73,0,1
185100,-100,4,2,1,75,0,1
185256,-100,4,2,1,78,0,1
185413,-100,4,2,1,80,0,0
187913,-100,4,2,1,60,0,0
192913,-100,4,2,1,70,0,0
193069,-100,4,2,1,60,0,0
193225,-100,4,2,1,65,0,0
193381,-100,4,2,1,55,0,0
193538,-100,4,2,1,60,0,0
193694,-100,4,2,1,50,0,0
193850,-100,4,2,1,55,0,0
194006,-100,4,2,1,45,0,0
194163,-100,4,2,1,70,0,0
194319,-100,4,2,1,60,0,0
194475,-100,4,2,1,65,0,0
194631,-100,4,2,1,55,0,0
194788,-100,4,2,1,60,0,0
194944,-100,4,2,1,50,0,0
195100,-100,4,2,1,55,0,0
195256,-100,4,2,1,45,0,0
195413,-100,4,2,1,70,0,1
195491,-100,4,2,1,70,0,0

[Colours]
Combo1 : 85,107,234
Combo2 : 46,175,126
Combo3 : 224,88,156

[HitObjects]
374,249,413,6,8,P|426:216|363:116,1,200,4|8,1:3|0:1,0:0:0:0:
115,136,881,1,4,1:3:0:0:
266,286,1194,2,8,L|279:63,1,200,8|8,0:1|0:1,0:0:0:0:
122,180,1663,6,8,L|19:192,2,100,4|0|8,1:3|0:0|0:1,0:0:0:0:
283,226,2131,2,8,P|271:169|140:84,1,200,4|8,1:3|0:1,0:0:0:0:
29,214,2600,2,8,L|150:200,1,100,0|8,0:0|0:1,0:0:0:0:
374,249,2913,6,8,P|426:216|363:116,1,200,4|8,1:3|0:1,0:0:0:0:
115,136,3381,1,4,1:3:0:0:
116,237,3694,1,8,0:1:0:0:
256,201,3850,1,0,0:0:0:0:
397,163,4006,1,8,0:1:0:0:
141,138,4163,5,10,1:2:0:0:
409,223,4319,2,8,L|417:342,1,100,10|0,1:2|0:0,0:0:0:0:
263,294,4631,2,8,L|141:296,1,100,6|0,1:3|0:0,0:0:0:0:
403,199,4944,2,8,P|452:176|388:77,1,200,14|0,1:2|0:0,0:0:0:0:
149,318,5413,6,8,L|132:109,1,200,6|8,1:1|0:0,0:0:0:0:
408,217,5881,2,8,P|396:148|258:80,1,200,2|0,1:2|1:2,0:0:0:0:
145,100,6350,2,8,L|130:211,1,100,10|2,0:0|0:0,0:0:0:0:
280,210,6663,6,8,L|154:211,1,100,0|2,1:2|1:2,0:0:0:0:
449,268,6975,2,8,P|432:188|317:130,1,200,10|2,0:0|0:0,0:0:0:0:
336,35,7444,1,2,1:2:0:0:
189,81,7600,1,10,0:0:0:0:
336,35,7756,1,2,0:0:0:0:
59,267,7913,6,8,L|269:232,1,200,2|8,1:2|0:0,0:0:0:0:
400,112,8381,2,8,L|202:144,1,200,2|0,1:2|1:2,0:0:0:0:
350,157,8850,2,8,L|358:292,1,100,10|2,0:0|0:0,0:0:0:0:
206,301,9163,6,8,L|340:313,1,100,0|2,1:2|1:2,0:0:0:0:
48,296,9475,2,8,P|69:211|193:137,1,200,10|2,0:0|0:0,0:0:0:0:
317,128,9944,1,2,1:2:0:0:
154,143,10100,2,8,L|33:144,1,100,10|2,0:0|0:0,0:0:0:0:
309,340,10413,6,8,P|369:313|414:151,1,200,2|8,1:2|0:0,0:0:0:0:
285,204,10881,2,8,L|276:94,1,100,2|0,1:2|0:0,0:0:0:0:
415,103,11194,1,0,1:2:0:0:
271,191,11350,2,8,L|140:194,1,100,10|2,0:0|0:0,0:0:0:0:
303,282,11663,6,8,L|422:280,1,100,0|2,1:2|1:2,0:0:0:0:
139,331,11975,2,8,P|68:304|20:185,1,200,10|2,0:0|0:0,0:0:0:0:
168,160,12444,1,2,1:2:0:0:
319,67,12600,2,8,L|219:77,1,100,10|2,0:0|0:0,0:0:0:0:
468,98,12913,6,8,L|478:306,1,200,2|8,1:2|0:0,0:0:0:0:
341,379,13381,2,8,L|331:179,1,200,2|2,1:2|1:2,0:0:0:0:
179,235,13850,2,8,L|36:226,1,100,10|2,0:0|0:0,0:0:0:0:
377,252,14163,5,8,1:2:0:0:
427,218,14241,1,8,0:0:0:0:
445,156,14319,1,10,0:0:0:0:
425,92,14397,1,8,0:0:0:0:
369,66,14475,1,8,1:2:0:0:
222,150,14631,1,10,0:0:0:0:
157,145,14709,1,8,0:0:0:0:
312,86,14866,1,8,0:0:0:0:
373,92,14944,1,8,0:0:0:0:
220,240,15100,2,8,L|85:255,1,100,10|4,0:0|0:3,0:0:0:0:
187,285,15334,1,4,0:3:0:0:
432,335,15413,6,8,L|443:117,1,200,4|10,1:2|0:1,0:0:0:0:
316,97,15881,1,6,1:3:0:0:
69,200,16194,2,8,L|179:184,2,100,8|2|10,0:1|0:0|0:1,0:0:0:0:
304,264,16663,6,8,P|360:224|296:136,1,200,4|8,1:3|0:1,0:0:0:0:
169,114,17131,1,6,1:3:0:0:
306,267,17288,2,8,L|315:155,1,100,2|8,0:0|0:1,0:0:0:0:
179,187,17600,2,8,L|282:181,1,100,2|8,0:0|0:1,0:0:0:0:
45,255,17913,6,8,P|54:182|177:115,1,200,6|10,1:3|0:1,0:0:0:0:
292,256,18381,2,8,P|269:161|184:115,1,200,6|10,1:3|0:1,0:0:0:0:
42,112,18850,1,0,0:0:0:0:
320,308,19006,1,10,0:1:0:0:
436,291,19163,6,8,L|449:83,1,200,6|10,1:3|0:1,0:0:0:0:
317,213,19631,2,8,L|304:5,1,200,6|10,1:3|0:1,0:0:0:0:
155,89,20100,2,8,L|25:85,1,100,6|0,1:3|0:0,0:0:0:0:
288,285,20413,5,6,1:3:0:0:
414,248,20569,2,8,L|422:126,1,100,2|10,0:0|0:1,0:0:0:0:
294,111,20881,1,6,1:3:0:0:
134,198,21038,2,8,L|372:166,1,200,0|2,0:0|0:0,0:0:0:0:
51,250,21506,6,8,P|65:181|202:124,1,200,10|2,0:1|0:0,0:0:0:0:
316,46,21975,2,8,L|211:38,1,100,0|6,0:0|1:3,0:0:0:0:
361,128,22288,2,8,L|489:120,1,100,2|8,0:0|0:1,0:0:0:0:
338,225,22600,2,8,L|466:217,1,100,2|8,0:0|0:1,0:0:0:0:
198,328,22913,6,8,P|134:284|209:210,1,200,6|10,1:3|0:1,0:0:0:0:
343,214,23381,2,8,L|111:170,1,200,6|10,1:3|0:1,0:0:0:0:
291,108,23850,2,8,L|296:227,1,100,2|10,0:0|0:1,0:0:0:0:
172,262,24163,5,6,1:3:0:0:
445,321,24319,2,8,L|459:107,1,200,0|6,1:2|1:3,0:0:0:0:
313,155,24788,2,8,L|426:152,1,100,0|2,0:0|1:2,0:0:0:0:
281,63,25100,2,8,L|211:63,1,50,10|8,0:0|0:0,0:0:0:0:
310,144,25256,2,8,L|377:143,1,50,8|8,0:0|0:0,0:0:0:0:
195,258,25413,6,8,L|80:257,1,100,6|2,1:1|0:0,0:0:0:0:
226,163,25725,2,8,L|99:162,1,100,10|2,0:0|1:2,0:0:0:0:
428,64,26038,2,8,L|441:195,1,100,2|0,0:0|0:0,0:0:0:0:
321,230,26350,2,8,L|432:231,1,100,10|2,0:0|0:0,0:0:0:0:
179,298,26663,5,0,0:0:0:0:
72,271,26819,2,8,P|82:204|223:138,1,200,2|2,1:2|1:2,0:0:0:0:
449,66,27288,1,2,1:2:0:0:
452,130,27366,1,8,0:0:0:0:
455,194,27444,1,0,1:2:0:0:
337,200,27600,2,8,L|442:215,1,100,10|0,0:0|0:0,0:0:0:0:
182,257,27913,6,8,P|103:241|57:118,1,200,2|10,1:2|0:0,0:0:0:0:
176,53,28381,2,8,L|187:169,1,100,2|0,1:2|1:2,0:0:0:0:
67,163,28694,1,2,1:2:0:0:
190,218,28850,2,8,L|57:218,1,100,10|0,0:0|1:2,0:0:0:0:
326,118,29163,5,2,1:2:0:0:
453,117,29319,1,0,1:2:0:0:
326,118,29475,1,10,0:0:0:0:
186,117,29631,1,2,1:2:0:0:
337,203,29787,1,2,1:2:0:0:
343,268,29866,1,8,0:0:0:0:
350,332,29944,1,2,1:2:0:0:
196,315,30100,2,8,L|87:317,1,100,10|0,0:0|0:0,0:0:0:0:
389,262,30413,6,8,L|405:160,1,100,2|2,1:2|0:0,0:0:0:0:
281,89,30725,2,8,L|386:89,1,100,10|2,0:0|1:2,0:0:0:0:
242,182,31038,2,8,L|166:184,2,50,2|8|0,1:2|0:0|1:2,0:0:0:0:
393,180,31350,1,10,0:0:0:0:
151,323,31506,6,8,P|164:255|302:198,1,200,2|2,0:0|1:2,0:0:0:0:
134,136,31975,2,8,L|18:135,1,100,8|2,0:0|1:2,0:0:0:0:
199,313,32288,1,6,0:3:0:0:
184,249,32366,1,4,0:3:0:0:
145,196,32444,1,0,1:2:0:0:
86,168,32522,1,0,1:2:0:0:
239,151,32600,2,8,L|254:77,1,50,10|8,0:0|0:0,0:0:0:0:
165,79,32756,2,8,L|178:12,1,50,8|8,0:0|0:0,0:0:0:0:
353,219,32913,6,8,P|429:199|486:77,1,200,2|2,1:2|1:2,0:0:0:0:
348,73,33381,1,6,0:3:0:0:
205,116,33538,1,0,0:0:0:0:
363,75,33694,2,8,L|371:295,1,200,14|0,1:2|0:0,0:0:0:0:
120,306,34163,5,6,1:1:0:0:
245,272,34319,1,2,0:0:0:0:
104,300,34475,2,8,L|98:175,1,100,2|2,0:0|0:0,0:0:0:0:
242,171,34788,1,2,0:0:0:0:
102,152,34944,1,2,0:0:0:0:
243,135,35100,2,8,L|368:112,1,100,0|2,0:0|0:0,0:0:0:0:
277,106,35334,1,2,0:0:0:0:
103,344,35413,6,8,L|86:122,1,200,6|2,0:3|0:0,0:0:0:0:
230,101,35881,2,8,L|220:221,1,100,6|0,0:3|0:0,0:0:0:0:
104,258,36194,1,6,0:3:0:0:
225,298,36350,2,8,L|100:312,1,100,6|0,0:3|0:0,0:0:0:0:
384,336,36663,2,0,P|430:291|360:192,1,200,2|0,0:0|0:0,0:0:0:0:
242,203,37131,2,0,P|252:140|452:22,1,300,2|2,0:0|0:0,0:0:0:0:
170,311,37913,6,8,P|108:268|186:188,1,200,6|2,0:3|0:0,0:0:0:0:
312,144,38381,1,6,0:3:0:0:
164,136,38538,2,8,L|37:121,1,100,2|0,0:0|0:0,0:0:0:0:
164,136,38850,2,8,L|37:121,1,100,6|0,0:3|0:0,0:0:0:0:
296,304,39163,6,8,P|360:248|272:176,1,200,2|2,0:0|0:0,0:0:0:0:
144,205,39631,2,8,L|378:165,1,200,2|0,0:0|0:0,0:0:0:0:
182,106,40100,2,8,L|69:91,1,100,2|0,0:0|0:0,0:0:0:0:
339,328,40413,6,8,P|324:257|200:209,1,200,6|2,0:3|0:0,0:0:0:0:
213,100,40881,1,6,0:3:0:0:
347,81,41038,2,8,L|240:78,1,100,2|4,0:0|0:3,0:0:0:0:
363,174,41350,2,8,L|499:177,1,100,6|0,0:3|0:0,0:0:0:0:
222,349,41663,6,8,P|166:309|234:218,1,200,2|2,0:0|0:0,0:0:0:0:
338,239,42131,1,2,0:0:0:0:
332,117,42444,2,8,L|110:85,1,200,2|0,0:0|0:0,0:0:0:0:
394,298,42913,6,8,P|449:258|384:163,1,200,6|2,0:3|0:0,0:0:0:0:
271,162,43381,2,8,L|480:117,1,200,6|6,0:3|0:3,0:0:0:0:
466,119,43850,1,6,0:3:0:0:
200,317,44006,6,8,L|196:206,1,100,2|2,0:0|0:0,0:0:0:0:
326,203,44319,2,8,L|322:92,1,100,2|0,0:0|0:0,0:0:0:0:
191,79,44631,1,2,0:0:0:0:
454,314,44788,1,8,0:3:0:0:
444,249,44866,1,8,0:3:0:0:
408,194,44944,1,10,0:3:0:0:
346,174,45022,1,8,0:3:0:0:
191,134,45100,2,8,L|102:131,1,50,8|8,0:3|0:3,0:0:0:0:
208,223,45256,2,8,L|282:228,1,50,10|8,0:3|0:3,0:0:0:0:
435,349,45413,6,8,L|445:142,1,200,6|2,1:1|0:0,0:0:0:0:
344,66,45881,1,0,1:2:0:0:
207,168,46038,2,8,L|334:160,1,100,2|0,0:0|0:0,0:0:0:0:
42,102,46350,1,10,0:0:0:0:
42,102,46663,5,2,1:2:0:0:
195,166,46819,2,8,L|206:384,1,200,8|2,0:0|1:2,0:0:0:0:
354,274,47288,2,8,L|475:276,1,100,0|0,0:0|1:2,0:0:0:0:
212,288,47600,2,8,P|159:256|224:155,1,200,10|2,0:0|1:2,0:0:0:0:
457,76,48225,6,8,L|462:202,1,100,2|0,0:0|1:2,0:0:0:0:
216,261,48538,2,8,P|125:234|98:126,1,200,2|10,0:0|1:2,0:0:0:0:
196,96,49006,1,0,0:0:0:0:
314,35,49163,5,10,1:2:0:0:
58,188,49319,1,0,0:0:0:0:
51,132,49397,1,8,0:0:0:0:
231,225,49631,2,8,P|216:155|87:88,1,200,10|0,1:2|1:2,0:0:0:0:
240,57,50100,2,8,L|120:47,1,100,10|0,0:3|1:2,0:0:0:0:
448,56,50413,1,10,0:0:0:0:
441,91,52913,5,10,0:0:0:0:
142,153,53069,1,2,1:2:0:0:
71,91,53850,5,10,0:0:0:0:
370,153,54006,1,2,1:2:0:0:
441,91,54788,5,10,0:0:0:0:
142,153,54944,1,2,1:2:0:0:
368,272,55413,6,8,P|431:252|492:131,1,200,6|2,1:1|0:0,0:0:0:0:
399,95,55881,1,2,1:2:0:0:
259,156,56038,2,8,L|368:146,1,100,10|2,0:0|0:0,0:0:0:0:
211,255,56350,2,8,L|76:246,1,100,2|2,0:0|1:2,0:0:0:0:
402,237,56663,6,8,L|485:226,2,66.6666666666667,2|2|2,0:0|0:0|0:0,0:0:0:0:
315,237,56975,1,2,1:2:0:0:
401,245,57079,1,2,0:0:0:0:
487,253,57183,1,2,0:0:0:0:
272,118,57288,2,8,L|205:126,2,66.6666666666667,10|0|0,0:0|0:0|0:0,0:0:0:0:
468,61,57600,2,8,L|478:153,1,66.6666666666667,2|0,0:0|0:0,0:0:0:0:
389,135,57808,1,0,0:0:0:0:
187,258,57913,5,10,1:3:0:0:
123,243,57991,1,8,0:3:0:0:
123,243,58069,1,4,0:3:0:0:
187,258,58147,1,4,0:3:0:0:
345,109,58225,1,8,1:3:0:0:
409,94,58303,1,8,0:3:0:0:
409,94,58381,1,6,0:3:0:0:
345,109,58459,1,4,0:3:0:0:
188,93,58538,5,8,1:3:0:0:
124,78,58616,1,8,0:3:0:0:
124,78,58694,1,4,0:3:0:0:
188,93,58772,1,4,0:3:0:0:
341,291,58850,2,8,L|342:209,1,50,10|8,1:3|0:3,0:0:0:0:
169,221,59006,2,8,L|101:223,1,50,4|4,0:3|0:3,0:0:0:0:
330,150,59163,1,10,1:2:0:0:
448,176,60100,5,8,0:0:0:0:
218,278,60256,2,8,P|162:243|228:154,1,200,6|2,1:1|1:2,0:0:0:0:
338,123,60725,1,10,0:0:0:0:
219,88,60881,1,0,1:2:0:0:
474,95,61038,1,2,0:0:0:0:
356,57,61194,1,0,1:2:0:0:
103,266,61350,1,10,0:0:0:0:
221,228,61506,1,0,0:0:0:0:
464,176,61663,6,8,L|472:296,1,100,2|0,1:2|1:2,0:0:0:0:
406,265,61897,1,0,0:0:0:0:
341,255,61975,1,10,0:0:0:0:
472,188,62131,1,0,1:2:0:0:
210,123,62288,2,8,L|331:111,2,100,2|2|8,0:0|1:2|0:0,0:0:0:0:
71,67,62756,1,0,0:0:0:0:
328,73,62913,6,8,L|334:181,1,100,4|2,1:2|0:0,0:0:0:0:
215,154,63225,2,8,L|221:262,1,100,10|10,0:0|0:0,0:0:0:0:
477,142,63538,2,8,L|483:250,1,100,2|0,0:0|1:2,0:0:0:0:
364,223,63850,2,8,L|370:331,1,100,10|0,0:0|0:0,0:0:0:0:
135,120,64163,6,8,L|129:228,1,100,2|0,1:2|1:2,0:0:0:0:
248,201,64475,2,8,L|242:309,1,100,10|2,0:0|1:2,0:0:0:0:
136,341,64788,2,8,L|203:342,1,50,10|8,0:0|0:0,0:0:0:0:
377,261,64944,1,10,0:0:0:0:
404,202,65022,1,0,0:0:0:0:
375,143,65100,1,0,1:2:0:0:
311,129,65178,1,0,0:0:0:0:
140,216,65256,6,8,P|77:180|163:115,1,200,6|2,1:1|1:2,0:0:0:0:
271,88,65725,2,8,L|166:74,1,100,10|0,0:0|1:2,0:0:0:0:
428,217,66038,2,8,L|431:107,1,100,2|2,0:0|1:2,0:0:0:0:
323,93,66350,1,10,0:0:0:0:
87,283,66506,6,8,L|77:167,1,100,2|0,0:0|1:2,0:0:0:0:
326,154,66819,2,8,L|205:143,1,100,2|8,1:2|0:0,0:0:0:0:
460,240,67131,2,8,P|443:174|323:103,1,200,2|2,1:2|1:2,0:0:0:0:
214,94,67600,1,0,0:0:0:0:
444,77,67756,6,8,L|463:284,1,200,2|2,0:0|0:0,0:0:0:0:
348,253,68225,1,10,0:0:0:0:
466,275,68381,1,10,0:0:0:0:
231,326,68538,2,8,P|151:311|103:189,1,200,2|10,0:0|0:0,0:0:0:0:
203,169,69006,1,0,0:0:0:0:
428,82,69163,6,8,L|489:86,2,50,10|8|8,1:2|0:0|0:0,0:0:0:0:
309,186,69475,1,10,1:3:0:0:
363,178,69553,1,0,0:0:0:0:
417,170,69631,1,10,0:0:0:0:
161,278,69788,1,10,1:2:0:0:
113,251,69866,1,0,0:0:0:0:
93,199,69944,1,10,0:3:0:0:
110,146,70022,1,0,0:0:0:0:
158,120,70100,1,4,1:3:0:0:
392,303,70256,6,8,P|448:268|382:179,1,200,6|0,1:1|0:0,0:0:0:0:
272,148,70725,1,10,0:0:0:0:
391,113,70881,1,0,1:2:0:0:
114,122,71038,1,2,0:0:0:0:
232,84,71194,1,0,1:2:0:0:
485,293,71350,1,10,0:0:0:0:
367,255,71506,1,0,0:0:0:0:
128,341,71663,2,8,L|123:220,1,100,2|0,1:2|1:2,0:0:0:0:
247,242,71975,1,10,0:0:0:0:
119,218,72131,1,0,1:2:0:0:
387,214,72288,6,8,P|448:188|374:110,1,200,2|10,0:0|0:0,0:0:0:0:
265,179,72756,2,8,P|326:153|252:75,1,200,2|2,0:0|0:0,0:0:0:0:
118,284,73225,6,8,P|57:258|131:180,1,200,10|2,0:0|0:0,0:0:0:0:
240,249,73693,2,8,P|179:223|253:145,1,200,10|2,0:0|0:0,0:0:0:0:
465,93,74163,6,8,L|475:218,1,100,10|0,0:0|0:0,0:0:0:0:
359,207,74475,2,8,L|470:216,1,100,2|8,0:0|0:0,0:0:0:0:
184,273,74788,5,10,0:0:0:0:
130,283,74866,1,0,0:0:0:0:
76,294,74944,1,2,1:2:0:0:
184,177,75100,2,8,L|52:165,1,100,0|10,1:2|0:0,0:0:0:0:
139,169,75334,1,8,0:0:0:0:
308,251,75413,6,8,P|367:212|298:129,1,200,6|8,1:1|1:2,0:0:0:0:
186,100,75881,1,8,0:0:0:0:
453,56,76038,2,8,L|460:180,1,100,10|8,1:2|0:0,0:0:0:0:
338,160,76350,2,8,L|470:172,1,100,10|8,1:2|0:0,0:0:0:0:
175,213,76663,5,10,1:2:0:0:
48,252,76819,1,8,0:0:0:0:
175,213,76975,1,10,1:2:0:0:
300,176,77131,1,10,0:0:0:0:
175,213,77288,1,8,1:2:0:0:
436,296,77444,2,8,L|449:217,1,50,10|8,0:0|0:0,0:0:0:0:
281,123,77600,2,8,L|210:123,1,50,8|8,1:2|0:0,0:0:0:0:
231,123,77756,2,8,L|325:122,1,50,10|8,0:0|0:0,0:0:0:0:
476,120,77913,1,10,1:2:0:0:
425,249,78538,5,10,0:0:0:0:
110,250,78694,1,2,1:2:0:0:
302,322,79006,6,8,P|350:277|286:167,1,200,6|0,1:1|0:0,0:0:0:0:
154,188,79475,1,8,0:3:0:0:
162,133,79553,1,8,0:3:0:0:
192,87,79631,1,4,0:3:0:0:
244,72,79709,1,4,0:3:0:0:
422,125,79788,2,8,L|491:124,1,50,8|8,0:3|0:3,0:0:0:0:
471,124,79944,2,8,L|421:124,1,50,4|4,0:3|0:3,0:0:0:0:
246,184,80100,1,8,0:3:0:0:
72,328,80413,6,8,L|64:120,1,200,6|10,1:1|0:1,0:0:0:0:
211,179,80881,2,8,P|270:142|201:63,1,200,6|10,1:3|0:1,0:0:0:0:
72,164,81350,2,8,L|182:165,1,100,0|8,0:0|0:1,0:0:0:0:
464,275,81663,5,6,1:3:0:0:
448,166,81819,1,0,0:0:0:0:
380,79,81975,1,10,0:1:0:0:
274,49,82131,1,6,1:3:0:0:
399,93,82288,2,8,P|444:143|389:257,1,200,2|2,0:0|0:0,0:0:0:0:
159,213,82913,6,8,L|57:204,1,100,6|0,1:3|0:0,0:0:0:0:
174,180,83225,2,8,L|45:170,1,100,10|6,0:1|1:3,0:0:0:0:
300,98,83538,2,8,L|197:89,1,100,0|10,0:0|0:1,0:0:0:0:
321,188,83850,2,8,L|442:200,1,100,2|10,0:0|0:1,0:0:0:0:
431,299,84163,5,10,1:2:0:0:
128,341,84319,2,8,P|75:302|143:203,1,200,10|6,1:2|1:3,0:0:0:0:
257,207,84788,2,8,L|263:97,1,100,2|12,0:0|1:2,0:0:0:0:
392,40,85100,2,8,L|398:189,1,150,2|0,0:0|0:0,0:0:0:0:
173,164,85413,6,8,L|74:167,1,100,6|2,1:1|0:0,0:0:0:0:
68,66,85725,1,10,0:0:0:0:
220,249,85881,2,8,L|319:252,1,100,2|0,1:2|0:0,0:0:0:0:
325,151,86193,1,2,1:2:0:0:
173,164,86350,6,8,L|74:167,1,100,10|2,0:0|0:0,0:0:0:0:
68,66,86662,1,0,1:2:0:0:
344,210,86819,2,8,L|230:200,1,100,2|10,1:2|0:0,0:0:0:0:
111,272,87131,1,2,1:2:0:0:
243,203,87288,6,8,L|250:94,1,100,2|2,1:2|1:2,0:0:0:0:
390,145,87600,2,8,L|397:36,1,100,10|2,0:0|0:0,0:0:0:0:
155,145,87913,2,8,L|40:154,1,100,2|2,1:2|0:0,0:0:0:0:
339,164,88225,6,8,L|438:167,1,100,10|2,0:0|1:2,0:0:0:0:
444,66,88537,1,0,1:2:0:0:
292,249,88693,2,8,L|193:252,1,100,2|10,1:2|0:0,0:0:0:0:
187,151,89005,1,2,1:2:0:0:
438,167,89163,6,8,L|339:164,2,100,0|0|10,1:2|0:0|0:0,0:0:0:0:
200,336,89631,2,8,L|192:208,1,100,2|2,1:2|1:2,0:0:0:0:
249,230,89866,1,8,0:0:0:0:
303,224,89944,1,2,1:2:0:0:
443,154,90100,6,8,L|323:141,2,100,10|10|6,0:0|0:0|1:1,0:0:0:0:
194,204,90569,2,8,P|136:168|208:77,1,200,2|2,0:0|1:2,0:0:0:0:
339,164,91038,6,8,L|438:167,1,100,0|2,1:2|1:2,0:0:0:0:
444,66,91350,1,10,0:0:0:0:
302,220,91506,2,8,L|203:223,1,100,2|0,0:0|1:2,0:0:0:0:
451,118,91819,6,8,L|462:326,1,200,2|2,1:2|1:2,0:0:0:0:
351,309,92288,2,8,L|451:323,1,100,2|2,1:2|1:2,0:0:0:0:
220,343,92600,2,8,P|154:292|242:227,1,200,10|2,0:0|1:2,0:0:0:0:
352,183,93069,5,2,1:2:0:0:
355,96,93225,1,10,0:0:0:0:
99,317,93381,2,8,L|86:100,1,200,2|2,1:2|1:2,0:0:0:0:
212,89,93850,2,8,L|94:85,1,100,10|2,0:0|1:2,0:0:0:0:
411,48,94163,5,2,0:0:0:0:
256,192,94319,12,0,95256,0:0:0:0:
243,148,95413,6,0,L|358:138,1,100,6|2,1:1|0:0,0:0:0:0:
459,69,95725,2,0,L|356:56,1,100,10|2,1:2|0:0,0:0:0:0:
242,252,96038,2,0,L|357:237,1,100,2|0,1:2|0:0,0:0:0:0:
211,162,96350,2,0,L|79:149,1,100,10|2,1:2|0:0,0:0:0:0:
346,246,96663,5,0,0:0:0:0:
464,174,96819,2,0,L|474:389,1,200,2|2,0:0|0:0,0:0:0:0:
351,346,97288,2,0,L|465:358,1,100,2|0,1:2|0:0,0:0:0:0:
324,257,97600,2,0,L|182:269,1,100,10|0,1:2|0:0,0:0:0:0:
476,171,97913,6,8,P|439:260|346:287,1,200,2|10,1:2|1:2,0:0:0:0:
214,191,98381,2,8,L|203:307,1,100,2|2,0:0|1:2,0:0:0:0:
335,288,98694,1,2,0:0:0:0:
199,345,98850,2,8,L|332:345,1,100,8|2,1:2|0:0,0:0:0:0:
52,157,99163,5,2,1:2:0:0:
179,156,99319,1,2,0:0:0:0:
326,118,99475,1,10,1:2:0:0:
186,117,99631,1,2,0:0:0:0:
337,203,99787,1,2,1:2:0:0:
343,268,99866,1,0,0:0:0:0:
350,332,99944,1,2,0:0:0:0:
196,315,100100,2,8,L|87:317,1,100,10|0,1:2|0:0,0:0:0:0:
402,80,100413,6,0,L|414:188,1,100,6|2,1:1|0:0,0:0:0:0:
285,217,100725,2,0,L|168:216,1,100,10|2,1:2|0:0,0:0:0:0:
327,308,101038,2,0,L|460:310,2,100,2|0|10,1:2|0:0|1:2,0:0:0:0:
65,278,101506,6,0,P|83:209|216:154,1,200,2|2,0:0|1:2,0:0:0:0:
71,153,101975,2,0,L|63:35,1,100,8|2,0:0|1:2,0:0:0:0:
339,224,102288,1,10,0:3:0:0:
324,171,102366,1,8,0:3:0:0:
283,134,102444,1,0,1:2:0:0:
232,112,102522,1,0,1:2:0:0:
77,291,102600,2,0,L|74:206,1,50,10|8,0:0|0:0,0:0:0:0:
241,265,102756,2,0,L|310:265,1,50,8|8,0:0|0:0,0:0:0:0:
125,186,102913,6,0,P|77:157|144:46,1,200,10|2,0:0|1:2,0:0:0:0:
235,48,103381,1,10,0:0:0:0:
115,44,103538,1,2,0:0:0:0:
349,189,103694,2,0,P|418:173|480:58,1,200,14|0,1:2|0:0,0:0:0:0:
225,356,104163,6,0,L|219:168,1,133.333333333333,6|8,1:1|0:0,0:0:0:0:
325,168,104475,2,0,L|441:183,2,66.6666666666667,8|8|8,0:0|0:0|0:0,0:0:0:0:
133,71,104788,2,0,L|17:86,2,66.6666666666667,8|8|8,0:0|0:0|0:3,0:0:0:0:
232,51,105100,2,0,L|237:128,1,66.6666666666667,8|8,0:3|0:3,0:0:0:0:
141,131,105308,1,0,1:2:0:0:
346,114,105413,6,0,L|492:137,2,133.333333333333,14|2|2,0:0|1:2|1:2,0:0:0:0:
166,114,106038,2,0,L|20:137,2,133.333333333333,14|2|2,0:0|1:2|1:2,0:0:0:0:
466,164,106663,5,6,1:1:0:0:
256,192,106819,12,2,108850,0:0:0:0:
262,135,109163,5,6,1:1:0:0:
256,192,109319,12,2,111350,3:2:0:0:
239,314,111663,6,0,P|186:260|257:159,1,200,6|2,1:2|0:0,0:0:0:0:
338,133,112131,1,2,0:0:0:0:
196,98,112288,2,0,L|83:115,1,100,2|2,0:0|0:0,0:0:0:0:
98,221,112600,2,0,L|228:204,1,100,0|0,0:0|0:0,0:0:0:0:
474,291,112913,6,0,P|468:233|276:97,2,300,2|2|2,1:2|0:0|0:0,0:0:0:0:
88,264,114163,6,0,P|27:232|102:155,1,200,6|0,1:1|0:0,0:0:0:0:
246,120,114631,2,0,L|33:63,2,200,10|6|0,0:3|0:3|1:2,0:0:0:0:
131,251,115413,6,0,P|61:216|152:55,1,300,10|10,0:3|0:3,0:0:0:0:
270,114,116038,2,0,L|278:64,2,50,2|0|8,0:0|0:0|0:3,0:0:0:0:
141,51,116350,1,6,0:3:0:0:
369,108,116663,6,0,P|450:147|359:290,1,300,6|8,1:2|1:3,0:0:0:0:
226,92,117288,2,0,L|124:90,1,100,10|0,0:0|0:0,0:0:0:0:
236,80,117600,2,0,L|114:78,1,100,0|8,0:0|0:0,0:0:0:0:
297,231,117913,6,0,L|396:232,1,100,10|8,0:3|0:0,0:0:0:0:
252,180,118225,2,0,L|153:179,1,100,0|10,0:0|1:3,0:0:0:0:
289,248,118538,2,0,P|349:233|279:157,1,200,8|2,0:0|0:0,0:0:0:0:
420,133,119006,1,0,0:0:0:0:
154,206,119163,6,0,P|95:189|165:25,1,300,6|8,1:1|1:3,0:0:0:0:
279,82,119788,2,0,L|172:73,1,100,8|0,0:0|0:0,0:0:0:0:
315,176,120100,2,0,L|453:169,1,100,0|2,0:0|1:2,0:0:0:0:
361,158,120334,1,2,0:0:0:0:
307,143,120413,1,10,0:3:0:0:
163,282,120569,6,0,L|152:66,1,200,8|10,0:0|1:3,0:0:0:0:
302,199,121038,2,0,P|360:174|286:90,1,200,8|2,0:0|0:0,0:0:0:0:
104,187,121663,6,0,L|263:157,2,150,6|2|10,1:2|0:0|1:3,0:0:0:0:
257,235,122288,2,0,L|365:216,1,100,10|2,0:0|0:0,0:0:0:0:
214,152,122600,2,0,L|100:171,1,100,0|10,0:0|0:0,0:0:0:0:
365,312,122913,6,0,P|429:288|349:126,1,300,10|10,0:3|1:3,0:0:0:0:
223,210,123538,2,0,P|236:140|352:85,1,200,8|2,0:0|0:0,0:0:0:0:
473,84,124006,1,0,0:0:0:0:
207,232,124163,6,0,L|94:220,1,100,14|0,1:2|0:0,0:0:0:0:
349,119,124475,2,0,L|468:131,1,100,10|0,1:2|0:0,0:0:0:0:
100,104,124788,2,0,L|95:0,1,100,10|0,1:2|0:0,0:0:0:0:
359,220,125100,2,0,L|472:206,1,100,10|0,1:2|0:0,0:0:0:0:
209,302,125413,6,0,L|47:275,2,150,10|0|0,1:2|0:0|0:0,0:0:0:0:
466,171,126038,2,0,L|304:144,2,150,10|0|0,1:2|0:0|0:0,0:0:0:0:
138,87,126663,5,6,1:1:0:0:
256,192,126819,12,0,130100,0:0:0:0:
306,258,130413,6,0,P|383:240|292:109,1,300,14|2,1:2|1:2,0:0:0:0:
176,117,131038,2,0,L|167:229,1,100,8|2,0:0|0:0,0:0:0:0:
302,169,131350,2,0,L|425:168,1,100,2|0,0:0|1:2,0:0:0:0:
163,303,131663,6,0,L|63:303,1,100,2|0,0:0|1:2,0:0:0:0:
191,204,131975,2,0,L|290:203,1,100,0|2,0:0|1:2,0:0:0:0:
155,256,132288,2,0,P|91:207|167:138,1,200,8|2,0:0|1:2,0:0:0:0:
431,60,132913,6,0,L|446:290,1,200,14|0,1:2|0:0,0:0:0:0:
336,235,133381,1,2,1:2:0:0:
183,201,133538,2,0,L|291:193,1,100,8|10,0:0|0:0,0:0:0:0:
420,130,133850,2,0,L|424:263,1,100,2|2,0:0|1:2,0:0:0:0:
178,316,134163,6,0,L|57:327,1,100,2|0,0:0|1:2,0:0:0:0:
205,222,134475,2,0,L|326:211,1,100,2|2,0:0|1:2,0:0:0:0:
55,153,134788,2,0,L|162:141,1,100,10|2,0:0|0:0,0:0:0:0:
45,46,135101,2,0,L|37:155,1,100,2|0,1:2|0:0,0:0:0:0:
323,305,135413,6,0,P|296:215|100:121,1,300,14|2,1:2|1:2,0:0:0:0:
258,75,136038,2,0,L|262:188,1,100,8|10,0:0|0:0,0:0:0:0:
121,222,136350,2,0,L|16:236,1,100,2|2,0:0|1:2,0:0:0:0:
263,337,136663,6,0,L|271:206,1,100,2|0,0:0|1:2,0:0:0:0:
148,177,136975,2,0,L|272:161,2,100,2|2|8,0:0|1:2|0:0,0:0:0:0:
294,237,137444,2,0,P|351:210|278:120,1,200,2|0,0:0|0:0,0:0:0:0:
56,245,137913,6,0,L|259:217,1,200,14|2,1:2|0:0,0:0:0:0:
152,176,138381,1,2,1:2:0:0:
33,126,138538,2,0,L|161:108,1,100,8|10,0:0|0:0,0:0:0:0:
254,54,138850,2,0,L|142:43,1,100,10|2,0:0|1:2,0:0:0:0:
453,100,139163,6,0,L|464:226,1,100,2|2,0:0|1:2,0:0:0:0:
342,247,139475,2,0,L|463:251,1,100,0|2,0:0|1:2,0:0:0:0:
318,338,139788,2,0,L|200:346,1,100,8|6,0:0|0:3,0:0:0:0:
267,319,140022,1,4,0:3:0:0:
440,277,140100,1,0,1:2:0:0:
425,223,140178,1,0,1:2:0:0:
387,182,140256,1,10,0:0:0:0:
336,161,140334,1,8,0:0:0:0:
144,218,140413,6,0,P|80:174|154:98,1,200,6|2,1:1|0:0,0:0:0:0:
260,61,140881,1,0,1:2:0:0:
139,82,141038,2,0,L|129:218,1,100,0|0,0:0|0:0,0:0:0:0:
404,118,141350,1,10,0:0:0:0:
404,118,141663,5,2,1:2:0:0:
168,224,141819,2,0,P|100:211|41:92,1,200,8|2,0:0|1:2,0:0:0:0:
184,133,142288,2,0,L|288:137,1,100,0|0,0:0|1:2,0:0:0:0:
423,218,142600,2,0,L|314:227,1,100,10|0,0:0|0:0,0:0:0:0:
45,314,142913,6,0,P|62:244|194:181,1,200,6|0,1:1|0:0,0:0:0:0:
58,150,143381,1,0,1:2:0:0:
332,238,143538,2,0,P|315:168|183:105,1,200,2|10,0:0|0:0,0:0:0:0:
319,74,144006,1,0,0:0:0:0:
451,27,144163,5,10,1:2:0:0:
213,177,144319,1,0,0:0:0:0:
152,177,144397,1,8,0:0:0:0:
376,303,144631,2,0,P|361:235|238:170,1,200,10|0,1:2|1:2,0:0:0:0:
108,123,145100,2,0,L|232:122,1,100,14|0,0:3|1:2,0:0:0:0:
472,119,145413,5,10,0:0:0:0:
71,91,147913,5,10,0:0:0:0:
370,153,148069,1,2,1:2:0:0:
441,91,148850,5,10,0:0:0:0:
142,153,149006,1,2,1:2:0:0:
71,91,149788,5,10,0:0:0:0:
370,153,149944,1,2,1:2:0:0:
148,328,150413,6,0,P|64:269|174:131,1,300,6|2,1:1|1:2,0:0:0:0:
273,74,151038,2,0,L|274:202,1,100,10|2,0:0|0:0,0:0:0:0:
151,176,151350,2,0,L|31:161,1,100,2|2,0:0|1:2,0:0:0:0:
345,328,151663,5,2,0:0:0:0:
410,294,151767,1,2,0:0:0:0:
435,225,151871,1,2,0:0:0:0:
431,151,151975,1,2,1:2:0:0:
391,89,152079,1,2,0:0:0:0:
323,60,152183,1,2,0:0:0:0:
141,148,152288,2,0,L|56:141,2,66.6666666666667,10|2|2,0:0|0:0|0:0,0:0:0:0:
224,186,152600,2,0,L|309:179,2,66.6666666666667,2|2|2,0:0|0:0|0:0,0:0:0:0:
44,118,152913,5,6,1:1:0:0:
256,192,153069,12,2,155100,0:0:0:0:
456,261,155413,5,10,1:3:0:0:
440,211,155491,1,8,0:3:0:0:
406,166,155569,1,6,0:3:0:0:
356,143,155647,1,4,0:3:0:0:
195,80,155725,2,0,L|192:174,1,50,10|8,1:3|0:3,0:0:0:0:
268,169,155881,2,0,L|332:169,1,50,6|4,0:3|0:3,0:0:0:0:
135,264,156038,5,10,1:3:0:0:
85,243,156116,1,8,0:3:0:0:
51,200,156194,1,6,0:3:0:0:
35,147,156272,1,4,0:3:0:0:
215,111,156350,2,0,L|289:111,1,50,10|8,1:3|0:3,0:0:0:0:
84,40,156506,2,0,L|23:38,1,50,6|4,0:3|0:3,0:0:0:0:
268,224,156663,1,10,1:2:0:0:
456,240,158225,6,0,L|462:120,1,100,14|0,1:2|0:0,0:0:0:0:
216,122,158538,1,14,0:0:0:0:
316,90,158694,1,0,0:0:0:0:
47,152,158850,1,14,0:0:0:0:
153,194,159006,1,0,1:2:0:0:
465,152,159163,5,14,0:0:0:0:
359,194,159319,1,0,1:2:0:0:
229,243,159475,1,14,0:0:0:0:
335,285,159631,1,0,1:2:0:0:
97,283,159788,2,0,P|47:243|119:141,1,200,10|8,0:0|0:3,0:0:0:0:
277,102,160178,2,0,L|368:100,2,50,8|6|4,0:3|0:3|0:3,0:0:0:0:
94,78,160413,6,0,L|85:198,1,100,4|0,1:2|0:0,0:0:0:0:
212,220,160725,2,0,L|84:224,1,100,10|10,0:0|0:0,0:0:0:0:
400,223,161038,2,0,L|300:220,1,100,2|0,0:0|0:0,0:0:0:0:
426,177,161350,2,0,L|418:78,1,100,10|0,0:0|0:0,0:0:0:0:
113,223,161663,6,0,L|212:220,1,100,2|0,1:2|1:2,0:0:0:0:
87,177,161975,2,0,L|94:78,1,100,10|2,0:0|1:2,0:0:0:0:
223,124,162288,2,0,L|295:120,1,50,10|8,0:0|0:0,0:0:0:0:
421,209,162444,2,0,L|498:205,1,50,10|0,0:0|0:0,0:0:0:0:
471,206,162600,2,0,L|421:209,1,50,0|0,1:2|0:0,0:0:0:0:
244,311,162756,6,0,P|182:274|260:202,1,200,6|2,1:1|1:2,0:0:0:0:
374,235,163225,2,0,L|383:111,1,100,10|0,0:0|1:2,0:0:0:0:
266,108,163538,2,0,L|388:103,2,100,2|2|10,0:0|1:2|0:0,0:0:0:0:
38,155,164006,6,0,L|29:273,1,100,2|0,0:0|0:0,0:0:0:0:
313,263,164319,2,0,L|194:256,1,100,2|8,1:2|0:0,0:0:0:0:
490,163,164631,2,0,L|391:153,1,100,2|0,1:2|0:0,0:0:0:0:
260,47,164944,2,0,L|375:56,1,100,2|8,1:2|0:0,0:0:0:0:
103,247,165256,6,0,P|120:174|256:112,1,200,2|2,0:0|0:0,0:0:0:0:
358,198,165725,2,0,L|224:186,1,100,10|10,0:0|0:0,0:0:0:0:
99,246,166038,2,0,P|46:211|125:115,1,200,2|10,0:0|0:0,0:0:0:0:
209,92,166506,1,0,0:0:0:0:
447,187,166663,6,0,L|508:181,2,50,10|8|8,1:2|0:0|0:0,0:0:0:0:
323,226,166975,2,0,L|442:238,1,100,10|10,1:2|0:0,0:0:0:0:
370,221,167209,1,0,0:0:0:0:
209,236,167288,1,10,1:2:0:0:
155,237,167366,1,0,0:0:0:0:
209,236,167444,1,10,0:0:0:0:
370,221,167600,1,4,0:3:0:0:
426,221,167678,1,0,0:0:0:0:
201,342,167756,6,0,P|147:333|72:212,1,200,6|2,1:1|1:2,0:0:0:0:
193,202,168225,2,0,L|325:188,1,100,10|0,0:0|1:2,0:0:0:0:
40,71,168538,2,0,L|32:183,1,100,2|0,0:0|1:2,0:0:0:0:
303,94,168850,2,0,L|173:83,1,100,10|0,0:0|0:0,0:0:0:0:
447,289,169163,2,0,L|453:161,1,100,2|0,1:2|1:2,0:0:0:0:
336,161,169475,2,0,L|468:157,1,100,10|0,0:0|1:2,0:0:0:0:
125,214,169788,6,8,P|64:188|138:110,1,200,2|10,0:0|0:0,0:0:0:0:
247,179,170256,2,8,P|186:153|260:75,1,200,2|2,0:0|0:0,0:0:0:0:
394,284,170725,6,8,P|455:258|381:180,1,200,10|2,0:0|0:0,0:0:0:0:
272,249,171193,2,8,P|333:223|259:145,1,200,10|2,0:0|0:0,0:0:0:0:
42,69,171663,5,10,0:0:0:0:
41,123,171741,1,0,0:0:0:0:
38,177,171819,1,0,0:0:0:0:
145,201,171975,2,0,L|41:218,1,100,2|8,0:0|0:0,0:0:0:0:
334,251,172288,2,0,L|438:268,1,100,10|2,0:0|1:2,0:0:0:0:
319,157,172600,2,0,L|423:174,1,100,0|10,1:2|0:0,0:0:0:0:
364,178,172834,1,8,0:0:0:0:
186,239,172913,6,0,L|71:226,1,100,6|0,1:1|0:0,0:0:0:0:
212,328,173225,2,0,L|319:340,1,100,8|0,0:0|1:2,0:0:0:0:
59,319,173538,2,0,L|54:207,1,100,2|0,0:0|1:2,0:0:0:0:
316,132,173850,2,0,L|174:113,1,100,10|0,0:0|0:0,0:0:0:0:
461,275,174163,6,0,P|449:206|324:149,1,200,2|10,1:2|0:0,0:0:0:0:
185,83,174631,1,2,1:2:0:0:
346,146,174788,2,0,L|471:141,2,100,0|2|8,0:0|1:2|0:0,0:0:0:0:
179,81,175256,1,2,0:0:0:0:
450,314,175413,6,0,L|456:197,1,100,2|0,1:2|0:0,0:0:0:0:
198,176,175725,2,0,L|317:165,1,100,8|10,0:0|0:0,0:0:0:0:
48,232,176038,2,0,P|61:165|187:102,1,200,0|10,0:0|0:0,0:0:0:0:
292,65,176506,1,2,0:0:0:0:
48,134,176663,6,0,L|39:275,1,100,10|8,1:2|0:0,0:0:0:0:
97,230,176897,1,8,0:0:0:0:
245,218,176975,2,0,L|343:227,1,50,10|0,1:2|0:0,0:0:0:0:
235,152,177131,2,0,L|161:146,1,50,10|8,0:0|0:0,0:0:0:0:
355,284,177288,1,10,1:2:0:0:
407,264,177366,1,0,0:0:0:0:
441,220,177444,1,10,0:0:0:0:
449,165,177522,1,0,0:0:0:0:
289,88,177600,2,0,L|216:87,1,50,8|8,0:0|0:0,0:0:0:0:
400,160,177756,6,0,P|453:122|381:26,1,200,6|2,1:1|1:2,0:0:0:0:
105,143,178225,2,0,L|220:134,1,100,10|0,0:0|1:2,0:0:0:0:
69,215,178538,2,0,L|60:336,1,100,2|0,0:0|1:2,0:0:0:0:
336,312,178850,2,0,L|458:325,1,100,10|0,0:0|0:0,0:0:0:0:
296,198,179163,2,0,L|162:182,1,100,2|0,1:2|1:2,0:0:0:0:
321,101,179475,2,0,L|432:118,1,100,10|0,0:0|1:2,0:0:0:0:
124,302,179788,6,0,P|134:242|278:167,1,200,2|10,0:0|0:0,0:0:0:0:
388,302,180256,2,0,P|378:242|234:167,1,200,2|2,0:0|0:0,0:0:0:0:
27,225,180725,6,0,P|37:165|181:90,1,200,10|2,0:0|0:0,0:0:0:0:
285,224,181193,2,0,P|275:164|131:89,1,200,10|2,0:0|0:0,0:0:0:0:
398,121,181663,6,0,L|508:116,1,100,10|0,0:0|1:2,0:0:0:0:
379,220,181975,2,0,L|492:213,1,100,2|8,0:0|0:0,0:0:0:0:
178,160,182288,2,0,L|79:166,1,100,10|2,0:0|1:2,0:0:0:0:
350,310,182600,2,0,L|450:316,1,100,0|10,1:2|0:0,0:0:0:0:
395,315,182834,1,8,0:0:0:0:
224,326,182913,6,0,P|162:304|103:182,1,200,6|8,1:1|1:2,0:0:0:0:
207,154,183381,1,8,0:0:0:0:
450,215,183538,2,0,L|461:80,1,100,10|8,1:2|0:0,0:0:0:0:
338,86,183850,2,0,L|453:89,1,100,10|8,1:2|0:0,0:0:0:0:
163,219,184163,6,0,L|24:229,1,100,10|8,1:2|0:0,0:0:0:0:
118,233,184397,1,0,0:0:0:0:
273,314,184475,2,0,L|397:321,1,100,10|10,1:2|0:0,0:0:0:0:
68,52,184788,2,0,L|63:169,1,100,8|10,1:2|0:0,0:0:0:0:
119,151,185022,1,8,0:0:0:0:
276,201,185100,1,8,1:2:0:0:
330,214,185178,1,8,0:0:0:0:
330,214,185256,1,10,0:0:0:0:
276,201,185334,1,8,0:0:0:0:
87,336,185413,6,0,P|30:307|103:222,1,200,10|0,1:2|0:0,0:0:0:0:
342,171,186038,1,10,0:0:0:0:
43,93,186194,1,2,1:2:0:0:
283,287,186506,6,0,P|368:264|420:159,1,200,6|0,1:1|0:0,0:0:0:0:
303,109,186975,2,0,L|225:111,1,50,8|8,0:3|0:3,0:0:0:0:
184,86,187131,2,0,L|249:84,1,50,4|4,0:3|0:3,0:0:0:0:
380,199,187288,2,0,L|456:196,1,50,8|8,0:3|0:3,0:0:0:0:
430,197,187444,2,0,L|380:199,1,50,4|4,0:3|0:3,0:0:0:0:
202,202,187600,1,8,0:3:0:0:
440,328,187913,6,8,L|448:120,1,200,6|10,1:1|0:1,0:0:0:0:
301,179,188381,2,8,P|242:142|311:63,1,200,6|10,1:3|0:1,0:0:0:0:
440,164,188850,2,8,L|330:165,1,100,0|8,0:0|0:1,0:0:0:0:
48,275,189163,5,6,1:3:0:0:
64,166,189319,1,0,0:0:0:0:
132,79,189475,1,10,0:1:0:0:
238,49,189631,1,6,1:3:0:0:
113,93,189788,2,8,P|68:143|123:257,1,200,2|2,0:0|0:0,0:0:0:0:
346,311,190413,5,6,1:3:0:0:
412,278,190517,1,0,0:0:0:0:
455,218,190621,1,0,0:0:0:0:
459,144,190725,1,10,2:1:0:0:
416,85,190829,1,0,0:0:0:0:
349,57,190933,1,0,0:0:0:0:
152,120,191038,2,0,L|69:124,2,66.6666666666667,2|0|0,0:0|0:0|0:0,0:0:0:0:
338,171,191350,2,0,L|421:175,2,66.6666666666667,10|0|0,0:1|0:0|0:0,0:0:0:0:
152,254,191663,5,10,1:2:0:0:
29,165,191819,2,0,L|16:372,1,200,10|6,1:2|1:3,0:0:0:0:
276,177,192288,1,0,0:0:0:0:
403,116,192444,2,0,L|420:334,1,200,14|2,1:2|0:0,0:0:0:0:
189,244,192913,6,0,L|84:237,1,100,10|2,1:2|0:0,0:0:0:0:
223,145,193225,2,0,L|88:138,1,100,2|2,0:0|0:0,0:0:0:0:
377,173,193538,2,0,L|482:166,1,100,2|2,0:0|0:0,0:0:0:0:
358,77,193850,2,0,L|493:70,1,100,2|2,0:0|0:0,0:0:0:0:
226,244,194163,5,10,1:2:0:0:
111,215,194319,1,6,0:3:0:0:
124,161,194397,1,4,0:3:0:0:
160,119,194475,1,10,0:3:0:0:
211,98,194553,1,8,0:3:0:0:
374,205,194631,2,0,L|377:124,1,50,6|4,0:3|0:3,0:0:0:0:
202,312,194788,2,0,L|124:311,1,50,10|8,0:3|0:3,0:0:0:0:
153,311,194944,2,0,L|229:311,1,50,2|0,1:2|1:2,0:0:0:0:
350,216,195100,2,0,L|416:220,1,50,10|8,0:0|0:0,0:0:0:0:
212,147,195256,2,0,L|146:151,1,50,2|0,1:2|1:2,0:0:0:0:
400,88,195413,1,10,0:0:0:0:
