osu file format v14

[General]
AudioFilename: audio.ogg
AudioLeadIn: 0
PreviewTime: 59435
Countdown: 0
SampleSet: Soft
StackLeniency: 0.7
Mode: 2
LetterboxInBreaks: 0
WidescreenStoryboard: 0

[Editor]
Bookmarks: 5451,25451,35451,60138,80451,95451,105451,130451,158263,187951
DistanceSpacing: 1
BeatDivisor: 8
GridSize: 8
TimelineZoom: 2.2

[Metadata]
Title:Hana ni Natte
TitleUnicode:花になって
Artist:Ryokuoushoku Shakai
ArtistUnicode:緑黄色社会
Creator:Spectator
Version:Deluge
Source:薬屋のひとりごと
Tags:greaper -rustyy rustyy midorijeon Kusuriya no Hitorigoto The Apothecary Diaries be a flower japanese anime jpop j-pop pop rock jrock j-rock リョクシャカ ryokushaka 穴見真吾 shingo anami 小林壱誓 kobayashi issei 川口圭太 keita kawaguchi 長屋晴子 nagaya haruko peppe maomao 猫猫
BeatmapID:4439627
BeatmapSetID:2114336

[Difficulty]
HPDrainRate:6
CircleSize:3.2
OverallDifficulty:9.7
ApproachRate:9.7
SliderMultiplier:2.1
SliderTickRate:2

[Events]
//Background and Video events
0,0,"hana ni natte.png",0,0
//Break Periods
2,50613,52418
2,145613,147418
2,156863,157730
//Storyboard Layer 0 (Background)
//Storyboard Layer 1 (Fail)
//Storyboard Layer 2 (Pass)
//Storyboard Layer 3 (Foreground)
//Storyboard Layer 4 (Overlay)
//Storyboard Sound Samples

[TimingPoints]
413,312.5,4,2,1,60,1,0
4319,-83.3333333333333,4,2,1,70,0,0
4631,-76.9230769230769,4,2,1,70,0,0
4944,-41.6666666666667,4,2,1,70,0,0
5413,-100,4,2,1,75,0,0
15413,-100,4,2,1,60,0,0
25413,-100,4,2,1,70,0,0
35413,-100,4,2,1,60,0,0
45413,-100,4,2,1,65,0,0
50413,-100,4,2,1,70,0,0
55413,-100,4,2,1,65,0,0
57913,-100,4,2,1,70,0,0
58069,-100,4,2,1,60,0,0
58225,-100,4,2,1,70,0,0
58381,-100,4,2,1,60,0,0
58538,-100,4,2,1,70,0,0
58694,-100,4,2,1,60,0,0
58850,-100,4,2,1,70,0,0
59006,-100,4,2,1,60,0,0
59163,-100,4,2,1,70,0,0
59475,-100,4,2,1,50,0,0
59944,-100,4,2,1,75,0,0
60256,-100,4,2,1,80,0,1
70256,-90.9090909090909,4,2,1,80,0,1
70569,-100,4,2,1,80,0,1
75569,-100,4,2,1,45,0,1
75725,-100,4,2,1,47,0,1
75881,-100,4,2,1,50,0,1
76038,-100,4,2,1,52,0,1
76194,-100,4,2,1,54,0,1
76350,-100,4,2,1,57,0,1
76506,-100,4,2,1,59,0,1
76663,-100,4,2,1,61,0,1
76819,-100,4,2,1,64,0,1
76975,-100,4,2,1,66,0,1
77131,-100,4,2,1,68,0,1
77288,-100,4,2,1,71,0,1
77444,-100,4,2,1,73,0,1
77600,-100,4,2,1,75,0,1
77756,-100,4,2,1,78,0,1
77913,-100,4,2,1,80,0,0
80413,-100,4,2,1,60,0,0
85413,-100,4,2,1,70,0,0
94163,-100,4,2,1,50,0,0
95413,-100,4,2,1,70,0,0
109163,-100,4,2,1,60,0,0
114163,-100,4,2,1,65,0,0
124163,-90.9090909090909,4,2,1,70,0,0
124475,-83.3333333333333,4,2,1,52,0,0
124788,-83.3333333333333,4,2,1,55,0,0
125100,-83.3333333333333,4,2,1,57,0,0
125413,-83.3333333333333,4,2,1,60,0,0
125725,-83.3333333333333,4,2,1,62,0,0
126038,-83.3333333333333,4,2,1,65,0,0
126350,-83.3333333333333,4,2,1,67,0,0
126663,-100,4,2,1,70,0,0
127288,-100,4,2,1,50,0,0
127600,-100,4,2,1,53,0,0
127913,-100,4,2,1,57,0,0
128225,-100,4,2,1,60,0,0
128538,-100,4,2,1,63,0,0
128850,-100,4,2,1,67,0,0
129163,-100,4,2,1,70,0,0
129631,-100,4,2,1,62,0,0
130100,-100,4,2,1,67,0,0
130413,-100,4,2,1,60,0,0
140413,-100,4,2,1,65,0,0
145413,-100,4,2,1,70,0,0
150413,-100,4,2,1,65,0,0
155413,-100,4,2,1,70,0,0
155569,-100,4,2,1,60,0,0
155725,-100,4,2,1,70,0,0
155881,-100,4,2,1,60,0,0
156038,-100,4,2,1,70,0,0
156194,-100,4,2,1,60,0,0
156350,-100,4,2,1,70,0,0
156506,-100,4,2,1,60,0,0
156663,-100,4,2,1,70,0,0
156975,-100,4,2,1,50,0,0
158225,-100,4,2,1,75,0,1
160334,-100,4,2,1,75,0,0
160413,-100,4,2,1,80,0,1
183069,-100,4,2,1,45,0,1
183225,-100,4,2,1,47,0,1
183381,-100,4,2,1,50,0,1
183538,-100,4,2,1,52,0,1
183694,-100,4,2,1,54,0,1
183850,-100,4,2,1,57,0,1
184006,-100,4,2,1,59,0,1
184163,-100,4,2,1,61,0,1
184319,-100,4,2,1,64,0,1
184475,-100,4,2,1,66,0,1
184631,-100,4,2,1,68,0,1
184788,-100,4,2,1,71,0,1
184944,-100,4,2,1,73,0,1
185100,-100,4,2,1,75,0,1
185256,-100,4,2,1,78,0,1
185413,-100,4,2,1,80,0,0
187913,-100,4,2,1,60,0,0
192913,-100,4,2,1,70,0,0
193069,-100,4,2,1,60,0,0
193225,-100,4,2,1,65,0,0
193381,-100,4,2,1,55,0,0
193538,-100,4,2,1,60,0,0
193694,-100,4,2,1,50,0,0
193850,-100,4,2,1,55,0,0
194006,-100,4,2,1,45,0,0
194163,-100,4,2,1,70,0,0
194319,-100,4,2,1,60,0,0
194475,-100,4,2,1,65,0,0
194631,-100,4,2,1,55,0,0
194788,-100,4,2,1,60,0,0
194944,-100,4,2,1,50,0,0
195100,-100,4,2,1,55,0,0
195256,-100,4,2,1,45,0,0
195413,-100,4,2,1,70,0,1
195491,-100,4,2,1,70,0,0

[Colours]
Combo1 : 85,107,234
Combo2 : 46,175,126
Combo3 : 224,88,156

[HitObjects]
85,59,413,6,0,L|55:189,1,105,4|0,1:3|0:0,0:0:0:0:
231,137,725,1,8,0:1:0:0:
61,161,881,1,4,1:3:0:0:
476,228,1194,5,8,0:1:0:0:
334,227,1350,1,0,0:0:0:0:
323,133,1506,1,8,0:1:0:0:
181,60,1663,2,0,L|280:97,2,105,4|0|8,1:3|0:0|0:1,0:0:0:0:
39,114,2131,1,4,1:3:0:0:
474,336,2444,5,8,0:1:0:0:
328,325,2600,1,0,0:0:0:0:
342,228,2756,1,8,0:1:0:0:
192,157,2913,2,0,L|317:134,1,105,4|0,1:3|0:0,0:0:0:0:
131,66,3225,2,0,L|28:85,1,105,8|4,0:1|1:3,0:0:0:0:
477,242,3694,5,8,0:1:0:0:
341,198,3850,1,0,0:0:0:0:
335,97,4006,1,8,0:1:0:0:
481,234,4163,1,10,1:2:0:0:
135,304,4319,6,0,P|74:252|155:188,1,188.999994232178,10|0,1:2|0:0,0:0:0:0:
416,293,4631,2,0,L|202:258,1,204.749990627289,6|0,1:3|0:0,0:0:0:0:
34,311,4944,2,0,L|486:70,1,503.999984619141,14|0,1:2|0:0,0:0:0:0:
167,153,5413,6,0,L|59:142,1,105,6|0,1:1|0:0,0:0:0:0:
346,169,5725,1,8,0:0:0:0:
189,103,5881,1,2,1:2:0:0:
463,76,6038,2,0,L|478:215,1,105,0|0,0:0|1:2,0:0:0:0:
303,176,6350,1,10,0:0:0:0:
460,250,6506,1,2,0:0:0:0:
195,320,6663,6,0,L|307:304,1,105,0|2,1:2|1:2,0:0:0:0:
77,313,6975,2,0,P|32:280|95:194,1,157.5,10|0,0:0|0:0,0:0:0:0:
157,171,7288,1,2,0:0:0:0:
25,96,7444,1,2,1:2:0:0:
300,126,7600,1,10,0:0:0:0:
465,111,7756,1,2,0:0:0:0:
180,335,7913,6,0,L|360:309,1,157.5,2|0,1:2|0:0,0:0:0:0:
247,283,8225,1,8,0:0:0:0:
478,253,8381,2,0,P|463:187|333:118,1,210,2|0,1:2|1:2,0:0:0:0:
171,161,8850,2,0,L|303:176,1,105,10|2,0:0|0:0,0:0:0:0:
452,167,9163,5,0,1:2:0:0:
301,239,9319,1,2,1:2:0:0:
56,349,9475,2,0,L|39:163,1,157.5,10|0,0:0|0:0,0:0:0:0:
260,174,9788,1,2,0:0:0:0:
37,105,9944,1,2,1:2:0:0:
317,65,10100,2,0,L|188:93,1,105,10|2,0:0|0:0,0:0:0:0:
475,267,10413,6,0,P|455:198|301:118,1,210,2|8,1:2|0:0,0:0:0:0:
176,210,10881,2,0,B|280:189|280:189|151:214,1,210,2|0,1:2|1:2,0:0:0:0:
478,114,11350,1,10,0:0:0:0:
336,168,11506,1,2,0:0:0:0:
48,131,11663,5,0,1:2:0:0:
182,232,11819,1,2,1:2:0:0:
114,241,11897,1,0,0:0:0:0:
345,272,11975,2,0,P|417:251|466:138,1,157.5,10|0,0:0|0:0,0:0:0:0:
269,111,12288,1,2,0:0:0:0:
43,199,12444,1,2,1:2:0:0:
292,212,12600,1,10,0:0:0:0:
175,254,12756,1,2,0:0:0:0:
474,199,12913,6,0,P|456:137|319:62,1,210,2|8,1:2|0:0,0:0:0:0:
168,221,13381,2,0,L|352:191,1,157.5,2|0,1:2|0:0,0:0:0:0:
141,195,13694,1,2,1:2:0:0:
54,106,13850,1,10,0:0:0:0:
339,48,14006,1,2,0:0:0:0:
51,280,14163,5,8,1:2:0:0:
228,164,14241,1,8,0:0:0:0:
302,175,14319,1,10,0:0:0:0:
228,164,14397,1,8,0:0:0:0:
51,280,14475,1,8,1:2:0:0:
168,340,14631,1,10,0:0:0:0:
348,288,14709,1,8,0:0:0:0:
403,209,14866,1,8,0:0:0:0:
224,173,14944,1,8,0:0:0:0:
104,109,15100,1,10,0:0:0:0:
369,91,15256,1,4,0:3:0:0:
444,90,15334,1,4,0:3:0:0:
212,267,15413,5,4,1:2:0:0:
66,233,15569,2,0,L|54:119,1,105,2|10,0:0|0:1,0:0:0:0:
212,159,15881,2,0,P|280:135|198:71,1,210,6|8,1:3|0:1,0:0:0:0:
59,248,16350,2,0,L|195:232,1,105,2|10,0:0|0:1,0:0:0:0:
463,234,16663,5,4,1:3:0:0:
343,180,16819,1,2,0:0:0:0:
438,104,16975,1,8,0:1:0:0:
159,304,17131,1,6,1:3:0:0:
319,265,17288,1,2,0:0:0:0:
59,192,17444,1,8,0:1:0:0:
159,118,17600,1,2,0:0:0:0:
40,167,17756,1,8,0:1:0:0:
330,92,17913,5,6,1:3:0:0:
472,126,18069,2,0,L|494:252,1,105,0|10,0:0|0:1,0:0:0:0:
325,221,18381,1,6,1:3:0:0:
477,258,18538,2,0,L|441:377,1,105,0|10,0:0|0:1,0:0:0:0:
294,348,18850,1,0,0:0:0:0:
56,125,19006,2,0,L|23:120,2,26.25,10|0|0,0:1|0:0|0:0,0:0:0:0:
275,240,19163,6,0,L|233:135,1,105,6|0,1:3|0:0,0:0:0:0:
91,97,19475,1,10,0:1:0:0:
383,120,19631,1,6,1:3:0:0:
241,181,19788,1,2,0:0:0:0:
94,252,19944,1,10,0:1:0:0:
373,286,20100,2,0,L|480:305,1,105,6|0,1:3|0:0,0:0:0:0:
145,352,20413,6,0,L|123:212,1,105,6|2,1:3|0:0,0:0:0:0:
266,183,20725,1,10,0:1:0:0:
37,222,20881,2,0,P|50:141|158:74,1,210,6|8,1:3|0:1,0:0:0:0:
318,125,21350,2,0,L|199:116,1,105,2|10,0:0|0:1,0:0:0:0:
465,248,21663,5,4,1:3:0:0:
327,296,21819,2,0,P|340:205|440:149,1,210,2|6,0:0|1:3,0:0:0:0:
167,208,22288,2,0,L|286:184,1,105,2|8,0:0|0:1,0:0:0:0:
94,182,22600,1,2,0:0:0:0:
76,62,22756,1,8,0:1:0:0:
359,264,22913,6,0,L|465:242,1,105,6|0,1:3|0:0,0:0:0:0:
308,181,23225,1,10,0:1:0:0:
44,327,23381,2,0,L|39:84,1,210,6|10,1:3|0:1,0:0:0:0:
199,99,23850,2,0,L|75:84,1,105,2|10,0:0|0:1,0:0:0:0:
377,132,24163,5,6,1:3:0:0:
209,189,24319,1,0,1:2:0:0:
210,289,24631,1,6,1:3:0:0:
466,311,24788,1,0,0:0:0:0:
406,214,24866,1,8,0:0:0:0:
466,311,24944,1,2,1:2:0:0:
309,340,25022,1,0,0:0:0:0:
138,283,25100,1,10,0:0:0:0:
66,283,25178,1,8,0:0:0:0:
262,191,25256,1,8,0:0:0:0:
341,193,25334,1,8,0:0:0:0:
91,197,25413,6,0,L|65:63,1,105,6|2,1:1|0:0,0:0:0:0:
351,103,25725,1,10,0:0:0:0:
205,68,25881,1,2,1:2:0:0:
482,255,26038,2,0,P|468:192|381:143,1,157.5,2|0,0:0|0:0,0:0:0:0:
199,161,26350,1,10,0:0:0:0:
459,357,26506,6,0,L|459:135,1,210,2|2,0:0|1:2,0:0:0:0:
177,283,26975,1,8,0:0:0:0:
310,215,27131,2,0,L|233:206,1,52.5,2|0,1:2|0:0,0:0:0:0:
92,167,27288,1,2,1:2:0:0:
22,184,27366,1,8,0:0:0:0:
92,167,27444,1,0,1:2:0:0:
260,88,27600,2,0,L|400:106,1,105,10|0,0:0|0:0,0:0:0:0:
45,336,27913,6,0,P|59:263|204:209,1,210,2|10,1:2|0:0,0:0:0:0:
31,148,28381,1,2,1:2:0:0:
309,182,28538,1,0,1:2:0:0:
371,172,28616,1,8,0:0:0:0:
434,164,28694,1,2,1:2:0:0:
251,280,28850,2,0,L|133:267,1,105,10|0,0:0|1:2,0:0:0:0:
478,209,29163,5,2,1:2:0:0:
206,174,29319,1,0,1:2:0:0:
343,119,29475,1,10,0:0:0:0:
41,90,29631,1,2,1:2:0:0:
314,311,29788,1,2,1:2:0:0:
237,286,29866,1,8,0:0:0:0:
52,316,29944,1,2,1:2:0:0:
309,199,30100,1,10,0:0:0:0:
169,161,30256,1,0,0:0:0:0:
448,204,30413,6,0,L|459:72,1,105,2|2,1:2|0:0,0:0:0:0:
286,134,30725,1,10,0:0:0:0:
422,90,30881,1,2,1:2:0:0:
103,152,31038,1,2,1:2:0:0:
37,172,31116,1,8,0:0:0:0:
103,152,31194,1,0,1:2:0:0:
248,152,31350,1,10,0:0:0:0:
109,91,31506,1,2,0:0:0:0:
446,118,31663,5,0,1:2:0:0:
456,224,31819,1,2,1:2:0:0:
176,279,31975,1,8,0:0:0:0:
34,318,32131,1,2,1:2:0:0:
257,166,32288,1,6,0:3:0:0:
434,88,32366,1,4,0:3:0:0:
434,88,32444,1,0,1:2:0:0:
257,166,32522,1,0,1:2:0:0:
46,199,32600,1,10,0:0:0:0:
117,213,32678,1,8,0:0:0:0:
302,274,32756,1,8,0:0:0:0:
388,297,32834,1,8,0:0:0:0:
142,322,32913,6,0,L|13:352,1,105,2|0,1:2|0:0,0:0:0:0:
333,201,33225,1,2,1:2:0:0:
201,154,33381,1,6,0:3:0:0:
353,110,33538,1,0,0:0:0:0:
53,252,33694,2,0,L|34:23,1,210,14|0,1:2|0:0,0:0:0:0:
362,297,34163,5,6,1:1:0:0:
216,245,34319,1,2,0:0:0:0:
353,198,34475,1,2,0:0:0:0:
482,154,34631,1,2,0:0:0:0:
358,100,34788,1,2,0:0:0:0:
48,288,34944,2,0,L|40:152,1,105,2|0,0:0|0:0,0:0:0:0:
111,143,35178,1,0,0:0:0:0:
304,93,35256,1,2,0:0:0:0:
217,71,35334,1,2,0:0:0:0:
36,41,35413,1,6,0:3:0:0:
312,280,35725,5,2,0:0:0:0:
454,220,35881,1,6,0:3:0:0:
446,99,36194,1,6,0:3:0:0:
328,55,36350,1,6,0:3:0:0:
158,342,36663,5,2,0:0:0:0:
447,141,36819,1,0,0:0:0:0:
175,241,37131,2,0,L|396:191,1,210,2|0,0:0|0:0,0:0:0:0:
119,144,37600,2,0,L|-1:130,1,105,2|0,0:0|0:0,0:0:0:0:
304,80,37913,5,6,0:3:0:0:
398,153,38225,1,2,0:0:0:0:
283,250,38381,1,6,0:3:0:0:
168,336,38538,1,2,0:0:0:0:
233,238,38850,1,6,0:3:0:0:
337,182,39006,1,0,0:0:0:0:
94,205,39163,6,0,P|31:166|114:79,1,210,2|2,0:0|0:0,0:0:0:0:
355,111,39631,2,0,L|115:75,1,210,2|0,0:0|0:0,0:0:0:0:
288,88,40100,1,2,0:0:0:0:
430,96,40256,1,0,0:0:0:0:
154,297,40413,6,0,P|82:273|48:145,1,210,6|2,0:3|0:0,0:0:0:0:
198,130,40881,1,6,0:3:0:0:
59,151,41038,1,2,0:0:0:0:
41,50,41194,1,4,0:3:0:0:
369,173,41350,1,6,0:3:0:0:
180,250,41663,6,0,P|197:187|329:115,1,210,2|2,0:0|0:0,0:0:0:0:
450,171,42131,1,2,0:0:0:0:
147,343,42444,2,0,L|137:116,1,210,2|0,0:0|0:0,0:0:0:0:
404,214,42913,6,0,P|453:183|385:72,1,210,6|2,0:3|0:0,0:0:0:0:
247,165,43381,2,0,L|135:159,1,105,6|0,0:3|0:0,0:0:0:0:
418,148,43694,1,6,0:3:0:0:
430,254,43850,1,6,0:3:0:0:
293,295,44006,1,2,0:0:0:0:
30,262,44163,5,2,0:0:0:0:
309,351,44319,1,2,0:0:0:0:
83,176,44475,1,0,0:0:0:0:
189,133,44631,1,2,0:0:0:0:
449,134,44788,1,8,0:3:0:0:
373,122,44866,1,8,0:3:0:0:
199,295,44944,1,10,0:3:0:0:
128,288,45022,1,8,0:3:0:0:
333,205,45100,1,8,0:3:0:0:
264,191,45178,1,8,0:3:0:0:
196,176,45256,1,10,0:3:0:0:
125,165,45334,1,8,0:3:0:0:
378,336,45413,6,0,P|442:312|489:176,1,210,6|2,1:1|0:0,0:0:0:0:
338,197,45881,2,0,L|325:90,1,105,0|2,1:2|0:0,0:0:0:0:
470,117,46194,1,0,0:0:0:0:
185,183,46350,1,10,0:0:0:0:
55,217,46506,1,0,0:0:0:0:
46,318,46663,1,2,1:2:0:0:
319,309,46819,6,0,P|379:265|294:164,1,210,8|2,0:0|1:2,0:0:0:0:
143,154,47288,2,0,L|254:130,1,105,0|0,0:0|1:2,0:0:0:0:
468,79,47600,2,0,L|479:276,1,157.5,10|0,0:0|0:0,0:0:0:0:
240,288,47913,5,2,1:2:0:0:
48,228,48225,1,2,0:0:0:0:
39,110,48381,1,0,1:2:0:0:
266,195,48538,2,0,P|313:157|249:90,1,157.5,2|0,0:0|0:0,0:0:0:0:
189,68,48850,1,10,1:2:0:0:
449,69,49006,1,0,0:0:0:0:
463,183,49163,5,10,1:2:0:0:
357,272,49319,1,0,0:0:0:0:
158,272,49397,1,8,0:0:0:0:
468,326,49631,1,10,1:2:0:0:
182,169,49788,2,0,L|292:171,1,105,0|0,0:0|1:2,0:0:0:0:
30,84,50100,1,10,0:3:0:0:
322,80,50256,1,0,1:2:0:0:
19,169,50413,1,10,0:0:0:0:
384,184,52913,5,10,0:0:0:0:
56,285,53069,1,2,1:2:0:0:
433,181,53850,5,10,0:0:0:0:
105,282,54006,1,2,1:2:0:0:
492,178,54788,5,10,0:0:0:0:
164,279,54944,2,0,B|59:278|59:278|192:279,1,210,2|0,1:2|0:0,0:0:0:0:
459,308,55413,6,0,P|442:237|327:179,1,210,6|2,1:1|0:0,0:0:0:0:
147,98,55881,1,2,1:2:0:0:
384,215,56038,2,0,L|495:204,1,105,10|2,0:0|0:0,0:0:0:0:
315,134,56350,1,2,0:0:0:0:
490,236,56506,1,2,1:2:0:0:
260,245,56663,5,2,0:0:0:0:
72,195,56767,1,2,0:0:0:0:
65,108,56871,1,2,0:0:0:0:
260,157,56975,1,2,1:2:0:0:
467,121,57079,1,2,0:0:0:0:
393,92,57183,1,2,0:0:0:0:
193,292,57288,2,0,L|87:269,1,105,10|2,0:0|0:0,0:0:0:0:
336,184,57600,1,2,0:0:0:0:
480,248,57756,1,0,0:0:0:0:
209,177,57913,5,10,1:3:0:0:
137,191,57991,1,8,0:3:0:0:
320,266,58069,1,4,0:3:0:0:
395,300,58147,1,4,0:3:0:0:
207,332,58225,1,8,1:3:0:0:
124,318,58303,1,8,0:3:0:0:
403,173,58381,1,6,0:3:0:0:
485,149,58459,1,4,0:3:0:0:
281,172,58538,1,8,1:3:0:0:
121,125,58616,1,8,0:3:0:0:
92,56,58694,1,4,0:3:0:0:
121,125,58772,1,4,0:3:0:0:
281,172,58850,1,10,1:3:0:0:
103,203,58928,1,8,0:3:0:0:
16,221,59006,1,4,0:3:0:0:
103,203,59084,1,4,0:3:0:0:
421,248,59163,1,10,1:2:0:0:
155,176,60100,5,8,0:0:0:0:
405,264,60256,2,0,P|349:246|273:116,1,210,6|2,1:1|1:2,0:0:0:0:
386,62,60725,1,10,0:0:0:0:
198,147,60881,1,0,1:2:0:0:
436,218,61038,1,2,0:0:0:0:
139,256,61194,1,0,1:2:0:0:
481,328,61350,1,10,0:0:0:0:
27,161,61506,1,0,0:0:0:0:
168,112,61663,5,2,1:2:0:0:
421,227,61819,1,0,1:2:0:0:
430,152,61897,1,0,0:0:0:0:
189,266,61975,1,10,0:0:0:0:
312,306,62131,1,0,1:2:0:0:
43,309,62288,2,0,L|152:293,1,105,2|2,0:0|1:2,0:0:0:0:
457,73,62600,2,0,L|468:259,1,157.5,8|0,0:0|0:0,0:0:0:0:
179,192,62913,5,4,1:2:0:0:
322,133,63069,1,2,0:0:0:0:
50,168,63225,1,10,0:0:0:0:
345,215,63381,1,10,0:0:0:0:
184,325,63538,1,2,0:0:0:0:
327,266,63694,1,0,1:2:0:0:
33,247,63850,1,10,0:0:0:0:
344,169,64006,1,0,0:0:0:0:
31,144,64163,6,0,L|161:102,1,105,2|0,1:2|1:2,0:0:0:0:
354,79,64475,1,10,0:0:0:0:
213,39,64631,1,2,1:2:0:0:
463,222,64788,1,10,0:0:0:0:
270,214,64866,1,8,0:0:0:0:
200,243,64944,1,10,0:0:0:0:
473,320,65100,1,0,1:2:0:0:
62,341,65256,6,0,P|144:319|191:191,1,210,6|2,1:1|1:2,0:0:0:0:
38,177,65725,1,10,0:0:0:0:
165,104,65881,1,0,1:2:0:0:
472,165,66038,1,2,0:0:0:0:
166,12,66194,1,2,1:2:0:0:
460,241,66350,2,0,L|482:359,1,105,10|2,0:0|0:0,0:0:0:0:
176,241,66663,5,0,1:2:0:0:
455,189,66819,2,0,L|477:67,1,105,2|8,1:2|0:0,0:0:0:0:
235,181,67131,2,0,L|229:54,1,105,2|0,1:2|0:0,0:0:0:0:
49,139,67444,2,0,L|34:317,1,157.5,2|0,1:2|0:0,0:0:0:0:
244,330,67756,6,0,P|314:307|378:161,1,210,2|2,0:0|0:0,0:0:0:0:
79,209,68225,1,10,0:0:0:0:
395,100,68381,1,10,0:0:0:0:
137,109,68538,2,0,L|17:85,1,105,2|0,0:0|1:2,0:0:0:0:
258,244,68850,2,0,P|304:215|240:146,1,157.5,10|0,0:0|0:0,0:0:0:0:
82,321,69163,6,0,L|78:228,1,52.5,10|8,1:2|0:0,0:0:0:0:
272,338,69319,1,8,0:0:0:0:
413,289,69475,1,10,1:3:0:0:
32,189,69631,1,10,0:0:0:0:
37,118,69709,1,8,0:0:0:0:
193,146,69788,1,10,1:2:0:0:
272,125,69866,1,0,0:0:0:0:
456,169,69944,1,10,0:3:0:0:
321,219,70100,1,4,1:3:0:0:
31,328,70256,6,0,P|50:226|172:171,1,231.000007049561,6|2,1:1|1:2,0:0:0:0:
255,153,70725,1,10,0:0:0:0:
87,100,70881,1,0,1:2:0:0:
395,100,71038,1,2,0:0:0:0:
128,246,71194,1,0,1:2:0:0:
494,40,71350,1,10,0:0:0:0:
85,370,71506,1,0,0:0:0:0:
458,244,71663,2,0,L|342:226,1,105,2|0,1:2|1:2,0:0:0:0:
199,166,71975,2,0,L|326:138,1,105,10|0,0:0|1:2,0:0:0:0:
37,295,72288,5,2,0:0:0:0:
332,260,72444,2,0,L|309:124,1,105,0|10,1:2|0:0,0:0:0:0:
475,295,72756,1,2,0:0:0:0:
163,261,72912,2,0,L|186:125,1,105,4|2,1:2|0:0,0:0:0:0:
37,295,73225,5,10,0:0:0:0:
332,260,73381,2,0,L|309:124,1,105,0|2,1:2|0:0,0:0:0:0:
480,208,73694,1,10,0:0:0:0:
187,104,73850,1,0,1:2:0:0:
338,66,74006,1,2,0:0:0:0:
45,237,74163,6,0,L|267:205,1,210,10|2,0:0|0:0,0:0:0:0:
105,160,74631,1,8,0:0:0:0:
384,308,74788,1,10,0:0:0:0:
389,243,74866,1,0,0:0:0:0:
174,267,74944,1,2,1:2:0:0:
35,299,75100,1,0,1:2:0:0:
300,144,75256,1,10,0:0:0:0:
373,155,75334,1,8,0:0:0:0:
158,233,75413,6,0,P|105:195|170:86,1,210,6|8,1:1|1:2,0:0:0:0:
301,178,75881,1,8,0:0:0:0:
36,167,76038,1,10,1:2:0:0:
158,134,76194,1,8,0:0:0:0:
20,95,76350,1,10,1:2:0:0:
175,57,76506,1,8,0:0:0:0:
461,336,76663,5,10,1:2:0:0:
236,272,76819,1,8,0:0:0:0:
472,238,76975,1,10,1:2:0:0:
200,177,77131,1,10,0:0:0:0:
488,135,77288,1,8,1:2:0:0:
175,92,77444,1,10,0:0:0:0:
93,79,77522,1,8,0:0:0:0:
277,192,77600,1,8,1:2:0:0:
351,183,77678,1,8,0:0:0:0:
150,279,77756,1,10,0:0:0:0:
73,268,77834,1,8,0:0:0:0:
352,344,77913,6,0,P|411:307|337:212,1,210,10|0,1:2|0:0,0:0:0:0:
211,169,78381,1,0,0:0:0:0:
466,106,78538,1,10,0:0:0:0:
94,104,78694,1,2,1:2:0:0:
476,194,79006,6,0,P|459:275|339:348,1,210,6|0,1:1|0:0,0:0:0:0:
59,311,79475,1,8,0:3:0:0:
232,216,79553,1,8,0:3:0:0:
308,196,79631,1,4,0:3:0:0:
232,216,79709,1,4,0:3:0:0:
59,311,79788,1,8,0:3:0:0:
66,253,79866,1,8,0:3:0:0:
103,206,79944,1,4,0:3:0:0:
174,188,80022,1,4,0:3:0:0:
414,187,80100,1,8,0:3:0:0:
160,307,80413,6,0,P|104:270|182:171,1,210,6|10,1:1|0:1,0:0:0:0:
448,88,80881,1,6,1:3:0:0:
165,251,81194,2,0,L|396:212,1,210,10|8,0:1|0:1,0:0:0:0:
63,237,81663,6,0,L|57:117,1,105,6|0,1:3|0:0,0:0:0:0:
208,128,81975,1,10,0:1:0:0:
51,50,82131,1,6,1:3:0:0:
378,254,82288,2,0,L|266:238,1,105,2|10,0:0|0:1,0:0:0:0:
116,157,82600,2,0,L|233:146,1,105,2|8,0:0|0:1,0:0:0:0:
480,223,82913,5,6,1:3:0:0:
352,160,83069,1,0,0:0:0:0:
481,102,83225,1,10,0:1:0:0:
182,154,83381,1,6,1:3:0:0:
334,94,83538,1,0,0:0:0:0:
20,274,83694,1,10,0:1:0:0:
258,188,83850,1,2,0:0:0:0:
494,126,84006,1,10,0:1:0:0:
142,96,84163,5,10,1:2:0:0:
494,126,84319,1,10,1:2:0:0:
322,231,84631,1,6,1:3:0:0:
378,241,84709,1,2,0:0:0:0:
435,252,84788,1,2,0:0:0:0:
141,325,84944,1,12,1:2:0:0:
289,356,85100,2,0,P|334:314|266:244,1,157.5,2|0,0:0|0:0,0:0:0:0:
72,247,85413,6,0,L|41:124,1,105,6|2,1:1|0:0,0:0:0:0:
302,172,85725,1,10,0:0:0:0:
43,146,85881,2,0,L|75:29,1,105,2|0,1:2|0:0,0:0:0:0:
351,79,86194,1,2,1:2:0:0:
72,247,86350,2,0,L|41:124,1,105,10|2,0:0|0:0,0:0:0:0:
314,171,86663,5,0,1:2:0:0:
242,157,86741,1,0,0:0:0:0:
53,308,86819,1,2,1:2:0:0:
172,257,86975,1,10,0:0:0:0:
53,308,87131,1,2,1:2:0:0:
379,237,87288,1,2,1:2:0:0:
112,143,87444,1,2,1:2:0:0:
453,167,87600,2,0,L|476:52,1,105,10|2,0:0|0:0,0:0:0:0:
194,149,87913,5,2,1:2:0:0:
340,93,88069,1,2,0:0:0:0:
43,146,88225,2,0,L|75:29,1,105,10|2,0:0|1:2,0:0:0:0:
351,79,88538,1,0,1:2:0:0:
278,79,88616,1,8,0:0:0:0:
72,247,88694,2,0,L|41:124,1,105,2|10,1:2|0:0,0:0:0:0:
352,208,89006,1,2,1:2:0:0:
71,332,89163,6,0,P|139:309|207:162,1,210,0|10,1:2|0:0,0:0:0:0:
52,176,89631,1,2,1:2:0:0:
296,254,89788,1,2,1:2:0:0:
370,249,89866,1,8,0:0:0:0:
296,254,89944,1,2,1:2:0:0:
43,146,90100,2,0,L|75:29,1,105,10|10,0:0|0:0,0:0:0:0:
351,79,90413,5,6,1:1:0:0:
72,247,90569,2,0,L|41:124,1,105,2|10,0:0|0:0,0:0:0:0:
341,170,90882,1,2,1:2:0:0:
56,353,91038,2,0,L|73:274,1,52.5,0|8,1:2|0:0,0:0:0:0:
263,274,91194,1,2,1:2:0:0:
384,251,91350,1,10,0:0:0:0:
72,247,91506,2,0,L|41:124,1,105,2|0,0:0|1:2,0:0:0:0:
360,128,91819,6,0,L|140:86,1,210,2|2,1:2|1:2,0:0:0:0:
467,186,92288,1,2,1:2:0:0:
327,232,92444,1,2,1:2:0:0:
55,315,92600,2,0,P|64:258|174:209,1,157.5,10|0,0:0|0:0,0:0:0:0:
340,132,92913,5,2,1:2:0:0:
464,90,93069,1,2,1:2:0:0:
182,80,93225,1,10,0:0:0:0:
468,284,93381,2,0,P|458:230|319:146,1,210,2|2,1:2|1:2,0:0:0:0:
174,152,93850,1,10,0:0:0:0:
337,57,94006,1,2,1:2:0:0:
36,68,94163,5,2,0:0:0:0:
256,192,94241,12,0,95256,0:0:0:0:
265,185,95413,6,0,L|386:167,1,105,6|2,1:1|0:0,0:0:0:0:
97,282,95725,1,10,1:2:0:0:
231,316,95881,1,2,0:0:0:0:
472,202,96038,2,0,L|480:85,1,105,2|0,1:2|0:0,0:0:0:0:
197,97,96350,1,10,1:2:0:0:
471,309,96506,6,0,P|452:251|307:184,1,210,2|2,0:0|0:0,0:0:0:0:
169,262,96975,1,8,1:2:0:0:
335,198,97131,1,2,0:0:0:0:
60,178,97288,2,0,L|49:38,1,105,2|0,1:2|0:0,0:0:0:0:
325,340,97600,2,0,P|376:306|313:254,1,157.5,10|0,1:2|0:0,0:0:0:0:
82,307,97913,6,0,L|59:191,1,105,2|0,1:2|0:0,0:0:0:0:
202,159,98225,1,10,1:2:0:0:
461,117,98381,1,2,0:0:0:0:
327,74,98538,1,2,1:2:0:0:
47,113,98694,2,0,L|169:112,1,105,2|8,0:0|1:2,0:0:0:0:
429,129,99006,2,0,L|434:69,1,52.5,2|0,0:0|0:0,0:0:0:0:
210,244,99163,6,0,L|252:139,1,105,2|2,1:2|0:0,0:0:0:0:
394,101,99475,1,10,1:2:0:0:
120,121,99631,1,2,0:0:0:0:
262,182,99788,1,2,1:2:0:0:
409,253,99944,1,2,0:0:0:0:
130,287,100100,2,0,L|23:306,1,105,10|0,1:2|0:0,0:0:0:0:
315,127,100413,6,0,L|197:112,1,105,6|2,1:1|0:0,0:0:0:0:
468,78,100725,2,0,L|478:201,1,105,10|2,1:2|0:0,0:0:0:0:
166,322,101038,1,2,1:2:0:0:
299,246,101194,1,0,0:0:0:0:
166,322,101350,1,10,1:2:0:0:
456,68,101506,6,0,L|473:286,1,210,2|2,0:0|1:2,0:0:0:0:
167,188,101975,1,8,0:0:0:0:
311,228,102131,1,2,1:2:0:0:
41,279,102288,2,0,L|30:188,2,52.5,10|8|0,0:3|0:3|1:2,0:0:0:0:
210,279,102522,1,0,1:2:0:0:
382,188,102600,1,10,0:0:0:0:
305,188,102678,1,8,0:0:0:0:
479,254,102756,1,8,0:0:0:0:
491,334,102834,1,8,0:0:0:0:
297,336,102913,5,10,0:0:0:0:
166,336,103069,1,2,0:0:0:0:
308,312,103225,1,2,1:2:0:0:
57,218,103381,1,10,0:0:0:0:
45,103,103538,1,2,0:0:0:0:
382,204,103694,2,0,P|433:181|371:72,1,210,14|0,1:2|0:0,0:0:0:0:
114,246,104163,6,0,P|70:193|142:165,1,140,6|8,1:1|0:0,0:0:0:0:
305,150,104475,1,8,0:0:0:0:
114,67,104579,1,8,0:0:0:0:
195,66,104683,1,8,0:0:0:0:
413,263,104788,1,8,0:0:0:0:
335,262,104892,1,8,0:0:0:0:
413,263,104996,1,8,0:3:0:0:
168,328,105100,1,8,0:3:0:0:
246,327,105204,1,8,0:3:0:0:
168,328,105308,1,0,1:2:0:0:
389,138,105413,5,14,0:0:0:0:
471,137,105517,1,0,0:0:0:0:
206,77,105621,1,2,1:2:0:0:
124,76,105725,1,0,0:0:0:0:
364,226,105829,1,2,1:2:0:0:
446,225,105933,1,0,0:0:0:0:
254,326,106038,1,14,0:0:0:0:
243,244,106142,1,0,0:0:0:0:
433,145,106246,1,2,1:2:0:0:
422,63,106350,1,0,0:0:0:0:
225,142,106454,1,2,1:2:0:0:
214,60,106558,1,0,0:0:0:0:
26,65,106663,5,6,1:1:0:0:
256,192,106741,12,2,108850,0:0:0:0:
363,152,109163,5,6,1:1:0:0:
256,192,109241,12,2,111350,3:2:0:0:
149,162,111663,6,0,P|169:235|291:311,1,210,6|2,1:2|0:0,0:0:0:0:
292,204,112131,1,2,0:0:0:0:
59,146,112288,1,2,0:0:0:0:
178,101,112444,1,2,0:0:0:0:
43,58,112600,1,0,0:0:0:0:
162,13,112756,1,0,0:0:0:0:
449,277,112913,2,0,P|367:251|249:55,2,315,2|2|2,1:2|0:0|0:0,0:0:0:0:
43,287,114163,6,0,L|30:60,1,210,6|0,1:1|0:0,0:0:0:0:
364,134,114631,2,0,L|126:109,2,210,10|6|0,0:3|0:3|1:2,0:0:0:0:
63,354,115413,2,0,P|75:277|292:136,1,315,10|10,0:3|0:3,0:0:0:0:
413,103,116038,2,0,L|437:191,4,52.5,2|0|8|0|6,0:0|0:0|0:3|0:0|0:3,0:0:0:0:
24,208,116663,6,0,L|240:179,1,210,6|0,1:2|0:0,0:0:0:0:
101,149,117131,1,8,1:3:0:0:
390,90,117288,2,0,L|280:75,1,105,10|0,0:0|0:0,0:0:0:0:
437,165,117600,1,0,0:0:0:0:
448,269,117756,1,8,0:0:0:0:
285,279,117913,5,10,0:3:0:0:
145,322,118069,1,8,0:0:0:0:
303,173,118225,1,0,0:0:0:0:
443,216,118381,1,10,1:3:0:0:
162,217,118538,2,0,P|107:180|185:80,1,210,8|2,0:0|0:0,0:0:0:0:
309,79,119006,1,0,0:0:0:0:
52,359,119163,6,0,L|41:37,1,315,6|8,1:1|1:3,0:0:0:0:
195,85,119788,1,8,0:0:0:0:
201,198,119944,1,0,0:0:0:0:
38,149,120100,1,0,0:0:0:0:
384,168,120256,1,2,1:2:0:0:
459,166,120334,1,2,0:0:0:0:
384,168,120413,1,10,0:3:0:0:
159,277,120569,6,0,P|98:232|174:140,1,210,8|10,0:0|1:3,0:0:0:0:
317,71,121038,2,0,L|328:189,1,105,8|0,0:0|0:0,0:0:0:0:
171,160,121350,1,2,0:0:0:0:
16,135,121506,1,0,0:0:0:0:
334,221,121663,5,6,1:2:0:0:
108,301,121897,1,2,0:0:0:0:
334,221,122131,1,10,1:3:0:0:
57,190,122288,2,0,L|43:74,1,105,10|2,0:0|0:0,0:0:0:0:
198,121,122600,1,0,0:0:0:0:
45,86,122756,1,10,0:0:0:0:
340,234,122913,6,0,P|403:223|474:92,1,210,10|0,0:3|0:0,0:0:0:0:
354,69,123381,1,10,1:3:0:0:
202,206,123538,2,0,L|407:182,1,157.5,8|0,0:0|0:0,0:0:0:0:
165,120,123850,1,2,0:0:0:0:
30,103,124006,1,0,0:0:0:0:
346,214,124163,6,0,L|144:184,1,173.250005287171,14|0,1:2|0:0,0:0:0:0:
390,320,124475,2,0,P|450:294|375:236,1,188.999994232178,10|0,1:2|0:0,0:0:0:0:
154,172,124788,2,0,L|359:145,1,188.999994232178,10|0,1:2|0:0,0:0:0:0:
97,266,125100,2,0,P|37:240|112:182,1,188.999994232178,10|0,1:2|0:0,0:0:0:0:
363,207,125413,5,10,1:2:0:0:
177,137,125647,1,0,0:0:0:0:
389,81,125881,1,0,0:0:0:0:
38,193,126038,1,10,1:2:0:0:
208,120,126272,1,0,0:0:0:0:
26,63,126506,1,0,0:0:0:0:
262,346,126663,6,0,P|345:331|492:52,1,420,6|2,1:1|0:0,0:0:0:0:
398,104,127392,2,0,L|385:205,1,70,0|0,0:0|0:0,0:0:0:0:
194,218,127600,2,0,L|207:315,1,70,2|0,0:0|0:0,0:0:0:0:
294,307,127808,1,0,0:0:0:0:
79,299,127913,6,0,L|1:309,1,70,2|0,0:0|0:0,0:0:0:0:
88,297,128121,1,0,0:0:0:0:
314,170,128225,1,2,0:0:0:0:
235,156,128329,1,0,0:0:0:0:
156,141,128433,1,0,0:0:0:0:
370,263,128538,2,0,L|464:250,1,70,2|0,0:0|0:0,0:0:0:0:
235,203,128746,1,0,0:0:0:0:
454,128,128850,1,2,0:0:0:0:
377,91,128954,1,0,0:0:0:0:
454,128,129058,1,0,0:0:0:0:
156,49,129163,5,2,0:0:0:0:
256,192,129241,12,2,130256,0:0:0:0:
195,254,130413,6,0,P|142:221|210:113,1,210,14|0,1:2|0:0,0:0:0:0:
443,203,130881,2,0,L|456:79,1,105,2|8,1:2|0:0,0:0:0:0:
313,69,131194,1,2,0:0:0:0:
168,202,131350,2,0,L|290:187,1,105,2|0,0:0|1:2,0:0:0:0:
426,292,131663,5,2,0:0:0:0:
177,349,131819,2,0,L|163:135,1,210,0|2,1:2|1:2,0:0:0:0:
422,142,132288,1,8,0:0:0:0:
306,103,132444,1,0,0:0:0:0:
422,142,132600,1,2,1:2:0:0:
39,234,132913,6,0,P|98:214|168:68,1,210,14|0,1:2|0:0,0:0:0:0:
339,180,133381,2,0,L|329:52,1,105,2|8,1:2|0:0,0:0:0:0:
159,64,133694,1,10,0:0:0:0:
341,179,133850,2,0,L|461:183,1,105,2|2,0:0|1:2,0:0:0:0:
194,343,134163,5,2,0:0:0:0:
329,283,134319,1,0,1:2:0:0:
194,343,134475,1,2,0:0:0:0:
453,198,134631,1,2,1:2:0:0:
169,245,134788,1,10,0:0:0:0:
314,192,134944,1,2,0:0:0:0:
149,147,135100,1,2,1:2:0:0:
296,95,135256,1,0,0:0:0:0:
40,200,135413,6,0,P|56:128|176:72,1,210,14|2,1:2|0:0,0:0:0:0:
340,113,135881,2,0,L|337:226,1,105,2|8,1:2|0:0,0:0:0:0:
169,258,136194,1,10,0:0:0:0:
452,182,136350,1,2,0:0:0:0:
465,288,136506,1,2,1:2:0:0:
147,353,136663,5,2,0:0:0:0:
292,300,136819,1,0,1:2:0:0:
127,255,136975,1,2,0:0:0:0:
274,203,137131,1,2,1:2:0:0:
30,210,137288,2,0,L|25:84,1,105,8|2,0:0|0:0,0:0:0:0:
296,284,137600,2,0,L|470:262,1,157.5,2|0,1:2|0:0,0:0:0:0:
246,211,137913,6,0,P|257:145|397:72,1,210,14|2,1:2|0:0,0:0:0:0:
217,98,138381,1,2,1:2:0:0:
71,136,138538,1,8,0:0:0:0:
336,208,138694,2,0,L|351:318,1,105,10|10,0:0|0:0,0:0:0:0:
180,159,139006,1,2,1:2:0:0:
461,282,139163,5,2,0:0:0:0:
316,229,139319,1,2,1:2:0:0:
481,184,139475,1,0,0:0:0:0:
334,132,139631,1,2,1:2:0:0:
51,300,139788,2,0,L|40:182,1,105,8|6,0:0|0:3,0:0:0:0:
228,267,140022,1,4,0:3:0:0:
296,278,140100,1,0,1:2:0:0:
228,267,140178,1,0,1:2:0:0:
401,104,140256,1,10,0:0:0:0:
472,115,140334,1,8,0:0:0:0:
239,363,140413,6,0,P|169:346|110:220,1,210,6|2,1:1|0:0,0:0:0:0:
265,246,140881,2,0,L|492:220,1,210,0|0,1:2|0:0,0:0:0:0:
181,147,141350,1,10,0:0:0:0:
453,95,141663,5,2,1:2:0:0:
181,147,141819,2,0,P|197:224|328:289,1,210,8|2,0:0|1:2,0:0:0:0:
47,336,142288,1,0,0:0:0:0:
171,279,142444,1,0,1:2:0:0:
298,220,142600,1,10,0:0:0:0:
436,163,142756,1,0,0:0:0:0:
154,360,142913,6,0,P|78:330|168:159,1,315,6|0,1:1|1:2,0:0:0:0:
303,120,143538,2,0,L|103:88,1,157.5,2|0,0:0|0:0,0:0:0:0:
342,221,143850,1,10,0:0:0:0:
489,176,144006,1,0,0:0:0:0:
193,303,144163,5,10,1:2:0:0:
339,261,144319,1,0,0:0:0:0:
268,278,144397,1,8,0:0:0:0:
80,213,144475,1,2,0:0:0:0:
345,170,144631,2,0,P|402:135|331:30,1,210,10|0,1:2|1:2,0:0:0:0:
75,205,145100,1,14,0:3:0:0:
63,102,145256,1,0,1:2:0:0:
432,184,145413,5,10,0:0:0:0:
128,184,147913,5,10,0:0:0:0:
456,285,148069,1,2,1:2:0:0:
79,181,148850,5,10,0:0:0:0:
407,282,149006,1,2,1:2:0:0:
20,178,149788,5,10,0:0:0:0:
348,279,149944,2,0,B|453:278|453:278|320:279,1,210,2|0,1:2|0:0,0:0:0:0:
69,286,150413,6,0,P|77:221|209:140,1,210,6|2,1:1|0:0,0:0:0:0:
353,181,150881,1,2,1:2:0:0:
77,268,151038,1,10,0:0:0:0:
225,215,151194,1,2,0:0:0:0:
70,184,151350,1,2,0:0:0:0:
58,82,151506,1,2,1:2:0:0:
406,224,151663,5,2,0:0:0:0:
202,302,151767,1,2,0:0:0:0:
123,301,151871,1,2,0:0:0:0:
356,142,151975,1,2,1:2:0:0:
440,141,152079,1,2,0:0:0:0:
356,142,152183,1,2,0:0:0:0:
165,84,152288,1,10,0:0:0:0:
255,80,152392,1,2,0:0:0:0:
345,76,152496,1,2,0:0:0:0:
141,142,152600,1,2,0:0:0:0:
65,141,152704,1,2,0:0:0:0:
141,142,152808,1,2,0:0:0:0:
432,225,152913,5,6,1:1:0:0:
256,192,152991,12,2,155100,0:0:0:0:
337,232,155413,5,10,1:3:0:0:
173,220,155491,1,8,0:3:0:0:
110,187,155569,1,6,0:3:0:0:
173,220,155647,1,4,0:3:0:0:
355,140,155725,1,10,1:3:0:0:
167,114,155803,1,8,0:3:0:0:
97,79,155881,1,6,0:3:0:0:
167,114,155959,1,4,0:3:0:0:
405,219,156038,1,10,1:3:0:0:
418,298,156116,1,8,0:3:0:0:
236,282,156194,1,6,0:3:0:0:
223,361,156272,1,4,0:3:0:0:
432,141,156350,1,10,1:3:0:0:
360,144,156428,1,8,0:3:0:0:
171,57,156506,1,6,0:3:0:0:
249,59,156584,1,4,0:3:0:0:
472,56,156663,1,10,1:2:0:0:
152,160,158225,5,14,1:2:0:0:
16,216,158381,1,0,0:0:0:0:
329,201,158537,1,14,0:0:0:0:
177,261,158693,1,0,0:0:0:0:
487,256,158850,1,14,0:0:0:0:
256,288,159006,1,0,1:2:0:0:
25,256,159163,5,14,0:0:0:0:
182,316,159319,1,0,1:2:0:0:
19,155,159475,1,14,0:0:0:0:
282,212,159631,1,0,1:2:0:0:
15,54,159788,1,10,0:0:0:0:
370,114,159944,1,10,0:3:0:0:
25,256,160100,1,8,0:3:0:0:
213,259,160178,1,8,0:3:0:0:
280,224,160256,1,6,0:3:0:0:
213,259,160334,1,4,0:3:0:0:
404,308,160413,6,0,P|446:278|383:201,1,157.5,4|0,1:2|0:0,0:0:0:0:
217,132,160725,1,10,0:0:0:0:
75,106,160881,1,10,0:0:0:0:
336,277,161038,2,0,P|316:210|209:178,1,157.5,2|0,0:0|0:0,0:0:0:0:
51,242,161350,1,10,0:0:0:0:
37,125,161506,1,0,0:0:0:0:
330,153,161663,5,2,1:2:0:0:
193,117,161819,1,0,1:2:0:0:
461,242,161975,1,10,0:0:0:0:
475,125,162131,1,2,1:2:0:0:
185,292,162288,1,10,0:0:0:0:
258,278,162366,1,8,0:0:0:0:
420,315,162444,1,10,0:0:0:0:
113,375,162600,1,0,1:2:0:0:
340,239,162756,6,0,P|409:209|328:142,1,210,6|2,1:1|1:2,0:0:0:0:
32,144,163225,1,10,0:0:0:0:
254,186,163381,1,0,1:2:0:0:
482,234,163538,1,2,0:0:0:0:
254,186,163694,1,2,1:2:0:0:
376,128,163850,1,10,0:0:0:0:
72,228,164006,6,0,P|89:161|187:111,1,157.5,2|0,0:0|0:0,0:0:0:0:
338,300,164319,1,2,1:2:0:0:
47,307,164475,1,8,0:0:0:0:
317,200,164631,2,0,L|172:199,1,105,2|0,1:2|0:0,0:0:0:0:
460,241,164944,2,0,L|482:359,1,105,2|8,1:2|0:0,0:0:0:0:
176,241,165257,5,2,0:0:0:0:
455,189,165413,2,0,L|477:67,1,105,0|2,1:2|0:0,0:0:0:0:
235,181,165725,2,0,L|229:54,1,105,10|10,0:0|0:0,0:0:0:0:
49,139,166038,2,0,L|34:317,1,157.5,2|0,0:0|0:0,0:0:0:0:
248,304,166350,1,10,0:0:0:0:
392,344,166506,1,0,0:0:0:0:
136,191,166663,5,10,1:2:0:0:
326,203,166741,1,8,0:0:0:0:
401,187,166819,1,8,0:0:0:0:
101,90,166975,1,10,1:2:0:0:
242,51,167131,1,10,0:0:0:0:
469,311,167288,1,10,1:2:0:0:
394,278,167366,1,0,0:0:0:0:
198,282,167444,1,10,0:0:0:0:
268,261,167522,1,0,0:0:0:0:
471,173,167600,1,4,0:3:0:0:
393,149,167678,1,0,0:0:0:0:
167,195,167756,6,0,P|187:126|340:52,1,210,6|2,1:1|1:2,0:0:0:0:
187,96,168225,1,10,0:0:0:0:
355,155,168381,1,0,1:2:0:0:
126,182,168538,1,2,0:0:0:0:
384,246,168694,1,0,1:2:0:0:
70,267,168850,1,10,0:0:0:0:
415,336,169006,1,0,0:0:0:0:
52,80,169163,2,0,L|41:191,1,105,2|0,1:2|1:2,0:0:0:0:
327,170,169475,1,10,0:0:0:0:
180,228,169631,1,0,1:2:0:0:
475,295,169788,5,2,0:0:0:0:
180,260,169944,2,0,L|203:124,1,105,0|10,1:2|0:0,0:0:0:0:
37,295,170256,1,2,0:0:0:0:
349,261,170412,2,0,L|326:125,1,105,4|2,1:2|0:0,0:0:0:0:
475,295,170725,5,10,0:0:0:0:
180,260,170881,2,0,L|203:124,1,105,0|2,1:2|0:0,0:0:0:0:
32,208,171194,1,10,0:0:0:0:
325,104,171350,1,0,1:2:0:0:
174,66,171506,1,2,0:0:0:0:
467,237,171663,6,0,L|245:205,1,210,10|2,0:0|0:0,0:0:0:0:
407,160,172131,1,8,0:0:0:0:
70,166,172288,1,10,0:0:0:0:
208,111,172444,1,2,1:2:0:0:
71,158,172600,1,0,1:2:0:0:
330,230,172756,1,10,0:0:0:0:
404,229,172834,1,8,0:0:0:0:
146,340,172913,6,0,P|86:305|158:213,1,210,6|8,1:1|0:0,0:0:0:0:
409,118,173381,1,0,1:2:0:0:
249,78,173538,2,0,L|372:65,1,105,2|0,0:0|1:2,0:0:0:0:
61,101,173850,2,0,L|52:284,1,157.5,10|0,0:0|0:0,0:0:0:0:
251,312,174163,5,2,1:2:0:0:
392,351,174319,1,0,1:2:0:0:
99,274,174475,1,10,0:0:0:0:
398,252,174631,2,0,P|461:208|376:118,1,210,2|2,1:2|1:2,0:0:0:0:
246,110,175100,1,8,0:0:0:0:
321,89,175178,1,0,0:0:0:0:
488,45,175256,1,2,0:0:0:0:
251,284,175413,6,0,L|121:266,1,105,2|0,1:2|0:0,0:0:0:0:
425,212,175725,1,8,0:0:0:0:
152,181,175881,1,10,0:0:0:0:
439,306,176038,2,0,P|429:236|314:176,1,210,0|10,0:0|0:0,0:0:0:0:
453,145,176506,1,2,0:0:0:0:
279,142,176663,5,10,1:2:0:0:
31,140,176819,2,0,L|36:192,1,52.5,8|8,0:0|0:0,0:0:0:0:
232,230,176975,1,10,1:2:0:0:
481,140,177131,2,0,L|477:192,1,52.5,10|8,0:0|0:0,0:0:0:0:
280,230,177287,1,10,1:2:0:0:
134,229,177444,1,10,0:0:0:0:
392,114,177600,1,8,0:0:0:0:
465,115,177678,1,8,0:0:0:0:
219,353,177756,6,0,P|159:341|80:200,1,210,6|2,1:1|1:2,0:0:0:0:
235,240,178225,1,10,0:0:0:0:
359,200,178381,1,0,1:2:0:0:
138,170,178538,1,2,0:0:0:0:
376,97,178694,1,0,1:2:0:0:
40,101,178850,1,10,0:0:0:0:
391,3,179006,1,0,0:0:0:0:
40,101,179163,2,0,L|160:91,1,105,2|0,1:2|1:2,0:0:0:0:
273,189,179475,1,10,0:0:0:0:
132,117,179631,1,0,1:2:0:0:
475,295,179788,5,2,0:0:0:0:
180,260,179944,2,0,L|203:124,1,105,0|10,1:2|0:0,0:0:0:0:
37,295,180256,1,2,0:0:0:0:
349,261,180412,2,0,L|326:125,1,105,4|2,1:2|0:0,0:0:0:0:
475,295,180725,5,10,0:0:0:0:
180,260,180881,2,0,L|203:124,1,105,0|2,1:2|0:0,0:0:0:0:
32,208,181194,1,10,0:0:0:0:
325,104,181350,1,0,1:2:0:0:
174,66,181506,1,2,0:0:0:0:
452,267,181663,6,0,L|475:131,1,105,10|0,0:0|1:2,0:0:0:0:
174,66,181975,1,2,0:0:0:0:
325,104,182131,1,8,0:0:0:0:
27,200,182288,1,10,0:0:0:0:
178,238,182444,1,2,1:2:0:0:
27,200,182600,1,0,1:2:0:0:
299,307,182756,1,10,0:0:0:0:
373,295,182834,1,8,0:0:0:0:
152,350,182913,6,0,P|109:309|183:241,1,157.5,6|0,1:1|0:0,0:0:0:0:
339,170,183225,1,8,1:2:0:0:
465,206,183381,1,8,0:0:0:0:
178,178,183538,1,10,1:2:0:0:
472,297,183694,1,8,0:0:0:0:
345,331,183850,1,10,1:2:0:0:
472,297,184006,1,8,0:0:0:0:
181,257,184163,5,10,1:2:0:0:
313,219,184319,1,8,0:0:0:0:
120,173,184475,1,10,1:2:0:0:
370,128,184631,1,10,0:0:0:0:
48,88,184788,1,8,1:2:0:0:
429,43,184944,1,10,0:0:0:0:
433,124,185022,1,8,0:0:0:0:
265,94,185100,1,8,1:2:0:0:
191,95,185178,1,8,0:0:0:0:
365,241,185256,1,10,0:0:0:0:
439,242,185334,1,8,0:0:0:0:
114,172,185413,5,10,1:2:0:0:
412,346,186037,1,10,0:0:0:0:
100,38,186194,1,2,1:2:0:0:
363,247,186506,6,0,P|423:215|344:23,1,315,6|8,1:1|0:3,0:0:0:0:
192,128,187053,1,8,0:3:0:0:
116,128,187131,1,4,0:3:0:0:
192,128,187209,1,4,0:3:0:0:
360,284,187288,1,8,0:3:0:0:
368,209,187366,1,8,0:3:0:0:
198,44,187444,1,4,0:3:0:0:
122,43,187522,1,4,0:3:0:0:
407,44,187600,1,8,0:3:0:0:
160,307,187913,6,0,P|104:270|182:171,1,210,6|10,1:1|0:1,0:0:0:0:
448,88,188381,1,6,1:3:0:0:
165,251,188694,2,0,L|396:212,1,210,10|8,0:1|0:1,0:0:0:0:
63,237,189163,6,0,L|57:117,1,105,6|0,1:3|0:0,0:0:0:0:
208,128,189475,1,10,0:1:0:0:
51,50,189631,1,6,1:3:0:0:
378,254,189788,2,0,L|266:238,1,105,2|10,0:0|0:1,0:0:0:0:
99,157,190100,2,0,L|92:296,1,105,2|8,0:0|0:1,0:0:0:0:
417,78,190413,6,0,L|500:88,1,70,6|0,1:3|0:0,0:0:0:0:
417,78,190621,1,0,0:0:0:0:
236,218,190725,1,10,2:1:0:0:
311,202,190829,1,0,0:0:0:0:
386,186,190933,1,0,0:0:0:0:
148,130,191038,2,0,L|65:140,1,70,2|0,0:0|0:0,0:0:0:0:
148,130,191246,1,0,0:0:0:0:
382,208,191350,1,10,0:1:0:0:
307,224,191454,1,0,0:0:0:0:
232,240,191558,1,0,0:0:0:0:
475,295,191663,5,10,1:2:0:0:
180,354,191819,1,10,1:2:0:0:
41,354,191975,1,0,0:0:0:0:
332,354,192131,1,6,1:3:0:0:
471,354,192287,1,0,0:0:0:0:
106,239,192444,2,0,P|57:192|126:142,1,157.5,14|0,1:2|0:0,0:0:0:0:
327,102,192756,1,2,0:0:0:0:
48,349,192913,5,10,1:2:0:0:
38,242,193069,1,2,0:0:0:0:
194,246,193225,1,2,0:0:0:0:
184,132,193381,1,2,0:0:0:0:
36,312,193538,1,2,0:0:0:0:
26,205,193694,1,2,0:0:0:0:
182,209,193850,1,2,0:0:0:0:
172,95,194006,1,2,0:0:0:0:
472,155,194163,1,10,1:2:0:0:
231,288,194319,5,6,0:3:0:0:
154,280,194397,1,4,0:3:0:0:
322,220,194475,1,10,0:3:0:0:
470,169,194553,1,8,0:3:0:0:
492,100,194631,1,6,0:3:0:0:
469,168,194709,1,4,0:3:0:0:
289,137,194788,1,10,0:3:0:0:
218,121,194866,1,8,0:3:0:0:
182,72,194944,1,2,1:2:0:0:
172,25,195022,1,0,1:2:0:0:
364,42,195100,1,10,0:0:0:0:
289,41,195178,1,8,0:0:0:0:
364,42,195256,1,2,1:2:0:0:
192,43,195334,1,0,1:2:0:0:
19,44,195413,1,10,0:0:0:0:
