osu file format v14

[General]
AudioFilename: audio.mp3
AudioLeadIn: 0
PreviewTime: 52143
Countdown: 0
SampleSet: Normal
StackLeniency: 0.7
Mode: 0
LetterboxInBreaks: 0
WidescreenStoryboard: 0

[Editor]
DistanceSpacing: 0.6
BeatDivisor: 4
GridSize: 4
TimelineZoom: 1

[Metadata]
Title:Alice
TitleUnicode:Alice
Artist:Ryokuoushoku Shakai
ArtistUnicode:緑黄色社会
Creator:CoLouRed GlaZeE
Version:Hard
Source:
Tags:delis j-pop jpop pop japanese rock jrock j-rock ryokushaka リョクシャカ 幸せ -ep- shiawase
BeatmapID:3761744
BeatmapSetID:1812255

[Difficulty]
HPDrainRate:5
CircleSize:4
OverallDifficulty:6
ApproachRate:8
SliderMultiplier:1.4
SliderTickRate:1

[Events]
//Background and Video events
0,0,"alice in wonderland1.jpg",0,0
//Break Periods
2,72958,82917
2,137129,141313
//Storyboard Layer 0 (Background)
//Storyboard Layer 1 (Fail)
//Storyboard Layer 2 (Pass)
//Storyboard Layer 3 (Foreground)
//Storyboard Layer 4 (Overlay)
//Storyboard Sound Samples

[TimingPoints]
887,320.855614973262,4,2,1,60,1,0
6020,-100,4,2,1,65,0,0
8266,-83.3333333333333,4,2,1,65,0,0
8587,-100,4,1,1,70,0,0
18855,-100,4,2,1,60,0,0
30406,-100,4,1,1,70,0,0
43239,-100,4,2,1,70,0,0
44523,-100,4,1,1,70,0,0
45806,-100,4,2,1,70,0,0
47090,-100,4,1,1,70,0,0
52223,-100,4,1,1,80,0,1
72758,-100,4,2,1,60,0,0
83667,-100,4,1,1,70,0,0
89443,-100,4,2,1,60,0,0
92009,-100,4,1,1,70,0,0
107411,-100,4,2,1,70,0,0
108694,-100,4,1,1,70,0,0
109977,-100,4,2,1,70,0,0
111261,-100,4,1,1,70,0,0
115592,-100,4,1,1,70,0,0
116395,-100,4,1,1,80,0,1
136929,-100,4,1,1,70,0,0
157464,-133.333333333333,4,2,1,70,0,0
162598,-100,4,1,1,70,0,0
165165,-100,4,1,1,75,0,0
166448,-100,4,1,1,80,0,0
167731,-133.333333333333,4,1,1,70,0,0
172865,-133.333333333333,4,2,1,60,0,0
175432,-100,4,1,1,70,0,0
176074,-100,4,1,1,75,0,0
176395,-100,4,1,1,80,0,0
176716,-100,4,1,1,85,0,0
177999,-83.3333333333333,4,1,1,90,0,1
186341,-133.333333333333,4,2,1,60,0,0
188266,-133.333333333333,4,2,1,70,0,0
197250,-100,4,1,1,70,0,0

[Colours]
Combo1 : 148,147,204
Combo2 : 235,157,120
Combo3 : 98,190,230
Combo4 : 237,167,237

[HitObjects]
375,256,566,6,0,P|399:228|361:137,1,140,0|0,0:0|0:0,0:0:0:0:
177,269,1207,2,0,P|205:286|243:307,2,70,2|0|0,0:0|0:0|0:0,0:0:0:0:
127,154,1849,2,0,P|155:171|193:192,2,70,2|0|0,0:0|0:0|0:0,0:0:0:0:
77,39,2491,2,0,P|105:56|143:77,2,70,2|0|0,0:0|0:0|0:0,0:0:0:0:
278,35,3132,6,0,P|302:63|264:154,1,140,2|0,0:0|0:0,0:0:0:0:
430,263,3774,2,0,P|394:257|353:251,2,70,2|0|0,0:0|0:0|0:0,0:0:0:0:
299,304,4416,2,0,P|263:298|222:292,2,70,2|0|0,0:0|0:0|0:0,0:0:0:0:
168,345,5058,2,0,P|132:339|91:333,2,70,2|0|0,0:0|0:0|0:0,0:0:0:0:
54,193,5699,6,0,P|107:163|180:188,1,140,2|4,0:0|3:1,0:0:0:0:
119,241,6181,1,0,0:0:0:0:
196,266,6341,2,0,P|226:248|250:223,1,70,2|0,1:2|0:0,0:0:0:0:
241,137,6662,2,0,B|271:151|271:151|322:128|380:149,1,140,0|2,3:0|1:2,0:0:0:0:
444,186,7143,1,0,0:0:0:0:
326,218,7304,6,0,P|346:251|341:291,2,70,2|0|2,3:2|0:0|1:2,0:0:0:0:
281,325,7785,2,0,L|202:342,1,70,0|0,0:0|3:0,0:0:0:0:
139,362,8106,1,0,1:0:0:0:
139,362,8186,1,0,1:0:0:0:
139,362,8266,1,0,1:0:0:0:
104,177,8587,5,4,0:2:0:0:
68,254,8747,2,0,L|44:286,2,35,2|2|10,0:2|0:2|0:2,0:0:0:0:
154,250,9068,2,0,P|185:220|169:119,1,140,2|2,0:2|0:2,0:0:0:0:
108,84,9550,1,8,0:0:0:0:
108,84,9710,2,0,P|195:78|271:73,1,140,2|0,0:2|0:0,0:0:0:0:
325,37,10191,2,0,P|357:52|397:68,1,70,10|0,0:2|0:0,0:0:0:0:
446,131,10512,2,0,P|471:106|473:63,2,70,2|6|6,0:2|0:2|0:2,0:0:0:0:
256,194,11154,5,4,0:2:0:0:
303,269,11314,2,0,L|309:304,2,35,2|2|10,0:2|0:2|0:2,0:0:0:0:
404,289,11635,2,0,B|434:274|466:277|466:277|459:235|487:202,1,140,2|2,0:2|0:2,0:0:0:0:
453,117,12116,1,8,0:0:0:0:
395,208,12277,2,0,P|336:203|256:194,1,140,2|0,0:2|0:0,0:0:0:0:
208,108,12758,2,0,P|237:110|277:115,1,70,10|0,0:2|0:0,0:0:0:0:
172,187,13079,2,0,P|169:216|165:256,1,70,2|6,0:2|0:2,0:0:0:0:
158,343,13400,1,6,0:2:0:0:
367,288,13721,5,4,0:2:0:0:
288,325,13881,2,0,L|281:359,2,35,2|2|10,0:2|0:2|0:2,0:0:0:0:
290,238,14202,2,0,P|327:207|418:210,1,140,2|2,0:2|0:2,0:0:0:0:
458,138,14683,1,8,0:0:0:0:
458,138,14844,2,0,B|422:117|384:116|384:116|378:73|333:57,1,140,2|0,0:2|0:0,0:0:0:0:
300,133,15325,2,0,P|257:158|220:157,1,70,10|0,0:2|0:0,0:0:0:0:
151,150,15646,2,0,P|107:125|90:92,1,70,2|6,0:2|0:2,0:0:0:0:
229,26,15967,2,0,P|207:60|205:101,1,70,6|0,0:2|0:0,0:0:0:0:
208,232,16288,5,12,0:0:0:0:
281,274,16448,2,0,L|294:311,2,35,0|0|8,0:0|0:0|0:0,0:0:0:0:
316,188,16769,2,0,L|304:154,2,35,0|0|8,0:0|0:0|0:0,0:0:0:0:
393,261,17090,1,0,0:0:0:0:
393,261,17170,1,0,0:0:0:0:
393,261,17250,2,0,P|430:249|466:237,1,70,8|0,0:0|0:0,0:0:0:0:
404,156,17571,6,0,B|441:144|472:133|472:133|486:102,1,105,10|6,0:3|0:3,0:0:0:0:
378,44,18052,6,0,B|311:72|242:88|242:88|225:118|216:150,1,210,4|4,0:2|0:0,0:0:0:0:
216,149,18854,6,0,L|246:298,1,140,6|8,0:0|0:0,0:0:0:0:
158,245,19336,1,0,0:0:0:0:
158,245,19496,2,0,P|210:248|301:204,1,140,2|8,0:0|0:0,0:0:0:0:
344,117,19977,1,0,0:0:0:0:
344,117,20138,2,0,B|334:148|334:148|382:187|359:254,2,140,2|10|2,0:0|0:0|0:0,0:0:0:0:
443,260,21100,6,0,P|450:222|445:182,1,70,8|0,0:0|0:0,0:0:0:0:
388,318,21421,2,0,L|240:338,1,140,2|8,0:0|0:0,0:0:0:0:
185,294,21903,1,0,0:0:0:0:
121,252,22063,1,2,0:0:0:0:
289,121,22384,6,0,P|307:159|306:189,1,70,8|0,0:0|0:0,0:0:0:0:
227,173,22705,2,0,L|365:154,1,140,2|8,0:0|0:0,0:0:0:0:
418,95,23186,1,0,0:0:0:0:
455,187,23346,1,2,0:0:0:0:
227,173,23667,1,8,0:0:0:0:
100,298,23988,6,0,P|137:252|105:167,1,140,2|8,0:0|0:0,0:0:0:0:
52,229,24469,1,0,0:0:0:0:
53,106,24630,2,0,B|93:102|126:78|126:78|184:130,2,140,2|8|2,0:0|0:0|0:0,0:0:0:0:
52,229,25432,6,0,P|87:230|127:244,1,70,0|8,0:0|0:0,0:0:0:0:
191,279,25753,1,0,0:0:0:0:
184,198,25913,2,0,P|191:157|270:92,1,140,2|8,0:0|0:0,0:0:0:0:
273,240,26395,1,0,0:0:0:0:
314,164,26555,6,0,L|333:320,1,140,2|8,0:0|0:0,0:0:0:0:
246,322,27036,2,0,P|213:326|162:333,1,70,0|2,0:0|0:0,0:0:0:0:
175,149,27518,1,8,0:0:0:0:
175,149,27678,1,0,0:0:0:0:
175,149,27838,2,0,B|113:115|64:155|64:155|68:128,1,140,2|8,0:0|0:0,0:0:0:0:
71,259,28480,6,0,P|102:241|123:211,1,70,2|2,0:0|0:0,0:0:0:0:
235,191,28801,2,0,P|250:138|199:78,1,140,8|6,0:0|0:0,0:0:0:0:
171,280,29362,5,0,1:0:0:0:
183,290,29443,2,0,L|163:207,1,70,8|8,0:0|0:3,0:0:0:0:
276,334,29764,2,0,L|256:251,2,70,4|0|2,0:3|0:0|0:0,0:0:0:0:
413,109,30405,6,0,P|452:152|435:218,1,105,4|0,0:1|0:0,0:0:0:0:
441,213,30726,2,0,P|420:261|415:280,1,70,8|0,0:0|0:0,0:0:0:0:
352,196,31047,2,0,P|286:190|201:178,1,140,0|8,0:0|0:0,0:0:0:0:
161,102,31528,1,0,0:0:0:0:
251,99,31689,2,0,P|286:104|321:108,1,70,2|0,0:2|0:0,0:0:0:0:
133,182,32009,2,0,P|98:177|63:173,1,70,10|0,0:2|0:0,0:0:0:0:
144,272,32330,2,0,P|202:309|273:281,1,140,2|8,0:2|0:0,0:0:0:0:
309,213,32812,5,0,0:0:0:0:
388,309,32972,2,0,L|397:193,1,105,0|0,0:0|0:0,0:0:0:0:
398,188,33293,2,0,P|435:194|471:196,1,70,8|0,0:0|0:0,0:0:0:0:
335,133,33614,2,0,P|261:120|191:117,1,140,0|8,0:0|0:0,0:0:0:0:
123,160,34095,1,0,0:0:0:0:
189,269,34255,6,0,L|196:198,1,70,0|0,0:0|0:0,0:0:0:0:
269,241,34576,2,0,L|262:312,1,70,8|0,0:0|0:0,0:0:0:0:
106,324,34897,2,0,L|113:253,1,70,0|4,0:0|0:2,0:0:0:0:
123,160,35218,2,0,B|104:95|136:54|136:54|155:101,1,140,12|4,0:2|0:0,0:0:0:0:
335,133,35860,6,0,P|392:168|461:137,2,140,8|0|8,0:0|0:0|0:0,0:0:0:0:
261,92,36662,1,0,0:0:0:0:
399,92,36822,2,0,P|402:56|402:18,1,70,0|0,0:0|0:0,0:0:0:0:
261,92,37143,2,0,P|257:128|258:166,1,70,8|0,0:0|0:0,0:0:0:0:
313,228,37464,2,0,P|250:252|192:217,1,140,0|8,0:0|0:0,0:0:0:0:
42,160,38106,6,0,L|54:240,2,70,8|8|2,0:0|0:0|2:2,0:0:0:0:
206,98,38747,2,0,L|226:30,2,70,8|8|2,0:0|0:0|2:2,0:0:0:0:
275,279,39389,1,0,1:0:0:0:
460,149,39710,6,0,L|316:149,1,140,14|0,0:2|1:0,0:0:0:0:
415,279,40352,2,0,L|271:279,1,140,14|0,0:2|1:0,0:0:0:0:
244,93,40993,2,0,L|100:93,1,140,14|0,0:2|1:0,0:0:0:0:
196,299,41635,2,0,L|52:299,1,140,14|4,0:2|0:1,0:0:0:0:
28,169,42277,6,0,P|79:167|112:173,1,70,8|8,0:0|0:0,0:0:0:0:
170,196,42598,2,0,P|219:211|281:157,1,140,0|8,0:0|0:0,0:0:0:0:
472,227,43239,2,0,P|466:273|482:311,2,70,2|2|2,2:0|2:0|2:0,0:0:0:0:
488,151,43721,1,2,2:0:0:0:
488,151,43881,2,0,P|437:123|352:144,2,140,2|2|4,2:0|2:0|0:0,0:0:0:0:
385,289,44844,6,0,P|352:293|311:294,1,70,8|8,0:0|0:0,0:0:0:0:
253,246,45165,2,0,P|221:277|117:259,1,140,0|8,0:0|0:0,0:0:0:0:
43,122,45806,2,0,P|49:157|52:195,2,70,2|2|2,2:2|2:2|2:2,0:0:0:0:
97,64,46288,2,0,P|145:77|183:75,1,70,2|2,2:2|2:0,0:0:0:0:
239,64,46608,2,0,L|275:42,2,35,8|8|8,2:0|2:0|2:0,0:0:0:0:
157,242,47090,6,0,L|242:224,1,70,4|0,0:1|0:0,0:0:0:0:
312,225,47411,2,0,L|379:269,1,70,0|8,0:0|0:0,0:0:0:0:
242,141,47731,2,0,L|231:298,1,140,0|8,0:0|0:0,0:0:0:0:
308,327,48213,1,0,0:0:0:0:
371,263,48373,6,0,P|424:250|456:169,1,140,4|0,0:0|0:0,0:0:0:0:
450,89,48854,1,8,0:0:0:0:
377,182,49015,2,0,B|359:174|359:174|324:204|278:175,1,105,0|0,0:0|2:0,0:0:0:0:
281,162,49336,2,0,L|289:68,1,70,8|0,0:0|0:0,0:0:0:0:
185,143,49657,6,0,P|116:146|33:125,1,140,4|8,0:0|0:0,0:0:0:0:
17,218,50138,1,0,0:0:0:0:
95,261,50298,2,0,L|139:325,1,70,8|0,0:0|0:0,0:0:0:0:
185,143,50619,2,0,L|190:221,1,70,12|0,0:2|0:2,0:0:0:0:
214,294,50940,6,0,B|226:311|226:311|264:303|292:322|292:322|317:301,1,105,10|10,1:0|1:0,0:0:0:0:
393,268,51421,6,0,B|400:278|400:278|423:273|440:284|440:284|455:272,1,70,10|10,1:0|1:0,0:0:0:0:
446,104,51903,5,6,0:2:0:0:
314,230,52223,6,0,P|246:218|149:202,1,140,4|8,1:0|0:0,0:0:0:0:
96,242,52705,1,2,0:2:0:0:
29,183,52865,2,0,P|16:141|27:105,1,70,2|0,0:2|0:0,0:0:0:0:
86,57,53186,2,0,L|155:76,1,70,8|0,0:0|0:0,0:0:0:0:
176,207,53507,6,0,L|321:166,1,140,0|8,0:0|0:0,0:0:0:0:
251,94,53988,1,2,0:2:0:0:
176,207,54149,2,0,B|152:264|198:305|198:305|165:344,1,140,2|8,0:2|0:0,0:0:0:0:
273,336,54630,5,0,0:0:0:0:
361,320,54790,2,0,P|407:338|448:333,1,70,0|0,0:0|2:0,0:0:0:0:
320,247,55111,2,0,L|340:86,2,140,10|0|10,0:2|0:0|0:2,0:0:0:0:
246,182,55913,5,0,0:0:0:0:
170,219,56074,2,0,P|128:205|104:169,1,70,0|0,0:0|0:0,0:0:0:0:
59,98,56395,2,0,L|125:74,1,70,8|2,0:0|0:2,0:0:0:0:
227,35,56715,2,0,L|200:125,1,70,2|0,0:2|0:0,0:0:0:0:
206,102,56956,1,0,0:0:0:0:
206,102,57036,1,8,0:0:0:0:
95,273,57357,5,4,0:0:0:0:
173,304,57518,1,2,0:2:0:0:
245,262,57678,2,0,P|253:223|239:179,1,70,8|2,0:0|0:2,0:0:0:0:
288,336,57999,6,0,L|361:311,1,70,0|2,0:0|0:2,0:0:0:0:
415,242,58320,2,0,P|423:203|409:159,1,70,8|2,0:0|0:2,0:0:0:0:
341,206,58641,2,0,L|343:48,1,140,0|8,0:0|0:0,0:0:0:0:
267,113,59122,5,0,0:0:0:0:
181,135,59282,2,0,P|141:129|90:105,1,70,0|2,0:0|0:2,0:0:0:0:
217,50,59603,2,0,L|215:189,1,140,8|0,0:0|0:0,0:0:0:0:
354,313,60245,5,8,0:0:0:0:
274,287,60405,2,0,B|237:278|237:278|234:320|192:353|140:332,1,140,2|2,0:2|0:2,0:0:0:0:
149,255,60886,2,0,L|72:236,1,70,8|2,0:0|0:2,0:0:0:0:
107,158,61207,6,0,P|76:131|70:89,1,70,2|0,0:2|0:0,0:0:0:0:
133,45,61528,2,0,P|171:31|211:47,1,70,8|0,0:0|0:0,0:0:0:0:
250,106,61849,1,0,0:0:0:0:
343,118,62009,1,0,0:0:0:0:
343,118,62090,1,0,0:0:0:0:
343,118,62170,2,0,L|417:93,1,70,8|0,0:0|0:0,0:0:0:0:
284,192,62491,6,0,L|422:215,1,140,4|8,0:0|0:0,0:0:0:0:
457,296,62972,1,2,0:2:0:0:
390,354,63132,2,0,P|348:364|304:352,1,70,2|0,0:2|0:0,0:0:0:0:
251,309,63453,2,0,P|214:298|166:302,1,70,8|0,0:0|0:0,0:0:0:0:
109,348,63774,6,0,L|88:189,1,140,0|8,0:0|0:0,0:0:0:0:
121,126,64255,1,2,0:2:0:0:
90,45,64416,2,0,P|47:43|11:24,2,70,2|0|8,0:2|0:0|0:0,0:0:0:0:
277,59,65058,6,0,L|368:70,1,70,0|2,0:0|0:2,0:0:0:0:
271,152,65378,2,0,L|180:141,1,70,8|2,0:0|0:2,0:0:0:0:
312,44,65699,2,0,L|403:55,1,70,0|2,0:0|0:2,0:0:0:0:
236,167,66019,2,0,L|145:156,1,70,8|2,0:0|0:2,0:0:0:0:
95,216,66341,6,0,P|99:252|117:282,1,70,0|2,0:0|0:2,0:0:0:0:
192,333,66662,2,0,L|338:321,1,140,8|0,0:0|0:0,0:0:0:0:
406,269,67143,1,0,0:0:0:0:
406,269,67223,1,0,0:0:0:0:
406,269,67304,2,0,L|488:285,1,70,8|0,0:0|0:0,0:0:0:0:
317,239,67624,5,4,0:0:0:0:
326,153,67785,2,0,P|343:115|364:90,1,70,0|8,0:0|0:0,0:0:0:0:
414,165,68106,1,0,0:0:0:0:
317,239,68266,2,0,B|282:239|260:216|260:216|230:241|179:240,1,140,2|8,0:2|0:0,0:0:0:0:
129,303,68747,1,0,0:0:0:0:
48,331,68908,6,0,P|20:304|13:261,1,70,2|0,0:2|0:0,0:0:0:0:
55,195,69229,2,0,L|43:51,2,140,10|2|10,0:2|0:2|0:2,0:0:0:0:
135,228,70031,1,0,0:0:0:0:
237,218,70191,6,0,P|274:233|310:229,1,70,2|0,0:2|0:0,0:0:0:0:
253,85,70512,2,0,P|218:118|212:154,1,70,8|0,0:0|0:0,0:0:0:0:
313,146,70833,2,0,B|334:129|334:129|394:159|455:121,1,140,8|8,0:0|0:0,0:0:0:0:
482,209,71314,1,0,0:0:0:0:
441,290,71475,6,0,B|422:299|402:290|402:290|358:301|344:342,1,105,10|10,0:0|0:0,0:0:0:0:
239,349,71956,6,0,B|222:329|185:328|185:328|127:258|142:184,1,210,10|4,0:0|0:0,0:0:0:0:
256,101,72758,5,6,0:0:0:0:
257,281,83667,6,0,L|257:329,4,35,0|0|8|8|8,1:0|1:0|1:0|1:0|1:0,0:0:0:0:
257,197,84149,1,0,1:0:0:0:
339,234,84309,6,0,P|341:191|339:87,1,140,4|0,1:0|1:0,0:0:0:0:
261,53,84790,1,8,0:0:0:0:
190,102,84951,2,0,P|136:105|58:100,1,105,8|0,1:0|0:0,0:0:0:0:
70,101,85272,2,0,L|9:167,1,70,8|0,0:0|1:0,0:0:0:0:
42,242,85592,6,0,L|39:291,2,35,8|0|0,1:0|0:0|0:0,0:0:0:0:
125,271,85913,2,0,L|136:306,2,35,8|0|8,1:0|0:0|0:0,0:0:0:0:
221,297,86234,2,0,L|250:322,2,35,8|0|0,1:0|1:0|0:0,0:0:0:0:
256,209,86555,5,8,0:0:0:0:
332,254,86715,1,8,0:0:0:0:
403,207,86876,2,0,B|430:184|430:184|427:124|385:88,1,140,8|0,1:0|1:0,0:0:0:0:
304,114,87357,1,8,0:0:0:0:
233,57,87518,6,0,P|158:34|98:77,1,140,0|8,1:0|0:0,0:0:0:0:
68,142,87999,1,0,1:0:0:0:
68,142,88079,1,0,0:0:0:0:
68,142,88159,2,0,L|149:150,1,70,0|0,1:0|0:0,0:0:0:0:
211,197,88480,2,0,L|243:274,1,70,0|8,1:0|0:0,0:0:0:0:
156,330,88801,5,0,0:0:0:0:
244,342,88961,2,0,L|328:349,1,70,0|8,0:0|0:0,0:0:0:0:
406,322,89282,1,8,1:0:0:0:
456,234,89443,1,4,1:0:0:0:
252,188,89764,6,0,P|202:215|110:191,2,140,8|2|8,0:0|0:0|0:0,0:0:0:0:
287,114,90566,1,0,0:0:0:0:
156,55,90726,2,0,L|78:45,1,70,2|0,0:0|0:0,0:0:0:0:
206,119,91047,2,0,L|224:210,1,70,8|0,0:0|0:0,0:0:0:0:
112,144,91368,2,0,B|146:191|117:241|117:241|141:263|167:241,1,140,2|8,0:0|0:0,0:0:0:0:
301,337,92009,5,0,0:0:0:0:
379,304,92170,1,0,0:0:0:0:
397,221,92330,2,0,P|405:183|393:140,2,70,8|4|0,0:0|0:0|0:0,0:0:0:0:
321,185,92812,1,0,0:0:0:0:
321,185,92972,2,0,L|239:185,1,70,8|0,0:0|0:0,0:0:0:0:
156,121,93293,6,0,L|74:121,1,70,2|2,0:2|0:2,0:0:0:0:
30,189,93614,1,2,0:2:0:0:
72,267,93774,1,2,0:2:0:0:
160,269,93935,2,0,L|160:360,2,70,2|2|2,0:2|0:2|0:2,0:0:0:0:
412,187,94576,6,0,P|409:123|343:94,1,140,4|8,0:0|0:0,0:0:0:0:
301,162,95058,1,0,0:0:0:0:
301,162,95218,2,0,P|243:174|185:124,1,140,0|8,0:0|0:0,0:0:0:0:
163,51,95699,1,0,0:0:0:0:
258,97,95860,5,2,0:2:0:0:
329,264,96181,1,10,0:2:0:0:
159,338,96501,2,0,B|100:307|58:354|58:354|69:310,1,140,2|8,0:2|0:0,0:0:0:0:
87,252,96983,5,0,0:0:0:0:
110,178,97143,2,0,P|125:117|109:35,1,140,0|8,0:0|0:0,0:0:0:0:
40,77,97624,1,0,0:0:0:0:
40,77,97785,2,0,P|97:93|181:96,2,140,0|8|0,0:0|0:0|0:0,0:0:0:0:
24,165,98587,5,0,0:0:0:0:
93,222,98747,2,0,P|132:232|168:244,1,70,8|0,0:0|0:0,0:0:0:0:
239,279,99068,2,0,P|243:241|248:199,1,70,0|0,0:0|0:0,0:0:0:0:
326,248,99389,2,0,P|333:178|342:99,1,140,8|4,0:0|0:0,0:0:0:0:
421,290,100031,6,0,P|389:336|306:349,2,140,8|0|8,0:0|0:0|0:0,0:0:0:0:
297,162,100993,2,0,P|329:116|412:103,2,140,0|8|0,0:0|0:0|0:0,0:0:0:0:
421,290,101956,1,8,0:0:0:0:
310,350,102277,6,0,P|274:342|232:335,2,70,8|8|2,0:0|0:0|2:0,0:0:0:0:
153,241,102919,2,0,P|117:245|69:252,2,70,8|8|2,0:0|0:0|2:0,0:0:0:0:
199,77,103560,1,0,0:0:0:0:
362,38,103881,6,0,L|362:187,1,140,12|0,0:2|0:0,0:0:0:0:
198,158,104523,2,0,L|198:307,1,140,12|0,0:2|0:0,0:0:0:0:
439,126,105165,2,0,L|439:275,1,140,12|0,0:2|0:0,0:0:0:0:
120,219,105806,2,0,L|120:368,1,140,12|4,0:2|0:0,0:0:0:0:
307,301,106448,6,0,P|341:312|379:320,1,70,8|8,0:0|0:0,0:0:0:0:
451,362,106769,2,0,P|425:306|459:216,1,140,0|8,0:0|0:0,0:0:0:0:
408,59,107411,2,0,P|455:62|483:64,2,70,2|2|2,2:0|2:0|2:0,0:0:0:0:
344,107,107892,1,2,2:0:0:0:
344,107,108052,2,0,P|294:67|209:93,2,140,2|2|4,2:0|2:0|0:0,0:0:0:0:
251,269,109015,6,0,P|214:272|180:278,1,70,8|8,0:0|0:0,0:0:0:0:
123,216,109336,2,0,P|91:269|18:279,1,140,0|8,0:0|0:0,0:0:0:0:
44,92,109977,2,0,P|78:97|119:103,1,70,2|2,2:0|2:0,0:0:0:0:
195,81,110298,2,0,P|189:115|184:156,1,70,2|2,2:0|2:0,0:0:0:0:
264,189,110619,2,0,P|269:154|275:114,2,70,2|0|2,2:0|2:0|2:0,0:0:0:0:
150,317,111261,6,0,P|218:323|292:333,1,140,4|0,0:0|0:0,0:0:0:0:
369,350,111742,1,8,0:0:0:0:
446,309,111903,2,0,P|466:274|443:216,1,105,0|0,0:0|2:0,0:0:0:0:
444,202,112223,2,0,P|443:150|447:123,1,70,8|0,0:0|0:0,0:0:0:0:
353,200,112544,6,0,P|290:229|228:181,1,140,4|0,0:0|0:0,0:0:0:0:
160,231,113026,1,8,0:0:0:0:
93,179,113186,2,0,P|74:148|72:102,1,70,0|0,0:0|0:0,0:0:0:0:
133,49,113507,5,8,0:0:0:0:
218,62,113667,1,0,0:0:0:0:
303,75,113828,2,0,P|359:60|441:64,1,140,4|8,0:0|0:0,0:0:0:0:
478,151,114309,1,0,0:0:0:0:
478,151,114389,1,0,0:0:0:0:
478,151,114469,2,0,L|471:238,1,70,8|0,0:0|0:0,0:0:0:0:
383,257,114790,2,0,L|390:170,1,70,12|0,0:2|0:0,0:0:0:0:
298,294,115111,6,0,B|286:311|286:311|248:303|220:322|220:322|195:301,1,105,10|10,0:0|0:0,0:0:0:0:
119,268,115592,6,0,B|112:278|112:278|89:273|72:284|72:284|57:272,1,70,10|10,0:0|0:0,0:0:0:0:
66,104,116074,5,6,0:2:0:0:
66,104,116154,1,0,0:0:0:0:
66,104,116234,1,0,0:0:0:0:
66,104,116314,1,0,0:0:0:0:
66,104,116395,2,0,P|128:81|197:110,1,140,4|8,0:0|0:0,0:0:0:0:
271,153,116876,1,2,0:2:0:0:
351,122,117036,2,0,P|372:88|382:56,1,70,2|0,0:2|0:0,0:0:0:0:
462,35,117357,6,0,L|456:200,1,140,8|0,0:0|0:0,0:0:0:0:
404,245,117838,1,0,0:0:0:0:
466,304,117999,2,0,P|474:349|465:379,1,70,8|2,0:0|0:2,0:0:0:0:
380,341,118320,2,0,B|337:341|317:323|317:323|276:347|242:343,1,140,2|8,0:2|0:0,0:0:0:0:
259,259,118801,1,0,0:0:0:0:
180,294,118961,6,0,P|166:333|167:368,1,70,0|2,0:0|2:0,0:0:0:0:
112,242,119282,2,0,P|98:203|99:168,1,70,8|2,0:0|2:0,0:0:0:0:
37,108,119603,2,0,L|158:93,1,105,0|0,0:0|2:0,0:0:0:0:
156,93,119924,2,0,P|197:95|226:78,1,70,8|2,0:0|2:0,0:0:0:0:
320,144,120245,6,0,P|248:159|220:224,1,140,0|8,0:0|0:0,0:0:0:0:
256,302,120726,1,0,0:0:0:0:
348,306,120886,2,0,P|372:274|375:243,1,70,0|0,0:0|0:0,0:0:0:0:
375,245,121127,1,0,0:0:0:0:
375,245,121207,1,8,0:0:0:0:
458,110,121528,6,0,P|461:75|464:38,1,70,4|2,0:0|0:2,0:0:0:0:
372,96,121849,2,0,P|368:130|366:168,1,70,8|2,0:0|0:2,0:0:0:0:
275,161,122170,1,2,0:2:0:0:
275,161,122491,5,8,0:0:0:0:
272,251,122651,1,0,0:0:0:0:
200,301,122812,2,0,B|185:279|183:252|183:252|137:281|89:251,1,140,0|8,0:0|0:0,0:0:0:0:
37,195,123293,1,2,0:2:0:0:
137,186,123453,2,0,P|127:147|104:119,1,70,0|2,0:0|0:2,0:0:0:0:
20,284,123774,2,0,P|30:323|53:351,1,70,8|0,0:0|0:0,0:0:0:0:
141,346,124095,6,0,B|160:342|215:361|215:361|267:337|287:347,1,140,0|8,0:0|0:0,0:0:0:0:
369,355,124576,2,0,P|396:321|359:242,1,140,2|2,0:2|0:2,0:0:0:0:
272,227,125058,2,0,P|271:182|272:151,1,70,8|2,0:0|0:2,0:0:0:0:
342,107,125378,6,0,P|264:110|177:101,1,140,2|8,0:2|0:0,0:0:0:0:
121,72,125860,1,0,0:0:0:0:
121,158,126020,1,8,0:0:0:0:
41,123,126181,1,0,0:0:0:0:
41,123,126261,1,8,0:0:0:0:
41,123,126341,2,0,P|38:174|45:212,1,70,8|8,0:0|0:0,0:0:0:0:
86,273,126662,6,0,B|106:334|162:350|162:350|169:307,1,140,4|8,0:0|0:0,0:0:0:0:
170,237,127143,1,2,0:2:0:0:
251,282,127304,2,0,L|254:356,1,70,2|0,0:2|0:0,0:0:0:0:
335,237,127624,2,0,P|303:210|282:185,1,70,8|0,0:0|0:0,0:0:0:0:
420,227,127945,6,0,P|395:304|327:319,1,140,0|8,0:0|0:0,0:0:0:0:
251,282,128427,1,2,0:2:0:0:
285,188,128587,2,0,P|246:174|210:156,1,70,2|0,0:2|0:0,0:0:0:0:
118,209,128908,2,0,P|157:223|193:241,1,70,8|0,0:0|0:0,0:0:0:0:
183,331,129229,6,0,P|144:317|108:299,1,70,0|2,0:0|0:2,0:0:0:0:
46,248,129550,1,8,0:0:0:0:
55,161,129710,1,2,0:2:0:0:
132,120,129870,2,0,P|126:76|121:35,2,70,0|2|8,0:0|0:2|0:0,0:0:0:0:
155,204,130352,5,2,0:2:0:0:
225,154,130512,2,0,P|268:147|306:139,1,70,0|2,0:0|0:2,0:0:0:0:
345,214,130833,2,0,P|390:246|491:213,1,140,10|0,0:2|0:0,0:0:0:0:
484,148,131314,1,0,0:0:0:0:
484,148,131395,1,0,0:0:0:0:
484,148,131475,2,0,P|477:93|470:51,1,70,8|0,0:0|0:0,0:0:0:0:
382,39,131796,5,4,0:0:0:0:
347,120,131956,2,0,P|292:127|250:134,1,70,0|8,0:0|0:0,0:0:0:0:
393,198,132277,1,0,0:0:0:0:
353,276,132437,2,0,P|319:305|220:263,1,140,2|8,0:2|0:0,0:0:0:0:
153,253,132919,1,0,0:0:0:0:
133,168,133079,6,0,P|192:169|215:169,1,70,2|0,0:2|0:0,0:0:0:0:
297,170,133400,2,0,B|335:146|405:200|440:169,2,140,10|2|10,0:2|0:2|0:2,0:0:0:0:
279,258,134202,1,0,0:0:0:0:
197,291,134362,2,0,P|155:288|117:258,1,70,2|0,0:2|0:0,0:0:0:0:
184,203,134683,6,0,L|185:49,1,140,8|8,0:0|0:0,0:0:0:0:
102,35,135165,1,0,0:0:0:0:
32,89,135325,2,0,P|25:124|33:165,1,70,8|0,0:0|0:0,0:0:0:0:
65,236,135646,6,0,B|64:257|47:274|47:274|88:271|112:295,1,105,10|10,0:0|0:0,0:0:0:0:
207,349,136127,6,0,B|238:326|283:334|283:334|234:301|254:244|254:244|297:269,1,210,10|4,0:0|0:0,0:0:0:0:
422,311,136929,5,4,0:2:0:0:
311,343,142063,6,0,P|359:363|445:342,1,140,6|8,0:2|0:0,0:0:0:0:
465,267,142544,2,0,B|479:253|479:253|455:188|485:117,1,140,8|0,0:0|0:0,0:0:0:0:
397,133,143026,1,8,0:0:0:0:
397,133,143186,1,0,0:0:0:0:
385,214,143346,6,0,P|331:244|261:197,1,140,6|8,0:2|0:0,0:0:0:0:
240,295,143828,2,0,P|186:325|116:278,1,140,8|0,0:0|0:0,0:0:0:0:
183,232,144309,2,0,L|182:87,1,140,8|6,0:0|0:2,0:0:0:0:
330,156,144951,5,8,0:0:0:0:
330,156,145111,2,0,L|331:301,1,140,8|0,0:0|0:0,0:0:0:0:
416,276,145592,2,0,P|426:315|450:349,1,70,8|0,0:0|0:0,0:0:0:0:
487,227,145913,2,0,P|490:174|478:74,1,140,6|8,0:2|0:0,0:0:0:0:
398,93,146395,5,8,0:0:0:0:
398,93,146555,2,0,P|351:98|306:90,1,70,0|8,0:0|0:0,0:0:0:0:
307,96,146796,1,8,0:0:0:0:
286,95,146876,2,0,P|239:100|194:92,1,70,8|8,0:0|0:0,0:0:0:0:
125,104,147197,6,0,P|143:161|222:188,1,140,4|8,0:0|0:0,0:0:0:0:
298,182,147678,1,8,0:0:0:0:
245,266,147838,2,0,L|402:266,1,140,0|8,0:0|0:0,0:0:0:0:
470,267,148320,1,0,0:0:0:0:
400,87,148641,6,0,P|442:96|477:96,2,70,0|8|8,0:0|0:0|0:0,0:0:0:0:
388,171,149122,1,0,0:0:0:0:
302,161,149282,2,0,P|267:159|233:151,1,70,0|8,0:0|0:0,0:0:0:0:
150,98,149603,5,0,0:0:0:0:
150,98,149764,2,0,L|162:253,1,140,0|8,0:0|0:0,0:0:0:0:
74,217,150245,1,8,0:0:0:0:
94,304,150405,1,0,0:0:0:0:
177,334,150566,2,0,P|216:317|249:284,1,70,0|8,0:0|0:0,0:0:0:0:
287,229,150886,1,0,0:0:0:0:
351,293,151047,2,0,P|397:306|431:307,2,70,0|0|8,0:0|0:0|0:0,0:0:0:0:
287,229,151528,5,8,0:0:0:0:
282,143,151689,2,0,B|273:108|288:79|288:79|234:91|197:60,1,140,0|8,0:0|0:0,0:0:0:0:
128,94,152170,2,0,P|97:114|44:117,1,70,0|4,0:0|0:0,0:0:0:0:
163,259,152651,6,0,L|16:264,2,140,8|0|8,0:0|0:0|0:0,0:0:0:0:
219,328,153453,1,0,0:0:0:0:
303,307,153614,2,0,B|348:321|398:268|442:286,1,140,0|8,0:0|0:0,0:0:0:0:
440,196,154095,1,8,0:0:0:0:
353,178,154255,2,0,P|299:198|216:201,1,140,0|8,0:0|0:0,0:0:0:0:
62,299,154897,6,0,L|62:135,1,140,0|8,0:0|0:0,0:0:0:0:
97,74,155378,1,8,0:0:0:0:
171,126,155539,2,0,P|240:125|306:102,1,140,0|8,0:0|0:0,0:0:0:0:
370,41,156020,5,0,0:0:0:0:
244,48,156181,2,0,P|237:91|264:188,1,140,0|8,0:0|0:0,0:0:0:0:
330,239,156662,1,8,0:0:0:0:
249,329,156822,2,0,P|213:306|195:269,1,70,4|4,0:3|0:3,0:0:0:0:
178,199,157143,1,12,0:2:0:0:
330,239,157464,6,0,L|447:224,1,105.000004005432,4|8,1:1|0:0,0:0:0:0:
376,155,157945,1,8,0:0:0:0:
376,155,158106,2,0,L|493:140,1,105.000004005432,4|8,1:3|0:0,0:0:0:0:
279,75,158747,6,0,L|174:88,1,105.000004005432,4|8,1:3|0:0,0:0:0:0:
246,160,159229,1,8,0:0:0:0:
246,160,159389,2,0,L|141:173,1,105.000004005432,4|8,1:3|0:0,0:0:0:0:
186,328,160031,5,4,1:3:0:0:
334,285,160352,1,8,0:0:0:0:
403,319,160512,1,8,2:0:0:0:
461,269,160673,2,0,P|464:221|493:155,1,105.000004005432,4|8,1:3|0:0,0:0:0:0:
334,285,161314,6,0,L|219:269,1,105.000004005432,4|8,1:3|0:0,0:0:0:0:
172,220,161796,1,8,0:0:0:0:
111,264,161956,2,0,P|84:312|28:322,2,105.000004005432,4|8|4,1:3|0:0|0:0,0:0:0:0:
91,94,162919,6,0,P|127:86|169:74,1,70,8|8,0:0|0:0,0:0:0:0:
218,146,163239,2,0,L|237:179,2,35,8|0|8,3:3|0:0|0:3,0:0:0:0:
304,98,163560,2,0,P|305:61|304:29,1,70,8|4,0:0|3:3,0:0:0:0:
411,96,163881,1,4,0:0:0:0:
411,96,164202,6,0,P|462:104|495:106,1,70,8|8,0:0|0:0,0:0:0:0:
457,193,164523,2,0,L|501:207,2,35,8|0|4,3:0|0:0|3:3,0:0:0:0:
390,254,164844,2,0,P|353:263|321:268,1,70,8|4,0:0|3:0,0:0:0:0:
241,296,165165,6,0,P|179:281|130:283,1,105,4|0,0:0|2:0,0:0:0:0:
133,269,165485,2,0,P|113:205|107:182,1,70,8|0,0:0|0:0,0:0:0:0:
184,132,165806,2,0,P|204:196|210:219,1,70,8|0,0:0|0:0,0:0:0:0:
297,216,166127,2,0,P|334:222|371:225,1,70,8|0,0:0|0:0,0:0:0:0:
429,151,166448,5,12,0:0:0:0:
376,82,166608,1,0,0:0:0:0:
290,91,166769,2,0,P|254:82|226:59,1,70,8|0,0:0|0:0,0:0:0:0:
151,109,167090,1,8,0:0:0:0:
151,109,167170,1,8,0:0:0:0:
151,109,167250,1,0,0:0:0:0:
151,109,167330,1,8,0:0:0:0:
151,109,167411,1,8,0:0:0:0:
38,200,167731,6,0,P|109:212|159:207,1,105.000004005432,4|0,0:2|2:0,0:0:0:0:
210,307,168373,2,0,P|262:329|312:333,1,105.000004005432,4|0,0:2|2:0,0:0:0:0:
367,222,169015,2,0,P|423:217|469:190,1,105.000004005432,4|0,0:2|2:0,0:0:0:0:
321,55,169657,2,0,P|291:109|294:170,1,105.000004005432,4|0,0:2|2:0,0:0:0:0:
323,301,170298,5,4,0:2:0:0:
323,301,170619,1,0,0:0:0:0:
173,255,170940,1,4,0:2:0:0:
173,255,171261,1,0,0:0:0:0:
325,188,171582,6,0,P|384:199|443:177,1,105.000004005432,4|0,0:2|0:0,0:0:0:0:
376,127,172063,1,8,0:3:0:0:
376,127,172223,2,0,L|376:11,1,105.000004005432,4|4,0:3|0:2,0:0:0:0:
228,62,172865,6,0,L|175:62,3,52.5000020027161,0|2|0|2,0:0|0:0|0:0|0:0,0:0:0:0:
176,105,173507,2,0,L|123:105,3,52.5000020027161,0|2|0|2,0:0|0:0|0:0|0:0,0:0:0:0:
124,148,174149,2,0,L|71:148,3,52.5000020027161,0|2|0|2,0:0|0:0|0:0|0:0,0:0:0:0:
141,189,174790,2,0,L|141:249,2,52.5000020027161,2|2|2,0:0|0:0|0:0,0:0:0:0:
335,317,175432,6,0,B|363:307|388:321|388:321|422:277|480:279,1,140,4|0,0:2|0:0,0:0:0:0:
460,280,176074,2,0,L|463:196,1,70,8|8,0:0|0:0,0:0:0:0:
369,216,176395,2,0,L|372:132,1,70,8|8,0:0|0:0,0:0:0:0:
275,76,176715,6,0,P|248:112|248:183,1,105,12|8,0:0|0:0,0:0:0:0:
230,173,177036,2,0,P|194:177|152:181,1,70,8|8,0:0|0:0,0:0:0:0:
86,232,177357,1,8,0:0:0:0:
142,299,177518,1,4,0:3:0:0:
229,286,177678,2,0,P|267:271|301:241,1,70,4|0,0:2|0:0,0:0:0:0:
378,308,177999,6,0,L|395:130,1,167.999994873047,4|8,0:0|0:0,0:0:0:0:
455,71,178480,1,2,0:2:0:0:
379,27,178641,2,0,P|336:39|304:70,1,83.9999974365235,2|0,0:2|0:2,0:0:0:0:
220,69,178961,2,0,P|205:123|223:181,1,83.9999974365235,8|0,0:0|0:0,0:0:0:0:
272,224,179282,5,0,0:0:0:0:
202,281,179443,1,0,0:0:0:0:
115,271,179603,2,0,P|83:235|79:193,1,83.9999974365235,8|2,0:0|0:2,0:0:0:0:
125,127,179924,2,0,L|314:145,1,167.999994873047,2|8,0:2|0:0,0:0:0:0:
374,192,180405,5,0,0:0:0:0:
433,120,180566,1,6,0:2:0:0:
352,71,180726,1,0,0:0:0:0:
293,143,180886,2,0,P|286:202|357:288,1,167.999994873047,8|6,0:0|0:2,0:0:0:0:
454,281,181368,2,0,L|453:181,2,83.9999974365235,0|8|0,0:0|0:0|0:0,0:0:0:0:
419,362,181849,5,6,0:2:0:0:
330,359,182009,1,2,0:2:0:0:
241,356,182170,2,0,B|223:334|223:334|282:248|225:197,1,167.999994873047,10|0,0:2|0:0,0:0:0:0:
165,259,182651,1,0,0:0:0:0:
80,242,182812,2,0,P|51:206|46:158,1,83.9999974365235,8|0,0:0|0:0,0:0:0:0:
114,75,183132,6,0,P|68:75|17:75,2,83.9999974365235,4|0|8,0:0|0:0|0:0,0:0:0:0:
202,104,183614,1,0,0:0:0:0:
262,34,183774,2,0,P|297:89|234:187,1,167.999994873047,0|8,0:0|0:0,0:0:0:0:
171,205,184255,1,0,0:0:0:0:
110,271,184416,6,0,L|111:359,1,83.9999974365235,2|0,0:2|0:0,0:0:0:0:
209,358,184737,2,0,L|209:275,1,83.9999974365235,10|0,0:2|0:0,0:0:0:0:
308,279,185058,2,0,L|309:367,1,83.9999974365235,2|0,0:2|0:0,0:0:0:0:
407,366,185378,2,0,L|407:283,1,83.9999974365235,10|0,0:2|0:0,0:0:0:0:
408,192,185699,5,12,0:2:0:0:
256,192,186020,1,12,0:2:0:0:
408,192,186341,6,0,B|416:148|455:136|455:136|427:112,1,105.000004005432,2|0,0:0|0:0,0:0:0:0:
370,75,186822,1,2,0:0:0:0:
370,75,186983,2,0,P|319:82|261:75,1,105.000004005432,2|0,0:0|0:0,0:0:0:0:
269,240,187624,1,4,3:0:0:0:
269,240,188266,6,0,P|208:253|109:240,1,157.500006008148,6|0,0:0|0:0,0:0:0:0:
41,280,188908,2,0,L|39:176,1,105.000004005432,8|2,0:0|0:0,0:0:0:0:
125,333,189550,2,0,L|293:333,1,157.500006008148,0|0,0:0|0:0,0:0:0:0:
358,334,190191,2,0,P|412:331|460:301,1,105.000004005432,8|2,0:0|0:0,0:0:0:0:
456,231,190673,1,8,0:0:0:0:
456,156,190833,5,0,0:0:0:0:
342,207,191154,1,2,0:0:0:0:
456,156,191475,1,8,0:0:0:0:
314,116,191796,1,2,0:0:0:0:
282,275,192116,6,0,P|231:289|161:286,1,105.000004005432,0|2,0:0|0:0,0:0:0:0:
115,250,192598,1,0,0:0:0:0:
115,250,192758,2,0,P|101:199|104:129,1,105.000004005432,8|2,0:0|0:0,0:0:0:0:
229,34,193400,6,0,P|253:70|237:189,1,157.500006008148,4|0,0:0|0:0,0:0:0:0:
308,227,194042,2,0,P|352:244|419:233,1,105.000004005432,8|0,0:0|0:0,0:0:0:0:
438,170,194523,1,2,0:0:0:0:
365,171,194683,2,0,L|357:280,1,105.000004005432,0|2,0:0|0:0,0:0:0:0:
324,341,195165,1,2,0:0:0:0:
252,369,195325,2,0,P|219:364|197:350,1,52.5000020027161,8|2,0:0|0:0,0:0:0:0:
241,287,195646,6,0,B|215:265|161:281|161:281|179:256,1,105.000004005432,8|4,0:0|0:0,0:0:0:0:
253,150,196288,1,8,0:0:0:0:
253,150,196448,2,0,L|234:44,2,105.000004005432,2|2|2,0:0|0:0|0:0,0:0:0:0:
331,163,197250,6,0,P|362:183|386:227,1,70,0|0,0:0|0:0,0:0:0:0:
402,286,197571,2,0,P|409:330|398:377,2,70,8|8|4,0:0|0:3|0:3,0:0:0:0:
327,325,198052,1,0,0:0:0:0:
327,325,198132,1,0,0:0:0:0:
327,325,198213,2,0,L|226:330,1,70,8|8,0:0|0:0,0:0:0:0:
180,292,198534,5,6,0:2:0:0:
101,324,198694,2,0,L|109:362,2,35,2|2|10,0:2|0:2|0:2,0:0:0:0:
32,269,199015,2,0,L|46:124,1,140,2|2,0:2|0:2,0:0:0:0:
121,181,199496,1,8,0:0:0:0:
121,181,199657,2,0,P|158:199|257:181,1,140,2|0,0:2|0:0,0:0:0:0:
273,100,200138,2,0,P|239:103|198:106,1,70,10|0,0:2|0:0,0:0:0:0:
334,170,200459,2,0,P|367:166|409:164,2,70,2|6|6,0:2|0:2|0:2,0:0:0:0:
121,181,201100,5,6,0:2:0:0:
150,263,201261,2,0,L|134:300,2,35,2|2|10,0:2|0:2|0:2,0:0:0:0:
235,254,201582,2,0,P|272:279|366:263,1,140,2|2,0:2|0:2,0:0:0:0:
305,194,202063,1,8,0:0:0:0:
305,194,202223,2,0,L|316:49,1,140,2|0,0:2|0:0,0:0:0:0:
400,35,202705,2,0,P|442:50|467:83,1,70,10|0,0:2|0:0,0:0:0:0:
483,150,203026,2,0,P|480:188|453:223,1,70,2|6,0:2|0:2,0:0:0:0:
387,253,203346,1,6,0:2:0:0:
315,54,203667,5,4,0:2:0:0:
229,69,203828,2,0,L|205:40,2,35,2|2|10,0:2|0:2|0:2,0:0:0:0:
164,127,204149,2,0,P|136:152|107:258,1,140,2|2,0:2|0:2,0:0:0:0:
171,311,204630,1,8,0:0:0:0:
171,311,204790,2,0,L|323:311,1,140,2|0,0:2|0:0,0:0:0:0:
394,280,205272,6,0,P|427:289|462:298,1,70,10|0,0:2|0:0,0:0:0:0:
428,199,205592,2,0,P|394:189|360:181,1,70,2|6,0:2|0:2,0:0:0:0:
326,82,205913,2,0,P|360:90|394:100,1,70,6|2,0:2|0:2,0:0:0:0:
280,157,206234,5,4,0:2:0:0:
205,114,206395,2,0,L|188:73,2,35,2|2|10,0:2|0:2|0:2,0:0:0:0:
180,195,206715,2,0,P|212:253|171:325,1,140,2|2,0:2|0:2,0:0:0:0:
95,325,207197,1,8,0:0:0:0:
95,325,207357,2,0,L|95:183,1,140,2|0,0:2|0:0,0:0:0:0:
63,99,207838,6,0,P|101:103|145:98,1,70,10|0,0:2|0:0,0:0:0:0:
232,103,208159,1,2,0:2:0:0:
232,103,208239,1,0,1:0:0:0:
232,103,208320,1,8,0:0:0:0:
232,103,208400,1,8,0:0:0:0:
232,103,208480,1,8,0:0:0:0:
318,99,208641,2,0,B|392:117|461:79|461:79|439:142|371:168|371:168|424:183|459:178|459:178|449:205|419:225,1,420,4|0,0:0|0:0,0:0:0:0:
