osu file format v14

[General]
AudioFilename: audio.mp3
AudioLeadIn: 0
PreviewTime: 52143
Countdown: 0
SampleSet: Soft
StackLeniency: 0.7
Mode: 0
LetterboxInBreaks: 0
WidescreenStoryboard: 0

[Editor]
DistanceSpacing: 1
BeatDivisor: 4
GridSize: 4
TimelineZoom: 1

[Metadata]
Title:Alice
TitleUnicode:Alice
Artist:Ryokuoushoku Shakai
ArtistUnicode:緑黄色社会
Creator:CoLouRed GlaZeE
Version:Extra
Source:
Tags:delis j-pop jpop pop japanese rock jrock j-rock ryokushaka リョクシャカ 幸せ -ep- shiawase
BeatmapID:3717471
BeatmapSetID:1812255

[Difficulty]
HPDrainRate:7
CircleSize:4.2
OverallDifficulty:9
ApproachRate:9
SliderMultiplier:1.6
SliderTickRate:2

[Events]
//Background and Video events
0,0,"alice in wonderland1.jpg",0,0
//Break Periods
//Storyboard Layer 0 (Background)
//Storyboard Layer 1 (Fail)
//Storyboard Layer 2 (Pass)
//Storyboard Layer 3 (Foreground)
//Storyboard Layer 4 (Overlay)
//Storyboard Sound Samples

[TimingPoints]
887,320.855614973262,4,2,1,60,1,0
887,-125,4,2,1,60,0,0
6021,-100,4,2,1,65,0,0
8267,-166.666666666667,4,2,1,65,0,0
8347,-166.666666666667,4,2,1,5,0,0
8587,-100,4,1,1,70,0,0
18855,-100,4,2,1,60,0,0
20459,-83.3333333333333,4,2,1,60,0,0
20780,-71.4285714285714,4,2,1,60,0,0
21101,-100,4,2,1,60,0,0
30406,-100,4,1,1,70,0,0
37785,-125,4,1,1,70,0,0
38106,-100,4,1,1,70,0,0
43239,-100,4,2,1,70,0,0
44523,-100,4,1,1,70,0,0
45806,-100,4,2,1,70,0,0
47090,-100,4,1,1,70,0,0
52223,-100,4,1,1,80,0,1
72758,-125,4,2,1,60,0,0
77892,-100,4,2,1,70,0,0
80459,-100,4,2,1,80,0,0
83667,-100,4,1,1,70,0,0
89443,-100,4,2,1,70,0,0
92009,-100,4,1,1,70,0,0
96181,-83.3333333333333,4,1,1,70,0,0
96501,-71.4285714285714,4,1,1,70,0,0
96822,-100,4,1,1,70,0,0
100993,-83.3333333333333,4,1,1,70,0,0
101314,-125,4,1,1,70,0,0
101635,-83.3333333333333,4,1,1,70,0,0
101956,-125,4,1,1,70,0,0
102277,-100,4,1,1,70,0,0
103560,-250,4,1,1,70,0,0
103881,-100,4,1,1,70,0,0
104202,-250,4,1,1,70,0,0
104523,-100,4,1,1,70,0,0
105485,-71.4285714285714,4,1,1,70,0,0
106127,-100,4,1,1,70,0,0
107411,-100,4,2,1,70,0,0
108694,-100,4,1,1,70,0,0
109977,-100,4,2,1,70,0,0
111261,-100,4,1,1,70,0,0
115111,-83.3333333333333,4,1,1,70,0,0
115592,-71.4285714285714,4,1,1,70,0,0
115993,-100,4,1,1,70,0,0
116395,-100,4,1,1,80,0,1
122170,-250,4,1,1,80,0,1
122250,-250,4,2,1,5,0,1
122491,-100,4,1,1,80,0,1
136929,-100,4,1,1,70,0,0
157464,-100,4,2,1,70,0,0
162598,-100,4,1,1,70,0,0
165165,-100,4,1,1,75,0,0
166448,-100,4,1,1,80,0,0
167732,-125,4,1,1,70,0,0
172865,-125,4,2,1,60,0,0
175432,-100,4,1,1,70,0,0
176074,-83.3333333333333,4,1,1,75,0,0
176395,-71.4285714285714,4,1,1,80,0,0
176716,-71.4285714285714,4,1,1,85,0,0
177999,-83.3333333333333,4,1,1,90,0,1
186341,-100,4,2,1,60,0,0
186983,-200,4,2,1,60,0,0
188266,-100,4,2,1,70,0,0
197250,-100,4,1,1,70,0,0
209282,-100,4,1,1,40,0,0

[Colours]
Combo1 : 148,147,204
Combo2 : 235,157,120
Combo3 : 98,190,230
Combo4 : 237,167,237

[HitObjects]
27,254,566,6,0,L|190:254,1,160
219,231,1047,1,0,0:0:0:0:
251,208,1208,1,2,0:0:0:0:
334,312,1368,6,0,P|304:329|264:329,1,64
407,329,1689,1,0,0:0:0:0:
324,185,1850,1,2,0:0:0:0:
405,241,2010,6,0,P|438:233|460:209,1,64,0|0,0:0|0:0,0:0:0:0:
283,254,2331,1,0,0:0:0:0:
397,162,2491,1,2,0:0:0:0:
477,298,2652,6,0,P|484:330|477:361,1,64
405,241,2973,1,0,0:0:0:0:
262,360,3133,2,0,B|250:324|181:309|181:309|208:275,1,128,2|0,0:0|0:0,0:0:0:0:
210,276,3775,5,2,0:0:0:0:
265,217,3935,1,0,0:0:0:0:
323,161,4096,2,0,L|259:130,1,64,0|0,0:0|0:0,0:0:0:0:
373,245,4416,5,2,0:0:0:0:
323,161,4577,1,0,0:0:0:0:
422,165,4737,5,0,0:0:0:0:
265,217,4898,1,0,0:0:0:0:
194,94,5058,2,0,L|130:63,1,64,2|0,0:0|0:0,0:0:0:0:
259,42,5379,2,0,P|275:72|273:113,1,64,0|0,0:0|0:0,0:0:0:0:
214,290,5700,2,0,P|179:242|190:170,1,128,2|4,0:0|3:1,0:0:0:0:
490,133,6181,5,0,0:0:0:0:
411,83,6342,1,2,1:2:0:0:
470,225,6502,2,0,L|394:261,1,80,0|0,0:0|3:0,0:0:0:0:
400,166,6823,5,0,0:0:0:0:
276,102,6983,1,2,1:2:0:0:
361,354,7144,2,0,P|328:335|301:275,1,80,0|2,0:0|3:2,0:0:0:0:
311,200,7465,5,0,0:0:0:0:
152,135,7624,1,2,1:2:0:0:
305,300,7785,5,0,0:0:0:0:
228,174,7946,1,0,3:0:0:0:
351,125,8106,5,0,1:0:0:0:
373,116,8186,1,0,1:0:0:0:
395,108,8267,2,0,L|476:75,1,71.9999978027344,0|0,1:0|0:0,0:0:0:0:
287,38,8588,5,4,0:2:0:0:
284,252,8748,1,2,0:2:0:0:
284,252,8828,1,2,0:2:0:0:
284,252,8908,1,10,0:2:0:0:
284,252,9069,2,0,B|216:243|158:280|158:280|160:253|144:234,1,160,2|2,0:2|0:2,0:0:0:0:
71,204,9550,1,8,0:0:0:0:
355,311,9711,2,0,P|373:276|371:222,1,80,2|0,0:2|0:0,0:0:0:0:
305,171,10031,5,0,0:0:0:0:
402,151,10192,1,10,0:2:0:0:
192,40,10352,5,0,0:0:0:0:
353,161,10513,1,2,0:2:0:0:
452,35,10673,1,6,0:2:0:0:
284,252,10834,2,0,L|118:286,1,160,6|4,0:2|0:2,0:0:0:0:
457,324,11315,5,2,0:2:0:0:
449,320,11395,1,2,0:2:0:0:
441,316,11475,1,10,0:2:0:0:
374,236,11636,2,0,L|332:159,1,80,2|0,0:2|0:0,0:0:0:0:
127,284,11957,2,0,L|83:362,1,80,2|8,0:2|0:0,0:0:0:0:
15,266,12277,5,2,0:2:0:0:
72,154,12438,1,0,0:0:0:0:
237,281,12598,1,0,0:0:0:0:
155,218,12759,5,10,0:2:0:0:
130,42,12919,1,0,0:0:0:0:
326,146,13080,2,0,P|350:113|346:63,1,80,2|6,0:2|0:2,0:0:0:0:
261,82,13400,2,0,B|221:130|242:182|242:182|224:217|239:257,1,160,6|4,0:2|0:2,0:0:0:0:
362,353,13882,5,2,0:2:0:0:
362,353,13962,1,2,0:2:0:0:
362,353,14042,1,10,0:2:0:0:
245,316,14203,2,0,P|280:304|312:258,1,80,2|0,0:2|0:0,0:0:0:0:
477,201,14523,5,2,0:2:0:0:
477,201,14684,1,8,0:0:0:0:
379,185,14844,2,0,L|291:175,1,80,2|0,0:2|0:0,0:0:0:0:
417,269,15165,5,0,0:0:0:0:
272,89,15325,2,0,L|184:79,1,80,10|0,0:2|0:0,0:0:0:0:
121,203,15646,5,2,0:2:0:0:
109,70,15807,1,6,0:2:0:0:
233,233,15967,5,6,0:2:0:0:
351,97,16128,1,0,0:0:0:0:
112,314,16288,6,0,P|88:331|53:336,2,40,12|0|0,0:0|2:0|0:0,0:0:0:0:
209,324,16529,1,0,0:0:0:0:
225,327,16609,2,0,P|243:334|257:352,2,40,8|0|0,0:0|2:0|0:0,0:0:0:0:
338,300,16850,1,0,0:0:0:0:
350,294,16930,2,0,P|360:274|365:256,2,40,8|0|0,0:0|2:0|0:0,0:0:0:0:
440,204,17170,1,0,0:0:0:0:
444,215,17251,2,0,P|463:223|483:228,2,40,8|0|0,0:0|2:0|0:0,0:0:0:0:
375,109,17491,5,0,0:0:0:0:
363,100,17571,1,10,0:3:0:0:
283,95,17812,5,6,0:3:0:0:
203,90,18053,6,0,B|176:83|165:66|165:66|133:82|133:82|139:50|103:27|103:27|39:35|37:105,1,240,4|4,0:2|0:0,0:0:0:0:
34,98,18855,6,0,P|90:165|78:244,1,160,6|8,0:0|0:0,0:0:0:0:
26,308,19336,1,0,0:0:0:0:
0,189,19497,6,0,P|85:161|152:182,1,160,2|8,0:0|0:0,0:0:0:0:
229,228,19978,1,0,0:0:0:0:
297,285,20138,6,0,L|386:246,1,80,2|0,0:0|0:0,0:0:0:0:
297,285,20459,6,0,L|369:190,1,95.9999970703126,10|0,0:0|0:0,0:0:0:0:
297,285,20780,6,0,L|321:170,1,111.999996582031,2|0,0:0|0:0,0:0:0:0:
250,117,21101,5,8,0:0:0:0:
445,222,21261,1,0,0:0:0:0:
255,359,21422,2,0,B|225:333|197:343|197:343|162:303|98:317,1,160,2|8,0:0|0:0,0:0:0:0:
75,224,21903,5,0,0:0:0:0:
275,243,22063,2,0,P|291:195|261:114,1,120,2|0,0:0|0:0,0:0:0:0:
187,60,22384,2,0,L|97:78,1,80,8|0,0:0|0:0,0:0:0:0:
250,117,22705,2,0,L|406:85,1,160,2|8,0:0|0:0,0:0:0:0:
450,163,23186,5,0,0:0:0:0:
295,296,23347,1,2,0:0:0:0:
295,296,23668,2,0,L|283:205,1,80,8|0,0:0|0:0,0:0:0:0:
484,334,23989,6,0,P|414:312|397:249,1,120,2|0,0:0|0:0,0:0:0:0:
394,233,24309,1,8,0:0:0:0:
440,88,24470,2,0,P|457:133|456:176,1,80,0|2,0:0|0:0,0:0:0:0:
458,164,24951,6,0,P|478:129|487:86,1,80,8|0,0:0|0:0,0:0:0:0:
305,127,25272,2,0,B|257:145|227:134|227:134|224:155|198:165,1,120,2|0,0:0|0:0,0:0:0:0:
158,106,25593,1,8,0:0:0:0:
250,237,25753,1,0,0:0:0:0:
458,164,25914,1,2,0:0:0:0:
458,164,26235,6,0,L|374:149,1,80,8|0,0:0|0:0,0:0:0:0:
158,106,26555,2,0,B|113:146|141:210|141:210|193:237,1,160,2|8,0:0|0:0,0:0:0:0:
266,270,27037,1,0,0:0:0:0:
236,65,27197,2,0,P|188:26|94:49,2,160,2|8|2,0:0|0:0|0:0,0:0:0:0:
243,74,28160,5,8,0:0:0:0:
250,83,28481,1,2,0:0:0:0:
335,236,28641,5,2,0:0:0:0:
414,106,28801,2,0,P|420:145|400:187,1,80,8|0,0:0|0:0,0:0:0:0:
155,318,29122,5,6,0:0:0:0:
204,256,29363,1,0,1:0:0:0:
204,256,29443,2,0,P|222:219|218:175,1,80,8|8,0:0|0:3,0:0:0:0:
312,125,29764,2,0,P|294:162|298:206,1,80,4|0,0:3|0:0,0:0:0:0:
262,194,30085,5,2,0:0:0:0:
262,194,30406,6,0,L|123:163,1,120,4|0,0:1|0:0,0:0:0:0:
117,162,30727,1,8,0:0:0:0:
390,78,30887,1,0,0:0:0:0:
310,256,31047,2,0,P|265:202|276:97,1,160,0|8,0:0|0:0,0:0:0:0:
350,167,31529,1,0,0:0:0:0:
217,332,31689,5,2,0:2:0:0:
217,332,31849,1,0,0:0:0:0:
325,301,32010,5,10,0:2:0:0:
325,301,32170,1,0,0:0:0:0:
433,270,32331,5,2,0:2:0:0:
433,270,32571,5,0,0:0:0:0:
433,270,32652,1,8,0:0:0:0:
325,301,32812,1,0,0:0:0:0:
217,332,32973,2,0,P|156:317|120:250,1,120,0|0,0:0|0:0,0:0:0:0:
82,179,33293,2,0,L|93:88,1,80,8|0,0:0|0:0,0:0:0:0:
170,156,33614,2,0,L|7:137,1,160,0|8,0:0|0:0,0:0:0:0:
11,137,34095,1,0,0:0:0:0:
170,156,34255,5,0,0:0:0:0:
245,217,34416,1,0,0:0:0:0:
300,70,34577,1,8,0:0:0:0:
203,65,34737,1,0,0:0:0:0:
325,164,34898,1,0,0:0:0:0:
397,75,35058,5,4,0:2:0:0:
344,285,35219,1,12,0:2:0:0:
344,285,35539,2,0,P|393:276|427:265,1,80,4|0,0:0|0:0,0:0:0:0:
134,211,35860,6,0,L|139:124,1,80,8|0,0:0|0:0,0:0:0:0:
233,270,36181,2,0,L|228:357,1,80,0|0,0:0|0:0,0:0:0:0:
36,145,36502,2,0,L|41:58,1,80,8|0,0:0|0:0,0:0:0:0:
285,96,36823,6,0,B|306:87|306:63|306:63|331:102|403:87,1,120,0|0,0:0|0:0,0:0:0:0:
452,96,37144,2,0,P|440:48|410:21,1,80,8|0,0:0|0:0,0:0:0:0:
216,177,37465,6,0,P|274:203|330:193,1,120,0|0,0:0|2:0,0:0:0:0:
203,296,37785,2,0,P|244:276|275:223,1,96,8|0,0:0|2:0,0:0:0:0:
113,258,38106,5,8,0:0:0:0:
113,258,38267,1,8,0:0:0:0:
230,118,38427,5,2,2:2:0:0:
230,118,38588,1,2,2:2:0:0:
323,235,38748,5,8,0:0:0:0:
313,227,38908,1,8,0:0:0:0:
230,118,39069,5,2,2:2:0:0:
220,110,39229,1,2,2:2:0:0:
472,72,39390,6,0,L|323:96,1,120,0|0,1:0|2:0,0:0:0:0:
129,182,39711,1,14,0:2:0:0:
129,182,40031,6,0,L|256:202,1,120,0|0,1:0|2:0,0:0:0:0:
464,271,40352,1,14,0:2:0:0:
464,271,40673,6,0,L|317:307,1,120,0|0,1:0|2:0,0:0:0:0:
290,349,40994,2,0,L|320:231,1,120,14|0,0:2|2:0,0:0:0:0:
238,229,41315,2,0,L|268:111,1,120,0|0,1:0|2:0,0:0:0:0:
205,31,41636,2,0,L|175:147,1,120,14|0,0:2|2:0,0:0:0:0:
26,199,41957,6,0,P|67:239|162:226,1,160,4|8,0:1|0:0,0:0:0:0:
203,292,42438,1,8,0:0:0:0:
26,199,42598,1,0,0:0:0:0:
413,79,42919,1,8,0:0:0:0:
407,173,43240,5,2,2:0:0:0:
400,177,43400,1,2,2:0:0:0:
399,272,43561,5,2,2:0:0:0:
392,267,43721,1,2,2:0:0:0:
326,343,43882,6,0,B|306:304|262:296|262:296|254:252,1,120,2|0,2:0|2:0,0:0:0:0:
110,186,44203,2,0,B|130:225|174:233|174:233|182:277,1,120,2|0,2:0|2:0,0:0:0:0:
335,239,44523,6,0,P|374:198|347:101,1,160,4|8,0:0|0:0,0:0:0:0:
276,62,45005,1,8,0:0:0:0:
335,239,45165,1,0,0:0:0:0:
37,38,45486,1,8,0:0:0:0:
61,125,45807,5,2,2:2:0:0:
25,211,45967,1,2,2:2:0:0:
109,133,46128,5,2,2:2:0:0:
122,239,46288,1,2,2:2:0:0:
158,129,46448,5,2,2:0:0:0:
224,238,46609,1,8,2:0:0:0:
254,245,46689,1,8,2:0:0:0:
284,252,46769,1,8,2:0:0:0:
420,221,46930,2,0,P|413:178|382:148,1,80,0|4,2:0|0:1,0:0:0:0:
389,151,47251,5,0,0:0:0:0:
247,340,47411,1,0,0:0:0:0:
263,151,47571,1,8,0:0:0:0:
254,245,47731,5,0,0:0:0:0:
171,96,47892,1,0,0:0:0:0:
247,340,48053,1,8,0:0:0:0:
78,144,48213,5,0,0:0:0:0:
423,122,48374,1,4,0:0:0:0:
340,173,48534,2,0,L|259:150,1,80
338,71,48855,5,8,0:0:0:0:
363,357,49015,2,0,B|329:342|292:353|292:353|222:333,1,120
254,245,49336,2,0,L|173:222,1,80,8|0,0:0|0:0,0:0:0:0:
457,93,49657,5,4,0:0:0:0:
457,93,49817,1,0,0:0:0:0:
499,324,49978,5,8,0:0:0:0:
457,93,50138,1,0,0:0:0:0:
363,357,50299,5,8,0:0:0:0:
309,122,50459,1,0,0:0:0:0:
322,348,50620,1,12,0:2:0:0:
210,173,50780,1,0,0:2:0:0:
251,333,50940,5,10,1:0:0:0:
115,187,51181,5,10,1:0:0:0:
397,197,51421,5,10,1:0:0:0:
115,187,51582,1,10,1:0:0:0:
261,51,51823,5,2,2:2:0:0:
261,51,51903,1,6,0:2:0:0:
147,347,52224,6,0,P|91:319|76:253,1,120,4|0,1:0|0:0,0:0:0:0:
29,203,52545,1,8,0:0:0:0:
147,347,52705,1,2,0:2:0:0:
254,333,52866,6,0,P|225:297|221:243,1,80,2|0,0:2|0:0,0:0:0:0:
40,127,53186,2,0,L|121:105,1,80,8|0,0:0|0:0,0:0:0:0:
445,160,53507,2,0,P|398:200|290:184,1,160,0|8,0:0|0:0,0:0:0:0:
288,274,53989,1,2,0:2:0:0:
148,36,54149,2,0,P|191:85|184:142,1,120,2|0,0:2|0:0,0:0:0:0:
117,106,54470,5,8,0:0:0:0:
366,141,54630,1,0,0:0:0:0:
310,36,54791,6,0,L|226:49,1,80,0|2,0:0|2:0,0:0:0:0:
386,159,55112,2,0,P|408:201|395:242,1,80,8|2,0:0|2:0,0:0:0:0:
196,94,55432,6,0,L|112:107,1,80,0|2,0:0|2:0,0:0:0:0:
333,335,55753,2,0,P|376:305|382:263,1,80,8|2,0:0|2:0,0:0:0:0:
463,82,56074,6,0,L|343:100,1,120,0|0,0:0|0:0,0:0:0:0:
305,131,56395,1,8,0:0:0:0:
424,47,56555,1,2,0:2:0:0:
300,218,56716,2,0,P|246:197|228:93,2,160,2|8|4,0:2|0:0|0:0,0:0:0:0:
111,364,57518,5,2,0:2:0:0:
211,338,57678,1,8,0:0:0:0:
37,233,57839,1,2,0:2:0:0:
211,338,57999,5,0,0:0:0:0:
89,133,58160,1,2,0:2:0:0:
120,282,58320,1,8,0:0:0:0:
169,140,58481,5,2,0:2:0:0:
126,61,58641,2,0,L|30:38,1,80,0|0,0:0|2:0,0:0:0:0:
208,40,58962,5,8,0:0:0:0:
300,218,59122,1,0,0:0:0:0:
120,282,59283,5,0,0:2:0:0:
385,195,59443,1,2,0:2:0:0:
269,300,59604,2,0,P|224:267|237:160,1,160,8|0,0:0|0:0,0:0:0:0:
402,89,60085,5,0,0:0:0:0:
402,89,60165,1,0,0:0:0:0:
402,89,60245,1,8,0:0:0:0:
156,142,60405,1,2,0:2:0:0:
318,109,60566,1,0,0:0:0:0:
79,204,60726,1,2,0:2:0:0:
231,77,60886,1,8,0:0:0:0:
303,311,61047,5,2,0:2:0:0:
303,311,61128,1,2,0:2:0:0:
303,311,61208,2,0,B|277:334|218:328|218:328|188:357|128:352,2,160,2|8|0,0:2|0:0|0:0,0:0:0:0:
332,339,61930,1,0,0:0:0:0:
370,347,62010,1,0,0:0:0:0:
408,336,62090,1,0,0:0:0:0:
442,314,62170,5,8,0:0:0:0:
442,314,62331,1,0,0:0:0:0:
442,314,62491,2,0,L|470:152,1,160,4|8,0:0|0:0,0:0:0:0:
372,182,62973,1,2,0:2:0:0:
153,352,63133,2,0,L|181:190,1,160,2|8,0:2|0:0,0:0:0:0:
180,194,63614,5,0,0:0:0:0:
180,194,63694,1,0,0:0:0:0:
180,194,63775,1,0,0:0:0:0:
299,328,63935,2,0,P|345:342|377:336,1,80,0|8,0:0|0:0,0:0:0:0:
105,190,64256,5,2,0:2:0:0:
345,259,64416,2,0,L|366:137,1,120,2|0,0:2|0:0,0:0:0:0:
437,108,64737,2,0,P|452:152|489:180,1,80,8|0,0:0|0:0,0:0:0:0:
29,185,65058,5,0,0:0:0:0:
198,76,65219,1,2,0:2:0:0:
198,76,65298,1,0,0:0:0:0:
198,76,65378,1,8,0:0:0:0:
182,286,65539,1,2,0:2:0:0:
185,163,65700,5,0,0:0:0:0:
351,284,65860,1,2,0:2:0:0:
185,163,66020,1,8,0:0:0:0:
244,342,66181,1,2,0:2:0:0:
198,76,66342,6,0,P|156:80|119:106,1,80,0|2,0:0|0:2,0:0:0:0:
411,347,66662,2,0,P|436:298|381:200,1,160,8|0,0:0|0:0,0:0:0:0:
375,196,67063,1,0,0:0:0:0:
353,184,67144,1,0,0:0:0:0:
332,172,67224,1,0,0:0:0:0:
311,160,67304,1,8,0:0:0:0:
182,286,67465,1,0,0:0:0:0:
351,284,67625,5,4,0:0:0:0:
445,105,67785,1,0,0:0:0:0:
445,105,67866,1,0,0:0:0:0:
445,105,67946,2,0,L|363:56,1,80,8|0,0:0|0:0,0:0:0:0:
119,155,68267,2,0,L|262:178,1,120,2|0,0:2|0:0,0:0:0:0:
291,232,68588,5,8,0:0:0:0:
183,51,68748,1,0,0:0:0:0:
373,192,68908,2,0,P|382:241|336:313,1,120,2|0,0:2|0:0,0:0:0:0:
438,318,69229,2,0,P|456:281|459:233,1,80,10|0,0:2|0:0,0:0:0:0:
237,174,69550,5,2,0:2:0:0:
237,174,69711,1,0,0:0:0:0:
119,155,69871,1,10,0:2:0:0:
119,155,70031,1,0,0:0:0:0:
440,65,70192,2,0,L|308:111,1,120,2|0,0:2|0:0,0:0:0:0:
317,191,70513,6,0,P|296:231|264:253,1,80,8|0,0:0|0:0,0:0:0:0:
60,79,70834,2,0,P|128:55|207:129,1,160,8|8,0:0|0:0,0:0:0:0:
119,155,71315,1,0,0:0:0:0:
316,105,71475,5,10,0:0:0:0:
317,191,71716,5,10,0:0:0:0:
261,264,71956,6,0,B|212:285|119:242|119:242|134:290|192:292,1,240,10|4,0:0|0:0,0:0:0:0:
189,291,72758,1,6,0:0:0:0:
416,111,73079,5,0,1:0:0:0:
374,178,73239,1,2,0:0:0:0:
337,108,73400,2,0,P|355:61|428:32,1,128,2|0,0:0|1:0,0:0:0:0:
210,129,74042,6,0,L|343:107,1,128,2|0,0:0|1:0,0:0:0:0:
416,111,74523,1,2,0:0:0:0:
374,178,74683,1,2,0:0:0:0:
374,178,75004,5,0,1:0:0:0:
416,111,75165,1,2,0:0:0:0:
453,181,75325,2,0,P|435:228|362:257,1,128,2|0,0:0|1:0,0:0:0:0:
59,203,75967,2,0,P|77:156|150:127,1,128,2|0,0:0|1:0,0:0:0:0:
286,34,76608,6,0,L|265:169,1,128,2|0,0:0|1:0,0:0:0:0:
334,193,77090,1,2,0:0:0:0:
267,236,77250,2,0,L|290:373,1,128,2|0,0:0|1:0,0:0:0:0:
288,362,77892,5,6,0:0:0:0:
176,234,78052,1,0,0:0:0:0:
313,325,78213,1,2,0:0:0:0:
138,259,78373,1,0,0:0:0:0:
291,286,78534,1,0,1:0:0:0:
154,300,78694,1,0,0:0:0:0:
247,265,78854,1,8,0:3:0:0:
193,327,79015,1,4,0:3:0:0:
300,194,79175,5,4,0:3:0:0:
240,352,79336,1,0,1:0:0:0:
388,230,79496,1,0,1:0:0:0:
388,230,79576,1,0,1:0:0:0:
388,230,79657,1,0,1:0:0:0:
185,283,79817,2,0,B|143:299|148:347|148:347|137:319|87:323,2,120,4|0|0,1:2|1:0|1:0,0:0:0:0:
360,340,80459,5,6,0:0:0:0:
417,81,80619,1,0,0:0:0:0:
327,299,80780,1,2,0:0:0:0:
438,129,80940,1,0,0:0:0:0:
314,242,81100,1,0,1:0:0:0:
444,189,81261,1,0,0:0:0:0:
320,182,81421,1,8,0:3:0:0:
422,246,81582,1,4,0:3:0:0:
268,96,81742,5,4,0:3:0:0:
214,168,81903,1,0,1:0:0:0:
217,342,82063,5,0,1:0:0:0:
159,270,82223,1,4,3:0:0:0:
113,101,82384,5,0,1:0:0:0:
62,350,82625,1,0,1:0:0:0:
62,350,82705,1,0,1:0:0:0:
159,270,82866,1,0,1:0:0:0:
214,168,83026,2,0,B|266:152|296:170|296:170|309:149|373:131,1,160,4|0,0:0|1:0,0:0:0:0:
361,134,83667,5,0,0:0:0:0:
386,171,83747,1,0,0:0:0:0:
419,192,83827,1,8,0:0:0:0:
459,195,83907,1,8,0:0:0:0:
496,181,83987,1,8,0:0:0:0:
446,113,84149,1,0,1:0:0:0:
418,271,84309,6,0,L|445:114,1,160,4|0,1:0|1:0,0:0:0:0:
285,175,84790,2,0,P|291:196|309:217,1,40,8|0,0:0|2:0,0:0:0:0:
346,313,84951,5,8,1:0:0:0:
339,308,85031,1,0,0:0:0:0:
332,304,85111,1,0,0:0:0:0:
325,300,85191,1,0,0:0:0:0:
317,295,85272,2,0,L|250:321,1,40,8|0,0:0|2:0,0:0:0:0:
194,264,85432,2,0,L|136:249,1,40,8|0,1:0|2:0,0:0:0:0:
355,161,85592,5,8,1:0:0:0:
358,153,85673,1,0,0:0:0:0:
361,145,85753,1,0,0:0:0:0:
364,138,85833,1,8,0:0:0:0:
347,119,85913,5,8,1:0:0:0:
350,111,85994,1,0,0:0:0:0:
353,103,86074,1,8,0:0:0:0:
356,96,86154,1,0,0:0:0:0:
307,68,86234,5,8,1:0:0:0:
316,111,86314,1,8,1:0:0:0:
314,156,86395,1,8,0:0:0:0:
297,198,86475,1,0,1:0:0:0:
267,232,86555,6,0,L|247:287,1,40,8|0,0:0|2:0,0:0:0:0:
330,283,86715,2,0,L|337:328,1,40,8|0,0:0|2:0,0:0:0:0:
435,150,86876,6,0,P|471:182|443:283,1,160,8|0,0:0|0:0,0:0:0:0:
405,219,87357,2,0,P|380:218|351:207,1,40,8|0,0:0|2:0,0:0:0:0:
207,124,87518,1,0,1:0:0:0:
223,148,87598,2,0,L|188:238,1,80,8|0,0:0|0:0,0:0:0:0:
215,334,87838,6,0,P|200:315|187:293,1,40,8|0,0:0|2:0,0:0:0:0:
80,283,87999,2,0,P|102:280|132:269,1,40,8|0,0:0|2:0,0:0:0:0:
120,200,88159,1,8,1:0:0:0:
276,269,88320,5,8,0:0:0:0:
291,241,88400,1,0,0:0:0:0:
316,222,88480,2,0,P|343:209|378:172,1,80,8|8,1:0|0:0,0:0:0:0:
202,74,88801,1,0,1:0:0:0:
202,74,88881,2,0,L|227:111,1,40,8|0,0:0|2:0,0:0:0:0:
189,178,89042,5,8,0:0:0:0:
189,178,89122,2,0,L|167:236,1,40,8|0,0:0|2:0,0:0:0:0:
334,92,89282,2,0,L|290:136,1,40,8|0,0:0|2:0,0:0:0:0:
458,66,89443,1,4,1:0:0:0:
466,61,89764,6,0,P|482:110|466:163,1,80,8|0,0:0|0:0,0:0:0:0:
490,225,90084,2,0,L|405:230,1,80,2|0,0:0|0:0,0:0:0:0:
329,324,90405,2,0,L|408:319,1,80,8|0,0:0|0:0,0:0:0:0:
122,203,90726,6,0,L|245:195,1,120,2|0,0:0|0:0,0:0:0:0:
314,179,91047,2,0,P|295:141|253:123,1,80,8|0,0:0|0:0,0:0:0:0:
442,94,91368,2,0,P|405:107|377:153,1,80,2|0,0:0|0:0,0:0:0:0:
131,280,91689,2,0,P|167:266|196:221,1,80,8|0,0:0|0:0,0:0:0:0:
122,203,92009,5,0,0:0:0:0:
191,234,92170,1,0,0:0:0:0:
269,221,92330,1,8,0:0:0:0:
412,168,92491,2,0,L|443:90,1,80,4|0,0:0|0:0,0:0:0:0:
356,100,92812,5,0,0:0:0:0:
341,197,92972,1,8,0:0:0:0:
456,237,93132,1,0,0:0:0:0:
254,167,93293,5,2,0:2:0:0:
361,298,93453,1,2,0:2:0:0:
191,96,93614,5,2,0:2:0:0:
224,327,93774,1,2,0:2:0:0:
283,77,93935,5,2,0:2:0:0:
185,258,94095,1,2,0:2:0:0:
79,35,94255,2,0,B|74:75|116:89|116:89|116:129|29:143,1,160,2|4,0:2|0:0,0:0:0:0:
38,141,94897,6,0,L|52:231,1,80,8|0,0:0|0:0,0:0:0:0:
255,322,95218,2,0,L|89:291,1,160,0|8,0:0|0:0,0:0:0:0:
50,220,95699,1,0,0:0:0:0:
177,307,95860,6,0,P|201:261|197:218,1,80,2|0,0:2|2:0,0:0:0:0:
338,327,96181,6,0,P|326:275|272:243,1,95.9999970703126,10|0,0:2|2:0,0:0:0:0:
487,135,96501,6,0,P|387:91|305:178,1,223.999993164063,2|8,0:2|0:0,0:0:0:0:
309,158,96983,1,0,0:0:0:0:
216,185,97143,6,0,L|387:214,2,160,0|8|0,0:0|0:0|0:0,0:0:0:0:
216,185,97945,2,0,L|198:93,1,80,0|8,0:0|0:0,0:0:0:0:
282,86,98266,1,0,0:0:0:0:
450,219,98427,2,0,P|435:263|390:285,1,80
199,253,98747,6,0,L|174:127,1,120,8|0,0:0|0:0,0:0:0:0:
241,96,99068,1,0,0:0:0:0:
260,190,99229,1,0,0:0:0:0:
199,253,99389,1,8,0:0:0:0:
175,135,99550,1,0,0:0:0:0:
345,245,99710,1,4,0:0:0:0:
82,211,100031,5,8,0:0:0:0:
439,160,100352,1,0,0:0:0:0:
157,321,100673,1,8,0:0:0:0:
215,43,100993,6,0,P|266:69|369:33,1,143.999995605469,0|0,0:0|2:0,0:0:0:0:
348,52,101314,2,0,L|301:137,1,96,8|0,0:0|2:0,0:0:0:0:
169,128,101635,6,0,P|222:154|325:115,1,143.999995605469,0|0,0:0|2:0,0:0:0:0:
254,220,101956,2,0,L|302:136,1,96,8|0,0:0|2:0,0:0:0:0:
348,52,102277,5,8,0:0:0:0:
387,133,102437,1,8,0:0:0:0:
339,35,102598,5,2,2:0:0:0:
348,52,102758,1,2,2:0:0:0:
191,57,102919,5,8,0:0:0:0:
302,137,103079,1,8,0:0:0:0:
176,46,103239,5,2,2:0:0:0:
191,57,103399,1,2,2:0:0:0:
38,176,103560,6,0,P|68:186|85:186,1,48,0|0,0:0|2:0,0:0:0:0:
124,264,103881,6,0,P|167:214|154:152,1,120,12|0,0:2|2:0,0:0:0:0:
302,137,104202,6,0,P|324:119|350:119,1,48,0|0,0:0|2:0,0:0:0:0:
451,231,104523,6,0,P|398:235|349:178,1,120,12|0,0:2|2:0,0:0:0:0:
256,352,104844,6,0,B|251:325|251:325|259:303|259:303|248:264|255:217,1,120,0|0,0:0|2:0,0:0:0:0:
256,192,105165,1,12,0:2:0:0:
256,352,105485,6,0,B|264:308|264:308|246:283|246:283|266:221|253:180,1,167.999994873047,0|0,0:0|2:0,0:0:0:0:
256,120,105806,1,12,0:2:0:0:
256,48,106127,6,0,P|321:78|303:170,1,160,4|8,0:0|0:0,0:0:0:0:
180,329,106608,1,8,0:0:0:0:
351,229,106769,1,0,0:0:0:0:
46,82,107090,1,8,0:0:0:0:
155,127,107411,5,2,2:0:0:0:
71,177,107571,1,2,2:0:0:0:
155,127,107731,5,2,2:0:0:0:
71,177,107892,1,2,2:0:0:0:
253,301,108052,6,0,L|381:320,1,120,2|0,2:0|2:0,0:0:0:0:
305,234,108373,2,0,L|433:253,1,120,2|0,2:0|2:0,0:0:0:0:
456,130,108694,6,0,B|479:82|413:37|413:37|378:75,1,160,4|8,0:0|0:0,0:0:0:0:
213,32,109175,1,8,0:0:0:0:
382,147,109336,1,0,0:0:0:0:
164,338,109657,1,8,0:0:0:0:
193,259,109977,5,2,2:0:0:0:
153,255,110057,1,2,2:0:0:0:
116,270,110137,1,2,2:0:0:0:
193,259,110298,5,2,2:0:0:0:
116,270,110458,1,2,2:0:0:0:
247,324,110619,6,0,P|273:284|274:237,1,80,2|0,2:0|2:0,0:0:0:0:
267,208,110940,1,2,2:0:0:0:
258,164,111261,6,0,L|275:77,1,80,4|0,0:0|0:0,0:0:0:0:
357,158,111582,1,0,0:0:0:0:
133,343,111742,1,8,0:0:0:0:
153,249,111903,2,0,L|184:88,1,160,0|8,0:0|0:0,0:0:0:0:
224,314,112384,5,0,0:0:0:0:
134,153,112544,2,0,P|111:118|107:75,1,80,4|0,0:0|0:0,0:0:0:0:
315,285,112865,5,0,0:0:0:0:
133,343,113026,1,8,0:0:0:0:
310,204,113186,2,0,P|372:222|387:304,1,120
315,285,113507,5,8,0:0:0:0:
315,285,113667,1,0,0:0:0:0:
57,172,113828,2,0,L|212:133,1,160,4|8,0:0|0:0,0:0:0:0:
382,54,114309,5,0,0:0:0:0:
385,93,114389,1,0,0:0:0:0:
369,129,114469,1,8,0:0:0:0:
275,184,114630,1,0,0:0:0:0:
440,116,114790,5,12,0:2:0:0:
259,313,114951,1,0,0:2:0:0:
440,116,115111,6,0,P|400:62|322:75,1,143.999995605469,10|10,0:0|0:0,0:0:0:0:
115,186,115592,6,0,P|155:240|234:227,1,111.999996582031,10|10,0:0|0:0,0:0:0:0:
384,275,115993,6,0,L|422:223,1,40,2|6,2:2|0:2,0:0:0:0:
322,241,116154,5,0,0:0:0:0:
332,227,116234,1,0,0:0:0:0:
342,213,116314,1,0,0:0:0:0:
352,200,116395,6,0,L|228:170,1,120,4|0,0:0|0:0,0:0:0:0:
196,163,116715,1,8,0:0:0:0:
27,303,116876,1,2,0:2:0:0:
211,351,117036,2,0,B|169:357|138:328|138:328|79:313,1,120,2|0,0:2|0:0,0:0:0:0:
27,303,117357,2,0,L|45:206,1,80,8|0,0:0|0:0,0:0:0:0:
309,109,117678,6,0,L|211:85,1,80
192,79,117919,1,0,0:0:0:0:
153,69,117999,1,8,0:0:0:0:
56,143,118159,1,2,0:2:0:0:
337,187,118320,2,0,P|375:160|389:101,1,80,2|0,0:2|0:0,0:0:0:0:
71,62,118641,5,8,0:0:0:0:
128,205,118801,1,0,0:0:0:0:
388,130,118961,2,0,L|399:47,1,80,0|2,0:0|2:0,0:0:0:0:
337,187,119202,1,2,2:0:0:0:
337,187,119282,2,0,L|326:270,1,80,8|2,0:0|2:0,0:0:0:0:
168,336,119603,2,0,L|255:325,1,80,0|2,0:0|2:0,0:0:0:0:
86,137,119924,6,0,P|69:97|75:49,1,80,8|2,0:0|2:0,0:0:0:0:
148,89,120165,1,2,2:0:0:0:
148,89,120245,2,0,P|203:103|286:31,1,160,0|8,0:0|0:0,0:0:0:0:
33,243,120726,5,0,0:0:0:0:
225,99,120886,2,0,L|364:139,1,120
398,180,121207,2,0,P|438:159|481:160,1,80,8|0,0:0|0:0,0:0:0:0:
189,345,121528,5,4,0:0:0:0:
334,303,121689,1,2,0:2:0:0:
215,268,121849,5,8,0:0:0:0:
452,338,122009,1,2,0:2:0:0:
136,284,122170,6,0,P|108:271|95:248,1,48,2|0,0:2|2:0,0:0:0:0:
162,207,122491,6,0,P|166:182|183:167,1,40,8|0,0:0|0:0,0:0:0:0:
89,138,122651,2,0,P|74:115|54:103,1,40
180,63,122812,2,0,P|220:48|270:28,1,80,0|2,0:0|0:2,0:0:0:0:
446,192,123132,5,8,0:0:0:0:
379,322,123293,1,2,0:2:0:0:
389,137,123453,6,0,P|428:114|474:119,1,80,0|2,0:0|0:2,0:0:0:0:
359,299,123774,2,0,L|212:321,1,120,8|0,0:0|2:2,0:0:0:0:
163,298,124095,6,0,P|130:324|117:365,1,80
180,63,124416,1,8,0:0:0:0:
90,78,124576,2,0,P|104:119|145:146,1,80,2|0,0:2|0:0,0:0:0:0:
240,316,124897,1,2,0:2:0:0:
254,237,125057,1,8,0:0:0:0:
478,141,125218,6,0,L|417:128,1,40,2|2,0:2|0:2,0:0:0:0:
359,74,125378,2,0,P|421:74|468:137,1,120,2|0,0:2|0:0,0:0:0:0:
491,216,125699,2,0,L|413:199,1,80,8|0,0:0|0:0,0:0:0:0:
168,145,126020,5,8,0:0:0:0:
136,167,126100,1,0,0:0:0:0:
99,178,126181,1,0,0:0:0:0:
61,181,126261,1,8,0:0:0:0:
23,171,126341,5,8,0:0:0:0:
61,181,126421,1,0,0:0:0:0:
99,178,126501,1,8,0:0:0:0:
136,167,126582,1,0,0:0:0:0:
168,145,126662,6,0,L|307:124,1,120,4|0,0:0|0:0,0:0:0:0:
339,79,126983,1,8,0:0:0:0:
454,322,127143,1,2,0:2:0:0:
306,272,127304,2,0,L|404:257,1,80,2|0,0:2|0:0,0:0:0:0:
124,210,127624,2,0,P|89:163|104:102,1,120,8|0,0:0|0:0,0:0:0:0:
195,37,127945,2,0,P|240:58|265:103,1,80
21,200,128266,5,8,0:0:0:0:
168,145,128427,1,2,0:2:0:0:
315,189,128587,1,2,0:2:0:0:
124,210,128747,2,0,P|104:266|70:289,1,80,0|8,0:0|0:0,0:0:0:0:
388,174,129068,2,0,P|408:118|442:95,1,80
422,105,129389,5,2,0:2:0:0:
422,105,129469,1,0,0:0:0:0:
422,105,129550,1,8,0:0:0:0:
189,271,129710,1,2,0:2:0:0:
367,252,129871,5,0,0:0:0:0:
155,340,130031,1,2,0:2:0:0:
315,189,130191,5,8,0:0:0:0:
227,364,130352,1,2,0:2:0:0:
367,252,130512,5,0,0:0:0:0:
119,93,130673,1,2,0:2:0:0:
119,93,130753,1,2,0:2:0:0:
119,93,130833,2,0,B|173:91|190:129|190:129|225:148|272:129,1,160,10|0,0:2|0:0,0:0:0:0:
367,252,131314,5,0,0:0:0:0:
356,290,131394,1,0,0:0:0:0:
346,329,131475,1,8,0:0:0:0:
234,215,131635,1,0,0:0:0:0:
443,293,131796,5,4,0:0:0:0:
180,277,131956,2,0,P|158:241|153:201,1,80,0|8,0:0|0:0,0:0:0:0:
435,214,132277,5,0,0:0:0:0:
180,277,132437,2,0,L|50:262,1,120,2|0,0:2|0:0,0:0:0:0:
35,228,132758,1,8,0:0:0:0:
234,339,132919,2,0,P|256:303|261:263,1,80,0|2,0:0|0:2,0:0:0:0:
245,139,133239,5,0,0:0:0:0:
435,214,133400,2,0,L|345:203,1,80,10|0,0:2|0:0,0:0:0:0:
57,145,133721,2,0,L|136:154,1,80,2|0,0:2|0:0,0:0:0:0:
455,136,134042,2,0,L|365:125,1,80,10|0,0:2|0:0,0:0:0:0:
49,65,134362,2,0,B|128:74|128:74|156:25|220:38,1,160,2|8,0:2|0:0,0:0:0:0:
455,136,134844,5,0,0:0:0:0:
195,109,135004,1,8,0:0:0:0:
435,214,135165,5,0,0:0:0:0:
175,187,135325,1,8,0:0:0:0:
247,241,135485,5,0,0:0:0:0:
204,269,135565,1,0,0:0:0:0:
152,273,135646,5,10,0:0:0:0:
353,282,135887,5,10,0:0:0:0:
301,363,136127,6,0,B|249:318|266:251|266:251|241:237|241:237|222:191|165:185,1,240,10|4,0:0|0:0,0:0:0:0:
316,105,136930,1,4,0:2:0:0:
400,183,137251,5,8,0:0:0:0:
389,196,137411,2,0,L|305:204,1,80,8|0,0:0|2:0,0:0:0:0:
46,304,137892,2,0,P|32:269|43:220,1,80,10|2,0:2|0:2,0:0:0:0:
95,158,138213,1,0,0:0:0:0:
310,204,138534,5,8,0:0:0:0:
299,217,138694,2,0,L|215:225,1,80,8|0,0:0|2:0,0:0:0:0:
376,329,139176,2,0,P|420:331|464:315,1,80,10|2,0:2|0:2,0:0:0:0:
490,243,139496,1,0,0:0:0:0:
220,224,139817,5,8,0:0:0:0:
209,237,139978,2,0,L|125:245,1,80,8|0,0:0|2:0,0:0:0:0:
336,135,140459,2,0,P|343:90|324:54,1,80,10|2,0:2|0:2,0:0:0:0:
250,29,140780,1,0,0:0:0:0:
130,245,141101,5,8,0:0:0:0:
119,258,141261,2,0,L|35:266,1,80,8|0,0:0|2:0,0:0:0:0:
261,341,141742,2,0,L|177:349,1,80,10|2,0:2|0:2,0:0:0:0:
467,258,142063,6,0,L|493:174,1,80,6|0,0:2|0:0,0:0:0:0:
490,181,142384,5,8,0:0:0:0:
467,258,142545,1,8,0:0:0:0:
420,150,142705,5,0,0:0:0:0:
441,301,142865,1,0,0:0:0:0:
350,119,143026,5,8,0:0:0:0:
416,345,143186,1,0,0:0:0:0:
238,266,143347,6,0,L|226:349,1,80,6|0,0:2|0:0,0:0:0:0:
227,345,143668,5,8,0:0:0:0:
238,266,143828,1,8,0:0:0:0:
310,348,143988,5,0,0:0:0:0:
228,218,144149,1,0,0:0:0:0:
175,357,144309,5,8,0:0:0:0:
217,171,144470,1,0,0:0:0:0:
500,185,144630,5,6,0:2:0:0:
380,200,144791,1,0,0:0:0:0:
284,138,144951,5,8,0:0:0:0:
471,120,145111,1,8,0:0:0:0:
330,81,145272,5,0,0:0:0:0:
173,95,145432,1,0,0:0:0:0:
375,23,145593,5,8,0:0:0:0:
212,37,145753,1,0,0:0:0:0:
327,235,145914,6,0,B|362:274|341:312|341:312|304:314|286:294,1,120,6|0,0:2|2:0,0:0:0:0:
250,257,146234,1,8,0:0:0:0:
424,286,146395,1,8,0:0:0:0:
263,171,146555,5,0,0:0:0:0:
233,143,146636,1,0,0:0:0:0:
223,104,146716,1,8,0:0:0:0:
233,65,146796,1,8,0:0:0:0:
262,38,146876,1,8,0:0:0:0:
327,235,147037,1,8,0:0:0:0:
426,124,147197,6,0,P|391:98|341:99,1,80,4|0,0:0|0:0,0:0:0:0:
493,178,147518,1,8,0:0:0:0:
416,310,147678,1,8,0:0:0:0:
263,325,147839,2,0,P|209:307|172:252,1,120,0|0,0:0|2:0,0:0:0:0:
191,153,148160,2,0,P|239:190|251:253,1,120,8|0,0:0|2:0,0:0:0:0:
252,245,148480,2,0,P|285:223|330:221,1,80,0|0,0:0|0:0,0:0:0:0:
303,135,148801,5,8,0:0:0:0:
315,311,148962,2,0,L|407:339,1,80,8|0,0:0|0:0,0:0:0:0:
233,329,149283,1,0,0:0:0:0:
421,261,149443,2,0,L|495:231,1,80,8|0,0:0|0:0,0:0:0:0:
363,208,149684,5,0,0:0:0:0:
363,208,149764,2,0,B|383:175|421:178|421:178|370:151|376:92,1,160,0|8,0:0|0:0,0:0:0:0:
455,104,150245,1,8,0:0:0:0:
299,154,150406,5,0,0:0:0:0:
140,56,150566,2,0,P|197:67|217:85,1,80,0|8,0:0|0:0,0:0:0:0:
290,235,150887,5,0,0:0:0:0:
149,352,151047,2,0,L|127:269,1,80,0|0,0:0|0:0,0:0:0:0:
281,316,151368,5,8,0:0:0:0:
98,196,151529,1,8,0:0:0:0:
98,196,151609,1,0,0:0:0:0:
98,196,151689,2,0,P|152:195|205:238,1,120,0|0,0:0|0:0,0:0:0:0:
290,235,152010,6,0,L|373:276,1,80,8|0,0:0|0:0,0:0:0:0:
492,132,152331,1,4,0:0:0:0:
488,139,152651,5,8,0:0:0:0:
273,45,152812,1,8,0:0:0:0:
354,25,152972,2,0,P|355:64|337:100,1,80,0|0,0:0|0:0,0:0:0:0:
234,128,153293,2,0,P|189:94|195:12,1,120,8|0,0:0|2:0,0:0:0:0:
273,45,153614,6,0,L|292:142,1,80,0|0,0:0|0:0,0:0:0:0:
318,241,153935,1,8,0:0:0:0:
288,123,154095,1,8,0:0:0:0:
191,323,154256,6,0,B|168:302|103:309|103:309|92:287|75:275,1,120,0|0,0:0|2:0,0:0:0:0:
38,197,154576,2,0,B|61:218|126:211|126:211|137:233|154:245,1,120,8|0,0:0|2:0,0:0:0:0:
313,318,154898,6,0,P|361:302|382:198,1,160,0|8,0:0|0:0,0:0:0:0:
342,125,155379,1,8,0:0:0:0:
318,241,155539,6,0,P|382:254|464:206,1,160,0|8,0:0|0:0,0:0:0:0:
270,170,156021,1,0,0:0:0:0:
105,354,156181,6,0,P|147:314|134:230,1,120,0|0,0:0|0:0,0:0:0:0:
127,220,156502,1,8,0:0:0:0:
251,89,156662,1,8,0:0:0:0:
461,209,156823,5,4,0:3:0:0:
461,209,156903,1,4,0:3:0:0:
461,209,156983,1,4,0:3:0:0:
461,209,157063,1,4,0:3:0:0:
461,209,157144,1,12,0:2:0:0:
461,209,157464,6,0,P|456:292|384:333,1,160,4|8,1:1|0:0,0:0:0:0:
381,245,157946,1,8,0:0:0:0:
321,131,158106,2,0,B|334:171|334:171|292:192|293:250,1,120,4|0,1:3|0:0,0:0:0:0:
308,303,158427,2,0,P|267:300|229:266,1,80,8|0,0:0|0:0,0:0:0:0:
400,117,158747,6,0,L|222:149,1,160,4|8,1:3|0:0,0:0:0:0:
82,170,159229,1,8,0:0:0:0:
182,204,159390,2,0,B|143:165|165:109|165:109|130:100|103:82,1,160,4|8,1:3|0:0,0:0:0:0:
112,87,160031,6,0,L|172:18,1,80,4|0,1:3|2:0,0:0:0:0:
243,145,160352,2,0,L|270:230,1,80,8|8,0:0|2:0,0:0:0:0:
346,238,160673,1,4,1:3:0:0:
176,195,160833,2,0,P|135:187|93:155,1,80,0|8,0:0|0:0,0:0:0:0:
354,146,161154,5,0,1:0:0:0:
354,146,161234,1,0,1:0:0:0:
354,146,161315,2,0,P|419:173|434:260,1,160,4|8,1:3|0:0,0:0:0:0:
362,54,161796,1,8,0:0:0:0:
346,238,161956,2,0,L|519:270,2,160,4|8|4,1:3|0:0|0:0,0:0:0:0:
346,238,162919,5,8,0:0:0:0:
165,123,163079,2,0,P|150:83|113:29,1,80,8|8,0:0|3:3,0:0:0:0:
239,236,163400,5,8,0:3:0:0:
392,162,163561,1,8,0:0:0:0:
239,236,163721,1,4,3:3:0:0:
423,355,163882,1,4,0:0:0:0:
423,355,164202,5,8,0:0:0:0:
168,287,164363,2,0,P|152:251|162:197,1,80,8|8,0:0|3:0,0:0:0:0:
392,162,164684,1,4,3:3:0:0:
239,236,164844,5,8,0:0:0:0:
423,355,165004,1,4,3:0:0:0:
494,63,165165,2,0,L|372:89,1,120,4|0,0:0|2:0,0:0:0:0:
317,138,165486,5,8,0:0:0:0:
266,321,165646,1,0,0:0:0:0:
393,162,165806,5,8,0:0:0:0:
156,236,165967,1,0,0:0:0:0:
468,187,166127,5,8,0:0:0:0:
47,152,166288,1,0,0:0:0:0:
475,194,166448,5,12,0:0:0:0:
475,194,166529,1,0,0:0:0:0:
475,194,166609,2,0,P|461:220|436:236,1,40
286,255,166769,5,8,0:0:0:0:
286,255,166849,1,0,0:0:0:0:
286,255,166930,2,0,P|261:243|234:238,1,40
47,152,167090,5,8,0:0:0:0:
63,169,167170,1,8,0:0:0:0:
79,186,167251,1,0,0:0:0:0:
95,203,167331,1,8,0:0:0:0:
111,220,167411,2,0,P|109:262|127:307,1,80,8|2,0:0|0:3,0:0:0:0:
416,146,167732,6,0,B|367:151|350:181|350:181|308:142|228:174,1,192,4|0,0:2|0:0,0:0:0:0:
197,231,168374,2,0,L|174:364,1,128,4|0,0:2|0:0,0:0:0:0:
157,109,169015,6,0,L|200:242,1,128,4|0,0:2|0:0,0:0:0:0:
265,279,169496,1,0,0:0:0:0:
265,279,169657,2,0,P|336:272|392:220,1,128,4|0,0:2|0:0,0:0:0:0:
371,343,170299,5,4,0:2:0:0:
310,183,170619,1,0,0:0:0:0:
310,183,170940,5,4,0:2:0:0:
420,54,171261,1,0,0:0:0:0:
166,34,171582,6,0,B|183:96|157:124|157:124|186:162,1,128,4|0,0:2|0:0,0:0:0:0:
84,168,172063,1,8,0:3:0:0:
84,168,172224,2,0,L|70:85,1,64,4|0,0:3|2:0,0:0:0:0:
341,186,172545,5,4,0:2:0:0:
353,190,172865,1,0,0:0:0:0:
430,167,173026,1,2,0:0:0:0:
288,217,173186,5,0,0:0:0:0:
365,194,173347,1,2,0:0:0:0:
285,231,173507,5,0,0:0:0:0:
441,171,173668,1,2,0:0:0:0:
327,114,173828,1,0,0:0:0:0:
393,270,173988,1,2,0:0:0:0:
247,157,174149,6,0,L|179:157,1,64,0|2,0:0|0:0,0:0:0:0:
138,254,174470,2,0,L|202:254,1,64,0|2,0:0|0:0,0:0:0:0:
54,244,174791,1,2,0:0:0:0:
54,244,174870,1,0,0:0:0:0:
54,244,174951,1,2,0:0:0:0:
54,244,175031,1,0,0:0:0:0:
54,244,175111,2,0,P|77:312|149:340,1,128,2|4,0:0|0:2,0:0:0:0:
139,341,175753,6,0,L|138:260,1,80,0|8,0:0|0:0,0:0:0:0:
155,344,176074,6,0,L|187:244,1,95.9999970703126,8|8,0:0|0:0,0:0:0:0:
171,347,176395,6,0,L|246:236,1,111.999996582031,8|8,0:0|0:0,0:0:0:0:
441,124,176716,1,12,0:0:0:0:
378,219,176876,5,0,0:0:0:0:
347,186,176956,1,8,0:0:0:0:
335,142,177037,1,8,0:0:0:0:
306,107,177117,1,0,0:0:0:0:
261,101,177197,1,8,0:0:0:0:
221,80,177277,1,8,0:0:0:0:
197,41,177357,1,8,0:0:0:0:
117,176,177518,5,4,0:3:0:0:
388,300,177678,2,0,P|445:266|455:196,1,111.999996582031,4|0,0:2|2:0,0:0:0:0:
99,275,177999,6,0,B|139:242|181:257|181:257|188:171|248:161,1,191.999994140625,4|8,0:0|0:0,0:0:0:0:
393,62,178480,1,2,0:2:0:0:
272,241,178641,1,2,0:2:0:0:
485,78,178801,5,0,0:0:0:0:
469,120,178882,1,0,0:0:0:0:
433,149,178962,1,8,0:0:0:0:
304,39,179122,1,0,0:0:0:0:
322,308,179283,2,0,P|351:260|342:190,1,95.9999970703126,0|0,0:0|0:0,0:0:0:0:
91,350,179603,5,8,0:0:0:0:
282,167,179764,1,2,0:2:0:0:
113,257,179924,1,2,0:2:0:0:
279,72,180085,5,0,0:0:0:0:
232,83,180165,1,0,0:0:0:0:
201,116,180245,1,8,0:0:0:0:
182,323,180406,1,0,0:0:0:0:
25,121,180566,6,0,L|133:147,1,95.9999970703126,6|0,0:2|0:0,0:0:0:0:
315,198,180887,2,0,B|384:223|439:176|439:176|411:217|444:255,1,191.999994140625,8|6,0:0|0:2,0:0:0:0:
369,304,181368,1,0,0:0:0:0:
410,326,181448,1,0,0:0:0:0:
457,322,181529,1,8,0:0:0:0:
119,144,181689,1,0,0:0:0:0:
429,232,181849,5,6,0:2:0:0:
240,174,182010,1,2,0:2:0:0:
51,116,182170,2,0,B|91:95|142:103|142:103|172:85|180:48|180:48|152:69|124:56,1,191.999994140625,10|0,0:2|0:0,0:0:0:0:
181,99,182571,1,0,0:0:0:0:
182,147,182652,1,0,0:0:0:0:
213,182,182732,1,0,0:0:0:0:
240,174,182812,5,8,0:0:0:0:
241,221,182892,1,0,0:0:0:0:
277,252,182972,1,0,0:0:0:0:
325,257,183053,1,0,0:0:0:0:
370,243,183133,6,0,L|472:217,1,95.9999970703126,4|0,0:0|0:0,0:0:0:0:
463,219,183374,1,0,0:0:0:0:
463,219,183454,1,8,0:0:0:0:
353,44,183614,1,0,0:0:0:0:
109,223,183775,2,0,P|192:236|220:312,1,143.999995605469,0|0,0:0|0:0,0:0:0:0:
193,352,184095,5,8,0:0:0:0:
19,204,184256,1,0,0:0:0:0:
147,35,184416,2,0,B|211:27|262:62|262:62|308:28,1,143.999995605469,2|0,0:2|0:0,0:0:0:0:
353,44,184737,6,0,P|343:95|295:119,1,95.9999970703126,10|0,0:2|0:0,0:0:0:0:
432,164,185058,1,2,0:2:0:0:
81,301,185218,2,0,P|116:247|98:183,1,95.9999970703126,0|10,0:0|0:2,0:0:0:0:
87,124,185539,5,0,0:0:0:0:
87,124,185619,1,0,0:0:0:0:
87,124,185700,1,12,0:2:0:0:
425,260,186021,1,12,0:2:0:0:
256,192,186341,6,0,B|288:149|357:153|357:153|376:87,1,160,2|0,0:0|0:0,0:0:0:0:
299,82,186823,5,2,0:0:0:0:
299,82,186983,2,0,B|229:94|191:150|191:150|147:150,1,160,2|4,0:0|3:0,0:0:0:0:
155,164,187705,1,2,0:0:0:0:
147,178,187785,1,2,0:0:0:0:
139,192,187865,1,2,0:0:0:0:
131,206,187946,5,2,0:0:0:0:
123,220,188026,1,2,0:0:0:0:
116,234,188106,1,2,0:0:0:0:
109,248,188186,1,2,0:0:0:0:
102,262,188267,6,0,P|151:304|235:273,1,160,6|2,0:0|0:0,0:0:0:0:
373,297,188748,1,0,0:0:0:0:
373,297,188908,2,0,B|344:255|314:247|314:247|330:216|298:164,2,160,8|2|0,0:0|0:0|0:0,0:0:0:0:
461,306,189710,2,0,P|445:352|413:375,1,80,8|2,0:0|0:0,0:0:0:0:
435,208,190031,1,0,0:0:0:0:
435,208,190192,2,0,B|392:203|371:224|371:224|327:223|295:156,1,160,8|2,0:0|0:0,0:0:0:0:
238,72,190673,2,0,L|178:140,1,80,8|0,0:0|0:0,0:0:0:0:
173,136,191154,5,2,0:0:0:0:
161,140,191475,1,8,0:0:0:0:
150,144,191796,1,2,0:0:0:0:
139,148,192117,5,0,0:0:0:0:
272,247,192277,2,0,P|213:264|187:295,1,80,8|2,0:0|0:0,0:0:0:0:
326,179,192598,1,0,0:0:0:0:
264,331,192758,2,0,L|203:167,1,160,8|2,0:0|0:0,0:0:0:0:
139,148,193240,1,8,0:0:0:0:
350,96,193400,6,0,P|404:136|390:234,1,160,4|2,0:0|0:0,0:0:0:0:
336,282,193882,1,0,0:0:0:0:
256,246,194042,1,8,0:0:0:0:
326,190,194202,1,2,0:0:0:0:
381,264,194363,1,0,0:0:0:0:
311,320,194523,1,2,0:0:0:0:
167,269,194684,2,0,L|186:188,1,80,0|8,0:0|0:0,0:0:0:0:
226,335,195004,5,2,0:0:0:0:
98,188,195165,2,0,L|117:107,1,80,2|8,0:0|0:0,0:0:0:0:
190,46,195486,1,2,0:0:0:0:
325,257,195646,2,0,P|273:232|251:186,1,80,8|0,0:0|0:0,0:0:0:0:
426,66,195967,6,0,P|475:111|437:202,1,160,4|8,0:0|0:0,0:0:0:0:
382,317,196448,2,0,B|360:336|339:349|339:349|299:322|231:338,1,160,2|2,0:0|0:0,0:0:0:0:
103,283,196930,1,8,0:0:0:0:
206,128,197090,1,2,0:0:0:0:
325,257,197251,5,0,0:0:0:0:
169,201,197411,1,0,0:0:0:0:
91,173,197571,5,8,0:0:0:0:
247,229,197732,1,8,0:3:0:0:
91,173,197892,1,4,0:3:0:0:
90,88,198053,5,0,0:0:0:0:
90,88,198133,1,0,0:0:0:0:
90,88,198213,2,0,L|133:56,1,40,8|0,0:0|0:0,0:0:0:0:
252,113,198374,2,0,L|273:71,1,40,8|0,0:0|0:0,0:0:0:0:
395,35,198534,1,6,0:2:0:0:
446,217,198694,5,2,0:2:0:0:
446,217,198775,1,2,0:2:0:0:
446,217,198855,1,10,0:2:0:0:
446,217,199015,2,0,P|479:269|474:310,1,80,2|0,0:2|0:0,0:0:0:0:
327,132,199336,2,0,P|285:112|237:118,1,80,2|8,0:2|0:0,0:0:0:0:
297,283,199657,2,0,L|121:319,1,160,2|0,0:2|0:0,0:0:0:0:
369,341,200138,5,10,0:2:0:0:
183,230,200299,1,0,0:0:0:0:
385,261,200459,1,2,0:2:0:0:
324,65,200619,1,6,0:2:0:0:
219,299,200780,2,0,P|138:299|116:202,1,160,6|6,0:2|0:2,0:0:0:0:
378,126,201261,5,2,0:2:0:0:
378,126,201341,1,2,0:2:0:0:
378,126,201422,1,10,0:2:0:0:
183,230,201582,2,0,L|156:155,1,80,2|0,0:2|0:0,0:0:0:0:
294,138,201903,5,2,0:2:0:0:
219,299,202063,1,8,0:0:0:0:
78,224,202224,2,0,L|51:149,1,80,2|0,0:2|0:0,0:0:0:0:
288,236,202545,5,0,0:0:0:0:
183,230,202705,1,10,0:2:0:0:
288,236,202865,1,0,0:0:0:0:
78,224,203026,1,2,0:2:0:0:
124,53,203186,5,6,0:2:0:0:
348,159,203347,2,0,B|394:204|382:255|382:255|409:244|418:209,1,160,6|4,0:2|0:2,0:0:0:0:
471,128,203828,1,2,0:2:0:0:
471,128,203908,1,2,0:2:0:0:
471,128,203988,1,10,0:2:0:0:
255,75,204149,5,2,0:2:0:0:
348,159,204309,1,0,0:0:0:0:
240,98,204470,5,2,0:2:0:0:
138,250,204630,1,8,0:0:0:0:
333,182,204791,5,2,0:2:0:0:
188,173,204951,1,0,0:0:0:0:
306,304,205111,5,0,0:0:0:0:
410,144,205272,1,10,0:2:0:0:
318,205,205432,1,0,0:0:0:0:
410,144,205593,5,2,0:2:0:0:
306,304,205753,1,6,0:2:0:0:
207,147,205913,1,6,0:2:0:0:
409,325,206074,1,0,0:0:0:0:
352,70,206234,5,4,0:2:0:0:
233,249,206395,1,2,0:2:0:0:
233,249,206475,1,2,0:2:0:0:
233,249,206555,1,10,0:2:0:0:
318,205,206716,5,2,0:2:0:0:
214,351,206876,1,0,0:0:0:0:
207,147,207036,2,0,L|216:67,1,80,2|8,0:2|0:0,0:0:0:0:
104,227,207357,2,0,L|95:307,1,80,2|0,0:2|0:0,0:0:0:0:
296,117,207678,5,0,0:0:0:0:
95,306,207839,1,10,0:2:0:0:
207,147,207999,1,0,0:0:0:0:
415,252,208160,1,2,0:2:0:0:
402,289,208240,1,0,1:0:0:0:
374,317,208320,1,8,0:0:0:0:
337,329,208400,1,8,0:0:0:0:
298,323,208480,1,8,0:0:0:0:
312,213,208641,6,0,B|326:149|406:117|468:155|468:155|446:64|356:104,1,320,4|0,0:0|0:0,0:0:0:0:
376,96,209362,1,0,0:0:0:0:
376,96,209443,1,0,0:0:0:0:
376,96,209523,1,0,0:0:0:0:
376,96,209603,1,0,0:0:0:0:
