osu file format v14

[General]
AudioFilename: audio.mp3
AudioLeadIn: 0
PreviewTime: 52143
Countdown: 0
SampleSet: Soft
StackLeniency: 0.7
Mode: 0
LetterboxInBreaks: 0
WidescreenStoryboard: 0

[Editor]
Bookmarks: 72838,141983
DistanceSpacing: 0.8
BeatDivisor: 4
GridSize: 4
TimelineZoom: 1

[Metadata]
Title:Alice
TitleUnicode:Alice
Artist:Ryokuoushoku Shakai
ArtistUnicode:緑黄色社会
Creator:CoLouRed GlaZeE
Version:Collab Extra
Source:
Tags:delis j-pop jpop pop japanese rock jrock j-rock ryokushaka リョクシャカ 幸せ -ep- shiawase
BeatmapID:3717470
BeatmapSetID:1812255

[Difficulty]
HPDrainRate:7
CircleSize:4
OverallDifficulty:8
ApproachRate:8
SliderMultiplier:1.8
SliderTickRate:1

[Events]
//Background and Video events
0,0,"alice in wonderland1.jpg",0,0
//Break Periods
2,72959,82917
2,137129,141313
//Storyboard Layer 0 (Background)
//Storyboard Layer 1 (Fail)
//Storyboard Layer 2 (Pass)
//Storyboard Layer 3 (Foreground)
//Storyboard Layer 4 (Overlay)
//Storyboard Sound Samples

[TimingPoints]
887,320.855614973262,4,2,1,70,1,0
18855,-100,4,2,1,60,0,0
30406,-100,4,1,1,70,0,0
35218,-133.333333333333,4,1,1,70,0,0
35539,-100,4,1,1,70,0,0
43239,-100,4,2,1,70,0,0
44523,-100,4,1,1,70,0,0
45806,-100,4,2,1,70,0,0
47090,-100,4,1,1,70,0,0
52223,-100,4,1,1,80,0,0
72758,-100,4,2,1,60,0,0
83667,-100,4,1,1,70,0,0
89443,-100,4,2,1,60,0,0
92009,-100,4,1,1,70,0,0
107411,-100,4,2,1,70,0,0
108694,-100,4,1,1,70,0,0
109977,-100,4,2,1,70,0,0
111261,-100,4,1,1,70,0,0
115592,-71.4285714285714,4,1,1,70,0,0
116395,-100,4,1,1,80,0,0
136929,-100,4,1,1,70,0,0
147197,-133.333333333333,4,1,1,70,0,0
157464,-133.333333333333,4,2,1,70,0,0
162598,-100,4,1,1,70,0,0
165165,-100,4,1,1,75,0,0
166448,-100,4,1,1,80,0,0
167731,-133.333333333333,4,1,1,70,0,0
172865,-100,4,2,1,60,0,0
175432,-100,4,1,1,70,0,0
176074,-100,4,1,1,75,0,0
176395,-100,4,1,1,80,0,0
176716,-100,4,1,1,85,0,0
177999,-83.3333333333333,4,1,1,90,0,0
186341,-133.333333333333,4,2,1,60,0,0
188266,-133.333333333333,4,2,1,70,0,0
197250,-100,4,1,1,70,0,0

[Colours]
Combo1 : 148,147,204
Combo2 : 235,157,120
Combo3 : 98,190,230
Combo4 : 237,167,237

[HitObjects]
256,192,18052,12,6,18854,0:0:0:0:
96,312,19095,5,0,0:0:0:0:
96,312,19176,2,0,L|216:296,1,90,8|0,0:0|0:0,0:0:0:0:
185,300,19497,1,2,0:0:0:0:
432,336,19817,1,8,0:0:0:0:
48,228,20138,5,2,0:0:0:0:
484,152,20459,1,10,0:0:0:0:
64,52,20780,1,2,0:0:0:0:
136,112,20940,5,0,0:0:0:0:
224,96,21101,1,8,0:0:0:0:
312,76,21261,1,0,0:0:0:0:
392,292,21422,6,0,P|332:264|240:272,1,135,2|0,0:0|0:0,0:0:0:0:
216,284,21743,1,8,0:0:0:0:
136,324,21903,1,0,0:0:0:0:
48,312,22063,1,2,0:0:0:0:
488,248,22384,1,8,0:0:0:0:
56,80,22705,1,2,0:0:0:0:
368,352,23026,1,8,0:0:0:0:
148,36,23347,1,2,0:0:0:0:
128,120,23507,5,0,0:0:0:0:
224,108,23668,1,8,0:0:0:0:
280,40,23828,1,0,0:0:0:0:
472,220,23989,6,0,L|456:332,1,90,2|0,0:0|0:0,0:0:0:0:
472,328,24229,1,0,0:0:0:0:
488,344,24309,1,8,0:0:0:0:
384,244,24470,1,0,0:0:0:0:
276,344,24630,2,0,B|248:304|252:248,1,90,2|0,0:0|0:0,0:0:0:0:
376,56,24951,2,0,B|404:96|400:152,1,90,8|0,0:0|0:0,0:0:0:0:
212,188,25272,6,0,L|16:164,1,180,2|8,0:0|0:0,0:0:0:0:
33,166,25753,1,0,0:0:0:0:
104,100,25914,2,0,L|200:112,1,90,2|0,0:0|0:0,0:0:0:0:
392,64,26235,2,0,L|296:52,1,90,8|0,0:0|0:0,0:0:0:0:
432,156,26555,6,0,L|272:136,1,135,2|0,0:0|0:0,0:0:0:0:
298,139,26876,1,8,0:0:0:0:
432,156,27037,1,0,0:0:0:0:
352,308,27197,2,0,L|140:284,1,180,2|8,0:0|0:0,0:0:0:0:
173,287,27678,1,0,0:0:0:0:
288,216,27839,6,0,L|404:228,1,90,2|0,0:0|0:0,0:0:0:0:
200,136,28160,2,0,L|300:96,1,90,8|0,0:0|0:0,0:0:0:0:
173,287,28481,2,0,L|264:348,1,90,2|2,0:0|0:0,0:0:0:0:
96,116,28801,2,0,L|128:220,1,90,8|0,0:0|0:0,0:0:0:0:
328,348,29122,6,0,B|360:276|296:208,1,135,6|0,0:0|1:0,0:0:0:0:
276,192,29443,1,8,0:0:0:0:
356,136,29603,1,8,0:3:0:0:
408,224,29764,5,4,0:3:0:0:
456,88,29924,1,4,0:3:0:0:
312,56,30085,1,2,0:0:0:0:
312,56,30406,6,0,L|192:72,1,90,4|0,0:1|0:0,0:0:0:0:
200,60,30646,1,0,0:0:0:0:
180,52,30726,1,8,0:0:0:0:
116,128,30887,1,0,0:0:0:0:
172,208,31047,2,0,B|152:304,1,90,0|0,0:0|0:0,0:0:0:0:
64,344,31368,1,8,0:0:0:0:
40,248,31529,1,0,0:0:0:0:
248,264,31689,6,0,L|408:232,1,135,2|0,0:2|0:0,0:0:0:0:
428,228,32010,1,10,0:2:0:0:
504,164,32170,1,0,0:0:0:0:
436,88,32331,1,2,0:2:0:0:
356,148,32491,5,0,0:0:0:0:
176,192,32652,1,8,0:0:0:0:
352,232,32812,1,0,0:0:0:0:
220,104,32972,2,0,B|296:120|356:52,1,135,0|0,0:0|0:0,0:0:0:0:
376,32,33293,1,8,0:0:0:0:
460,76,33454,1,0,0:0:0:0:
376,144,33614,5,0,0:0:0:0:
512,216,33775,1,0,0:0:0:0:
400,328,33935,2,0,L|304:316,1,90,8|0,0:0|0:0,0:0:0:0:
216,300,34256,5,0,0:0:0:0:
140,236,34416,1,0,0:0:0:0:
140,236,34497,1,0,0:0:0:0:
140,236,34577,1,8,0:0:0:0:
200,160,34737,1,0,0:0:0:0:
272,228,34898,5,0,0:0:0:0:
260,88,35058,1,4,0:2:0:0:
116,108,35218,2,0,L|8:120,1,101.250003862381,12|0,0:2|2:0,0:0:0:0:
8,164,35539,6,0,L|172:144,1,135,4|0,0:0|0:0,0:0:0:0:
192,144,35860,1,8,0:0:0:0:
284,184,36021,1,0,0:0:0:0:
364,124,36181,2,0,B|376:168|372:224,1,90,0|0,0:0|0:0,0:0:0:0:
196,324,36502,2,0,B|184:280|188:224,1,90,8|0,0:0|0:0,0:0:0:0:
256,32,36823,6,0,B|300:88|280:168,1,135,0|0,0:0|0:0,0:0:0:0:
268,208,37144,1,8,0:0:0:0:
180,164,37304,1,0,0:0:0:0:
160,68,37464,1,0,0:0:0:0:
252,108,37625,5,0,0:0:0:0:
224,276,37785,1,8,0:0:0:0:
60,328,37946,1,0,0:0:0:0:
52,244,38106,6,0,L|32:132,1,90,8|8,0:0|0:0,0:0:0:0:
20,76,38427,1,2,2:2:0:0:
460,140,38748,2,0,L|480:252,1,90,8|8,0:0|0:0,0:0:0:0:
492,308,39069,1,2,2:2:0:0:
168,97,39390,6,0,B|184:37|272:9|324:61,1,180,0|14,1:0|0:2,0:0:0:0:
344,287,40031,2,0,B|328:347|240:375|188:323,1,180,0|14,1:0|0:2,0:0:0:0:
376,111,40673,2,0,B|436:127|464:215|412:267,1,180,0|14,1:0|0:2,0:0:0:0:
136,273,41315,2,0,B|76:257|48:169|100:117,1,180,0|14,1:0|0:2,0:0:0:0:
192,352,41956,6,0,L|352:360,1,135,4|0,0:1|0:0,0:0:0:0:
372,364,42277,1,8,0:0:0:0:
428,292,42438,1,8,0:0:0:0:
512,312,42598,1,0,0:0:0:0:
96,200,42919,1,8,0:0:0:0:
448,48,43240,5,2,2:0:0:0:
448,48,43400,1,2,2:0:0:0:
360,68,43561,1,2,2:0:0:0:
360,68,43721,1,2,2:0:0:0:
268,48,43882,1,2,2:0:0:0:
240,356,44202,1,2,2:0:0:0:
84,67,44523,6,0,L|98:222,1,135,4|0,0:0|0:0,0:0:0:0:
102,245,44844,1,8,0:0:0:0:
204,176,45005,1,8,0:0:0:0:
204,288,45165,2,0,B|152:320|132:360,1,90,0|0,0:0|0:0,0:0:0:0:
312,232,45486,1,8,0:0:0:0:
64,40,45807,5,2,2:2:0:0:
64,40,45967,1,2,2:2:0:0:
156,72,46128,1,2,2:2:0:0:
156,72,46288,1,2,2:2:0:0:
256,56,46448,1,2,2:0:0:0:
232,152,46609,5,8,2:0:0:0:
252,192,46689,1,8,2:0:0:0:
276,232,46769,1,8,2:0:0:0:
248,316,46930,1,0,2:0:0:0:
328,120,47090,6,0,B|392:104|428:84,1,90,4|0,0:1|0:0,0:0:0:0:
184,264,47411,2,0,B|120:280|84:300,1,90,0|8,0:0|0:0,0:0:0:0:
340,240,47732,2,0,B|404:256|440:276,1,90,0|0,0:0|0:0,0:0:0:0:
172,144,48053,2,0,B|108:128|72:108,1,90,8|0,0:0|0:0,0:0:0:0:
284,304,48374,5,4,0:0:0:0:
264,196,48534,1,0,0:0:0:0:
184,264,48694,1,0,0:0:0:0:
264,196,48855,2,0,B|288:160|312:100,1,90,8|0,0:0|0:0,0:0:0:0:
324,32,49176,1,0,0:0:0:0:
368,184,49336,1,8,0:0:0:0:
208,136,49497,1,0,0:0:0:0:
400,88,49657,6,0,B|464:96|508:96,1,90,4|0,0:0|0:0,0:0:0:0:
457,191,49978,2,0,B|393:183|349:183,1,90,8|0,0:0|0:0,0:0:0:0:
292,136,50299,5,8,0:0:0:0:
184,56,50460,1,0,0:0:0:0:
64,124,50620,1,12,0:2:0:0:
176,208,50781,1,0,0:2:0:0:
128,316,50940,5,10,1:0:0:0:
220,308,51181,5,10,1:0:0:0:
312,300,51422,5,10,1:0:0:0:
404,288,51582,5,10,1:0:0:0:
500,284,51743,5,2,2:0:0:0:
500,284,51823,1,2,2:2:0:0:
500,284,51903,1,6,0:2:0:0:
500,284,52224,6,0,B|540:192|472:108,1,180,4|8,1:0|0:0,0:0:0:0:
396,72,52705,1,2,0:2:0:0:
308,44,52866,1,2,0:2:0:0:
408,168,53026,5,0,0:0:0:0:
232,80,53186,1,8,0:0:0:0:
316,256,53347,1,0,0:0:0:0:
236,164,53507,6,0,B|156:224|144:344,1,180,0|8,0:0|0:0,0:0:0:0:
236,380,53989,1,2,0:2:0:0:
236,380,54069,1,0,0:0:0:0:
236,380,54149,1,2,0:2:0:0:
316,316,54309,1,0,0:0:0:0:
232,280,54470,5,8,0:0:0:0:
396,320,54630,1,0,0:0:0:0:
472,172,54791,2,0,L|452:68,1,90,0|2,0:0|2:0,0:0:0:0:
380,144,55112,2,0,L|400:248,1,90,8|2,0:0|2:0,0:0:0:0:
300,312,55432,2,0,L|280:208,1,90,0|2,0:0|2:0,0:0:0:0:
128,148,55753,2,0,L|148:252,1,90,8|2,0:0|2:0,0:0:0:0:
148,332,56074,6,0,B|84:352|12:300|24:224,1,180,0|8,0:0|0:0,0:0:0:0:
36,128,56555,1,2,0:2:0:0:
108,40,56716,1,2,0:2:0:0:
184,120,56876,1,0,0:0:0:0:
228,132,56956,1,0,0:0:0:0:
272,144,57037,1,8,0:0:0:0:
304,36,57197,1,0,0:0:0:0:
388,64,57358,5,4,0:0:0:0:
500,180,57518,1,2,0:2:0:0:
384,292,57678,1,8,0:0:0:0:
272,176,57839,1,2,0:2:0:0:
348,148,57999,5,0,0:0:0:0:
236,32,58160,1,2,0:2:0:0:
120,144,58320,1,8,0:0:0:0:
232,260,58480,1,2,0:2:0:0:
152,64,58641,6,0,L|248:28,1,90
360,320,58962,2,0,L|264:360,1,90,8|0,0:0|0:0,0:0:0:0:
96,211,59283,2,0,L|128:308,1,90,0|2,0:0|0:2,0:0:0:0:
416,168,59603,2,0,L|381:76,1,90,8|0,0:0|0:0,0:0:0:0:
228,244,59924,5,0,0:0:0:0:
296,172,60085,1,0,0:0:0:0:
204,156,60245,1,8,0:0:0:0:
316,252,60406,5,2,0:2:0:0:
292,88,60566,1,0,0:0:0:0:
232,324,60727,1,2,0:2:0:0:
376,200,60887,1,8,0:0:0:0:
144,224,61048,1,2,0:2:0:0:
456,88,61208,6,0,B|400:36|316:60,1,135,2|0,0:2|0:0,0:0:0:0:
292,88,61529,1,8,0:0:0:0:
196,112,61689,1,0,0:0:0:0:
112,64,61849,5,8,0:0:0:0:
112,64,61930,1,8,0:0:0:0:
32,248,62090,1,8,0:0:0:0:
32,248,62170,1,8,0:0:0:0:
224,208,62331,1,8,0:0:0:0:
300,220,62491,6,0,B|316:164|404:136|460:188,1,180,4|8,0:0|0:0,0:0:0:0:
404,260,62972,2,0,L|392:320,2,45,2|0|2,0:2|0:0|0:2,0:0:0:0:
464,360,63293,1,0,0:0:0:0:
488,280,63454,5,8,0:0:0:0:
312,352,63614,1,0,0:0:0:0:
148,288,63775,2,0,L|96:208,1,90,0|0,0:0|0:0,0:0:0:0:
98,212,64015,1,0,0:0:0:0:
98,212,64095,1,8,0:0:0:0:
196,360,64256,1,2,0:2:0:0:
108,356,64416,5,2,0:2:0:0:
264,308,64577,1,0,0:0:0:0:
36,276,64737,5,8,0:0:0:0:
196,360,64898,1,0,0:0:0:0:
240,176,65058,1,0,0:0:0:0:
288,88,65218,5,2,0:2:0:0:
288,88,65299,1,0,0:0:0:0:
288,88,65379,2,0,B|328:56|388:64,1,90,8|2,0:0|0:2,0:0:0:0:
460,116,65700,1,0,0:0:0:0:
440,212,65860,1,2,0:2:0:0:
472,40,66021,5,8,0:0:0:0:
512,188,66181,1,2,0:2:0:0:
360,224,66341,1,0,0:0:0:0:
288,292,66502,5,2,0:2:0:0:
288,292,66582,1,0,0:0:0:0:
288,292,66662,2,0,L|80:264,1,180,8|0,0:0|0:0,0:0:0:0:
16,128,67144,1,0,0:0:0:0:
172,192,67304,1,8,0:0:0:0:
108,32,67464,1,0,0:0:0:0:
204,80,67625,5,4,0:0:0:0:
296,72,67785,1,0,0:0:0:0:
296,72,67866,1,0,0:0:0:0:
296,72,67946,2,0,B|348:76|384:124,1,90,8|0,0:0|0:0,0:0:0:0:
448,258,68267,1,2,0:2:0:0:
288,202,68427,1,0,0:0:0:0:
464,182,68587,1,8,0:0:0:0:
312,278,68748,1,0,0:0:0:0:
416,356,68908,6,0,B|460:340|520:336,1,90,2|0,0:2|0:0,0:0:0:0:
184,308,69229,2,0,B|140:328|80:328,1,90,10|0,0:2|0:0,0:0:0:0:
388,180,69550,2,0,B|444:184|500:200,1,90,2|0,0:2|0:0,0:0:0:0:
164,100,69871,2,0,B|108:96|52:80,1,90,10|0,0:2|0:0,0:0:0:0:
356,44,70192,5,2,0:2:0:0:
356,44,70513,1,8,0:0:0:0:
260,144,70673,1,0,0:0:0:0:
332,256,70833,1,8,0:0:0:0:
260,144,70994,1,0,0:0:0:0:
120,164,71154,1,8,0:0:0:0:
392,148,71315,6,0,L|436:168,2,45,0|0|10,0:0|0:0|0:0,0:0:0:0:
300,96,71716,5,10,0:0:0:0:
200,40,71956,5,10,0:0:0:0:
252,348,72277,6,0,B|284:320|344:328,1,90,0|4,0:0|0:0,0:0:0:0:
496,360,72759,1,6,0:0:0:0:
287,332,83667,5,0,1:0:0:0:
287,332,83747,1,0,1:0:0:0:
287,332,83828,1,8,1:0:0:0:
287,332,83908,1,8,1:0:0:0:
287,332,83988,1,8,1:0:0:0:
315,243,84149,1,0,1:0:0:0:
406,280,84309,6,0,B|469:248|463:147|374:129,1,180,4|0,0:0|0:0,0:0:0:0:
366,118,84710,1,0,0:0:0:0:
331,128,84790,1,8,0:0:0:0:
310,157,84870,1,0,0:0:0:0:
289,187,84951,1,0,0:0:0:0:
256,202,85031,1,0,0:0:0:0:
220,200,85111,1,0,0:0:0:0:
186,187,85191,1,0,0:0:0:0:
162,159,85272,1,8,0:0:0:0:
166,70,85432,1,0,0:0:0:0:
73,110,85592,5,0,0:0:0:0:
73,110,85673,1,0,0:0:0:0:
73,110,85753,2,0,B|81:158|92:225,1,90
162,159,86074,1,8,0:0:0:0:
246,115,86234,2,0,B|244:43|152:-6|96:55,1,180,0|8,0:0|0:0,0:0:0:0:
162,159,86715,1,0,0:0:0:0:
269,202,86876,5,0,0:0:0:0:
302,188,86956,1,0,0:0:0:0:
337,187,87036,1,0,0:0:0:0:
368,203,87116,1,0,0:0:0:0:
392,229,87197,1,0,0:0:0:0:
401,263,87277,1,0,0:0:0:0:
395,298,87357,1,8,0:0:0:0:
370,324,87437,1,0,0:0:0:0:
342,347,87518,2,0,B|384:363|439:364,1,90
262,279,87838,2,0,B|213:252|155:268,1,90,8|0,0:0|0:0,0:0:0:0:
135,347,88159,6,0,B|78:341|42:258|97:194,1,180
155,125,88641,1,8,0:0:0:0:
256,138,88801,1,0,0:0:0:0:
357,152,88961,1,0,0:0:0:0:
332,253,89122,5,8,0:0:0:0:
299,64,89282,1,0,0:0:0:0:
464,166,89443,1,4,1:0:0:0:
464,166,89764,6,0,B|454:218|462:277,1,90,8|0,0:0|0:0,0:0:0:0:
405,339,90084,2,0,L|307:332,1,90,2|0,0:0|0:0,0:0:0:0:
221,296,90405,2,0,L|122:293,1,90,8|0,0:0|0:0,0:0:0:0:
172,64,90726,6,0,B|246:77|259:182|188:219,1,180,2|8,0:0|0:0,0:0:0:0:
128,157,91207,1,0,0:0:0:0:
128,157,91368,2,0,B|69:165|26:164,1,90,2|0,0:0|0:0,0:0:0:0:
330,117,91689,2,0,B|389:109|432:110,1,90,8|0,0:0|0:0,0:0:0:0:
376,283,92009,6,0,B|366:357|267:376|222:311,1,180,0|8,0:0|0:0,0:0:0:0:
146,289,92491,2,0,B|156:215|255:196|300:261,1,180,4|0,0:0|0:0,0:0:0:0:
407,180,92972,1,8,0:0:0:0:
376,283,93132,1,0,0:0:0:0:
407,180,93293,6,0,B|375:133|387:73,1,90,2|2,0:2|0:2,0:0:0:0:
105,204,93614,2,0,B|137:251|125:311,1,90,2|2,0:2|0:2,0:0:0:0:
376,283,93935,2,0,B|321:292|272:240,1,90,2|2,0:2|0:2,0:0:0:0:
164,125,94255,1,2,0:2:0:0:
164,125,94576,6,0,L|21:105,1,135,4|0,0:0|0:0,0:0:0:0:
13,68,94897,1,8,0:0:0:0:
47,201,95058,1,0,0:0:0:0:
236,199,95218,2,0,B|302:191|316:75|231:49,1,180,0|8,0:0|0:0,0:0:0:0:
392,174,95699,6,0,B|420:278,1,90,0|2,0:0|0:2,0:0:0:0:
167,271,96181,1,10,0:2:0:0:
441,345,96501,2,0,B|385:262|258:280,1,180,2|8,0:2|0:0,0:0:0:0:
220,356,96983,1,0,0:0:0:0:
167,271,97143,2,0,B|121:171|198:91,1,180,0|8,0:0|0:0,0:0:0:0:
280,69,97624,1,0,0:0:0:0:
366,119,97785,2,0,B|409:105|469:104,1,90,0|0,0:0|0:0,0:0:0:0:
271,182,98106,2,0,B|228:196|168:197,1,90,8|0,0:0|0:0,0:0:0:0:
188,103,98427,5,0,0:0:0:0:
366,119,98587,1,0,0:0:0:0:
266,267,98747,2,0,B|259:318|280:368,1,90,8|0,0:0|0:0,0:0:0:0:
455,310,99068,5,0,0:0:0:0:
438,219,99229,1,0,0:0:0:0:
348,196,99389,1,8,0:0:0:0:
365,287,99550,1,0,0:0:0:0:
458,121,99710,6,0,B|400:80|320:103,1,135,4|0,0:0|2:0,0:0:0:0:
288,128,100031,2,0,B|244:115|218:64,1,90,8|0,0:0|0:0,0:0:0:0:
336,245,100352,2,0,B|379:216|441:230,1,90,0|0,0:0|0:0,0:0:0:0:
214,185,100673,2,0,B|171:214|109:200,1,90,8|0,0:0|0:0,0:0:0:0:
99,355,100993,6,0,B|160:311|235:332,1,135,0|0,0:0|2:0,0:0:0:0:
268,343,101314,1,8,0:0:0:0:
368,321,101475,1,0,0:0:0:0:
384,216,101635,1,0,0:0:0:0:
368,321,101796,1,0,0:0:0:0:
277,241,101956,2,0,L|183:215,1,90,8|0,0:0|0:0,0:0:0:0:
87,180,102277,5,8,0:0:0:0:
139,72,102437,1,8,0:0:0:0:
190,217,102598,1,2,2:0:0:0:
87,180,102919,5,8,0:0:0:0:
211,35,103079,1,8,0:0:0:0:
277,241,103239,1,2,2:0:0:0:
480,92,103560,6,0,L|286:74,1,180,0|12,0:0|0:2,0:0:0:0:
32,292,104202,2,0,L|226:310,1,180,0|12,0:0|0:2,0:0:0:0:
387,187,104844,2,0,B|461:205|474:299|405:345,1,180,0|12,0:0|0:2,0:0:0:0:
125,197,105485,2,0,B|51:179|38:85|107:39,1,180,0|12,0:0|0:2,0:0:0:0:
264,232,106127,6,0,L|253:82,1,135,4|0,0:0|0:0,0:0:0:0:
271,53,106448,1,8,0:0:0:0:
365,89,106608,1,8,0:0:0:0:
344,188,106769,1,0,0:0:0:0:
73,349,107090,1,8,0:0:0:0:
460,315,107411,5,2,2:0:0:0:
460,315,107571,1,2,2:0:0:0:
377,348,107731,1,2,2:0:0:0:
377,348,107892,1,2,2:0:0:0:
292,319,108052,2,0,B|258:373|155:355|150:278,1,180,2|2,2:0|2:0,0:0:0:0:
415,55,108694,6,0,B|449:121|425:195,1,135,4|0,0:0|0:0,0:0:0:0:
407,223,109015,1,8,0:0:0:0:
348,125,109175,1,8,0:0:0:0:
226,213,109336,2,0,B|283:206|334:217,1,90,0|0,0:0|0:0,0:0:0:0:
184,119,109657,1,8,0:0:0:0:
74,329,109977,6,0,L|14:345,2,45,2|2|2,2:0|2:0|2:0,0:0:0:0:
137,255,110298,1,2,2:0:0:0:
242,317,110459,1,2,2:0:0:0:
160,356,110619,1,2,2:0:0:0:
222,235,110780,1,0,2:0:0:0:
345,343,110940,1,2,2:0:0:0:
345,343,111261,6,0,B|368:300|354:247,1,90,4|0,0:0|0:0,0:0:0:0:
167,41,111582,2,0,B|144:84|158:137,1,90,0|8,0:0|0:0,0:0:0:0:
398,135,111903,2,0,B|340:142|291:119,1,90,0|0,0:0|0:0,0:0:0:0:
114,249,112223,2,0,B|172:242|221:265,1,90,8|0,0:0|0:0,0:0:0:0:
356,255,112544,5,4,0:0:0:0:
309,126,112705,1,0,0:0:0:0:
202,257,112865,1,0,0:0:0:0:
356,255,113026,1,8,0:0:0:0:
395,100,113186,6,0,B|386:36|282:8|236:71,1,180,0|8,0:0|0:0,0:0:0:0:
176,122,113667,1,0,0:0:0:0:
91,309,113828,2,0,B|58:260|68:208,1,90,4|0,0:0|0:0,0:0:0:0:
66,130,114149,5,8,0:0:0:0:
153,210,114309,1,0,0:0:0:0:
261,166,114469,1,8,0:0:0:0:
176,122,114630,5,0,0:0:0:0:
308,242,114790,1,12,0:2:0:0:
461,153,114951,1,0,0:0:0:0:
346,84,115111,6,0,B|335:34|259:15|222:71,1,135,10|10,0:0|0:0,0:0:0:0:
177,308,115592,6,0,B|187:353|256:371|290:319,1,125.999996154785,10|10,0:0|0:0,0:0:0:0:
256,192,116074,5,6,0:2:0:0:
256,192,116154,1,0,0:0:0:0:
256,192,116234,1,0,0:0:0:0:
256,192,116314,1,0,0:0:0:0:
256,192,116395,2,0,L|439:172,1,180,4|8,0:0|0:0,0:0:0:0:
490,255,116876,1,2,0:2:0:0:
332,328,117036,2,0,B|276:341|223:295,1,90,2|0,0:2|0:0,0:0:0:0:
96,232,117357,2,0,B|152:219|205:265,1,90,8|0,0:0|0:0,0:0:0:0:
358,50,117678,6,0,B|316:5|208:25|195:103,1,180,0|8,0:0|0:0,0:0:0:0:
181,166,118159,1,2,0:2:0:0:
115,32,118320,1,2,0:2:0:0:
65,129,118480,5,0,0:0:0:0:
65,129,118560,1,0,0:0:0:0:
65,129,118641,1,8,0:0:0:0:
77,292,118801,1,0,0:0:0:0:
237,338,118961,2,0,L|337:329,1,90,0|2,0:0|2:0,0:0:0:0:
386,240,119282,2,0,L|296:248,1,90,8|2,0:0|2:0,0:0:0:0:
176,181,119603,2,0,L|276:172,1,90,0|2,0:0|2:0,0:0:0:0:
436,83,119924,2,0,L|346:91,1,90,8|2,0:0|2:0,0:0:0:0:
465,300,120245,6,0,B|455:374|350:384|319:315,1,180,0|8,0:0|0:0,0:0:0:0:
235,264,120726,1,0,0:0:0:0:
353,196,120886,1,0,0:0:0:0:
265,96,121047,1,0,0:0:0:0:
252,139,121127,1,0,0:0:0:0:
223,173,121207,1,8,0:0:0:0:
128,177,121368,1,0,0:0:0:0:
143,275,121528,6,0,B|123:327|157:375,1,90,4|2,0:0|0:2,0:0:0:0:
395,274,121849,2,0,B|415:222|381:174,1,90,8|2,0:0|0:2,0:0:0:0:
267,319,122170,2,0,L|252:135,1,180,2|8,0:2|0:0,0:0:0:0:
252,139,122651,1,0,0:0:0:0:
366,88,122812,5,0,0:0:0:0:
222,48,122972,1,2,0:2:0:0:
222,48,123052,1,0,0:0:0:0:
222,48,123132,1,8,0:0:0:0:
130,164,123293,1,2,0:2:0:0:
362,209,123453,5,0,0:0:0:0:
252,139,123614,1,2,0:2:0:0:
186,307,123774,1,8,0:0:0:0:
252,139,123935,1,0,0:0:0:0:
386,291,124095,6,0,B|457:285|475:171|408:139,1,180,0|8,0:0|0:0,0:0:0:0:
126,93,124576,2,0,B|55:99|37:213|104:245,1,180,2|2,0:2|0:2,0:0:0:0:
190,270,125058,1,8,0:0:0:0:
107,341,125218,1,2,0:2:0:0:
194,171,125378,6,0,B|280:226|380:202,1,180,2|8,0:2|0:0,0:0:0:0:
451,170,125860,1,0,0:0:0:0:
381,115,126020,1,8,0:0:0:0:
381,115,126100,1,8,0:0:0:0:
372,295,126261,1,8,0:0:0:0:
372,295,126341,1,8,0:0:0:0:
204,262,126501,1,8,0:0:0:0:
119,292,126662,6,0,B|51:265|46:161|139:135,1,180,4|8,0:0|0:0,0:0:0:0:
197,98,127143,1,2,0:2:0:0:
197,98,127223,1,0,0:0:0:0:
197,98,127304,1,2,0:2:0:0:
285,137,127464,1,0,0:0:0:0:
210,188,127624,5,8,0:0:0:0:
305,42,127785,1,0,0:0:0:0:
398,203,127945,2,0,B|348:200|304:210,1,90,0|0,0:0|0:0,0:0:0:0:
308,209,128186,1,0,0:0:0:0:
308,209,128266,1,8,0:0:0:0:
254,299,128427,1,2,0:2:0:0:
120,194,128587,2,0,B|170:197|214:187,1,90,2|0,0:2|0:0,0:0:0:0:
305,42,128908,2,0,L|314:133,1,90,8|0,0:0|0:0,0:0:0:0:
338,338,129229,5,0,0:0:0:0:
472,283,129389,1,2,0:2:0:0:
472,283,129469,1,0,0:0:0:0:
472,283,129550,2,0,B|404:277|369:239,1,90,8|2,0:0|0:2,0:0:0:0:
128,223,129870,2,0,B|161:190|221:187,1,90,0|2,0:0|0:2,0:0:0:0:
380,46,130191,2,0,B|376:101|340:138,1,90,8|2,0:0|0:2,0:0:0:0:
245,277,130512,5,0,0:0:0:0:
338,338,130673,1,2,0:2:0:0:
338,338,130753,1,2,0:2:0:0:
338,338,130833,2,0,B|409:350|466:282|416:193,1,180,10|0,0:2|0:0,0:0:0:0:
349,129,131314,1,0,0:0:0:0:
303,131,131395,1,0,0:0:0:0:
262,151,131475,1,8,0:0:0:0:
191,214,131635,1,0,0:0:0:0:
45,90,131796,5,4,0:0:0:0:
162,38,131956,1,0,0:0:0:0:
45,90,132116,1,8,0:0:0:0:
107,199,132277,1,0,0:0:0:0:
31,319,132437,6,0,B|78:345|139:336,1,90,2|0,0:2|0:0,0:0:0:0:
253,327,132758,1,8,0:0:0:0:
199,185,132919,1,0,0:0:0:0:
334,107,133079,6,0,L|431:139,1,90,2|0,0:2|0:0,0:0:0:0:
178,277,133400,2,0,L|81:245,1,90,10|0,0:2|0:0,0:0:0:0:
353,225,133721,2,0,L|389:323,1,90,2|0,0:2|0:0,0:0:0:0:
159,159,134042,2,0,L|123:61,1,90,10|0,0:2|0:0,0:0:0:0:
357,34,134362,5,2,0:2:0:0:
357,34,134683,1,8,0:0:0:0:
312,246,134844,1,0,0:0:0:0:
437,107,135004,1,8,0:0:0:0:
232,173,135165,1,0,0:0:0:0:
338,145,135325,1,8,0:0:0:0:
295,331,135485,1,0,0:0:0:0:
147,237,135646,6,0,B|98:220|86:141|143:109,1,135,10|10,0:0|0:0,0:0:0:0:
365,147,136127,6,0,B|454:178|476:322|372:381,1,270,10|4,0:0|0:0,0:0:0:0:
256,192,136929,5,4,0:2:0:0:
148,172,142063,6,0,B|128:152|136:116,6,45,6|2|2|2|10|2|10,2:2|2:0|2:0|2:0|2:0|2:0|2:0,2:0:0:0:
220,232,142705,5,0,0:0:0:0:
76,232,142865,1,0,0:0:0:0:
196,320,143026,1,8,0:0:0:0:
320,232,143186,1,0,0:0:0:0:
384,292,143347,6,0,B|400:320|432:324,6,45,6|2|2|2|10|2|10,2:2|2:0|2:0|2:0|2:0|2:0|2:0,2:0:0:0:
356,132,143988,1,0,0:0:0:0:
464,264,144149,1,0,0:0:0:0:
472,136,144309,1,8,0:0:0:0:
316,224,144470,1,0,0:0:0:0:
216,136,144630,6,0,L|160:116,6,45,6|2|2|2|10|2|10,2:2|2:0|2:0|2:0|2:0|2:0|2:0,2:0:0:0:
280,64,145272,1,0,0:0:0:0:
332,156,145432,1,0,0:0:0:0:
272,244,145593,1,8,0:0:0:0:
316,344,145753,1,0,0:0:0:0:
380,276,145914,5,6,2:2:0:0:
380,276,145994,1,2,2:0:0:0:
380,276,146074,1,2,2:0:0:0:
380,276,146154,1,2,2:0:0:0:
380,276,146234,2,0,B|424:288|472:292,1,90,10|10,2:0|2:0,0:0:0:0:
296,200,146555,5,0,0:0:0:0:
272,320,146716,1,8,0:0:0:0:
270,329,146796,1,8,0:0:0:0:
269,338,146876,1,8,0:0:0:0:
176,252,147037,1,8,0:0:0:0:
300,268,147197,5,4,0:0:0:0:
300,268,147518,1,8,0:0:0:0:
348,332,147678,2,0,B|392:320|404:252|364:220,1,135.000005149842,8|0,0:0|0:0,0:0:0:0:
304,160,148160,1,8,0:0:0:0:
388,140,148320,1,0,0:0:0:0:
365,221,148480,5,0,0:0:0:0:
224,180,148641,1,0,0:0:0:0:
328,72,148801,2,0,B|264:60|244:40,1,67.5000025749208,8|8,0:0|0:0,0:0:0:0:
304,160,149122,1,0,0:0:0:0:
172,40,149283,2,0,B|188:72|192:116,1,67.5000025749208,0|8,0:0|0:0,0:0:0:0:
224,180,149603,1,0,0:0:0:0:
128,204,149764,6,0,B|104:144|92:56,1,135.000005149842,0|8,0:0|0:0,0:0:0:0:
208,268,150245,1,8,0:0:0:0:
208,268,150566,1,0,0:0:0:0:
108,304,150726,1,8,0:0:0:0:
128,204,150886,1,0,0:0:0:0:
204,348,151047,5,0,0:0:0:0:
232,184,151208,1,0,0:0:0:0:
356,284,151368,1,8,0:0:0:0:
268,272,151529,1,8,0:0:0:0:
428,328,151689,2,0,B|444:296|432:240,1,67.5000025749208,0|0,0:0|0:0,0:0:0:0:
388,136,152010,5,8,0:0:0:0:
312,32,152170,1,0,0:0:0:0:
196,92,152331,1,4,0:0:0:0:
196,92,152652,2,0,L|112:64,1,67.5000025749208,8|8,0:0|0:0,0:0:0:0:
276,120,152972,5,0,0:0:0:0:
108,152,153133,2,0,B|96:228|124:300,1,135.000005149842,0|0,0:0|0:0,0:0:0:0:
60,360,153614,5,0,0:0:0:0:
204,296,153774,1,0,0:0:0:0:
32,280,153935,2,0,B|12:252|16:204,1,67.5000025749208,8|8,0:0|0:0,0:0:0:0:
184,152,154256,2,0,B|204:180|200:228,1,67.5000025749208,0|0,0:0|0:0,0:0:0:0:
136,352,154577,2,0,B|116:324|120:276,1,67.5000025749208,8|0,0:0|0:0,0:0:0:0:
244,204,154897,6,0,B|324:192|376:260,1,135.000005149842,0|8,0:0|0:0,0:0:0:0:
408,320,155379,1,8,0:0:0:0:
348,176,155539,1,0,0:0:0:0:
512,340,155860,6,0,B|516:304|496:260,1,67.5000025749208,8|0,0:0|0:0,0:0:0:0:
468,196,156181,1,0,0:0:0:0:
476,112,156341,1,0,0:0:0:0:
420,40,156502,2,0,L|344:48,1,67.5000025749208,8|8,0:0|0:0,0:0:0:0:
296,112,156823,5,4,0:3:0:0:
216,272,156983,1,4,0:3:0:0:
176,152,157143,1,12,0:2:0:0:
336,232,157303,1,0,0:0:0:0:
256,192,157464,6,0,B|184:184|124:240,1,135.000005149842,4|8,1:1|0:0,0:0:0:0:
96,308,157946,1,8,0:0:0:0:
72,184,158106,5,4,1:3:0:0:
200,280,158266,1,0,0:0:0:0:
24,264,158427,1,8,0:0:0:0:
332,340,158747,6,0,B|408:356|472:308,1,135.000005149842,4|8,1:3|0:0,0:0:0:0:
496,232,159229,1,8,0:0:0:0:
380,84,159389,5,4,1:3:0:0:
420,240,159550,1,0,0:0:0:0:
496,96,159710,1,8,0:0:0:0:
176,224,160031,6,0,B|128:220|96:192,1,67.5000025749208,4|0,1:3|2:0,0:0:0:0:
340,160,160352,1,8,0:0:0:0:
340,160,160512,1,8,2:0:0:0:
204,144,160673,2,0,B|232:116|280:112,1,67.5000025749208,4|0,1:3|0:0,0:0:0:0:
308,240,160994,2,0,B|280:268|232:272,1,67.5000025749208,8|0,0:0|0:0,0:0:0:0:
196,36,161315,6,0,B|268:20|328:64,1,135.000005149842,4|8,1:3|0:0,0:0:0:0:
388,132,161796,1,8,0:0:0:0:
404,224,161956,1,4,1:3:0:0:
360,308,162117,1,0,0:0:0:0:
272,340,162277,1,8,0:0:0:0:
180,320,162438,1,0,0:0:0:0:
124,244,162598,6,0,L|108:144,1,90,4|0,0:0|0:0,0:0:0:0:
140,60,162919,1,8,0:0:0:0:
140,60,163079,1,8,0:0:0:0:
228,108,163240,1,8,3:3:0:0:
276,96,163320,1,0,0:0:0:0:
324,84,163400,1,8,0:3:0:0:
416,48,163561,1,8,0:0:0:0:
468,132,163721,1,4,3:3:0:0:
380,176,163881,6,0,L|360:276,1,90,4|0,0:0|0:0,0:0:0:0:
408,352,164202,1,8,0:0:0:0:
308,340,164363,1,8,0:0:0:0:
212,324,164523,1,8,3:0:0:0:
164,336,164603,1,0,0:0:0:0:
116,348,164684,1,4,3:3:0:0:
60,268,164844,2,0,B|60:216|24:176,1,90,8|4,0:0|3:0,0:0:0:0:
175,168,165165,5,4,0:0:0:0:
175,168,165486,1,8,0:0:0:0:
336,215,165646,1,0,0:0:0:0:
235,109,165807,1,8,0:0:0:0:
274,273,165967,1,0,0:0:0:0:
316,133,166127,1,8,0:0:0:0:
193,250,166287,1,0,0:0:0:0:
387,156,166448,5,12,0:0:0:0:
124,227,166609,1,0,0:0:0:0:
290,62,166769,5,8,0:0:0:0:
220,325,166930,1,0,0:0:0:0:
161,94,167090,5,8,0:0:0:0:
161,94,167170,1,8,0:0:0:0:
353,287,167331,1,8,0:0:0:0:
353,287,167411,1,8,0:0:0:0:
256,192,167571,5,2,0:3:0:0:
256,192,167652,1,0,0:0:0:0:
256,192,167732,2,0,L|476:172,1,202.500007724762,4|0,0:2|0:0,0:0:0:0:
460,256,168373,2,0,L|240:276,1,202.500007724762,4|0,0:2|0:0,0:0:0:0:
32,352,169015,6,0,B|-16:312|-24:216|16:164,1,202.500007724762,4|0,0:2|0:0,0:0:0:0:
100,156,169657,2,0,B|148:196|156:292|116:344,1,202.500007724762,4|0,0:2|0:0,0:0:0:0:
196,80,170299,6,0,B|312:84|376:184,1,202.500007724762,4|0,0:2|0:0,0:0:0:0:
444,128,170940,2,0,B|504:236|428:348,1,202.500007724762,4|0,0:2|0:0,0:0:0:0:
204,352,171582,6,0,B|144:244|220:132,1,202.500007724762,4|8,0:2|0:3,0:0:0:0:
256,92,172224,1,4,0:3:0:0:
444,320,172545,1,4,0:2:0:0:
44,60,172865,5,0,0:0:0:0:
80,64,173026,1,2,0:0:0:0:
116,68,173186,1,0,0:0:0:0:
152,72,173347,1,2,0:0:0:0:
280,152,173507,5,0,0:0:0:0:
256,156,173668,1,2,0:0:0:0:
232,160,173828,1,0,0:0:0:0:
208,164,173989,1,2,0:0:0:0:
44,240,174149,5,0,0:0:0:0:
104,276,174310,1,2,0:0:0:0:
164,312,174470,1,0,0:0:0:0:
228,348,174631,1,2,0:0:0:0:
244,268,174791,5,2,0:0:0:0:
260,264,174871,1,0,0:0:0:0:
276,260,174951,1,2,0:0:0:0:
292,256,175031,1,0,0:0:0:0:
308,252,175111,1,2,0:0:0:0:
324,248,175191,1,2,0:0:0:0:
464,76,175432,6,0,B|424:24|328:44|312:112,1,180,4|0,0:2|0:0,0:0:0:0:
364,232,175914,1,8,0:0:0:0:
228,212,176074,1,8,0:0:0:0:
448,244,176234,5,8,0:0:0:0:
232,96,176395,1,8,0:0:0:0:
280,360,176555,1,8,0:0:0:0:
360,128,176716,5,12,0:0:0:0:
88,264,176956,1,8,0:0:0:0:
88,264,177037,1,8,0:0:0:0:
264,264,177197,1,8,0:0:0:0:
284,252,177277,1,8,0:0:0:0:
444,348,177438,1,8,0:0:0:0:
424,308,177518,1,8,0:0:0:0:
440,264,177598,1,8,0:0:0:0:
424,224,177678,1,12,0:2:0:0:
408,132,177839,1,0,0:0:0:0:
204,52,177999,6,0,B|144:48|104:96,1,107.999996704102,4|0,0:0|0:0,0:0:0:0:
72,216,178320,1,8,0:0:0:0:
196,252,178480,1,2,0:2:0:0:
24,132,178641,5,2,0:2:0:0:
92,320,178801,1,0,0:0:0:0:
92,320,178881,1,0,0:0:0:0:
92,320,178962,1,8,0:0:0:0:
208,176,179122,1,0,0:0:0:0:
292,244,179283,6,0,B|348:244|412:212,1,107.999996704102,0|0,0:0|0:0,0:0:0:0:
240,48,179603,2,0,B|184:48|120:80,1,107.999996704102,8|2,0:0|0:2,0:0:0:0:
292,244,179924,5,2,0:2:0:0:
344,84,180085,1,0,0:0:0:0:
208,176,180245,1,8,0:0:0:0:
376,168,180406,1,0,0:0:0:0:
120,184,180566,6,0,B|68:180|-8:180,1,107.999996704102,6|0,0:2|0:0,0:0:0:0:
208,352,180887,2,0,B|260:356|336:356,1,107.999996704102,8|0,0:0|0:0,0:0:0:0:
444,340,181208,1,6,0:2:0:0:
356,248,181368,1,0,0:0:0:0:
364,196,181448,1,0,0:0:0:0:
396,152,181529,1,8,0:0:0:0:
496,244,181689,1,0,0:0:0:0:
304,120,181849,5,6,0:2:0:0:
424,272,182010,1,2,0:2:0:0:
248,192,182170,2,0,B|216:144|144:152,1,107.999996704102,10|0,0:2|0:0,0:0:0:0:
212,264,182491,5,0,0:0:0:0:
244,76,182652,1,0,0:0:0:0:
308,256,182812,1,8,0:0:0:0:
136,324,182972,1,0,0:0:0:0:
72,96,183133,6,0,B|120:64|180:68,1,107.999996704102,4|0,0:0|0:0,0:0:0:0:
440,288,183454,2,0,B|392:320|332:316,1,107.999996704102,8|0,0:0|0:0,0:0:0:0:
153,151,183774,1,0,0:0:0:0:
153,151,184095,5,8,0:0:0:0:
359,233,184256,1,0,0:0:0:0:
176,344,184416,2,0,B|176:292|172:220,1,107.999996704102,2|0,0:2|0:0,0:0:0:0:
336,40,184737,2,0,B|336:92|340:164,1,107.999996704102,10|0,0:2|0:0,0:0:0:0:
172,236,185058,5,2,0:2:0:0:
339,147,185218,1,0,0:0:0:0:
100,184,185379,5,10,0:2:0:0:
412,200,185539,1,0,0:0:0:0:
256,192,185699,6,0,L|232:116,2,53.9999983520508,4|8|0,0:2|0:0|0:0,0:0:0:0:
256,192,186020,1,12,0:2:0:0:
276,64,186341,6,0,B|320:40|376:64|384:108,1,135.000005149842,2|0,0:0|0:0,0:0:0:0:
372,192,186823,1,2,0:0:0:0:
372,192,186983,2,0,B|376:240|440:260|480:228,1,135.000005149842,2|0,0:0|0:0,0:0:0:0:
256,192,187625,1,4,3:0:0:0:
256,192,188266,6,0,B|228:140|168:124|104:160|100:216,1,202.500007724762,6|0,0:0|0:0,0:0:0:0:
140,280,188908,1,8,0:0:0:0:
400,80,189389,1,0,0:0:0:0:
456,152,189550,5,0,0:0:0:0:
456,152,189710,2,0,B|444:200|380:220|344:184,1,135.000005149842,8|0,0:0|0:0,0:0:0:0:
308,116,190192,2,0,B|280:76|232:64,1,67.5000025749208,8|0,0:0|0:0,0:0:0:0:
176,56,190512,5,2,0:0:0:0:
280,200,190673,1,8,0:0:0:0:
112,132,190833,2,0,B|76:188|92:280,2,135.000005149842,0|2|8,0:0|0:0|0:0,0:0:0:0:
176,196,191635,1,0,0:0:0:0:
276,112,191796,1,2,0:0:0:0:
248,240,191956,1,0,0:0:0:0:
316,196,192117,6,0,B|332:240|328:288,1,67.5000025749208,0|8,0:0|0:0,0:0:0:0:
200,360,192437,2,0,B|184:316|188:268,1,67.5000025749208,2|0,0:0|0:0,0:0:0:0:
120,56,192758,2,0,B|116:124|60:176,1,135.000005149842,8|2,0:0|0:0,0:0:0:0:
100,252,193240,1,8,0:0:0:0:
284,176,193400,6,0,L|368:160,1,67.5000025749208,4|0,0:0|0:0,0:0:0:0:
428,148,193721,1,2,0:0:0:0:
376,88,193881,1,0,0:0:0:0:
368,240,194042,5,8,0:0:0:0:
350,163,194202,1,2,0:0:0:0:
428,148,194363,1,0,0:0:0:0:
448,224,194523,1,2,0:0:0:0:
444,56,194684,6,0,L|508:76,1,67.5000025749208,0|8,0:0|0:0,0:0:0:0:
350,163,195004,2,0,L|324:240,1,67.5000025749208,2|2,0:0|0:0,0:0:0:0:
304,48,195325,1,8,0:0:0:0:
304,48,195486,1,2,0:0:0:0:
304,48,195646,2,0,L|144:68,1,135.000005149842,8|4,0:0|0:0,0:0:0:0:
170,64,196288,5,8,0:0:0:0:
252,200,196448,1,2,0:0:0:0:
48,84,196769,1,2,0:0:0:0:
464,300,197090,1,2,0:0:0:0:
216,336,197250,5,0,0:0:0:0:
296,316,197411,1,0,0:0:0:0:
328,232,197571,1,8,0:0:0:0:
236,252,197732,5,8,0:3:0:0:
276,160,197892,1,4,0:3:0:0:
220,80,198053,1,0,0:0:0:0:
188,48,198133,1,0,0:0:0:0:
144,36,198213,1,8,0:0:0:0:
148,232,198373,5,8,0:0:0:0:
360,176,198534,1,6,0:2:0:0:
148,152,198694,2,0,L|76:128,2,45,2|2|10,0:2|0:2|0:2,0:0:0:0:
232,232,199015,6,0,B|296:244|324:260,1,90,2|0,0:2|0:0,0:0:0:0:
200,64,199336,2,0,B|136:52|108:36,1,90,2|8,0:2|0:0,0:0:0:0:
280,156,199657,1,2,0:2:0:0:
164,184,199817,1,0,0:0:0:0:
200,64,199978,5,0,0:0:0:0:
232,232,200138,1,10,0:2:0:0:
56,188,200299,1,0,0:0:0:0:
180,320,200459,1,2,0:2:0:0:
320,208,200619,5,6,0:2:0:0:
320,208,200780,2,0,B|380:172|460:180,1,135,6|0,0:2|0:0,0:0:0:0:
492,200,201101,5,6,0:2:0:0:
344,100,201261,2,0,B|344:72|364:52,2,45,2|2|10,0:2|0:2|0:2,0:0:0:0:
392,272,201582,1,2,0:2:0:0:
480,120,201742,1,0,0:0:0:0:
320,208,201903,2,0,B|260:196|208:172,1,90,2|8,0:2|0:0,0:0:0:0:
60,44,202224,2,0,B|120:56|172:80,1,90,2|0,0:2|0:0,0:0:0:0:
332,132,202545,5,0,0:0:0:0:
168,216,202705,1,10,0:2:0:0:
256,64,202865,1,0,0:0:0:0:
168,216,203026,1,2,0:2:0:0:
320,296,203186,5,6,0:2:0:0:
320,296,203347,2,0,B|400:288|460:340,1,135,6|0,0:2|0:0,0:0:0:0:
480,360,203668,5,4,0:2:0:0:
388,216,203828,1,2,0:2:0:0:
416,180,203908,1,2,0:2:0:0:
456,160,203988,1,10,0:2:0:0:
472,248,204149,5,2,0:2:0:0:
420,88,204309,1,0,0:0:0:0:
304,208,204470,1,2,0:2:0:0:
304,128,204630,5,8,0:0:0:0:
148,184,204791,1,2,0:2:0:0:
268,292,204951,2,0,B|232:328|180:336,1,90,0|0,0:0|0:0,0:0:0:0:
84,308,205272,1,10,0:2:0:0:
212,224,205432,1,0,0:0:0:0:
64,192,205593,5,2,0:2:0:0:
200,112,205753,5,6,0:2:0:0:
200,112,205914,2,0,B|272:140|296:216,1,135,6|0,0:2|0:0,0:0:0:0:
304,248,206234,5,4,0:2:0:0:
324,72,206395,1,2,0:2:0:0:
360,44,206475,1,2,0:2:0:0:
404,32,206555,1,10,0:2:0:0:
224,48,206716,1,2,0:2:0:0:
368,148,206876,1,0,0:0:0:0:
264,128,207037,5,2,0:2:0:0:
152,240,207197,1,8,0:0:0:0:
296,300,207357,1,2,0:2:0:0:
152,240,207518,1,0,0:0:0:0:
132,80,207678,5,0,0:0:0:0:
296,48,207839,1,10,0:2:0:0:
248,216,207999,1,0,0:0:0:0:
224,124,208160,5,2,0:2:0:0:
276,120,208240,1,0,1:0:0:0:
328,136,208320,1,8,0:0:0:0:
372,168,208400,1,8,0:0:0:0:
396,216,208480,1,8,0:0:0:0:
484,292,208641,1,4,0:0:0:0:
256,192,208801,12,0,209603,0:0:0:0:
