osu file format v14

[General]
AudioFilename: audio.mp3
AudioLeadIn: 0
PreviewTime: 217875
Countdown: 0
SampleSet: Normal
StackLeniency: 0.4
Mode: 0
LetterboxInBreaks: 0
WidescreenStoryboard: 1

[Editor]
Bookmarks: 38,10947,21856,32765,43676,65494,87312,109130,130944,141853,152762,163671,174580,196398,218216,240034,261852,283670
DistanceSpacing: 0.9
BeatDivisor: 4
GridSize: 4
TimelineZoom: 1.6

[Metadata]
Title:Where Is My Mind (Rusty K Cover)
TitleUnicode:Where Is My Mind (Rusty K Cover)
Artist:Rusty K
ArtistUnicode:Rusty K
Creator:Vad2009
Version:Normal
Source:
Tags:RustyK
BeatmapID:1037624
BeatmapSetID:486632

[Difficulty]
HPDrainRate:3
CircleSize:3.5
OverallDifficulty:3
ApproachRate:5
SliderMultiplier:1.6
SliderTickRate:1

[Events]
//Background and Video events
0,0,"Gc5W-7k2d34.jpg",0,0
//Break Periods
//Storyboard Layer 0 (Background)
//Storyboard Layer 1 (Fail)
//Storyboard Layer 2 (Pass)
//Storyboard Layer 3 (Foreground)
//Storyboard Sound Samples

[TimingPoints]
38,681.818181818182,4,1,1,60,1,0
21856,-80,4,1,1,60,0,0
32765,-66.6666666666667,4,1,1,60,0,0
43676,340.909090909091,4,1,1,60,1,0
43676,-74.0740740740741,4,1,1,60,0,1
65494,-133.333333333333,4,1,1,60,0,0
65835,-74.0740740740741,4,1,1,60,0,0
70948,-133.333333333333,4,1,1,60,0,0
71289,-74.0740740740741,4,1,1,60,0,0
76403,-133.333333333333,4,1,1,60,0,0
76744,-74.0740740740741,4,1,1,60,0,0
81857,-133.333333333333,4,1,1,60,0,0
82198,-74.0740740740741,4,1,1,60,0,0
109130,-100,4,1,1,60,0,0
125494,-111.111111111111,4,1,1,60,0,0
128221,-125,4,1,1,60,0,0
129585,-142.857142857143,4,1,1,40,0,0
130266,-166.666666666667,4,1,1,20,0,0
130944,681.818181818182,4,1,1,60,1,0
152762,-80,4,1,1,60,0,0
171853,-66.6666666666667,4,1,1,60,0,0
174580,340.909090909091,4,1,1,60,1,0
261852,681.818181818182,4,1,1,60,1,0
283670,-100,4,1,1,60,0,0
284352,-100,4,1,1,60,0,0
285033,-100,4,1,1,60,0,0
285715,-100,4,1,1,60,0,0
286397,-100,4,1,1,60,0,0
287079,-100,4,1,1,60,0,0
287761,-100,4,1,1,60,0,0
288442,-100,4,1,1,60,0,0

[Colours]
Combo1 : 255,255,255
Combo2 : 0,255,255
Combo3 : 0,0,64
Combo4 : 0,128,128

[HitObjects]
416,96,38,6,0,L|336:76,1,80
280,128,719,2,0,L|200:148,1,80
136,192,1401,2,0,L|116:272,1,80
184,312,2083,2,0,L|264:288,1,80
312,232,2765,6,0,L|392:252,1,80
440,192,3447,2,0,P|416:112|416:112,1,80,0|0,0:3|0:3,0:3:0:0:
344,80,4128,2,0,L|264:56,1,80
200,104,4810,1,0,0:0:0:0:
136,152,5151,2,0,L|104:120,2,40
80,208,5833,5,0,0:0:0:0:
136,264,6174,2,0,L|213:284,1,80
280,240,6856,2,0,L|357:219,1,80
400,152,7538,2,0,L|320:128,1,80
272,72,8219,6,0,L|194:92,1,80
120,56,8901,2,0,L|99:133,1,80
168,176,9583,2,0,L|188:253,1,80,0|0,0:3|0:3,0:3:0:0:
256,296,10265,1,0,0:0:0:0:
304,232,10606,2,0,L|293:193,2,40
376,264,11288,5,0,0:0:0:0:
448,224,11628,2,0,P|456:136|408:88,1,160
409,88,13674,5,0,0:0:0:0:
360,152,14356,2,0,P|280:152|224:96,1,160
160,48,15378,2,0,L|149:9,2,40
112,112,16060,2,0,L|122:150,2,40
272,96,17083,6,0,P|344:128|368:216,1,160
370,200,19128,5,0,0:0:0:0:
312,256,19810,2,0,P|240:288|168:248,1,160
120,192,20833,2,0,P|81:181|81:181,2,40
176,136,21515,2,0,L|214:125,2,40
104,80,22197,5,0,0:0:0:0:
192,48,22538,2,0,L|206:-6,2,50
280,80,23219,2,0,L|380:106,1,100
440,176,23901,2,0,L|494:161,2,50
368,232,24583,6,0,L|267:205,1,100
184,232,25265,2,0,L|169:286,2,50
120,168,25947,1,0,0:0:0:0:
64,96,26288,2,0,L|9:81,2,50
136,40,26969,2,0,L|190:25,2,50
136,128,27651,5,0,0:0:0:0:
136,216,27992,2,0,L|121:270,2,50
216,168,28674,2,0,L|316:141,1,100
384,88,29356,2,0,L|398:33,2,50
432,168,30038,6,0,L|458:268,1,100
400,336,30719,2,0,L|345:350,2,50
368,256,31401,1,0,0:0:0:0:
288,296,31742,2,0,L|273:350,2,50
216,240,32424,2,0,L|201:185,2,50
120,296,33106,5,0,0:0:0:0:
48,216,33447,2,0,L|31:154,2,60.0000022888184
152,192,34128,2,0,L|267:160,1,120.000004577637
344,88,34810,2,0,L|360:26,2,60.0000022888184
384,192,35492,6,0,L|415:307,1,120.000004577637
312,344,36174,2,0,L|250:360,2,60.0000022888184
248,256,36856,1,0,0:0:0:0:
152,208,37197,2,0,L|135:146,2,60.0000022888184
72,280,37878,2,0,L|55:341,2,60.0000022888184
16,184,38560,5,0,0:0:0:0:
80,96,38901,2,0,L|96:34,2,60.0000022888184
152,176,39583,2,0,L|267:144,1,120.000004577637
360,200,40265,2,0,L|376:261,2,60.0000022888184
416,104,40947,6,0,L|477:87,8,60.0000022888184
