osu file format v14

[General]
AudioFilename: audio.mp3
AudioLeadIn: 0
PreviewTime: 240088
Countdown: 0
SampleSet: None
StackLeniency: 0.3
Mode: 0
LetterboxInBreaks: 0
WidescreenStoryboard: 1

[Editor]
Bookmarks: 88,33191,38708,66294,88708,110432,132501,154570,176639,198708,209743,220777,231812,242846,264915,286984,298019,320088,342156,364225,386294
DistanceSpacing: 1
BeatDivisor: 4
GridSize: 32
TimelineZoom: 1.8

[Metadata]
Title:Last Of Us
TitleUnicode:Last Of Us
Artist:Rusty K
ArtistUnicode:Rusty K
Creator:C00L
Version:Survival
Source:
Tags:dnb neurofunk dark over overtech otm001 drum and bass cool
BeatmapID:1415376
BeatmapSetID:669153

[Difficulty]
HPDrainRate:5.5
CircleSize:4
OverallDifficulty:8.2
ApproachRate:9.4
SliderMultiplier:2.2
SliderTickRate:1

[Events]
//Background and Video events
0,0,"b8ec4595772ed0eea0878ef5a4c234c2.jpg",0,0
//Break Periods
2,33391,37329
2,232012,240260
2,287184,291961
//Storyboard Layer 0 (Background)
//Storyboard Layer 1 (Fail)
//Storyboard Layer 2 (Pass)
//Storyboard Layer 3 (Foreground)
//Storyboard Sound Samples

[TimingPoints]
88,344.827586206897,4,2,1,10,1,0
88,-250,4,2,1,10,0,0
1122,-500,4,2,1,15,0,0
5605,-500,4,2,1,20,0,0
9053,-250,4,2,1,25,0,0
11122,-500,4,2,1,30,0,0
22156,-250,4,2,1,40,0,0
38708,-500.923076923077,4,2,1,15,0,0
44225,-200.147528891074,4,2,1,30,0,0
49398,-142.932396839332,4,2,1,30,0,0
49743,-200,4,2,1,30,0,0
54915,-142.857142857143,4,2,1,30,0,0
55260,-71.4285714285714,4,3,1,50,0,0
55346,-71.4285714285714,4,3,1,5,0,0
56294,-500,4,2,1,25,0,0
57674,-500,4,2,1,10,0,0
58019,-333.333333333333,4,2,1,30,0,0
58708,-333.333333333333,4,2,1,10,0,0
59053,-500,4,2,1,25,0,0
60432,-500,4,2,1,10,0,0
60777,-71.4285714285714,4,3,1,50,0,0
60863,-71.4285714285714,4,3,1,5,0,0
61812,-500,4,2,1,25,0,0
63191,-500,4,2,1,10,0,0
63536,-333.333333333333,4,2,1,30,0,0
64225,-333.333333333333,4,2,1,10,0,0
64570,-500,4,2,1,25,0,0
65863,-500,4,2,1,5,0,0
65950,-100,4,3,1,50,0,0
66208,-100,4,3,1,10,0,0
66294,-66.6666666666667,4,3,1,80,0,1
66553,-66.6666666666667,4,3,1,10,0,1
66639,-76.9230769230769,4,3,1,80,0,1
66984,-90.9090909090909,4,3,1,80,0,1
67329,-83.3333333333333,4,3,1,80,0,1
67674,-71.4285714285714,4,3,1,80,0,1
67932,-71.4285714285714,4,3,1,10,0,1
68019,-71.4285714285714,4,3,1,80,0,1
68708,-90.9090909090909,4,3,1,80,0,1
68881,-76.9230769230769,4,3,1,80,0,1
69053,-66.6666666666667,4,3,1,80,0,1
69312,-66.6666666666667,4,3,1,10,0,1
69398,-83.3333333333333,4,3,1,80,0,1
69570,-71.4285714285714,4,3,1,80,0,1
70001,-71.4285714285714,4,3,1,10,0,1
70088,-71.4285714285714,4,3,1,80,0,1
70346,-125,4,3,1,80,0,1
70691,-125,4,3,1,10,0,1
70777,-83.3333333333333,4,3,1,80,0,1
71467,-90.9090909090909,4,3,1,80,0,1
71812,-66.6666666666667,4,3,1,80,0,1
72070,-66.6666666666667,4,3,1,10,0,1
72156,-66.6666666666667,4,3,1,80,0,1
72329,-83.3333333333333,4,3,1,80,0,1
72501,-71.4285714285714,4,3,1,80,0,1
72760,-71.4285714285714,4,3,1,10,0,1
72846,-71.4285714285714,4,3,1,80,0,1
73450,-71.4285714285714,4,3,1,10,0,1
73536,-71.4285714285714,4,3,1,80,0,1
73708,-90.9090909090909,4,3,1,80,0,1
73881,-71.4285714285714,4,3,1,80,0,1
74139,-71.4285714285714,4,3,1,10,0,1
74225,-90.9090909090909,4,3,1,80,0,1
74570,-76.9230769230769,4,3,1,80,0,1
74829,-76.9230769230769,4,3,1,10,0,1
74915,-76.9230769230769,4,3,1,80,0,1
75088,-71.4285714285714,4,3,1,80,0,1
75519,-71.4285714285714,4,3,1,10,0,1
75605,-71.4285714285714,4,3,1,80,0,1
75950,-90.9090909090909,4,3,1,80,0,1
76553,-90.9090909090909,4,3,1,80,0,1
76639,-90.9090909090909,4,3,1,10,0,1
76725,-90.9090909090909,4,3,1,80,0,1
76898,-90.9090909090909,4,3,1,10,0,1
76984,-83.3333333333333,4,3,1,80,0,1
77243,-83.3333333333333,4,3,1,10,0,1
77329,-66.6666666666667,4,3,1,80,0,1
77674,-76.9230769230769,4,3,1,80,0,1
77932,-90.9090909090909,4,3,1,80,0,1
78363,-83.3333333333333,4,3,1,80,0,1
78708,-71.4285714285714,4,3,1,80,0,1
78967,-71.4285714285714,4,3,1,10,0,1
79053,-71.4285714285714,4,3,1,80,0,1
79743,-90.9090909090909,4,3,1,80,0,1
79915,-76.9230769230769,4,3,1,80,0,1
80088,-66.6666666666667,4,3,1,80,0,1
80346,-66.6666666666667,4,3,1,10,0,1
80432,-66.6666666666667,4,3,1,80,0,1
80605,-58.8235294117647,4,3,1,80,0,1
81036,-58.8235294117647,4,3,1,10,0,1
81122,-76.9230769230769,4,3,1,80,0,1
81381,-76.9230769230769,4,3,1,10,0,1
81467,-90.9090909090909,4,3,1,80,0,1
81984,-71.4285714285714,4,3,1,80,0,1
82415,-71.4285714285714,4,3,1,10,0,1
82501,-90.9090909090909,4,3,1,80,0,1
82846,-66.6666666666667,4,3,1,80,0,1
83105,-66.6666666666667,4,3,1,10,0,1
83191,-76.9230769230769,4,3,1,80,0,1
83363,-90.9090909090909,4,3,1,80,0,1
83536,-71.4285714285714,4,3,1,80,0,1
83794,-71.4285714285714,4,3,1,10,0,1
83881,-71.4285714285714,4,3,1,80,0,1
84484,-71.4285714285714,4,3,1,10,0,1
84570,-71.4285714285714,4,3,1,80,0,1
84743,-90.9090909090909,4,3,1,80,0,1
84915,-71.4285714285714,4,3,1,80,0,1
85174,-71.4285714285714,4,3,1,10,0,1
85260,-90.9090909090909,4,3,1,80,0,1
85605,-76.9230769230769,4,3,1,80,0,1
85863,-76.9230769230769,4,3,1,10,0,1
85950,-76.9230769230769,4,3,1,80,0,1
86122,-71.4285714285714,4,3,1,80,0,1
86553,-71.4285714285714,4,3,1,10,0,1
86639,-71.4285714285714,4,3,1,80,0,1
86984,-90.9090909090909,4,3,1,80,0,1
88019,-83.3333333333333,4,3,1,80,0,1
88277,-83.3333333333333,4,3,1,10,0,1
88363,-125,4,2,2,60,0,0
88708,-90.9090909090909,4,2,2,60,0,0
89743,-83.3333333333333,4,2,2,60,0,0
90001,-83.3333333333333,4,2,2,10,0,0
90088,-90.9090909090909,4,2,2,60,0,0
90777,-100,4,2,2,60,0,0
91122,-83.3333333333333,4,2,2,60,0,0
91381,-83.3333333333333,4,2,2,10,0,0
91467,-100,4,2,2,60,0,0
92156,-90.9090909090909,4,2,2,60,0,0
92501,-83.3333333333333,4,2,2,60,0,0
92760,-83.3333333333333,4,2,2,10,0,0
92846,-111.111111111111,4,2,2,60,0,0
94225,-90.9090909090908,4,2,2,60,0,0
95260,-83.3333333333333,4,2,2,60,0,0
95519,-83.3333333333333,4,2,2,60,0,0
95605,-90.9090909090909,4,2,2,60,0,0
96639,-76.9230769230769,4,2,2,60,0,0
96898,-76.9230769230769,4,2,2,10,0,0
96984,-76.9230769230769,4,2,2,60,0,0
97156,-90.9090909090909,4,2,2,60,0,0
97329,-76.9230769230769,4,2,2,60,0,0
97588,-76.9230769230769,4,2,2,10,0,0
97674,-76.9230769230769,4,2,2,60,0,0
98019,-90.9090909090909,4,2,2,60,0,0
98277,-90.9090909090909,4,2,2,10,0,0
98363,-100,4,3,1,60,0,0
99398,-83.3333333333333,4,3,1,60,0,0
99656,-83.3333333333333,4,3,1,10,0,0
99743,-90.9090909090909,4,2,2,60,0,0
100777,-83.3333333333333,4,2,2,60,0,0
101036,-83.3333333333333,4,2,2,10,0,0
101122,-90.9090909090909,4,2,2,60,0,0
101812,-100,4,2,2,60,0,0
102156,-83.3333333333333,4,2,2,60,0,0
102415,-83.3333333333333,4,2,2,10,0,0
102501,-100,4,2,2,60,0,0
103191,-90.9090909090909,4,2,2,60,0,0
103536,-83.3333333333333,4,2,2,60,0,0
103794,-83.3333333333333,4,2,2,10,0,0
103881,-111.111111111111,4,2,2,60,0,0
104915,-142.857142857143,4,2,2,60,0,0
105174,-142.857142857143,4,2,2,10,0,0
105260,-90.9090909090909,4,2,2,60,0,0
106294,-83.3333333333333,4,2,2,60,0,0
106553,-83.3333333333333,4,2,2,10,0,0
106639,-90.9090909090909,4,2,2,60,0,0
107674,-76.9230769230769,4,2,2,60,0,0
107932,-76.9230769230769,4,2,2,10,0,0
108019,-90.9090909090909,4,2,2,60,0,0
108191,-76.9230769230769,4,2,2,60,0,0
108450,-76.9230769230769,4,2,2,10,0,0
108536,-76.9230769230769,4,2,2,60,0,0
108967,-76.9230769230769,4,2,2,10,0,0
109053,-100,4,3,1,60,0,0
109312,-100,4,3,1,10,0,0
109398,-100,4,3,1,60,0,0
110088,-100,4,3,1,60,0,0
110346,-100,4,3,1,10,0,0
110432,-66.6666666666667,4,3,1,80,0,1
110691,-66.6666666666667,4,3,1,10,0,1
110777,-76.9230769230769,4,3,1,80,0,1
111122,-90.9090909090909,4,3,1,80,0,1
111467,-83.3333333333333,4,3,1,80,0,1
111812,-71.4285714285714,4,3,1,80,0,1
112070,-71.4285714285714,4,3,1,10,0,1
112156,-71.4285714285714,4,3,1,80,0,1
112846,-90.9090909090909,4,3,1,80,0,1
113019,-76.9230769230769,4,3,1,80,0,1
113191,-66.6666666666667,4,3,1,80,0,1
113450,-66.6666666666667,4,3,1,10,0,1
113536,-83.3333333333333,4,3,1,80,0,1
113708,-71.4285714285714,4,3,1,80,0,1
114139,-71.4285714285714,4,3,1,10,0,1
114225,-71.4285714285714,4,3,1,80,0,1
114484,-125,4,3,1,80,0,1
114829,-125,4,3,1,10,0,1
114915,-83.3333333333333,4,3,1,80,0,1
115605,-90.9090909090909,4,3,1,80,0,1
115950,-66.6666666666667,4,3,1,80,0,1
116208,-66.6666666666667,4,3,1,10,0,1
116294,-66.6666666666667,4,3,1,80,0,1
116467,-83.3333333333333,4,3,1,80,0,1
116639,-71.4285714285714,4,3,1,80,0,1
116898,-71.4285714285714,4,3,1,10,0,1
116984,-71.4285714285714,4,3,1,80,0,1
117156,-90.9090909090909,4,3,1,80,0,1
117329,-71.4285714285714,4,3,1,80,0,1
117588,-71.4285714285714,4,3,1,10,0,1
117674,-71.4285714285714,4,3,1,80,0,1
117846,-90.9090909090909,4,3,1,80,0,1
118019,-71.4285714285714,4,3,1,80,0,1
118277,-71.4285714285714,4,3,1,10,0,1
118363,-90.9090909090909,4,3,1,80,0,1
118708,-76.9230769230769,4,3,1,80,0,1
118967,-76.9230769230769,4,3,1,10,0,1
119053,-76.9230769230769,4,3,1,80,0,1
119225,-71.4285714285714,4,3,1,80,0,1
119656,-71.4285714285714,4,3,1,10,0,1
119743,-71.4285714285714,4,3,1,80,0,1
120088,-90.9090909090909,4,3,1,80,0,1
120691,-90.9090909090909,4,3,1,80,0,1
120777,-90.9090909090909,4,3,1,10,0,1
120863,-90.9090909090909,4,3,1,80,0,1
121036,-90.9090909090909,4,3,1,10,0,1
121122,-83.3333333333333,4,3,1,80,0,1
121381,-83.3333333333333,4,3,1,10,0,1
121467,-66.6666666666667,4,3,1,80,0,1
121725,-66.6666666666667,4,3,1,10,0,1
121812,-76.9230769230769,4,3,1,80,0,1
122070,-90.9090909090909,4,3,1,80,0,1
122501,-83.3333333333333,4,3,1,80,0,1
122846,-71.4285714285714,4,3,1,80,0,1
123105,-71.4285714285714,4,3,1,10,0,1
123191,-71.4285714285714,4,3,1,80,0,1
123881,-90.9090909090909,4,3,1,80,0,1
124053,-76.9230769230769,4,3,1,80,0,1
124226,-66.6666666666667,4,3,1,80,0,1
124484,-66.6666666666667,4,3,1,10,0,1
124570,-66.6666666666667,4,3,1,80,0,1
124743,-58.8235294117647,4,3,1,80,0,1
125174,-58.8235294117647,4,3,1,10,0,1
125260,-76.9230769230769,4,3,1,80,0,1
125519,-76.9230769230769,4,3,1,10,0,1
125605,-90.9090909090909,4,3,1,80,0,1
126122,-71.4285714285714,4,3,1,80,0,1
126553,-71.4285714285714,4,3,1,10,0,1
126639,-90.9090909090909,4,3,1,80,0,1
126984,-66.6666666666667,4,3,1,80,0,1
127243,-66.6666666666667,4,3,1,10,0,1
127329,-76.9230769230769,4,3,1,80,0,1
127501,-90.9090909090909,4,3,1,80,0,1
127674,-71.4285714285714,4,3,1,80,0,1
127932,-71.4285714285714,4,3,1,10,0,1
128019,-71.4285714285714,4,3,1,80,0,1
128622,-71.4285714285714,4,3,1,10,0,1
128708,-71.4285714285714,4,3,1,80,0,1
128881,-90.9090909090909,4,3,1,80,0,1
129053,-71.4285714285714,4,3,1,80,0,1
129312,-71.4285714285714,4,3,1,10,0,1
129398,-90.9090909090909,4,3,1,80,0,1
129743,-76.9230769230769,4,3,1,80,0,1
130001,-76.9230769230769,4,3,1,10,0,1
130088,-76.9230769230769,4,3,1,80,0,1
130260,-71.4285714285714,4,3,1,80,0,1
130691,-71.4285714285714,4,3,1,10,0,1
130777,-71.4285714285714,4,3,1,80,0,1
131122,-90.9090909090909,4,3,1,80,0,1
132157,-83.3333333333333,4,3,1,80,0,1
132415,-83.3333333333333,4,3,1,10,0,1
132501,-100,4,3,2,70,0,0
133019,-76.9230769230769,4,3,2,70,0,0
133450,-76.9230769230769,4,3,2,10,0,0
133536,-125,4,3,2,70,0,0
133794,-125,4,3,2,10,0,0
133881,-100,4,3,2,70,0,0
134139,-100,4,3,2,10,0,0
134225,-100,4,3,2,70,0,0
134398,-76.9230769230769,4,3,2,70,0,0
134915,-125,4,3,2,70,0,0
135174,-125,4,3,2,10,0,0
135260,-100,4,3,2,70,0,0
135519,-100,4,3,2,10,0,0
135605,-100,4,3,2,70,0,0
135777,-76.9230769230769,4,3,2,70,0,0
136208,-76.9230769230769,4,3,2,10,0,0
136294,-125,4,3,2,70,0,0
136553,-125,4,3,2,10,0,0
136639,-100,4,3,2,70,0,0
136898,-100,4,3,2,10,0,0
136984,-100,4,3,2,70,0,0
138019,-100,4,3,2,70,0,0
138277,-100,4,3,2,10,0,0
138363,-100,4,3,2,70,0,0
138536,-76.9230769230769,4,3,2,80,0,0
138967,-76.9230769230769,4,3,2,10,0,0
139053,-125,4,3,2,70,0,0
139312,-125,4,3,2,10,0,0
139398,-125,4,3,2,70,0,0
139656,-125,4,3,2,10,0,0
139743,-125,4,3,2,70,0,0
139915,-76.9230769230769,4,3,2,70,0,0
140432,-125,4,3,2,70,0,0
140691,-125,4,3,2,10,0,0
140777,-125,4,3,2,70,0,0
141036,-125,4,3,2,10,0,0
141122,-125,4,3,2,70,0,0
141294,-76.9230769230769,4,3,2,70,0,0
141725,-76.9230769230769,4,3,2,10,0,0
141812,-125,4,3,2,70,0,0
142070,-125,4,3,2,10,0,0
142156,-111.111111111111,4,3,2,70,0,0
143191,-125,4,3,2,70,0,0
143450,-125,4,3,2,10,0,0
143536,-100,4,3,2,70,0,0
143794,-100,4,3,2,10,0,0
143881,-100,4,3,2,70,0,0
144053,-76.9230769230769,4,3,2,70,0,0
144484,-76.9230769230769,4,3,2,10,0,0
144570,-125,4,3,2,70,0,0
144829,-125,4,3,2,10,0,0
144915,-100,4,3,2,70,0,0
145174,-100,4,3,2,10,0,0
145260,-100,4,3,2,70,0,0
145432,-76.9230769230769,4,3,2,70,0,0
145950,-125,4,3,2,70,0,0
146208,-125,4,3,2,10,0,0
146294,-100,4,3,2,70,0,0
146553,-100,4,3,2,10,0,0
146639,-100,4,3,2,70,0,0
146812,-76.9230769230769,4,3,2,70,0,0
147243,-76.9230769230769,4,3,2,10,0,0
147329,-125,4,3,2,70,0,0
147588,-125,4,3,2,70,0,0
147674,-100,4,3,2,70,0,0
147932,-100,4,3,2,10,0,0
148019,-100,4,3,2,70,0,0
149053,-100,4,3,2,70,0,0
149312,-100,4,3,2,10,0,0
149398,-100,4,3,2,70,0,0
149570,-76.9230769230769,4,3,2,70,0,0
150001,-76.9230769230769,4,3,2,10,0,0
150088,-125,4,3,2,70,0,0
150346,-125,4,3,2,10,0,0
150432,-100,4,3,2,70,0,0
150691,-100,4,3,2,10,0,0
150777,-100,4,3,2,70,0,0
150950,-76.9230769230769,4,3,2,70,0,0
151467,-125,4,3,2,70,0,0
151725,-125,4,3,2,10,0,0
151812,-100,4,3,2,70,0,0
152070,-100,4,3,2,10,0,0
152156,-100,4,3,2,70,0,0
152329,-76.9230769230769,4,3,2,70,0,0
152760,-76.9230769230769,4,3,2,10,0,0
152846,-125,4,3,2,70,0,0
153105,-125,4,3,2,10,0,0
153191,-111.111111111111,4,3,2,70,0,0
154225,-125,4,3,1,70,0,0
154484,-125,4,3,1,10,0,0
154570,-83.3333333333333,4,2,2,60,0,0
154829,-83.3333333333333,4,2,2,10,0,0
154915,-90.9090909090909,4,2,2,60,0,0
155950,-83.3333333333333,4,2,2,60,0,0
156208,-83.3333333333333,4,2,2,10,0,0
156294,-83.3333333333333,4,2,2,60,0,0
156467,-90.9090909090909,4,2,2,60,0,0
156984,-100,4,2,2,60,0,0
157329,-90.9090909090909,4,2,2,60,0,0
157588,-90.9090909090909,4,2,2,10,0,0
157674,-90.9090909090909,4,2,2,60,0,0
157846,-83.3333333333333,4,2,2,60,0,0
158277,-83.3333333333333,4,2,2,10,0,0
158363,-83.3333333333333,4,2,2,60,0,0
158622,-111.111111111111,4,2,2,60,0,0
159225,-125,4,2,2,60,0,0
159656,-125,4,2,2,10,0,0
159743,-125,4,2,2,60,0,0
160088,-83.3333333333333,4,2,2,60,0,0
160346,-83.3333333333333,4,2,2,10,0,0
160432,-90.9090909090909,4,2,2,60,0,0
161467,-83.3333333333333,4,2,2,60,0,0
161725,-83.3333333333333,4,2,2,10,0,0
161812,-90.9090909090909,4,2,2,60,0,0
162846,-90.9090909090909,4,2,2,60,0,0
163105,-90.9090909090909,4,2,2,10,0,0
163191,-90.9090909090909,4,2,2,60,0,0
163708,-100,4,2,2,60,0,0
163881,-83.3333333333333,4,2,2,60,0,0
164225,-90.9090909090909,4,2,2,60,0,0
164484,-90.9090909090909,4,2,2,10,0,0
164570,-100,4,3,1,60,0,0
165605,-83.3333333333333,4,3,1,60,0,0
165863,-83.3333333333333,4,3,1,10,0,0
165950,-90.9090909090909,4,2,2,60,0,0
166984,-83.3333333333333,4,2,2,60,0,0
167243,-83.3333333333333,4,2,2,10,0,0
167329,-90.9090909090909,4,2,2,60,0,0
168363,-90.9090909090909,4,2,2,60,0,0
168881,-83.3333333333333,4,2,2,60,0,0
169312,-83.3333333333333,4,2,2,10,0,0
169398,-83.3333333333333,4,2,2,60,0,0
169656,-100,4,2,2,60,0,0
171122,-83.3333333333333,4,2,2,60,0,0
171381,-83.3333333333333,4,2,2,10,0,0
171467,-90.9090909090909,4,2,2,60,0,0
172501,-83.3333333333333,4,2,2,60,0,0
172760,-83.3333333333333,4,2,2,10,0,0
172846,-90.9090909090909,4,2,2,60,0,0
173881,-90.9090909090909,4,2,2,60,0,0
174398,-83.3333333333333,4,2,2,60,0,0
174656,-83.3333333333333,4,2,2,10,0,0
174743,-83.3333333333333,4,2,2,60,0,0
175260,-125,4,2,2,60,0,0
175519,-125,4,2,2,10,0,0
175605,-100,4,3,1,60,0,0
176639,-100,4,3,1,50,0,0
176898,-100,4,3,1,10,0,0
176984,-125,4,2,2,50,0,0
179398,-100,4,2,2,50,0,0
179656,-100,4,2,2,10,0,0
179743,-125,4,2,2,50,0,0
180777,-100,4,2,2,50,0,0
181036,-100,4,2,2,10,0,0
181122,-125,4,2,2,50,0,0
181467,-111.111111111111,4,2,2,50,0,0
182156,-100,4,2,2,50,0,0
182415,-100,4,2,2,10,0,0
182501,-125,4,2,2,50,0,0
184915,-100,4,2,2,50,0,0
185174,-100,4,2,2,10,0,0
185260,-100,4,2,2,50,0,0
185432,-83.3333333333333,4,2,2,50,0,0
185691,-83.3333333333333,4,2,2,10,0,0
185777,-83.3333333333333,4,2,2,50,0,0
186208,-83.3333333333333,4,2,2,10,0,0
186294,-83.3333333333333,4,2,2,50,0,0
186639,-100,4,2,2,50,0,0
186812,-83.3333333333333,4,2,2,50,0,0
187329,-100,4,2,2,50,0,0
187674,-83.3333333333333,4,2,2,50,0,0
187932,-83.3333333333333,4,2,2,10,0,0
188019,-125,4,2,2,50,0,0
190432,-83.3333333333333,4,2,2,50,0,0
190691,-83.3333333333333,4,2,2,10,0,0
190777,-125,4,2,2,50,0,0
191812,-83.3333333333333,4,2,2,50,0,0
192070,-83.3333333333333,4,2,2,10,0,0
192156,-83.3333333333333,4,2,2,50,0,0
192501,-100,4,2,2,50,0,0
193191,-83.3333333333333,4,2,2,50,0,0
193536,-125,4,2,2,50,0,0
195950,-142.857142857143,4,2,2,45,0,0
196984,-142.857142857143,4,2,2,40,0,0
197674,-166.666666666667,4,2,2,30,0,0
198708,-500,4,2,2,40,0,0
199053,-500,4,2,1,20,0,0
204225,-500,4,2,1,40,0,0
209398,-500,4,2,1,15,0,0
209743,-500,4,2,1,20,0,0
231812,-500,4,2,1,30,0,0
242846,-66.6666666666667,4,3,1,70,0,0
243105,-66.6666666666667,4,3,1,10,0,0
243191,-111.111111111111,4,3,1,70,0,0
243450,-111.111111111111,4,3,1,10,0,0
243536,-71.4285714285714,4,3,1,70,0,0
243794,-71.4285714285714,4,3,1,10,0,0
243881,-100,4,3,1,70,0,0
244225,-71.4285714285714,4,3,1,70,0,0
244484,-71.4285714285714,4,3,1,10,0,0
244570,-90.9090909090909,4,3,1,70,0,0
244915,-71.4285714285714,4,3,1,70,0,0
245174,-71.4285714285714,4,3,1,10,0,0
245260,-100,4,3,1,70,0,0
245519,-100,4,3,1,10,0,0
245605,-76.9230769230769,4,3,1,70,0,0
245863,-76.9230769230769,4,3,1,10,0,0
245950,-76.9230769230769,4,3,1,70,0,0
246122,-90.9090909090909,4,3,1,70,0,0
246294,-76.9230769230769,4,3,1,70,0,0
246898,-76.9230769230769,4,3,1,10,0,0
246984,-90.9090909090909,4,3,1,70,0,0
247243,-90.9090909090909,4,3,1,10,0,0
247329,-76.9230769230769,4,3,1,70,0,0
247674,-90.9090909090909,4,3,1,70,0,0
248019,-100,4,3,1,70,0,0
248277,-100,4,3,1,10,0,0
248363,-66.6666666666667,4,3,1,70,0,0
248622,-66.6666666666667,4,3,1,10,0,0
248708,-90.9090909090909,4,3,1,70,0,0
249053,-71.4285714285714,4,3,1,70,0,0
249312,-71.4285714285714,4,3,1,10,0,0
249398,-71.4285714285714,4,3,1,70,0,0
249570,-90.9090909090909,4,3,1,70,0,0
249743,-71.4285714285714,4,3,1,70,0,0
250001,-71.4285714285714,4,3,1,10,0,0
250088,-71.4285714285714,4,3,1,70,0,0
250260,-90.9090909090909,4,3,1,70,0,0
250432,-71.4285714285714,4,3,1,70,0,0
250691,-71.4285714285714,4,3,1,10,0,0
250777,-100,4,3,1,70,0,0
251036,-100,4,3,1,10,0,0
251122,-76.9230769230769,4,3,1,70,0,0
251381,-76.9230769230769,4,3,1,10,0,0
251467,-76.9230769230769,4,3,1,70,0,0
251639,-90.9090909090909,4,3,1,70,0,0
251812,-76.9230769230769,4,3,1,70,0,0
252415,-76.9230769230769,4,3,1,10,0,0
252501,-90.9090909090909,4,3,1,70,0,0
253019,-100,4,3,1,70,0,0
253536,-100,4,3,1,70,0,0
253794,-100,4,3,1,10,0,0
253881,-66.6666666666667,4,3,1,70,0,0
254139,-66.6666666666667,4,3,1,10,0,0
254225,-111.111111111111,4,3,1,70,0,0
254570,-71.4285714285714,4,3,1,70,0,0
254829,-71.4285714285714,4,3,1,10,0,0
254915,-100,4,3,1,70,0,0
255260,-71.4285714285714,4,3,1,70,0,0
255519,-71.4285714285714,4,3,1,10,0,0
255605,-100,4,3,1,70,0,0
255950,-71.4285714285714,4,3,1,70,0,0
256208,-71.4285714285714,4,3,1,10,0,0
256294,-100,4,3,1,70,0,0
256553,-100,4,3,1,10,0,0
256639,-76.9230769230769,4,3,1,70,0,0
256898,-76.9230769230769,4,3,1,10,0,0
256984,-76.9230769230769,4,3,1,70,0,0
257156,-83.3333333333333,4,3,1,70,0,0
257329,-58.8235294117647,4,3,1,70,0,0
257588,-58.8235294117647,4,3,1,10,0,0
257674,-76.9230769230769,4,3,1,70,0,0
257932,-76.9230769230769,4,3,1,10,0,0
258019,-90.9090909090909,4,3,1,70,0,0
258277,-90.9090909090909,4,3,1,10,0,0
258363,-76.9230769230769,4,3,1,70,0,0
259053,-100,4,3,1,70,0,0
259312,-100,4,3,1,10,0,0
259398,-66.6666666666667,4,3,1,70,0,0
259656,-66.6666666666667,4,3,1,10,0,0
259743,-90.9090909090909,4,3,1,70,0,0
260088,-71.4285714285714,4,3,1,70,0,0
260346,-71.4285714285714,4,3,1,10,0,0
260432,-71.4285714285714,4,3,1,70,0,0
260605,-90.9090909090909,4,3,1,70,0,0
260777,-71.4285714285714,4,3,1,70,0,0
261036,-71.4285714285714,4,3,1,10,0,0
261122,-71.4285714285714,4,3,1,70,0,0
261294,-90.9090909090909,4,3,1,70,0,0
261467,-71.4285714285714,4,3,1,70,0,0
261725,-71.4285714285714,4,3,1,10,0,0
261812,-100,4,3,1,70,0,0
262070,-100,4,3,1,10,0,0
262156,-76.9230769230769,4,3,1,70,0,0
262415,-76.9230769230769,4,3,1,10,0,0
262501,-76.9230769230769,4,3,1,70,0,0
262674,-90.9090909090909,4,3,1,70,0,0
262846,-76.9230769230769,4,3,1,70,0,0
263450,-76.9230769230769,4,3,1,10,0,0
263536,-100,4,3,1,70,0,0
264570,-100,4,3,1,70,0,0
264829,-100,4,3,1,10,0,0
264915,-66.6666666666667,4,3,1,70,0,0
265174,-66.6666666666667,4,3,1,10,0,0
265260,-111.111111111111,4,3,1,70,0,0
265519,-111.111111111111,4,3,1,10,0,0
265605,-71.4285714285714,4,3,1,70,0,0
265863,-71.4285714285714,4,3,1,10,0,0
265950,-100,4,3,1,70,0,0
266294,-71.4285714285714,4,3,1,70,0,0
266553,-71.4285714285714,4,3,1,10,0,0
266639,-90.9090909090909,4,3,1,70,0,0
266984,-71.4285714285714,4,3,1,70,0,0
267243,-71.4285714285714,4,3,1,10,0,0
267329,-100,4,3,1,70,0,0
267588,-100,4,3,1,10,0,0
267674,-76.9230769230769,4,3,1,70,0,0
267932,-76.9230769230769,4,3,1,10,0,0
268019,-76.9230769230769,4,3,1,70,0,0
268191,-90.9090909090909,4,3,1,70,0,0
268363,-76.9230769230769,4,3,1,70,0,0
268967,-76.9230769230769,4,3,1,10,0,0
269053,-90.9090909090909,4,3,1,70,0,0
269312,-90.9090909090909,4,3,1,10,0,0
269398,-76.9230769230769,4,3,1,70,0,0
269743,-90.9090909090909,4,3,1,70,0,0
270088,-100,4,3,1,70,0,0
270346,-100,4,3,1,10,0,0
270432,-66.6666666666667,4,3,1,70,0,0
270691,-66.6666666666667,4,3,1,10,0,0
270777,-90.9090909090909,4,3,1,70,0,0
271122,-71.4285714285714,4,3,1,70,0,0
271381,-71.4285714285714,4,3,1,10,0,0
271467,-71.4285714285714,4,3,1,70,0,0
271639,-90.9090909090909,4,3,1,70,0,0
271812,-71.4285714285714,4,3,1,70,0,0
272070,-71.4285714285714,4,3,1,10,0,0
272156,-71.4285714285714,4,3,1,70,0,0
272329,-90.9090909090909,4,3,1,70,0,0
272501,-71.4285714285714,4,3,1,70,0,0
272760,-71.4285714285714,4,3,1,10,0,0
272846,-100,4,3,1,70,0,0
273105,-100,4,3,1,10,0,0
273191,-76.9230769230769,4,3,1,70,0,0
273450,-76.9230769230769,4,3,1,10,0,0
273536,-76.9230769230769,4,3,1,70,0,0
273708,-90.9090909090909,4,3,1,10,0,0
273881,-76.9230769230769,4,3,1,70,0,0
274484,-76.9230769230769,4,3,1,70,0,0
274570,-90.9090909090909,4,3,1,70,0,0
275088,-100,4,3,1,70,0,0
275605,-100,4,3,1,70,0,0
275863,-100,4,3,1,10,0,0
275950,-66.6666666666667,4,3,1,70,0,0
276208,-66.6666666666667,4,3,1,10,0,0
276294,-111.111111111111,4,3,1,70,0,0
276553,-111.111111111111,4,3,1,10,0,0
276639,-71.4285714285714,4,3,1,70,0,0
276898,-71.4285714285714,4,3,1,10,0,0
276984,-100,4,3,1,70,0,0
277329,-71.4285714285714,4,3,1,70,0,0
277588,-71.4285714285714,4,3,1,10,0,0
277674,-100,4,3,1,70,0,0
278019,-71.4285714285714,4,3,1,70,0,0
278277,-71.4285714285714,4,3,1,10,0,0
278363,-100,4,3,1,70,0,0
278622,-100,4,3,1,10,0,0
278708,-76.9230769230769,4,3,1,70,0,0
278967,-76.9230769230769,4,3,1,10,0,0
279053,-76.9230769230769,4,3,1,70,0,0
279225,-83.3333333333333,4,3,1,70,0,0
279398,-58.8235294117647,4,3,1,70,0,0
279656,-58.8235294117647,4,3,1,10,0,0
279743,-76.9230769230769,4,3,1,70,0,0
280001,-76.9230769230769,4,3,1,10,0,0
280088,-90.9090909090909,4,3,1,70,0,0
280346,-90.9090909090909,4,3,1,10,0,0
280432,-76.9230769230769,4,3,1,70,0,0
281122,-100,4,3,1,70,0,0
281381,-100,4,3,1,10,0,0
281467,-66.6666666666667,4,3,1,70,0,0
281725,-66.6666666666667,4,3,1,10,0,0
281812,-90.9090909090909,4,3,1,70,0,0
282156,-71.4285714285714,4,3,1,70,0,0
282415,-71.4285714285714,4,3,1,10,0,0
282501,-71.4285714285714,4,3,1,70,0,0
282674,-90.9090909090909,4,3,1,70,0,0
282846,-71.4285714285714,4,3,1,70,0,0
283105,-71.4285714285714,4,3,1,10,0,0
283191,-71.4285714285714,4,3,1,70,0,0
283363,-90.9090909090909,4,3,1,70,0,0
283536,-71.4285714285714,4,3,1,70,0,0
283794,-71.4285714285714,4,3,1,10,0,0
283881,-100,4,3,1,70,0,0
284139,-100,4,3,1,10,0,0
284225,-76.9230769230769,4,3,1,70,0,0
284484,-76.9230769230769,4,3,1,10,0,0
284570,-76.9230769230769,4,3,1,70,0,0
284743,-90.9090909090909,4,3,1,70,0,0
284915,-76.9230769230769,4,3,1,70,0,0
285519,-76.9230769230769,4,3,1,10,0,0
285605,-100,4,3,1,70,0,0
285950,-125,4,3,1,50,0,0
286294,-166.666666666667,4,3,1,40,0,0
286639,-250,4,3,1,30,0,0
286984,-166.666666666667,4,3,1,50,0,0
292501,-166.666666666667,4,2,0,10,0,0
293536,-166.666666666667,4,2,0,20,0,0
294915,-166.666666666667,4,2,0,30,0,0
296294,-166.666666666667,4,2,0,50,0,0
296639,-166.666666666667,4,2,0,30,0,0
296725,-166.666666666667,4,2,0,25,0,0
296812,-166.666666666667,4,2,0,20,0,0
296898,-166.666666666667,4,2,0,15,0,0
296984,-166.666666666667,4,2,0,10,0,0
297329,-100,4,3,1,60,0,0
297588,-100,4,3,1,10,0,0
297674,-71.4285714285714,4,3,1,60,0,0
297932,-71.4285714285714,4,3,1,10,0,0
298019,-66.6666666666667,4,3,1,80,0,1
298277,-66.6666666666667,4,3,1,10,0,1
298363,-76.9230769230769,4,3,1,80,0,1
298708,-90.9090909090909,4,3,1,80,0,1
299054,-83.3333333333333,4,3,1,80,0,1
299398,-71.4285714285714,4,3,1,80,0,1
299656,-71.4285714285714,4,3,1,10,0,1
299743,-71.4285714285714,4,3,1,80,0,1
300432,-90.9090909090909,4,3,1,80,0,1
300605,-76.9230769230769,4,3,1,80,0,1
300777,-66.6666666666667,4,3,1,80,0,1
301036,-66.6666666666667,4,3,1,10,0,1
301122,-83.3333333333333,4,3,1,80,0,1
301294,-71.4285714285714,4,3,1,80,0,1
301725,-71.4285714285714,4,3,1,10,0,1
301812,-71.4285714285714,4,3,1,80,0,1
302070,-125,4,3,1,80,0,1
302415,-125,4,3,1,10,0,1
302502,-83.3333333333333,4,3,1,80,0,1
303191,-90.9090909090909,4,3,1,80,0,1
303536,-66.6666666666667,4,3,1,80,0,1
303794,-66.6666666666667,4,3,1,10,0,1
303881,-66.6666666666667,4,3,1,80,0,1
304053,-83.3333333333333,4,3,1,80,0,1
304225,-71.4285714285714,4,3,1,80,0,1
304484,-71.4285714285714,4,3,1,10,0,1
304570,-71.4285714285714,4,3,1,80,0,1
304743,-90.9090909090909,4,3,1,80,0,1
304915,-71.4285714285714,4,3,1,80,0,1
305174,-71.4285714285714,4,3,1,10,0,1
305260,-71.4285714285714,4,3,1,80,0,1
305432,-90.9090909090909,4,3,1,80,0,1
305605,-71.4285714285714,4,3,1,80,0,1
305950,-90.9090909090909,4,3,1,80,0,1
306294,-76.9230769230769,4,3,1,80,0,1
306553,-76.9230769230769,4,3,1,10,0,1
306639,-76.9230769230769,4,3,1,80,0,1
306812,-71.4285714285714,4,3,1,80,0,1
307243,-71.4285714285714,4,3,1,10,0,1
307329,-71.4285714285714,4,3,1,80,0,1
307674,-90.9090909090909,4,3,1,80,0,1
308708,-83.3333333333333,4,3,1,80,0,1
308967,-83.3333333333333,4,3,1,10,0,1
309053,-66.6666666666667,4,3,1,80,0,1
309312,-66.6666666666667,4,3,1,10,0,1
309398,-76.9230769230769,4,3,1,80,0,1
309656,-90.9090909090909,4,3,1,80,0,1
310088,-83.3333333333333,4,3,1,80,0,1
310432,-71.4285714285714,4,3,1,80,0,1
310691,-71.4285714285714,4,3,1,10,0,1
310777,-71.4285714285714,4,3,1,80,0,1
311467,-90.9090909090909,4,3,1,80,0,1
311639,-76.9230769230769,4,3,1,80,0,1
311812,-66.6666666666667,4,3,1,80,0,1
312070,-66.6666666666667,4,3,1,10,0,1
312156,-66.6666666666667,4,3,1,80,0,1
312329,-58.8235294117647,4,3,1,80,0,1
312760,-58.8235294117647,4,3,1,10,0,1
312846,-76.9230769230769,4,3,1,80,0,1
313105,-76.9230769230769,4,3,1,10,0,1
313191,-90.9090909090909,4,3,1,80,0,1
313708,-71.4285714285714,4,3,1,80,0,1
314139,-71.4285714285714,4,3,1,10,0,1
314225,-90.9090909090909,4,3,1,80,0,1
314570,-66.6666666666667,4,3,1,80,0,1
314829,-66.6666666666667,4,3,1,10,0,1
314915,-76.9230769230769,4,3,1,80,0,1
315088,-90.9090909090909,4,3,1,80,0,1
315260,-71.4285714285714,4,3,1,80,0,1
315519,-71.4285714285714,4,3,1,10,0,1
315605,-71.4285714285714,4,3,1,80,0,1
316208,-71.4285714285714,4,3,1,10,0,1
316294,-71.4285714285714,4,3,1,80,0,1
316467,-90.9090909090909,4,3,1,80,0,1
316639,-71.4285714285714,4,3,1,80,0,1
316984,-90.9090909090909,4,3,1,80,0,1
317329,-76.9230769230769,4,3,1,80,0,1
317588,-76.9230769230769,4,3,1,10,0,1
317674,-76.9230769230769,4,3,1,80,0,1
317846,-71.4285714285714,4,3,1,80,0,1
318277,-71.4285714285714,4,3,1,10,0,1
318363,-71.4285714285714,4,3,1,80,0,1
318708,-90.9090909090909,4,3,1,80,0,1
319743,-83.3333333333333,4,3,1,80,0,1
320001,-83.3333333333333,4,3,1,10,0,1
320088,-100,4,3,1,60,0,0
320432,-90.9090909090909,4,2,2,60,0,0
321467,-83.3333333333333,4,2,2,60,0,0
321725,-83.3333333333333,4,2,2,10,0,0
321813,-90.9090909090909,4,2,2,60,0,0
322501,-100,4,2,2,60,0,0
322846,-83.3333333333333,4,2,2,60,0,0
323105,-83.3333333333333,4,2,2,10,0,0
323192,-100,4,2,2,60,0,0
323881,-90.9090909090909,4,2,2,60,0,0
324225,-83.3333333333333,4,2,2,60,0,0
324484,-83.3333333333333,4,2,2,10,0,0
324570,-111.111111111111,4,2,2,60,0,0
325950,-90.9090909090908,4,2,2,60,0,0
326985,-83.3333333333333,4,2,2,60,0,0
327243,-83.3333333333333,4,2,2,10,0,0
327330,-90.9090909090909,4,2,2,60,0,0
328363,-76.9230769230769,4,2,2,60,0,0
328622,-76.9230769230769,4,2,2,10,0,0
328708,-76.9230769230769,4,2,2,60,0,0
328881,-90.9090909090909,4,2,2,60,0,0
329053,-76.9230769230769,4,2,2,60,0,0
329312,-76.9230769230769,4,2,2,10,0,0
329398,-76.9230769230769,4,2,2,60,0,0
329743,-90.9090909090909,4,2,2,60,0,0
330001,-90.9090909090909,4,2,2,10,0,0
330088,-100,4,3,1,60,0,0
331122,-83.3333333333333,4,3,1,60,0,0
331381,-83.3333333333333,4,3,1,10,0,0
331467,-90.9090909090909,4,2,2,60,0,0
332501,-83.3333333333333,4,2,2,60,0,0
332760,-83.3333333333333,4,2,2,10,0,0
332846,-90.9090909090909,4,2,2,60,0,0
333536,-100,4,2,2,60,0,0
333881,-83.3333333333333,4,2,2,60,0,0
334139,-83.3333333333333,4,2,2,10,0,0
334225,-100,4,2,2,60,0,0
334915,-90.9090909090909,4,2,2,60,0,0
335260,-83.3333333333333,4,2,2,60,0,0
335519,-83.3333333333333,4,2,2,10,0,0
335605,-111.111111111111,4,2,2,60,0,0
336639,-142.857142857143,4,2,2,60,0,0
336898,-142.857142857143,4,2,2,10,0,0
336984,-90.9090909090909,4,2,2,60,0,0
338018,-83.3333333333333,4,2,2,60,0,0
338277,-83.3333333333333,4,2,2,10,0,0
338363,-90.9090909090909,4,2,2,60,0,0
339398,-76.9230769230769,4,2,2,60,0,0
339656,-76.9230769230769,4,2,2,10,0,0
339743,-90.9090909090909,4,2,2,60,0,0
339915,-76.9230769230769,4,2,2,60,0,0
340174,-76.9230769230769,4,2,2,10,0,0
340260,-76.9230769230769,4,2,2,60,0,0
340691,-76.9230769230769,4,2,2,10,0,0
340777,-100,4,3,1,60,0,0
341036,-100,4,3,1,10,0,0
341122,-100,4,3,1,60,0,0
341812,-100,4,3,1,60,0,0
342070,-100,4,3,1,10,0,0
342156,-66.6666666666667,4,3,1,80,0,1
342415,-66.6666666666667,4,3,1,10,0,1
342501,-76.9230769230769,4,3,1,80,0,1
342846,-90.9090909090909,4,3,1,80,0,1
343191,-83.3333333333333,4,3,1,80,0,1
343536,-71.4285714285714,4,3,1,80,0,1
343794,-71.4285714285714,4,3,1,10,0,1
343881,-71.4285714285714,4,3,1,80,0,1
344570,-90.9090909090909,4,3,1,80,0,1
344743,-76.9230769230769,4,3,1,80,0,1
344915,-66.6666666666667,4,3,1,80,0,1
345174,-66.6666666666667,4,3,1,10,0,1
345260,-83.3333333333333,4,3,1,80,0,1
345432,-71.4285714285714,4,3,1,80,0,1
345863,-71.4285714285714,4,3,1,10,0,1
345950,-71.4285714285714,4,3,1,80,0,1
346208,-125,4,3,1,80,0,1
346553,-125,4,3,1,10,0,1
346639,-83.3333333333333,4,3,1,80,0,1
347329,-90.9090909090909,4,3,1,80,0,1
347674,-66.6666666666667,4,3,1,80,0,1
347932,-66.6666666666667,4,3,1,10,0,1
348019,-66.6666666666667,4,3,1,80,0,1
348191,-83.3333333333333,4,3,1,80,0,1
348363,-71.4285714285714,4,3,1,80,0,1
348622,-71.4285714285714,4,3,1,10,0,1
348708,-71.4285714285714,4,3,1,80,0,1
348880,-90.9090909090909,4,3,1,80,0,1
349053,-71.4285714285714,4,3,1,80,0,1
349312,-71.4285714285714,4,3,1,10,0,1
349398,-71.4285714285714,4,3,1,80,0,1
349570,-90.9090909090909,4,3,1,80,0,1
349743,-71.4285714285714,4,3,1,80,0,1
350001,-71.4285714285714,4,3,1,10,0,1
350087,-90.9090909090909,4,3,1,80,0,1
350432,-76.9230769230769,4,3,1,80,0,1
350691,-76.9230769230769,4,3,1,10,0,1
350777,-76.9230769230769,4,3,1,80,0,1
350949,-71.4285714285714,4,3,1,80,0,1
351381,-71.4285714285714,4,3,1,10,0,1
351467,-71.4285714285714,4,3,1,80,0,1
351812,-90.9090909090909,4,3,1,80,0,1
352846,-83.3333333333333,4,3,1,80,0,1
353105,-83.3333333333333,4,3,1,10,0,1
353191,-66.6666666666667,4,3,1,80,0,1
353450,-66.6666666666667,4,3,1,10,0,1
353536,-76.9230769230769,4,3,1,80,0,1
353794,-90.9090909090909,4,3,1,80,0,1
354225,-83.3333333333333,4,3,1,80,0,1
354570,-71.4285714285714,4,3,1,80,0,1
354829,-71.4285714285714,4,3,1,10,0,1
354915,-71.4285714285714,4,3,1,80,0,1
355605,-90.9090909090909,4,3,1,80,0,1
355777,-76.9230769230769,4,3,1,80,0,1
355950,-66.6666666666667,4,3,1,80,0,1
356208,-66.6666666666667,4,3,1,10,0,1
356294,-66.6666666666667,4,3,1,80,0,1
356467,-58.8235294117647,4,3,1,80,0,1
356898,-58.8235294117647,4,3,1,10,0,1
356984,-76.9230769230769,4,3,1,80,0,1
357243,-76.9230769230769,4,3,1,10,0,1
357329,-90.9090909090909,4,3,1,80,0,1
357846,-71.4285714285714,4,3,1,80,0,1
358277,-71.4285714285714,4,3,1,10,0,1
358363,-90.9090909090909,4,3,1,80,0,1
358708,-66.6666666666667,4,3,1,80,0,1
358967,-66.6666666666667,4,3,1,10,0,1
359053,-76.9230769230769,4,3,1,80,0,1
359225,-90.9090909090909,4,3,1,80,0,1
359398,-71.4285714285714,4,3,1,80,0,1
359656,-71.4285714285714,4,3,1,10,0,1
359743,-71.4285714285714,4,3,1,80,0,1
360346,-71.4285714285714,4,3,1,10,0,1
360432,-71.4285714285714,4,3,1,80,0,1
360605,-90.9090909090909,4,3,1,80,0,1
360777,-71.4285714285714,4,3,1,80,0,1
361036,-71.4285714285714,4,3,1,10,0,1
361122,-90.9090909090909,4,3,1,80,0,1
361467,-76.9230769230769,4,3,1,80,0,1
361725,-76.9230769230769,4,3,1,10,0,1
361812,-76.9230769230769,4,3,1,80,0,1
361984,-71.4285714285714,4,3,1,80,0,1
362415,-71.4285714285714,4,3,1,10,0,1
362501,-71.4285714285714,4,3,1,80,0,1
362846,-90.9090909090909,4,3,1,70,0,1
363881,-83.3333333333333,4,3,1,80,0,1
364139,-83.3333333333333,4,3,1,10,0,1
364225,-83.3333333333333,4,3,1,60,0,0
364484,-83.3333333333333,4,3,1,10,0,0
364570,-90.9090909090909,4,2,2,60,0,0
365605,-83.3333333333333,4,2,2,60,0,0
365863,-83.3333333333333,4,2,2,10,0,0
365950,-83.3333333333333,4,2,2,60,0,0
366122,-90.9090909090909,4,2,2,60,0,0
366639,-100,4,2,2,60,0,0
366984,-90.9090909090909,4,2,2,60,0,0
367243,-90.9090909090909,4,2,2,10,0,0
367329,-90.9090909090909,4,2,2,60,0,0
367501,-83.3333333333333,4,2,2,60,0,0
367932,-83.3333333333333,4,2,2,10,0,0
368019,-83.3333333333333,4,2,2,60,0,0
368277,-111.111111111111,4,2,2,60,0,0
368880,-125,4,2,2,60,0,0
369312,-125,4,2,2,10,0,0
369398,-125,4,2,2,60,0,0
369743,-83.3333333333333,4,2,2,60,0,0
370001,-83.3333333333333,4,2,2,10,0,0
370087,-90.9090909090909,4,2,2,60,0,0
371122,-83.3333333333333,4,2,2,60,0,0
371381,-83.3333333333333,4,2,2,10,0,0
371467,-90.9090909090909,4,2,2,60,0,0
372501,-90.9090909090909,4,2,2,60,0,0
372760,-90.9090909090909,4,2,2,10,0,0
372846,-90.9090909090909,4,2,2,60,0,0
373363,-100,4,2,2,60,0,0
373536,-83.3333333333333,4,2,2,60,0,0
373880,-90.9090909090909,4,2,2,60,0,0
374139,-90.9090909090909,4,2,2,10,0,0
374225,-100,4,3,1,60,0,0
375260,-83.3333333333333,4,3,1,60,0,0
375519,-83.3333333333333,4,3,1,10,0,0
375605,-90.9090909090909,4,2,2,60,0,0
376639,-83.3333333333333,4,2,2,60,0,0
376898,-83.3333333333333,4,2,2,10,0,0
376984,-90.9090909090909,4,2,2,60,0,0
378018,-90.9090909090909,4,2,2,60,0,0
378536,-83.3333333333333,4,2,2,60,0,0
378967,-83.3333333333333,4,2,2,10,0,0
379053,-83.3333333333333,4,2,2,60,0,0
379311,-100,4,2,2,60,0,0
380777,-83.3333333333333,4,2,2,60,0,0
381036,-83.3333333333333,4,2,2,10,0,0
381122,-90.9090909090909,4,2,2,60,0,0
382156,-83.3333333333333,4,2,2,60,0,0
382415,-83.3333333333333,4,2,2,10,0,0
382501,-90.9090909090909,4,2,2,60,0,0
383536,-90.9090909090909,4,2,2,60,0,0
383794,-90.9090909090909,4,2,2,10,0,0
383881,-90.9090909090909,4,2,2,60,0,0
384053,-83.3333333333333,4,2,2,60,0,0
384312,-83.3333333333333,4,2,2,10,0,0
384398,-83.3333333333333,4,2,2,60,0,0
384915,-125,4,2,2,60,0,0
385174,-125,4,2,2,10,0,0
385260,-100,4,3,1,55,0,0
385950,-166.666666666667,4,3,1,40,0,0
386294,-166.666666666667,4,3,1,60,0,0

[Colours]
Combo1 : 255,117,51
Combo2 : 195,195,195
Combo3 : 128,255,255
Combo4 : 81,81,81
SliderBorder : 153,153,153
SliderTrackOverride : 35,35,35

[HitObjects]
72,233,88,6,0,L|82:321,1,88
62,145,1122,2,0,L|58:101,2,44,2|2|0,0:0|0:0|0:0,0:0:0:0:
440,233,2846,21,2,0:0:0:0:
430,321,3191,1,2,0:0:0:0:
450,145,3881,2,0,L|453:100,2,44,2|2|0,0:0|0:0|0:0,0:0:0:0:
374,189,4915,5,0,0:0:0:0:
512,202,5260,1,0,0:0:0:0:
289,184,5605,5,2,0:0:0:0:
333,111,5950,1,2,0:0:0:0:
324,264,6639,2,0,P|344:275|373:279,2,44,2|2|0,0:0|0:0|0:0,0:0:0:0:
69,51,8363,21,2,0:0:0:0:
30,129,8708,1,2,0:0:0:0:
69,209,9053,6,0,L|63:261,1,44,0|0,0:0|0:0,0:0:0:0:
57,337,9398,2,0,L|51:389,1,44,0|0,0:0|0:0,0:0:0:0:
137,303,9743,2,0,P|163:300|191:306,1,44,0|0,0:0|0:0,0:0:0:0:
241,363,10088,2,0,P|262:365|284:362,1,44,0|0,0:0|0:0,0:0:0:0:
345,300,10432,1,0,0:0:0:0:
234,229,10777,1,0,0:0:0:0:
471,235,11122,5,2,0:0:0:0:
390,214,11467,1,0,0:0:0:0:
338,148,11812,1,0,0:0:0:0:
337,64,12156,1,0,0:0:0:0:
390,0,12501,1,0,0:0:0:0:
268,11,12846,2,0,L|217:15,2,44
51,27,13881,21,2,0:0:0:0:
77,106,14225,1,0,0:0:0:0:
59,187,14570,1,0,0:0:0:0:
41,268,14915,1,0,0:0:0:0:
67,347,15259,1,0,0:0:0:0:
129,261,15605,2,0,L|173:257,2,44,0|0|0,0:0|0:0|0:0,0:0:0:0:
362,242,16639,21,2,0:0:0:0:
441,269,16984,1,0,0:0:0:0:
508,219,17329,1,0,0:0:0:0:
487,137,17674,1,0,0:0:0:0:
412,99,18019,1,0,0:0:0:0:
329,148,18363,2,0,L|285:144,1,44,0|0,0:0|0:0,0:0:0:0:
210,136,19053,1,0,0:0:0:0:
195,375,19398,21,2,0:0:0:0:
161,298,19743,1,0,0:0:0:0:
185,218,20088,1,0,0:0:0:0:
209,138,20432,1,0,0:0:0:0:
175,61,20777,1,0,0:0:0:0:
119,143,21122,2,0,L|69:146,1,44,0|0,0:0|0:0,0:0:0:0:
0,152,21812,1,0,0:0:0:0:
143,289,22156,22,0,B|190:296|190:296|245:285,1,88,2|0,0:0|0:0,0:0:0:0:
329,264,22846,1,0,0:0:0:0:
185,218,23191,2,0,L|190:159,1,44,2|0,0:0|0:0,0:0:0:0:
195,92,23536,2,0,L|198:48,2,44,2|0|0,0:0|0:0|0:0,0:0:0:0:
120,128,24225,21,2,0:0:0:0:
262,141,24570,2,0,L|316:145,1,44,0|0,0:0|0:0,0:0:0:0:
449,119,24915,22,0,B|453:164|453:164|436:219,1,88,2|0,0:0|0:0,0:0:0:0:
398,313,25605,1,0,0:0:0:0:
268,231,25950,2,0,L|208:236,1,44,2|0,0:0|0:0,0:0:0:0:
142,243,26294,2,0,L|98:246,2,44,2|0|0,0:0|0:0|0:0,0:0:0:0:
191,309,26984,5,2,0:0:0:0:
177,172,27329,2,0,L|171:112,1,44,0|0,0:0|0:0,0:0:0:0:
86,25,27674,22,0,B|117:22|117:22|135:13|135:13|176:10,1,88,2|0,0:0|0:0,0:0:0:0:
319,0,28363,1,0,0:0:0:0:
387,137,28708,2,0,L|382:193,1,44,2|0,0:0|0:0,0:0:0:0:
376,263,29053,2,0,L|371:319,2,44,2|0|0,0:0|0:0|0:0,0:0:0:0:
269,213,29743,2,0,L|317:217,1,44,2|0,0:0|0:0,0:0:0:0:
488,232,30088,2,0,L|444:228,1,44
305,137,30432,22,0,B|268:133|268:133|251:125|251:125|219:122,1,88,2|0,0:0|0:0,0:0:0:0:
77,104,31122,1,0,0:0:0:0:
167,219,31467,2,0,L|163:262,1,44,2|0,0:0|0:0,0:0:0:0:
157,341,31812,2,0,L|153:384,2,44,2|0|0,0:0|0:0|0:0,0:0:0:0:
89,296,32501,1,2,0:0:0:0:
227,306,32846,2,0,L|275:310,1,44,0|0,0:0|0:0,0:0:0:0:
434,326,33191,37,10,0:0:0:0:
386,106,38708,5,2,0:0:0:0:
385,132,39053,1,2,0:0:0:0:
383,158,39398,1,2,0:0:0:0:
377,239,39743,2,0,L|375:260,1,21.9594599740092,0|0,0:0|0:0,0:0:0:0:
396,359,40088,21,2,0:0:0:0:
369,361,40432,1,2,0:0:0:0:
343,356,40777,1,0,0:0:0:0:
377,239,41122,1,2,0:0:0:0:
270,277,41467,22,0,L|239:274,1,21.9594599740092,2|0,0:0|0:0,0:0:0:0:
172,269,41812,1,2,0:0:0:0:
145,267,42156,1,2,0:0:0:0:
118,264,42501,1,0,0:0:0:0:
10,288,42846,21,2,0:0:0:0:
8,261,43191,1,2,0:0:0:0:
14,234,43536,1,0,0:0:0:0:
102,148,43881,1,2,0:0:0:0:
102,148,44225,22,0,P|151:166|217:148,1,109.918922718442,2|0,0:0|0:0,0:0:0:0:
206,154,44743,1,0,0:0:0:0:
164,14,44915,2,0,P|158:41|161:69,1,54.9594613592208,2|0,0:0|0:0,0:0:0:0:
287,118,45260,2,0,P|292:144|290:172,1,54.9594613592208,2|0,0:0|0:0,0:0:0:0:
191,270,45605,22,0,L|128:264,2,54.9594613592208,0|0|2,0:0|0:0|0:0,0:0:0:0:
323,280,46294,1,0,0:0:0:0:
251,380,46639,2,0,L|255:323,1,54.9594613592208,2|0,0:0|0:0,0:0:0:0:
267,185,46984,22,0,B|269:153|269:153|285:132|285:132|290:71,1,109.918922718442,2|0,0:0|0:0,0:0:0:0:
290,80,47501,1,0,0:0:0:0:
346,188,47674,2,0,L|339:257,1,54.9594613592208,2|0,0:0|0:0,0:0:0:0:
211,96,48019,2,0,L|215:41,1,54.9594613592208,2|0,0:0|0:0,0:0:0:0:
62,163,48363,2,0,L|57:217,2,54.9594613592208,0|0|2,0:0|0:0|0:0,0:0:0:0:
74,29,49053,38,0,L|67:102,1,54.9594613592208,0|0,0:0|0:0,0:0:0:0:
151,164,49398,2,0,B|154:173|154:173|150:182|150:182|153:190|153:190|150:198|150:198|155:206|155:206|151:215|151:215|156:221|156:221|154:230|154:230|160:237|160:237,1,76.9594558384357,2|0,0:0|0:0,0:0:0:0:
125,361,49743,6,0,B|181:362|181:362|231:338,1,109.918922718442,2|0,0:0|0:0,0:0:0:0:
229,338,50260,1,0,0:0:0:0:
373,371,50432,2,0,P|377:341|371:310,1,55,2|0,0:0|0:0,0:0:0:0:
244,250,50777,2,0,P|240:222|244:195,1,55,2|0,0:0|0:0,0:0:0:0:
362,104,51122,2,0,L|428:109,2,55,0|0|2,0:0|0:0|0:0,0:0:0:0:
493,87,51812,22,0,P|495:121|480:161,1,55,0|0,0:0|0:0,0:0:0:0:
286,126,52156,2,0,P|284:92|299:52,1,55,2|0,0:0|0:0,0:0:0:0:
382,184,52501,22,0,B|379:219|379:219|390:242|390:242|384:312,1,110,2|0,0:0|0:0,0:0:0:0:
386,291,53019,1,0,0:0:0:0:
512,198,53191,2,0,L|442:204,1,55,2|0,0:0|0:0,0:0:0:0:
312,259,53536,2,0,L|257:254,1,55,2|0,0:0|0:0,0:0:0:0:
112,198,53881,2,0,L|57:202,2,55,0|0|2,0:0|0:0|0:0,0:0:0:0:
167,319,54570,38,0,L|172:256,1,55,0|0,0:0|0:0,0:0:0:0:
282,183,54915,2,0,B|278:173|278:173|282:164|282:164|279:156|279:156|282:148|282:148|277:140|277:140|281:131|281:131|276:125|276:125|278:116|278:116|272:109|272:109,1,76.9594558384357,2|0,0:0|0:0,0:0:0:0:
136,26,55260,22,0,L|145:129,1,76.9999976501466,8|0,0:0|0:0,0:0:0:0:
142,102,56294,6,0,B|192:101|211:56|211:56|241:93|297:85,1,176,2|0,0:0|0:0,0:0:0:0:
226,153,58019,2,0,L|237:286,1,131.99999597168,2|0,0:0|0:0,0:0:0:0:
159,365,59053,2,0,B|212:360|212:360|243:368|243:368|275:355|275:355|334:350,1,176,2|0,0:0|0:0,0:0:0:0:
461,137,60777,38,0,L|467:213,1,76.9999976501466,8|0,0:0|0:0,0:0:0:0:
467,213,61812,6,0,B|426:238|379:216|379:216|337:198|294:217,1,176,2|0,0:0|0:0,0:0:0:0:
251,333,63536,2,0,P|198:294|176:233,1,131.99999597168,2|0,0:0|0:0,0:0:0:0:
113,120,64570,2,0,P|80:109|115:161,1,165,2|0,0:0|0:0,0:0:0:0:
195,141,65950,6,0,B|223:128|258:135|258:135|284:116|284:116|328:127|380:102,1,165,8|0,0:0|0:0,0:0:0:0:
311,200,66294,22,0,B|293:246|300:322|345:354|345:354|365:330|362:290|334:262,1,247.500009441376
228,215,66639,1,8,0:0:0:0:
475,175,66898,21,0,0:0:0:0:
475,175,66984,2,0,B|495:129|495:129|489:40,1,121.000003692627
234,53,67329,1,8,0:0:0:0:
388,153,67501,2,0,L|393:219,1,65.9999979858399,0|0,0:0|0:0,0:0:0:0:
293,324,67674,22,0,B|346:300|346:300|404:311|404:311|452:288|452:288|511:303,1,230.99999295044,0|0,0:0|0:0,0:0:0:0:
393,219,68019,1,8,0:0:0:0:
208,332,68191,22,0,B|214:273|214:273|249:248|249:248|257:140|257:140|200:242,1,307.999990600586,0|0,0:0|0:0,0:0:0:0:
122,313,68622,1,0,0:0:0:0:
122,313,68708,2,0,L|115:392,1,60.5000018463135,8|0,0:0|0:0,0:0:0:0:
0,240,68881,2,0,B|3:198|3:198|18:167,1,71.4999967269899,0|0,0:0|0:0,0:0:0:0:
165,69,69053,6,0,B|229:79|258:141|258:141|289:85|378:89,1,247.500009441376,0|0,0:0|0:0,0:0:0:0:
470,21,69398,2,0,L|464:86,1,65.9999979858399,8|0,0:0|0:0,0:0:0:0:
440,233,69570,6,0,B|437:271|437:271|449:311|449:311|443:374|443:374|362:347|362:347|342:296|342:296|350:196,1,384.999988250733,0|0,0:0|0:0,0:0:0:0:
257,357,70088,1,8,0:0:0:0:
257,357,70346,6,0,B|200:352|200:352|171:364|171:364|144:347|144:347|68:341,1,176,0|0,0:0|0:0,0:0:0:0:
180,274,70777,1,8,0:0:0:0:
28,157,70950,5,0,0:0:0:0:
28,157,71036,1,0,0:0:0:0:
23,203,71122,1,0,0:0:0:0:
18,249,71208,1,0,0:0:0:0:
14,295,71294,1,0,0:0:0:0:
134,135,71467,6,0,L|199:129,1,60.5000018463135,8|0,0:0|0:0,0:0:0:0:
364,115,71639,2,0,L|429:109,1,60.5000018463135,0|0,0:0|0:0,0:0:0:0:
270,262,71812,6,0,B|288:217|263:175|263:175|281:121|281:121|244:65|271:-9,1,247.500009441376
232,195,72156,1,8,0:0:0:0:
448,134,72329,2,0,L|441:209,1,65.9999979858399,0|0,0:0|0:0,0:0:0:0:
482,346,72501,6,0,B|423:351|423:351|376:332|376:332|306:338|306:338|379:371,1,230.99999295044,0|0,0:0|0:0,0:0:0:0:
435,273,72846,1,8,0:0:0:0:
214,367,73019,1,0,0:0:0:0:
209,329,73105,1,0,0:0:0:0:
206,290,73191,6,0,B|192:132|192:132|232:196,1,230.99999295044,0|0,0:0|0:0,0:0:0:0:
132,318,73536,1,8,0:0:0:0:
313,218,73708,2,0,L|306:147,1,60.5000018463135,0|0,0:0|0:0,0:0:0:0:
142,58,73881,6,0,B|195:43|195:43|248:62|248:62|300:43|300:43|364:59,1,230.99999295044,0|0,0:0|0:0,0:0:0:0:
192,132,74225,1,8,0:0:0:0:
192,132,74312,2,0,L|134:148,2,60.5000018463135
7,108,74570,6,0,B|13:183|13:183|38:220|38:220|48:330,1,214.49999018097,0|0,0:0|0:0,0:0:0:0:
65,172,74915,1,8,0:0:0:0:
132,318,75088,6,0,B|202:324|202:324|256:297|256:297|366:307|366:307|323:348|323:348|235:341,1,384.999988250733,0|0,0:0|0:0,0:0:0:0:
179,224,75605,1,8,0:0:0:0:
179,224,75777,1,0,0:0:0:0:
308,116,75950,6,0,B|305:148|305:148|291:177,1,60.5000018463135,0|0,0:0|0:0,0:0:0:0:
65,172,76122,2,0,B|52:143|52:143|51:114,1,60.5000018463135,0|0,0:0|0:0,0:0:0:0:
179,5,76294,1,8,0:0:0:0:
267,262,76467,5,0,0:0:0:0:
267,262,76553,2,0,L|273:337,1,60.5000018463135,0|0,0:0|0:0,0:0:0:0:
97,264,76725,1,0,0:0:0:0:
97,264,76812,2,0,L|90:339,1,60.5000018463135,0|0,0:0|0:0,0:0:0:0:
208,123,76984,2,0,P|219:168|161:116,1,197.99999395752,8|0,0:0|0:0,0:0:0:0:
300,30,77329,6,0,B|330:12|407:19|456:59|456:59|417:86|367:60,1,247.500009441376,0|0,0:0|0:0,0:0:0:0:
221,40,77674,1,8,0:0:0:0:
441,174,77932,5,0,0:0:0:0:
441,174,78019,2,0,B|458:219|458:219|444:315,1,121.000003692627,0|0,0:0|0:0,0:0:0:0:
338,384,78277,1,0,0:0:0:0:
338,384,78363,1,8,0:0:0:0:
370,230,78536,6,0,L|298:236,1,65.9999979858399,0|0,0:0|0:0,0:0:0:0:
150,252,78708,2,0,B|100:256|100:256|51:241|51:241|-9:272|-9:272|56:293,1,230.99999295044,0|0,0:0|0:0,0:0:0:0:
214,335,79053,1,8,0:0:0:0:
109,176,79225,6,0,B|103:116|103:116|82:73|82:73|100:-3|100:-3|143:66|143:66|150:143,1,307.999990600586,0|0,0:0|0:0,0:0:0:0:
14,153,79656,1,0,0:0:0:0:
14,153,79743,2,0,L|22:225,1,60.5000018463135,8|0,0:0|0:0,0:0:0:0:
197,262,79915,2,0,B|209:227|209:227|207:190,1,71.4999967269899,0|0,0:0|0:0,0:0:0:0:
223,29,80088,6,0,B|269:6|318:32|318:32|351:6|351:6|407:34|473:0,1,247.500009441376,0|0,0:0|0:0,0:0:0:0:
268,101,80432,1,8,0:0:0:0:
468,87,80605,6,0,B|495:157|460:220|460:220|410:308|469:375|469:375|523:328|527:277|482:207,1,467.500008916855
323,245,81122,2,0,B|269:250|240:307|240:307|222:247|169:232,1,214.49999018097,8|0,0:0|0:0,0:0:0:0:
252,188,81467,5,0,0:0:0:0:
365,360,81639,1,0,0:0:0:0:
142,384,81812,6,0,L|147:323,1,60.5000018463135,8|0,0:0|0:0,0:0:0:0:
162,139,81984,2,0,B|174:-1|174:-1|100:17|100:17|95:76|95:76|62:97|62:97|52:210,1,384.999988250733,0|0,0:0|0:0,0:0:0:0:
164,238,82501,6,0,P|203:232|240:203,1,60.5000018463135,8|0,0:0|0:0,0:0:0:0:
457,231,82674,2,0,P|418:225|381:196,1,60.5000018463135,0|0,0:0|0:0,0:0:0:0:
324,99,82846,6,0,B|324:159|324:159|304:211|304:211|326:259|326:259|326:348,1,247.500009441376,0|0,0:0|0:0,0:0:0:0:
245,141,83191,1,8,0:0:0:0:
466,50,83363,2,0,L|398:44,1,60.5000018463135,0|0,0:0|0:0,0:0:0:0:
232,45,83536,6,0,B|176:50|176:50|132:30|132:30|61:37|61:37|153:89,1,230.99999295044,0|0,0:0|0:0,0:0:0:0:
245,141,83881,1,8,0:0:0:0:
23,121,84053,1,0,0:0:0:0:
25,159,84139,1,0,0:0:0:0:
29,197,84225,6,0,B|42:357|42:357|72:282,1,230.99999295044,0|0,0:0|0:0,0:0:0:0:
149,145,84570,1,8,0:0:0:0:
223,328,84743,2,0,L|287:322,1,60.5000018463135,0|0,0:0|0:0,0:0:0:0:
446,359,84915,6,0,B|449:299|449:299|432:248|432:248|448:194|448:194|430:124,1,230.99999295044,0|0,0:0|0:0,0:0:0:0:
369,318,85260,1,8,0:0:0:0:
369,318,85346,2,0,L|362:394,2,60.5000018463135,0|0|0,0:0|0:0|0:0,0:0:0:0:
354,191,85605,6,0,B|291:185|291:185|239:204|239:204|134:193,1,214.49999018097
302,269,85950,1,8,0:0:0:0:
225,97,86122,6,0,B|142:87|142:87|89:63|89:63|32:72|32:72|52:-4|52:-4|101:-11|101:-11|158:13,1,384.999988250733,0|0,0:0|0:0,0:0:0:0:
143,194,86639,1,8,0:0:0:0:
143,194,86812,1,0,0:0:0:0:
3,320,86984,6,0,B|7:285|7:285|31:244,1,60.5000018463135,0|0,0:0|0:0,0:0:0:0:
286,320,87156,2,0,B|282:286|282:286|257:244,1,60.5000018463135,0|0,0:0|0:0,0:0:0:0:
143,194,87329,5,0,0:0:0:0:
143,360,87674,1,0,0:0:0:0:
50,99,88019,6,0,B|104:99|104:99|143:84|143:84|179:99|179:99|259:99,1,197.99999395752,8|0,0:0|0:0,0:0:0:0:
143,194,88363,2,0,L|143:242,1,44,0|0,0:0|0:0,0:0:0:0:
143,360,88536,1,0,0:0:0:0:
327,308,88708,5,8,0:0:0:0:
259,181,88881,1,0,0:0:0:0:
292,167,88967,1,0,0:0:0:0:
327,161,89053,1,0,0:0:0:0:
361,170,89139,1,0,0:0:0:0:
393,185,89225,1,0,0:0:0:0:
214,316,89398,6,0,P|240:287|253:248,1,60.5000018463135,8|0,0:0|0:0,0:0:0:0:
448,307,89570,2,0,P|416:283|397:246,1,60.5000018463135,0|0,0:0|0:0,0:0:0:0:
327,161,89743,6,0,B|315:25|315:25|349:82,1,197.99999395752
362,98,90088,1,8,0:0:0:0:
203,52,90260,5,0,0:0:0:0:
169,36,90346,1,0,0:0:0:0:
134,28,90432,1,0,0:0:0:0:
99,35,90519,1,0,0:0:0:0:
66,49,90605,1,0,0:0:0:0:
132,123,90777,6,0,L|125:191,1,55,8|0,0:0|0:0,0:0:0:0:
113,330,90950,2,0,L|108:384,1,55,0|0,0:0|0:0,0:0:0:0:
20,254,91122,6,0,B|79:259|79:259|120:249|120:249|159:266|159:266|226:272,1,197.99999395752,0|0,0:0|0:0,0:0:0:0:
240,273,91467,1,8,0:0:0:0:
393,191,91639,1,0,0:0:0:0:
393,191,91725,2,0,L|385:267,1,55,0|0,0:0|0:0,0:0:0:0:
257,96,91898,1,0,0:0:0:0:
257,96,91984,2,0,L|249:19,1,55,0|0,0:0|0:0,0:0:0:0:
370,91,92156,6,0,P|400:89|434:100,1,60.5000018463135,8|0,0:0|0:0,0:0:0:0:
278,183,92329,2,0,P|243:185|211:174,1,60.5000018463135,0|0,0:0|0:0,0:0:0:0:
98,92,92501,6,0,P|82:65|155:86,1,197.99999395752,0|0,0:0|0:0,0:0:0:0:
144,110,92846,1,8,0:0:0:0:
35,211,93019,5,0,0:0:0:0:
31,249,93105,1,0,0:0:0:0:
29,288,93191,2,0,L|23:353,2,49.4999984893799,0|0|0,0:0|0:0|0:0,0:0:0:0:
156,190,93449,1,0,0:0:0:0:
155,189,93535,2,0,L|150:238,1,49.4999984893799,8|0,0:0|0:0,0:0:0:0:
250,344,93708,2,0,L|254:294,1,49.4999984893799,0|0,0:0|0:0,0:0:0:0:
264,157,93881,2,0,L|268:107,2,49.4999984893799,0|0|0,0:0|0:0|0:0,0:0:0:0:
250,344,94225,5,8,0:0:0:0:
459,246,94398,1,0,0:0:0:0:
426,227,94484,1,0,0:0:0:0:
391,216,94570,1,0,0:0:0:0:
355,221,94656,1,0,0:0:0:0:
320,233,94743,1,0,0:0:0:0:
496,94,94915,6,0,P|472:114|455:146,1,60.5000018463135,8|0,0:0|0:0,0:0:0:0:
257,96,95088,2,0,P|280:116|297:148,1,60.5000018463135,0|0,0:0|0:0,0:0:0:0:
391,216,95260,6,0,B|405:355|405:355|367:305,1,197.99999395752
356,288,95605,1,8,0:0:0:0:
201,208,95777,5,0,0:0:0:0:
167,195,95863,1,0,0:0:0:0:
130,188,95950,1,0,0:0:0:0:
94,192,96036,1,0,0:0:0:0:
61,207,96122,1,0,0:0:0:0:
282,233,96294,6,0,P|284:200|276:172,1,60.5000018463135,8|0,0:0|0:0,0:0:0:0:
123,106,96467,1,0,0:0:0:0:
119,69,96553,1,0,0:0:0:0:
115,26,96639,6,0,B|173:10|173:10|216:20|216:20|260:4|260:4|349:15,1,214.49999018097,0|0,0:0|0:0,0:0:0:0:
351,18,96984,1,8,0:0:0:0:
433,144,97156,2,0,L|427:209,1,60.5000018463135,0|0,0:0|0:0,0:0:0:0:
467,310,97329,6,0,B|416:337|360:303|360:303|305:269|221:312,1,214.49999018097
238,305,97674,1,8,0:0:0:0:
238,305,97846,1,0,0:0:0:0:
341,203,98019,2,0,B|352:73|352:73|318:127,1,181.500005538941,0|0,0:0|0:0,0:0:0:0:
261,177,98363,6,0,B|204:183|204:183|149:167,1,110,8|0,0:0|0:0,0:0:0:0:
114,97,98622,2,0,B|63:81|63:81|6:88,1,110,0|0,0:0|0:0,0:0:0:0:
55,184,98881,1,0,0:0:0:0:
212,92,99053,2,0,L|216:36,2,55,8|0|0,0:0|0:0|0:0,0:0:0:0:
98,301,99398,6,0,B|158:306|158:306|192:327|192:327|227:312|227:312|325:320,1,197.99999395752,0|0,0:0|0:0,0:0:0:0:
312,320,99743,1,8,0:0:0:0:
201,240,99915,1,0,0:0:0:0:
204,203,100001,1,0,0:0:0:0:
207,166,100088,1,0,0:0:0:0:
210,129,100174,1,0,0:0:0:0:
212,92,100260,1,0,0:0:0:0:
59,148,100432,6,0,P|90:155|124:148,1,60.5000018463135,8|0,0:0|0:0,0:0:0:0:
185,15,100605,2,0,P|216:11|244:16,1,60.5000018463135,0|0,0:0|0:0,0:0:0:0:
319,177,100777,6,0,B|369:197|428:191|460:164|460:164|437:143|385:151,1,197.99999395752,0|0,0:0|0:0,0:0:0:0:
386,152,101122,1,8,0:0:0:0:
273,330,101294,5,0,0:0:0:0:
240,348,101381,1,0,0:0:0:0:
205,358,101467,1,0,0:0:0:0:
168,351,101553,1,0,0:0:0:0:
135,336,101639,1,0,0:0:0:0:
201,262,101812,6,0,L|195:197,1,55,8|0,0:0|0:0,0:0:0:0:
181,54,101984,2,0,L|175:-10,1,55,0|0,0:0|0:0,0:0:0:0:
86,128,102156,6,0,B|153:122|153:122|186:136|186:136|219:117|219:117|276:113,1,197.99999395752,0|0,0:0|0:0,0:0:0:0:
301,111,102501,1,8,0:0:0:0:
462,193,102674,5,0,0:0:0:0:
462,193,102760,2,0,L|467:127,1,55,0|0,0:0|0:0,0:0:0:0:
336,270,102932,1,0,0:0:0:0:
336,270,103018,2,0,L|341:335,1,55,0|0,0:0|0:0,0:0:0:0:
437,274,103191,6,0,P|470:279|505:269,1,60.5000018463135,8|0,0:0|0:0,0:0:0:0:
361,190,103363,2,0,P|328:185|293:195,1,60.5000018463135,0|0,0:0|0:0,0:0:0:0:
169,304,103536,6,0,P|153:341|216:300,1,197.99999395752,0|0,0:0|0:0,0:0:0:0:
213,288,103881,1,8,0:0:0:0:
49,197,104053,5,0,0:0:0:0:
45,157,104139,1,0,0:0:0:0:
42,117,104225,2,0,L|36:51,2,49.4999984893799,0|0|0,0:0|0:0|0:0,0:0:0:0:
165,219,104484,1,0,0:0:0:0:
165,219,104570,2,0,L|158:143,1,49.4999984893799,8|0,0:0|0:0,0:0:0:0:
245,43,104743,2,0,L|249:92,1,49.4999984893799,0|0,0:0|0:0,0:0:0:0:
265,253,104915,6,0,B|325:256|325:256|380:239,1,115.49999647522,0|0,0:0|0:0,0:0:0:0:
405,232,105260,1,8,0:0:0:0:
261,363,105432,5,0,0:0:0:0:
224,360,105519,1,0,0:0:0:0:
187,357,105605,1,0,0:0:0:0:
150,354,105691,1,0,0:0:0:0:
113,351,105777,1,0,0:0:0:0:
165,219,105950,6,0,L|171:290,1,60.5000018463135,8|0,0:0|0:0,0:0:0:0:
29,355,106122,2,0,L|22:283,1,60.5000018463135,0|0,0:0|0:0,0:0:0:0:
61,152,106294,6,0,B|119:146|119:146|157:127|157:127|198:139|198:139|267:133,1,197.99999395752,0|0,0:0|0:0,0:0:0:0:
278,132,106639,1,8,0:0:0:0:
427,194,106812,5,0,0:0:0:0:
437,160,106898,1,0,0:0:0:0:
437,124,106984,1,0,0:0:0:0:
426,90,107070,1,0,0:0:0:0:
408,59,107156,1,0,0:0:0:0:
341,183,107329,2,0,P|341:213|364:256,1,60.5000018463135,8|0,0:0|0:0,0:0:0:0:
449,361,107501,1,0,0:0:0:0:
408,356,107588,1,0,0:0:0:0:
365,351,107674,6,0,B|312:333|312:333|258:343|258:343|211:325|211:325|138:340,1,214.49999018097,0|0,0:0|0:0,0:0:0:0:
133,342,108019,1,8,0:0:0:0:
266,257,108191,2,0,B|252:103|252:103|216:190,1,214.49999018097,0|0,0:0|0:0,0:0:0:0:
220,183,108536,1,0,0:0:0:0:
364,44,108708,2,0,B|302:38|302:38|259:18|259:18|210:30|210:30|121:22,1,214.49999018097,8|0,0:0|0:0,0:0:0:0:
47,31,109053,6,0,B|51:83|51:83|78:110|78:110|86:205,1,165,0|0,0:0|0:0,0:0:0:0:
87,212,109398,1,8,0:0:0:0:
254,322,109570,6,0,L|254:377,2,55
188,237,110088,2,0,B|246:217|246:217|372:247,1,165
505,299,110432,6,0,B|525:329|524:364|497:376|497:376|457:347|450:269|487:207,1,247.500009441376,0|0,0:0|0:0,0:0:0:0:
370,335,110777,1,8,0:0:0:0:
473,120,111036,5,0,0:0:0:0:
473,120,111122,2,0,B|426:95|426:95|333:87,1,121.000003692627,0|0,0:0|0:0,0:0:0:0:
149,78,111467,1,8,0:0:0:0:
247,188,111639,2,0,L|253:258,1,65.9999979858399,0|0,0:0|0:0,0:0:0:0:
370,335,111812,6,0,B|308:321|308:321|260:343|260:343|207:330|207:330|141:353,1,230.99999295044,0|0,0:0|0:0,0:0:0:0:
252,253,112156,1,8,0:0:0:0:
79,184,112329,6,0,B|74:130|74:130|97:87|97:87|91:21|91:21|20:5|20:5|28:99,1,307.999990600586
163,154,112760,1,0,0:0:0:0:
163,154,112846,2,0,L|167:220,1,60.5000018463135,8|0,0:0|0:0,0:0:0:0:
15,294,113019,2,0,B|5:260|5:260|9:222,1,71.4999967269899,0|0,0:0|0:0,0:0:0:0:
122,59,113191,6,0,B|194:65|194:65|237:93|237:93|283:74|283:74|394:83,1,247.500009441376,0|0,0:0|0:0,0:0:0:0:
482,50,113536,2,0,L|474:133,1,65.9999979858399,8|0,0:0|0:0,0:0:0:0:
497,285,113708,6,0,B|415:277|415:277|379:225|379:225|290:217|290:217|261:289|261:289|373:299,1,384.999988250733,0|0,0:0|0:0,0:0:0:0:
469,203,114225,1,8,0:0:0:0:
469,203,114484,6,0,B|479:78|479:78|441:129,1,176,0|0,0:0|0:0,0:0:0:0:
345,222,114915,1,8,0:0:0:0:
248,44,115088,5,0,0:0:0:0:
248,44,115174,1,0,0:0:0:0:
295,45,115260,1,0,0:0:0:0:
342,48,115346,1,0,0:0:0:0:
389,52,115432,1,0,0:0:0:0:
155,94,115605,6,0,L|148:163,1,60.5000018463135,8|0,0:0|0:0,0:0:0:0:
134,314,115777,2,0,L|127:383,1,60.5000018463135,0|0,0:0|0:0,0:0:0:0:
5,202,115950,6,0,B|46:227|91:210|91:210|141:237|141:237|203:210|271:250,1,247.500009441376,0|0,0:0|0:0,0:0:0:0:
75,175,116294,1,8,0:0:0:0:
225,331,116467,2,0,L|299:324,1,65.9999979858399,0|0,0:0|0:0,0:0:0:0:
477,335,116639,6,0,B|472:289|472:289|449:244|449:244|473:176|473:176|479:251,1,230.99999295044,0|0,0:0|0:0,0:0:0:0:
380,318,116984,1,8,0:0:0:0:
506,87,117156,1,0,0:0:0:0:
467,91,117243,1,0,0:0:0:0:
428,95,117329,6,0,B|258:110|258:110|324:134,1,230.99999295044
371,10,117674,1,8,0:0:0:0:
174,95,117846,2,0,L|179:155,1,60.5000018463135,0|0,0:0|0:0,0:0:0:0:
86,276,118019,6,0,B|145:252|145:252|190:270|190:270|231:244|231:244|304:265,1,230.99999295044,0|0,0:0|0:0,0:0:0:0:
478,350,118363,1,8,0:0:0:0:
478,350,118450,2,0,L|472:285,2,60.5000018463135,0|0|0,0:0|0:0|0:0,0:0:0:0:
505,133,118708,6,0,B|429:139|429:139|390:170|390:170|290:178,1,214.49999018097,0|0,0:0|0:0,0:0:0:0:
464,217,119053,1,8,0:0:0:0:
330,82,119225,6,0,B|259:88|259:88|212:71|212:71|170:95|170:95|85:103|85:103|120:43|120:43|201:36,1,384.999988250733,0|0,0:0|0:0,0:0:0:0:
225,187,119743,1,8,0:0:0:0:
225,187,119915,1,0,0:0:0:0:
82,265,120088,6,0,B|89:234|89:234|107:212,1,60.5000018463135,0|0,0:0|0:0,0:0:0:0:
345,212,120260,2,0,B|363:233|363:233|370:265,1,60.5000018463135,0|0,0:0|0:0,0:0:0:0:
221,379,120432,1,8,0:0:0:0:
306,140,120605,5,0,0:0:0:0:
306,140,120691,2,0,L|312:71,1,60.5000018463135,0|0,0:0|0:0,0:0:0:0:
146,139,120863,1,0,0:0:0:0:
146,139,120949,2,0,L|139:70,1,60.5000018463135,0|0,0:0|0:0,0:0:0:0:
255,279,121122,6,0,P|219:206|182:278,1,197.99999395752,8|0,0:0|0:0,0:0:0:0:
350,340,121467,6,0,B|404:371|479:370|516:348|516:348|483:311|428:325,1,247.500009441376,0|0,0:0|0:0,0:0:0:0:
275,373,121812,1,8,0:0:0:0:
457,204,122070,5,0,0:0:0:0:
457,204,122156,2,0,B|467:157|467:157|458:60,1,121.000003692627,0|0,0:0|0:0,0:0:0:0:
316,0,122415,1,0,0:0:0:0:
316,0,122502,1,8,0:0:0:0:
382,153,122674,2,0,L|313:159,1,65.9999979858399,0|0,0:0|0:0,0:0:0:0:
130,182,122846,6,0,B|58:188|58:188|2:227|2:227|39:260|39:260|98:254,1,230.99999295044,0|0,0:0|0:0,0:0:0:0:
0,126,123191,1,8,0:0:0:0:
163,254,123363,6,0,B|219:249|219:249|256:226|256:226|303:242|303:242|382:235|382:235|305:192,1,307.999990600586,0|0,0:0|0:0,0:0:0:0:
269,322,123794,1,0,0:0:0:0:
269,322,123881,2,0,L|263:389,1,60.5000018463135,8|0,0:0|0:0,0:0:0:0:
81,287,124053,2,0,B|76:248|76:248|88:202,1,71.4999967269899,0|0,0:0|0:0,0:0:0:0:
237,100,124225,6,0,B|313:93|313:93|358:56|358:56|454:47,1,214.49999018097,0|0,0:0|0:0,0:0:0:0:
246,0,124570,1,8,0:0:0:0:
405,154,124743,6,0,B|430:212|415:275|415:275|398:339|424:391|475:386|475:386|523:307|440:257|347:304,1,467.500008916855
233,288,125260,2,0,B|173:293|140:347|140:347|103:299|22:306,1,214.49999018097,8|0,0:0|0:0,0:0:0:0:
131,232,125605,5,0,0:0:0:0:
304,344,125777,1,0,0:0:0:0:
329,159,125950,2,0,L|258:165,1,60.5000018463135,8|0,0:0|0:0,0:0:0:0:
49,207,126122,6,0,B|43:140|43:140|82:53|82:53|149:91|149:91|124:154|124:154|132:241,1,384.999988250733,0|0,0:0|0:0,0:0:0:0:
161,361,126639,6,0,P|194:359|226:344,1,60.5000018463135,8|0,0:0|0:0,0:0:0:0:
440,357,126812,2,0,P|407:355|375:340,1,60.5000018463135,0|0,0:0|0:0,0:0:0:0:
301,259,126984,6,0,B|286:91|286:91|334:166,1,247.500009441376,0|0,0:0|0:0,0:0:0:0:
304,344,127329,1,8,0:0:0:0:
482,217,127501,2,0,L|416:222,1,60.5000018463135,0|0,0:0|0:0,0:0:0:0:
224,238,127674,6,0,B|158:243|158:243|114:222|114:222|68:251|68:251|-7:258,1,230.99999295044
120,325,128019,1,8,0:0:0:0:
175,157,128191,1,0,0:0:0:0:
172,118,128277,1,0,0:0:0:0:
170,79,128363,6,0,B|205:69|243:85|243:85|273:64|273:64|327:97|401:73,1,230.99999295044,0|0,0:0|0:0,0:0:0:0:
231,0,128708,1,8,0:0:0:0:
398,155,128881,2,0,L|392:220,1,60.5000018463135,0|0,0:0|0:0,0:0:0:0:
396,381,129053,6,0,B|339:376|339:376|308:346|308:346|227:339|227:339|268:388,1,230.99999295044,0|0,0:0|0:0,0:0:0:0:
385,302,129398,1,8,0:0:0:0:
385,302,129484,2,0,L|453:308,2,60.5000018463135,0|0|0,0:0|0:0|0:0,0:0:0:0:
227,253,129743,6,0,B|129:244|129:244|76:271|76:271|170:280,1,214.49999018097,0|0,0:0|0:0,0:0:0:0:
306,262,130088,1,8,0:0:0:0:
226,97,130260,6,0,B|296:103|296:103|321:96|321:96|345:107|345:107|408:112|408:112|373:183|373:183|331:179|331:179|314:173|314:173|297:176|297:176|236:171,1,384.999988250733,0|0,0:0|0:0,0:0:0:0:
123,163,130777,1,8,0:0:0:0:
123,163,130950,1,0,0:0:0:0:
0,288,131122,6,0,B|8:255|8:255|30:220,1,60.5000018463135,0|0,0:0|0:0,0:0:0:0:
230,306,131294,2,0,B|227:272|227:272|217:247,1,60.5000018463135,0|0,0:0|0:0,0:0:0:0:
123,163,131467,1,2,0:0:0:0:
108,337,131812,1,2,0:0:0:0:
39,77,132156,6,0,B|99:82|99:82|131:74|131:74|159:87|159:87|225:93,1,181.500005538941,0|0,0:0|0:0,0:0:0:0:
123,163,132501,2,0,L|117:235,1,55,0|0,0:0|0:0,0:0:0:0:
108,337,132674,1,0,0:0:0:0:
214,166,132846,1,8,0:0:0:0:
258,346,133019,6,0,B|260:314|260:314|274:283|274:283|266:246|266:246|269:213|269:213|259:178|259:178|275:145|275:145|279:97|279:97|232:127|232:127|210:178|210:178,1,357.49998363495,0|0,0:0|0:0,0:0:0:0:
345,244,133536,6,0,B|392:239|392:239|420:224|420:224|486:218,1,132,8|0,0:0|0:0,0:0:0:0:
364,162,133881,2,0,B|374:46|374:46|390:98,1,165,0|0,0:0|0:0,0:0:0:0:
432,253,134225,1,8,0:0:0:0:
279,99,134398,6,0,B|236:102|236:102|210:118|210:118|185:108|185:108|134:112,1,142.99999345398
35,204,134656,2,0,B|78:200|78:200|100:186|100:186|128:196|128:196|171:193,1,142.99999345398
119,376,134915,6,0,B|110:279|110:279|135:314,1,132,8|0,0:0|0:0,0:0:0:0:
240,383,135260,2,0,B|291:378|291:378|325:357|325:357|419:349,1,165,0|0,0:0|0:0,0:0:0:0:
258,297,135605,1,8,0:0:0:0:
462,217,135777,6,0,B|415:205|415:205|372:224|372:224|338:212|338:212|302:230|302:230|255:221|255:221|203:282|203:282|292:306,1,357.49998363495
331,136,136294,6,0,L|318:-4,1,132,8|0,0:0|0:0,0:0:0:0:
246,118,136639,2,0,B|192:122|192:122|155:106|155:106|83:113,1,165,0|0,0:0|0:0,0:0:0:0:
206,37,136984,1,8,0:0:0:0:
135,189,137156,5,0,0:0:0:0:
132,216,137243,1,0,0:0:0:0:
135,243,137329,1,0,0:0:0:0:
144,268,137415,1,0,0:0:0:0:
148,295,137501,1,0,0:0:0:0:
145,322,137588,1,0,0:0:0:0:
136,347,137674,2,0,L|70:341,2,55,8|0|0,0:0|0:0|0:0,0:0:0:0:
349,363,138019,6,0,B|413:368|413:368|445:348|445:348|507:353,1,165
388,287,138363,1,8,0:0:0:0:
479,135,138536,6,0,B|483:81|483:81|440:53|440:53|406:85|406:85|401:134|401:134|408:178|408:178|395:216|395:216|388:293,1,357.49998363495
283,153,139053,2,0,B|218:138|218:138|135:152,1,132,8|0,0:0|0:0,0:0:0:0:
225,317,139398,2,0,B|216:218|216:218|193:266,1,132,0|0,0:0|0:0,0:0:0:0:
145,364,139743,1,8,0:0:0:0:
0,195,139915,6,0,B|33:195|33:195|70:207|70:207|105:195|105:195|149:195,1,142.99999345398,0|0,0:0|0:0,0:0:0:0:
139,97,140174,2,0,B|104:97|104:97|69:85|69:85|32:97|32:97|-1:97,1,142.99999345398,0|0,0:0|0:0,0:0:0:0:
128,0,140432,6,0,B|181:4|181:4|253:48,1,132,8|0,0:0|0:0,0:0:0:0:
408,112,140777,6,0,B|510:103|510:103|458:80,1,132,0|0,0:0|0:0,0:0:0:0:
328,83,141122,1,8,0:0:0:0:
258,222,141294,6,0,B|250:136|250:136|261:108|261:108|252:2|252:2|323:23|323:23|333:131,1,357.49998363495,0|0,0:0|0:0,0:0:0:0:
286,300,141812,6,0,B|242:303|242:303|213:290|213:290|155:295,1,132,8|0,0:0|0:0,0:0:0:0:
363,364,142156,5,0,0:0:0:0:
374,341,142243,1,0,0:0:0:0:
383,318,142329,1,0,0:0:0:0:
385,293,142415,1,0,0:0:0:0:
382,268,142501,2,0,P|365:237|348:220,2,49.4999984893799,8|0|0,0:0|0:0|0:0,0:0:0:0:
490,321,142760,5,0,0:0:0:0:
490,321,142846,2,0,L|484:263,1,49.4999984893799,0|0,0:0|0:0,0:0:0:0:
478,186,143019,2,0,L|472:128,1,49.4999984893799,0|0,0:0|0:0,0:0:0:0:
457,19,143191,2,0,B|422:21|422:21|396:35|396:35|366:25|366:25|319:29,1,132,8|0,0:0|0:0,0:0:0:0:
240,164,143536,6,0,B|230:51|230:51|258:104,1,165,0|0,0:0|0:0,0:0:0:0:
304,239,143881,1,8,0:0:0:0:
143,267,144053,6,0,B|190:271|190:271|232:294|232:294|277:278|277:278|348:284|348:284|391:247|391:247|296:239,1,357.49998363495
158,356,144570,6,0,B|90:345|90:345|14:363,1,132,8|0,0:0|0:0,0:0:0:0:
56,267,144915,2,0,B|60:208|60:208|89:181|89:181|95:107,1,165,0|0,0:0|0:0,0:0:0:0:
143,267,145260,1,8,0:0:0:0:
197,114,145432,6,0,B|235:117|235:117|265:130|265:130|301:123|301:123|348:127,1,142.99999345398,0|0,0:0|0:0,0:0:0:0:
452,222,145691,2,0,B|413:218|413:218|383:205|383:205|347:212|347:212|300:208,1,142.99999345398,0|0,0:0|0:0,0:0:0:0:
438,135,145950,6,0,B|446:40|446:40|417:80,1,132,8|0,0:0|0:0,0:0:0:0:
314,49,146294,2,0,B|257:44|257:44|227:15|227:15|157:10,1,165,0|0,0:0|0:0,0:0:0:0:
47,130,146639,1,8,0:0:0:0:
89,268,146812,6,0,B|95:198|95:198|119:163|119:163|126:84|126:84|55:46|55:46|43:184,1,357.49998363495,0|0,0:0|0:0,0:0:0:0:
175,232,147329,6,0,B|243:247|243:247|319:229,1,132,8|0,0:0|0:0,0:0:0:0:
253,54,147674,2,0,B|243:167|243:167|283:119,1,165,0|0,0:0|0:0,0:0:0:0:
179,21,148019,1,8,0:0:0:0:
414,86,148191,5,0,0:0:0:0:
418,113,148277,1,0,0:0:0:0:
417,140,148363,1,0,0:0:0:0:
410,167,148450,1,0,0:0:0:0:
409,194,148536,1,0,0:0:0:0:
413,221,148622,1,0,0:0:0:0:
420,247,148708,2,0,P|427:276|428:311,2,55,8|0|0,0:0|0:0|0:0,0:0:0:0:
296,167,149053,6,0,B|242:162|242:162|204:181|204:181|112:173,1,165
278,262,149398,1,8,0:0:0:0:
96,320,149570,6,0,B|166:326|166:326|211:304|211:304|272:344|272:344|346:309|346:309|271:257,1,357.49998363495,0|0,0:0|0:0,0:0:0:0:
150,250,150088,6,0,L|18:238,1,132,8|0,0:0|0:0,0:0:0:0:
59,134,150432,2,0,B|69:19|69:19|95:83,1,165,0|0,0:0|0:0,0:0:0:0:
135,175,150777,1,8,0:0:0:0:
245,38,150950,6,0,B|289:34|289:34|315:20|315:20|346:28|346:28|417:21,1,142.99999345398,0|0,0:0|0:0,0:0:0:0:
394,136,151208,2,0,B|356:139|356:139|327:151|327:151|300:143|300:143|255:147,1,142.99999345398,0|0,0:0|0:0,0:0:0:0:
396,232,151467,6,0,B|496:223|496:223|460:249,1,132,8|0,0:0|0:0,0:0:0:0:
377,342,151812,2,0,B|320:346|320:346|281:334|281:334|193:342,1,165,0|0,0:0|0:0,0:0:0:0:
57,289,152156,1,8,0:0:0:0:
124,101,152329,6,0,B|118:163|118:163|91:208|91:208|110:255|110:255|104:328|104:328|52:351|52:351|61:250,1,357.49998363495,0|0,0:0|0:0,0:0:0:0:
187,219,152846,2,0,L|324:206,1,132,8|0,0:0|0:0,0:0:0:0:
485,190,153191,5,0,0:0:0:0:
482,165,153277,1,0,0:0:0:0:
481,140,153363,1,0,0:0:0:0:
479,115,153450,1,0,0:0:0:0:
477,90,153536,2,0,L|472:40,2,49.4999984893799,8|0|0,0:0|0:0|0:0,0:0:0:0:
363,112,153794,5,0,0:0:0:0:
363,112,153881,2,0,L|280:119,1,49.4999984893799,0|0,0:0|0:0,0:0:0:0:
219,124,154053,2,0,L|136:131,1,49.4999984893799,0|0,0:0|0:0,0:0:0:0:
16,146,154225,6,0,B|19:186|19:186|11:213|11:213|23:236|23:236|28:283,1,132,8|0,0:0|0:0,0:0:0:0:
110,351,154570,6,0,B|197:351|197:351|231:324|231:324|320:324,1,197.99999395752,0|0,0:0|0:0,0:0:0:0:
327,323,154915,1,8,0:0:0:0:
166,270,155088,1,0,0:0:0:0:
162,233,155174,1,0,0:0:0:0:
159,197,155260,1,0,0:0:0:0:
156,161,155346,1,0,0:0:0:0:
153,125,155432,1,0,0:0:0:0:
10,189,155605,6,0,P|44:192|73:183,1,60.5000018463135,8|0,0:0|0:0,0:0:0:0:
114,46,155777,2,0,P|146:37|177:40,1,60.5000018463135,0|0,0:0|0:0,0:0:0:0:
311,183,155950,6,0,B|458:170|458:170|401:147,1,197.99999395752
382,139,156294,1,8,0:0:0:0:
314,338,156467,5,0,0:0:0:0:
283,357,156553,1,0,0:0:0:0:
247,365,156639,1,0,0:0:0:0:
211,359,156725,1,0,0:0:0:0:
177,344,156812,1,0,0:0:0:0:
243,266,156984,6,0,L|237:205,1,55,8|0,0:0|0:0,0:0:0:0:
222,54,157156,1,0,0:0:0:0:
138,130,157329,6,0,B|193:125|193:125|227:137|227:137|263:119|263:119|327:113,1,181.500005538941,0|0,0:0|0:0,0:0:0:0:
341,111,157674,1,8,0:0:0:0:
179,209,157846,2,0,B|140:219|140:219|106:202|106:202|68:213|68:213|28:195|28:195|-4:235|-4:235|-1:284|-1:284|76:314,1,329.9999899292,0|0,0:0|0:0,0:0:0:0:
86,317,158363,1,8,0:0:0:0:
342,299,158622,5,0,0:0:0:0:
342,299,158708,2,0,L|346:349,2,49.4999984893799,0|0|0,0:0|0:0|0:0,0:0:0:0:
326,150,159053,1,8,0:0:0:0:
283,230,159225,6,0,B|239:237|239:237|195:222|195:222|136:217|136:217|155:254|155:254|201:258,1,220,0|0,0:0|0:0,0:0:0:0:
216,259,159743,1,8,0:0:0:0:
216,259,159915,1,0,0:0:0:0:
249,90,160088,6,0,B|192:85|192:85|157:66|157:66|120:77|120:77|56:72,1,197.99999395752,0|0,0:0|0:0,0:0:0:0:
29,67,160432,1,8,0:0:0:0:
149,155,160605,1,0,0:0:0:0:
144,190,160691,1,0,0:0:0:0:
141,226,160777,1,0,0:0:0:0:
137,262,160863,1,0,0:0:0:0:
134,298,160950,1,0,0:0:0:0:
0,231,161122,6,0,P|35:226|68:237,1,60.5000018463135,8|0,0:0|0:0,0:0:0:0:
94,372,161294,2,0,P|125:383|162:378,1,60.5000018463135,0|0,0:0|0:0,0:0:0:0:
263,238,161467,6,0,B|340:243|340:243|373:226|373:226|471:235,1,197.99999395752,0|0,0:0|0:0,0:0:0:0:
487,237,161812,1,8,0:0:0:0:
320,158,161984,5,0,0:0:0:0:
307,122,162070,1,0,0:0:0:0:
303,85,162156,1,0,0:0:0:0:
312,48,162243,1,0,0:0:0:0:
332,18,162329,1,0,0:0:0:0:
462,90,162501,6,0,P|431:101|400:98,1,60.5000018463135,8|0,0:0|0:0,0:0:0:0:
227,58,162674,1,0,0:0:0:0:
190,61,162760,1,0,0:0:0:0:
154,66,162846,6,0,B|158:116|158:116|183:157|183:157|191:246,1,181.500005538941,0|0,0:0|0:0,0:0:0:0:
194,268,163191,1,8,0:0:0:0:
87,368,163363,2,0,L|76:247,1,121.000003692627
202,358,163708,6,0,L|265:352,1,55
361,345,163881,1,8,0:0:0:0:
361,345,164053,1,0,0:0:0:0:
467,226,164225,6,0,B|478:97|478:97|439:162,1,181.500005538941
385,204,164570,2,0,B|328:214|328:214|271:204,1,110,8|0,0:0|0:0,0:0:0:0:
242,94,164829,2,0,B|190:84|190:84|133:94,1,110,0|0,0:0|0:0,0:0:0:0:
190,181,165088,1,0,0:0:0:0:
333,121,165260,2,0,L|337:66,2,55,8|0|0,0:0|0:0|0:0,0:0:0:0:
351,317,165605,6,0,P|354:355|298:302,1,197.99999395752,0|0,0:0|0:0,0:0:0:0:
321,290,165950,1,8,0:0:0:0:
174,202,166122,5,0,0:0:0:0:
140,187,166208,1,0,0:0:0:0:
104,179,166294,1,0,0:0:0:0:
67,184,166381,1,0,0:0:0:0:
36,204,166467,1,0,0:0:0:0:
99,323,166639,6,0,L|104:262,1,60.5000018463135,8|0,0:0|0:0,0:0:0:0:
120,102,166812,2,0,L|125:41,1,60.5000018463135,0|0,0:0|0:0,0:0:0:0:
253,222,166984,2,0,B|310:216|310:216|351:230|351:230|388:210|388:210|457:204,1,197.99999395752,0|0,0:0|0:0,0:0:0:0:
474,203,167329,1,8,0:0:0:0:
343,148,167501,5,0,0:0:0:0:
339,111,167588,1,0,0:0:0:0:
336,74,167674,1,0,0:0:0:0:
333,37,167760,1,0,0:0:0:0:
330,0,167846,1,0,0:0:0:0:
475,50,168019,6,0,L|407:55,1,60.5000018463135,8|0,0:0|0:0,0:0:0:0:
254,67,168191,1,0,0:0:0:0:
343,148,168363,6,0,B|344:175|344:175|357:197|357:197|363:275,1,121.000003692627,0|0,0:0|0:0,0:0:0:0:
372,368,168622,1,0,0:0:0:0:
372,368,168708,1,8,0:0:0:0:
276,228,168881,6,0,B|202:234|202:234|167:269|167:269|91:276|91:276|48:235|48:235|144:227,1,329.9999899292,0|0,0:0|0:0,0:0:0:0:
146,228,169398,1,8,0:0:0:0:
293,61,169656,5,0,0:0:0:0:
293,61,169743,2,0,L|299:-9,2,55
276,228,170088,1,8,0:0:0:0:
417,157,170260,5,0,0:0:0:0:
417,157,170346,1,0,0:0:0:0:
374,152,170432,1,0,0:0:0:0:
330,148,170519,1,0,0:0:0:0:
287,145,170605,1,0,0:0:0:0:
89,268,170777,6,0,L|96:186,1,55,8|0,0:0|0:0,0:0:0:0:
109,54,170950,2,0,L|116:-27,1,55,0|0,0:0|0:0,0:0:0:0:
2,116,171122,6,0,B|67:121|67:121|100:140|100:140|136:127|136:127|200:133,1,197.99999395752,0|0,0:0|0:0,0:0:0:0:
215,135,171467,1,8,0:0:0:0:
420,227,171639,5,0,0:0:0:0:
387,242,171725,1,0,0:0:0:0:
352,246,171811,1,0,0:0:0:0:
316,237,171898,1,0,0:0:0:0:
286,218,171984,1,0,0:0:0:0:
334,384,172156,6,0,L|340:310,1,60.5000018463135,8|0,0:0|0:0,0:0:0:0:
354,158,172329,2,0,L|360:84,1,60.5000018463135,0|0,0:0|0:0,0:0:0:0:
187,223,172501,6,0,B|44:235|44:235|116:253,1,197.99999395752,0|0,0:0|0:0,0:0:0:0:
123,255,172846,1,8,0:0:0:0:
203,94,173019,5,0,0:0:0:0:
167,91,173105,1,0,0:0:0:0:
131,88,173191,1,0,0:0:0:0:
95,84,173277,1,0,0:0:0:0:
60,81,173363,1,0,0:0:0:0:
280,64,173536,6,0,P|285:92|280:124,1,60.5000018463135,8|0,0:0|0:0,0:0:0:0:
202,254,173708,1,0,0:0:0:0:
195,295,173794,1,0,0:0:0:0:
202,337,173881,6,0,B|259:337|259:337|290:352|290:352|327:336|327:336|391:336,1,181.500005538941,0|0,0:0|0:0,0:0:0:0:
407,335,174225,1,8,0:0:0:0:
305,136,174398,6,0,B|292:273|292:273|329:212,1,197.99999395752,0|0,0:0|0:0,0:0:0:0:
340,201,174743,1,0,0:0:0:0:
192,153,174915,2,0,B|125:140|125:140|54:153,1,131.99999597168,8|0,0:0|0:0,0:0:0:0:
124,375,175260,6,0,B|127:333|127:333|116:309|116:309|123:226,1,132,0|0,0:0|0:0,0:0:0:0:
126,218,175605,1,8,0:0:0:0:
235,340,175777,5,0,0:0:0:0:
235,340,175863,2,0,B|290:349|290:349|357:337,1,110,0|0,0:0|0:0,0:0:0:0:
423,322,176122,1,8,0:0:0:0:
294,239,176294,1,0,0:0:0:0:
294,239,176381,2,0,L|304:115,1,110,0|0,0:0|0:0,0:0:0:0:
384,54,176639,6,0,B|337:22|337:22|212:15,1,165
116,51,176984,1,8,0:0:0:0:
116,51,177156,5,0,0:0:0:0:
116,68,177242,1,0,0:0:0:0:
118,86,177328,1,0,0:0:0:0:
120,104,177414,1,0,0:0:0:0:
121,122,177501,1,0,0:0:0:0:
217,201,177674,1,8,0:0:0:0:
217,201,177846,6,0,L|217:157,4,44
309,58,178363,1,8,0:0:0:0:
309,58,178535,5,0,0:0:0:0:
307,75,178621,1,0,0:0:0:0:
305,93,178707,1,0,0:0:0:0:
304,111,178793,1,0,0:0:0:0:
302,129,178880,1,0,0:0:0:0:
291,285,179053,2,0,L|285:347,2,44,8|0|0,0:0|0:0|0:0,0:0:0:0:
300,211,179312,1,0,0:0:0:0:
300,211,179398,6,0,B|244:206|244:206|208:225|208:225|124:217,1,165,0|0,0:0|0:0,0:0:0:0:
12,232,179743,1,8,0:0:0:0:
12,232,179915,5,0,0:0:0:0:
10,214,180001,1,0,0:0:0:0:
12,195,180088,1,0,0:0:0:0:
16,178,180174,1,0,0:0:0:0:
27,163,180260,1,0,0:0:0:0:
153,120,180432,1,8,0:0:0:0:
153,120,180605,5,0,0:0:0:0:
159,89,180691,1,0,0:0:0:0:
153,61,180777,6,0,B|206:56|206:56|234:68|234:68|258:51|258:51|309:47,1,165,0|0,0:0|0:0,0:0:0:0:
448,30,181122,1,8,0:0:0:0:
448,30,181294,5,0,0:0:0:0:
447,56,181381,1,0,0:0:0:0:
444,85,181467,2,0,B|440:137|440:137|453:189,1,98.9999969787599,0|0,0:0|0:0,0:0:0:0:
358,132,181812,2,0,B|306:127|306:127|243:142,1,98.9999969787599,8|0,0:0|0:0,0:0:0:0:
180,275,182156,6,0,B|169:153|169:153|199:198,1,165
271,296,182501,1,8,0:0:0:0:
271,296,182674,5,0,0:0:0:0:
286,294,182760,1,0,0:0:0:0:
303,292,182846,1,0,0:0:0:0:
320,291,182932,1,0,0:0:0:0:
337,289,183019,1,0,0:0:0:0:
424,204,183191,1,8,0:0:0:0:
424,204,183363,6,0,L|362:203,4,44,0|0|0|0|0,0:0|0:0|0:0|0:0|0:0,0:0:0:0:
270,122,183881,1,8,0:0:0:0:
270,122,184054,5,0,0:0:0:0:
286,123,184140,1,0,0:0:0:0:
303,124,184226,1,0,0:0:0:0:
320,126,184312,1,0,0:0:0:0:
337,127,184399,1,0,0:0:0:0:
179,72,184570,2,0,L|174:22,2,44,8|0|0,0:0|0:0|0:0,0:0:0:0:
186,161,184829,1,0,0:0:0:0:
186,161,184915,6,0,B|189:205|189:205|167:240|167:240|175:327,1,165,0|0,0:0|0:0,0:0:0:0:
178,345,185260,1,8,0:0:0:0:
291,245,185432,6,0,B|338:244|338:244|372:268|372:268|433:268|433:268|395:221,1,197.99999395752,0|0,0:0|0:0,0:0:0:0:
402,229,185777,1,0,0:0:0:0:
342,36,185950,2,0,B|353:171|353:171|390:84,1,197.99999395752,8|0,0:0|0:0,0:0:0:0:
377,113,186294,5,0,0:0:0:0:
336,280,186467,1,0,0:0:0:0:
252,149,186639,2,0,L|188:143,1,55,8|0,0:0|0:0,0:0:0:0:
35,73,186812,6,0,B|30:134|30:134|55:158|55:158|49:228|49:228|17:257|17:257|12:315,1,263.99999194336,0|0,0:0|0:0,0:0:0:0:
10,338,187243,1,0,0:0:0:0:
8,368,187329,2,0,L|88:360,1,55,8|0,0:0|0:0,0:0:0:0:
154,350,187501,2,0,L|208:345,1,55,0|0,0:0|0:0,0:0:0:0:
349,326,187674,6,0,B|360:183|360:183|327:240,1,197.99999395752
453,291,188019,1,8,0:0:0:0:
453,291,188191,5,0,0:0:0:0:
454,273,188277,1,0,0:0:0:0:
455,255,188363,1,0,0:0:0:0:
458,237,188450,1,0,0:0:0:0:
459,219,188536,1,0,0:0:0:0:
360,140,188708,1,8,0:0:0:0:
360,140,188881,6,0,L|361:209,4,44,0|0|0|0|0,0:0|0:0|0:0|0:0|0:0,0:0:0:0:
276,298,189398,1,8,0:0:0:0:
276,298,189570,5,0,0:0:0:0:
273,280,189656,1,0,0:0:0:0:
272,262,189742,1,0,0:0:0:0:
271,244,189829,1,0,0:0:0:0:
269,226,189915,1,0,0:0:0:0:
255,66,190088,2,0,L|250:13,2,44,8|0|0,0:0|0:0|0:0,0:0:0:0:
263,146,190346,1,0,0:0:0:0:
263,146,190432,6,0,B|203:151|203:151|174:174|174:174|136:157|136:157|66:163,1,197.99999395752,0|0,0:0|0:0,0:0:0:0:
93,293,190777,1,8,0:0:0:0:
93,293,190950,5,0,0:0:0:0:
109,300,191036,1,0,0:0:0:0:
126,303,191122,1,0,0:0:0:0:
143,302,191208,1,0,0:0:0:0:
160,297,191294,1,0,0:0:0:0:
260,195,191467,1,8,0:0:0:0:
260,195,191640,5,0,0:0:0:0:
287,185,191726,1,0,0:0:0:0:
316,186,191812,6,0,B|460:198|460:198|401:214,1,197.99999395752
349,107,192156,1,8,0:0:0:0:
349,107,192329,5,0,0:0:0:0:
349,80,192415,1,0,0:0:0:0:
349,52,192501,2,0,B|295:41|295:41|232:52,1,110
116,2,192846,2,0,B|105:56|105:56|116:119,1,110,8|0,0:0|0:0,0:0:0:0:
260,195,193191,6,0,B|254:256|254:256|222:281|222:281|213:387,1,197.99999395752,0|0,0:0|0:0,0:0:0:0:
54,309,193536,1,8,0:0:0:0:
54,309,193708,5,0,0:0:0:0:
55,291,193794,1,0,0:0:0:0:
57,273,193881,1,0,0:0:0:0:
57,255,193967,1,0,0:0:0:0:
59,237,194053,1,0,0:0:0:0:
182,166,194225,1,8,0:0:0:0:
182,166,194398,6,0,L|182:234,4,44,0|0|0|0|0,0:0|0:0|0:0|0:0|0:0,0:0:0:0:
311,310,194915,1,8,0:0:0:0:
311,310,195087,5,0,0:0:0:0:
310,292,195173,1,0,0:0:0:0:
308,274,195260,1,0,0:0:0:0:
308,256,195346,1,0,0:0:0:0:
306,238,195432,1,0,0:0:0:0:
295,76,195605,2,0,L|289:18,2,44,8|0|0,0:0|0:0|0:0,0:0:0:0:
301,157,195863,1,0,0:0:0:0:
301,157,195950,6,0,L|410:147,1,76.9999976501466,0|0,0:0|0:0,0:0:0:0:
225,204,196294,5,8,0:0:0:0:
209,207,196381,1,0,0:0:0:0:
193,208,196467,1,0,0:0:0:0:
177,210,196553,1,0,0:0:0:0:
161,212,196639,1,0,0:0:0:0:
145,214,196725,1,0,0:0:0:0:
129,216,196812,1,0,0:0:0:0:
193,119,196984,1,8,0:0:0:0:
193,119,197156,6,0,L|130:124,4,38.4999988250733,0|0|0|0|0,0:0|0:0|0:0|0:0|0:0,0:0:0:0:
171,34,197674,1,8,0:0:0:0:
171,34,197846,5,0,0:0:0:0:
160,34,197933,1,0,0:0:0:0:
150,34,198019,1,0,0:0:0:0:
139,36,198105,1,0,0:0:0:0:
127,36,198191,1,0,0:0:0:0:
8,19,198363,2,0,L|17:124,1,98.9999969787599,8|0,0:0|0:0,0:0:0:0:
29,243,198708,5,2,0:0:0:0:
29,243,199053,2,0,B|92:213|152:245|152:245|194:191|194:191|267:274|409:268|431:195|431:195|332:227|247:177,1,660
252,180,205260,6,0,B|250:199|250:199|243:217|243:217|247:234|247:234|245:251|245:251|238:269|238:269|242:288|242:288|240:309,1,132,0|0,0:0|0:0,0:0:0:0:
240,308,206984,6,0,B|266:322|298:313|298:313|337:342|337:342|373:332|407:348|407:348|418:328|441:314|441:314|400:329|364:306,1,308
408,233,209743,6,0,L|411:188,2,44,2|2|0,0:0|0:0|0:0,0:0:0:0:
399,312,210777,1,2,0:0:0:0:
420,112,211122,1,0,0:0:0:0:
483,161,211467,5,0,0:0:0:0:
411,189,211812,1,2,0:0:0:0:
348,147,212156,1,2,0:0:0:0:
203,240,212501,6,0,L|198:288,2,44,2|2|0,0:0|0:0|0:0,0:0:0:0:
212,160,213536,1,2,0:0:0:0:
192,360,213881,1,0,0:0:0:0:
127,310,214225,5,0,0:0:0:0:
199,283,214570,1,2,0:0:0:0:
267,324,214915,1,2,0:0:0:0:
205,204,215260,6,0,B|206:184|206:184|202:164|202:164|209:147|209:147|211:130|211:130|207:113|207:113|214:95|214:95|216:75,1,132,2|0,0:0|0:0,0:0:0:0:
224,0,216639,1,2,0:0:0:0:
150,30,216984,5,0,0:0:0:0:
216,75,217329,1,2,0:0:0:0:
290,48,217674,1,2,0:0:0:0:
412,171,218019,6,0,L|415:127,2,44,2|2|0,0:0|0:0|0:0,0:0:0:0:
403,249,219053,1,2,0:0:0:0:
422,50,219398,1,0,0:0:0:0:
486,97,219743,5,2,0:0:0:0:
415,127,220088,1,2,0:0:0:0:
347,86,220432,1,0,0:0:0:0:
201,168,220777,5,2,0:0:0:0:
241,243,221122,1,0,0:0:0:0:
207,254,221467,1,0,0:0:0:0:
171,250,221812,1,0,0:0:0:0:
140,231,222156,1,0,0:0:0:0:
201,168,222501,2,0,L|205:120,2,44,2|0|0,0:0|0:0|0:0,0:0:0:0:
143,320,223881,5,0,0:0:0:0:
217,369,224225,1,0,0:0:0:0:
252,361,224570,1,0,0:0:0:0:
287,363,224915,1,0,0:0:0:0:
390,379,225260,2,0,L|387:336,2,44,2|0|0,0:0|0:0|0:0,0:0:0:0:
321,254,226294,5,0,0:0:0:0:
348,170,226639,1,0,0:0:0:0:
312,166,226984,1,0,0:0:0:0:
277,174,227329,1,0,0:0:0:0:
251,198,227674,1,0,0:0:0:0:
321,254,228019,2,0,L|316:301,1,44,2|0,0:0|0:0,0:0:0:0:
311,332,228708,1,0,0:0:0:0:
140,272,229398,5,0,0:0:0:0:
115,188,229743,1,0,0:0:0:0:
119,153,230088,1,0,0:0:0:0:
111,118,230432,1,0,0:0:0:0:
44,19,230777,2,0,L|93:23,1,44,2|0,0:0|0:0,0:0:0:0:
114,26,231467,1,0,0:0:0:0:
0,152,231812,5,2,0:0:0:0:
142,363,242846,6,0,B|207:341|207:341|257:364|257:364|305:341|305:341|376:366,1,247.500009441376,8|0,0:0|0:0,0:0:0:0:
256,274,243191,2,0,L|242:125,1,148.49999546814,0|0,0:0|0:0,0:0:0:0:
126,58,243536,6,0,B|191:52|191:52|230:27|230:27|278:44|278:44|346:38,1,230.99999295044,8|0,0:0|0:0,0:0:0:0:
480,133,243881,2,0,B|484:186|484:186|463:250,1,110,0|0,0:0|0:0,0:0:0:0:
295,177,244225,6,0,B|255:156|207:177|207:177|180:141|180:141|127:175|63:139,1,230.99999295044,8|0,0:0|0:0,0:0:0:0:
148,235,244570,2,0,L|136:366,1,121.000003692627
393,231,244915,6,0,B|333:251|322:318|322:318|299:261|218:256,1,230.99999295044,8|0,0:0|0:0,0:0:0:0:
295,177,245260,2,0,B|284:156|284:156|292:139|292:139|281:123|281:123|289:107|289:107|278:90|278:90|286:70|286:70|276:50|276:50|280:27,1,165,0|0,0:0|0:0,0:0:0:0:
171,91,245605,6,0,B|24:103|24:103|101:120,1,214.49999018097,8|0,0:0|0:0,0:0:0:0:
198,12,245950,1,0,0:0:0:0:
208,162,246122,2,0,L|213:234,1,60.5000018463135,0|0,0:0|0:0,0:0:0:0:
166,354,246294,6,0,B|221:382|281:349|281:349|323:372|323:372|375:342|375:342|421:356|463:335|463:335|496:373|496:373|357:386,1,500.499977088929,8|0,0:0|0:0,0:0:0:0:
412,248,246984,6,0,B|406:187|406:187|379:149|379:149|372:71,1,181.500005538941,8|0,0:0|0:0,0:0:0:0:
317,234,247329,2,0,B|249:248|249:248|143:231,1,142.99999345398,0|0,0:0|0:0,0:0:0:0:
16,206,247588,1,0,0:0:0:0:
16,206,247674,2,0,L|9:284,2,60.5000018463135,8|0|0,0:0|0:0|0:0,0:0:0:0:
28,40,248019,6,0,B|68:27|111:49|111:49|150:69|191:55,1,165
220,147,248363,6,0,B|244:197|240:273|196:303|196:303|163:279|162:238|197:204,1,247.500009441376,8|0,0:0|0:0,0:0:0:0:
266,76,248708,2,0,B|327:63|327:63|393:76,1,121.000003692627,0|0,0:0|0:0,0:0:0:0:
473,253,249053,6,0,B|509:210|517:160|488:99|488:99|478:142|433:168,1,230.99999295044,8|0,0:0|0:0,0:0:0:0:
308,194,249398,1,0,0:0:0:0:
410,322,249570,2,0,L|349:316,1,60.5000018463135,0|0,0:0|0:0,0:0:0:0:
196,303,249743,6,0,B|137:297|137:297|98:257|98:257|33:251|33:251|80:297,1,230.99999295044,8|0,0:0|0:0,0:0:0:0:
159,384,250088,1,0,0:0:0:0:
174,223,250260,2,0,L|180:158,1,60.5000018463135,0|0,0:0|0:0,0:0:0:0:
76,35,250432,6,0,B|155:41|155:41|193:29|193:29|226:48|226:48|320:56,1,230.99999295044,8|0,0:0|0:0,0:0:0:0:
445,75,250777,2,0,B|455:94|455:94|448:113|448:113|459:129|459:129|451:145|451:145|462:162|462:162|454:182|454:182|466:202|466:202|461:229,1,165,0|0,0:0|0:0,0:0:0:0:
512,374,251122,6,0,B|439:380|439:380|399:347|399:347|309:355,1,214.49999018097,8|0,0:0|0:0,0:0:0:0:
467,303,251467,1,0,0:0:0:0:
321,273,251639,2,0,L|260:278,1,60.5000018463135,0|0,0:0|0:0,0:0:0:0:
61,302,251812,6,0,B|54:190|54:190|12:145|12:145|3:35|3:35|52:7|52:7|101:29|101:29|110:138,1,500.499977088929,8|0,0:0|0:0,0:0:0:0:
137,206,252501,6,0,L|197:200,1,60.5000018463135,8|0,0:0|0:0,0:0:0:0:
422,180,252674,2,0,L|361:185,1,60.5000018463135,0|0,0:0|0:0,0:0:0:0:
270,85,252846,6,0,L|280:205,1,121.000003692627
293,356,253105,1,0,0:0:0:0:
293,356,253191,1,8,0:0:0:0:
137,206,253536,6,0,B|16:216|16:216|64:190,1,165
149,75,253881,6,0,B|215:69|215:69|270:85|270:85|320:60|320:60|410:52,1,247.500009441376,8|0,0:0|0:0,0:0:0:0:
276,158,254225,2,0,L|292:342,1,148.49999546814,0|0,0:0|0:0,0:0:0:0:
444,374,254570,6,0,P|513:328|418:338,1,230.99999295044,8|0,0:0|0:0,0:0:0:0:
364,172,254915,2,0,B|420:164|420:164|510:184,1,110,0|0,0:0|0:0,0:0:0:0:
288,305,255260,6,0,B|250:324|210:305|210:305|165:337|165:337|119:309|65:337,1,230.99999295044,8|0,0:0|0:0,0:0:0:0:
153,222,255605,2,0,L|163:107,1,110,0|0,0:0|0:0,0:0:0:0:
303,28,255950,6,0,B|123:12|123:12|193:44,1,230.99999295044,8|0,0:0|0:0,0:0:0:0:
245,105,256294,2,0,B|256:126|256:126|248:143|248:143|259:159|259:159|251:175|251:175|262:192|262:192|254:212|254:212|264:232|264:232|260:255,1,165,0|0,0:0|0:0,0:0:0:0:
263,349,256639,6,0,B|324:354|324:354|368:379|368:379|411:362|411:362|505:371,1,214.49999018097,8|0,0:0|0:0,0:0:0:0:
192,305,256984,1,0,0:0:0:0:
372,288,257156,2,0,L|362:184,1,65.9999979858399,0|0,0:0|0:0,0:0:0:0:
352,94,257329,6,0,B|296:72|244:104|244:104|201:66|201:66|137:102|69:55,1,280.500005350113,8|0,0:0|0:0,0:0:0:0:
12,182,257674,2,0,B|24:327|24:327|62:225,1,214.49999018097,0|0,0:0|0:0,0:0:0:0:
159,192,258019,6,0,B|207:174|207:174|241:196|241:196|276:174|276:174|337:195,1,181.500005538941,8|0,0:0|0:0,0:0:0:0:
440,275,258363,2,0,B|462:212|462:212|451:137,1,142.99999345398,0|0,0:0|0:0,0:0:0:0:
423,0,258622,1,0,0:0:0:0:
423,0,258708,1,8,0:0:0:0:
321,189,259053,6,0,B|305:226|321:268|321:268|340:313|322:359,1,165,0|0,0:0|0:0,0:0:0:0:
187,314,259398,6,0,B|130:309|130:309|98:273|98:273|12:266|12:266|55:324,1,247.500009441376,8|0,0:0|0:0,0:0:0:0:
173,231,259743,2,0,B|181:168|181:168|165:100,1,121.000003692627,0|0,0:0|0:0,0:0:0:0:
284,46,260088,6,0,B|455:31|455:31|416:42|392:84,1,230.99999295044,8|0,0:0|0:0,0:0:0:0:
321,189,260432,1,0,0:0:0:0:
479,117,260605,2,0,L|471:200,1,60.5000018463135,0|0,0:0|0:0,0:0:0:0:
504,349,260777,6,0,B|411:340|411:340|385:306|385:306|281:297|281:297,1,230.99999295044,8|0,0:0|0:0,0:0:0:0:
464,264,261122,1,0,0:0:0:0:
321,189,261294,2,0,L|240:181,1,60.5000018463135,0|0,0:0|0:0,0:0:0:0:
77,280,261467,6,0,B|82:214|82:214|66:168|66:168|90:127|90:127|96:58,1,230.99999295044,8|0,0:0|0:0,0:0:0:0:
170,184,261812,2,0,B|176:204|176:204|166:221|166:221|174:239|174:239|163:253|163:253|171:272|171:272|160:290|160:290|168:312|168:312|159:338,1,165
283,375,262156,6,0,B|437:388|437:388|371:349,1,214.49999018097,8|0,0:0|0:0,0:0:0:0:
328,299,262501,1,0,0:0:0:0:
496,320,262674,2,0,L|489:250,1,60.5000018463135,0|0,0:0|0:0,0:0:0:0:
443,37,262846,6,0,B|346:45|346:45|308:95|308:95|205:105|205:105|132:37|132:37|296:22,1,500.499977088929,8|0,0:0|0:0,0:0:0:0:
392,119,263536,6,0,L|399:199,1,55,8|0,0:0|0:0,0:0:0:0:
414,384,263708,2,0,L|410:330,1,55,0|0,0:0|0:0,0:0:0:0:
402,252,263881,1,0,0:0:0:0:
221,292,264053,5,0,0:0:0:0:
197,315,264139,1,0,0:0:0:0:
190,347,264225,1,8,0:0:0:0:
190,347,264570,6,0,B|179:223|179:223|153:288,1,165,0|0,0:0|0:0,0:0:0:0:
24,297,264915,6,0,B|16:209|16:209|54:160|54:160|44:48,1,247.500009441376,8|0,0:0|0:0,0:0:0:0:
134,154,265260,2,0,B|183:142|183:142|231:154|231:154|292:138,1,148.49999546814,0|0,0:0|0:0,0:0:0:0:
356,24,265605,6,0,B|361:87|361:87|387:129|387:129|369:176|369:176|375:249,1,230.99999295044,8|0,0:0|0:0,0:0:0:0:
503,294,265950,2,0,L|491:165,1,110,0|0,0:0|0:0,0:0:0:0:
403,340,266294,6,0,B|357:354|319:327|319:327|272:355|272:355|229:319|156:340,1,230.99999295044,8|0,0:0|0:0,0:0:0:0:
272,249,266639,2,0,L|260:120,1,121.000003692627,0|0,0:0|0:0,0:0:0:0:
154,79,266984,6,0,B|215:79|244:15|244:15|281:73|384:56,1,230.99999295044,8|0,0:0|0:0,0:0:0:0:
486,145,267329,2,0,B|495:163|495:163|488:182|488:182|499:198|499:198|491:214|491:214|502:231|502:231|494:251|494:251|506:271|506:271|501:298,1,165,0|0,0:0|0:0,0:0:0:0:
403,340,267674,6,0,B|248:353|248:353|336:309,1,214.49999018097,8|0,0:0|0:0,0:0:0:0:
419,260,268019,1,0,0:0:0:0:
240,268,268191,2,0,L|245:200,1,60.5000018463135,0|0,0:0|0:0,0:0:0:0:
283,38,268363,6,0,B|198:30|198:30|149:65|149:65|57:57|57:57|10:14|10:14|0:68|0:68|34:105|34:105|142:115,1,500.499977088929,8|0,0:0|0:0,0:0:0:0:
254,124,269053,6,0,B|309:128|309:128|345:160|345:160|431:167,1,181.500005538941,8|0,0:0|0:0,0:0:0:0:
271,207,269398,2,0,B|260:272|260:272|279:360,1,142.99999345398,0|0,0:0|0:0,0:0:0:0:
405,280,269656,1,0,0:0:0:0:
405,280,269743,2,0,L|470:274,2,60.5000018463135,8|0|0,0:0|0:0|0:0,0:0:0:0:
192,333,270088,6,0,B|149:346|109:324|109:324|65:301|11:318,1,165,0|0,0:0|0:0,0:0:0:0:
160,254,270432,6,0,B|144:75|144:75|116:161,1,247.500009441376,8|0,0:0|0:0,0:0:0:0:
245,186,270777,2,0,B|307:189|307:189|392:173,1,121.000003692627,0|0,0:0|0:0,0:0:0:0:
500,90,271122,6,0,B|515:48|475:23|475:23|441:61|438:129|485:200,1,230.99999295044,8|0,0:0|0:0,0:0:0:0:
508,280,271467,1,0,0:0:0:0:
341,383,271639,2,0,L|347:311,1,60.5000018463135,0|0,0:0|0:0,0:0:0:0:
364,178,271812,6,0,B|308:158|255:204|255:204|222:146|135:143,1,230.99999295044,8|0,0:0|0:0,0:0:0:0:
271,98,272156,1,0,0:0:0:0:
63,111,272329,2,0,L|55:194,1,60.5000018463135,0|0,0:0|0:0,0:0:0:0:
8,299,272501,6,0,B|55:324|99:304|99:304|125:333|125:333|182:313|251:358,1,230.99999295044,8|0,0:0|0:0,0:0:0:0:
341,383,272846,2,0,B|344:362|344:362|332:342|332:342|340:322|340:322|329:305|329:305|337:289|337:289|326:273|326:273|333:254|333:254|323:235,1,165,0|0,0:0|0:0,0:0:0:0:
202,99,273191,6,0,B|269:93|269:93|303:69|303:69|346:86|346:86|407:81,1,214.49999018097,8|0,0:0|0:0,0:0:0:0:
316,160,273536,1,0,0:0:0:0:
241,9,273708,2,0,L|163:15,1,60.5000018463135,0|0,0:0|0:0,0:0:0:0:
27,76,273881,6,0,B|34:172|34:172|2:222|2:222|13:346|13:346|92:384|92:384|78:217,1,500.499977088929,8|0,0:0|0:0,0:0:0:0:
109,178,274570,6,0,L|182:170,1,60.5000018463135,8|0,0:0|0:0,0:0:0:0:
376,153,274743,2,0,L|315:159,1,60.5000018463135,0|0,0:0|0:0,0:0:0:0:
233,66,274915,6,0,L|243:188,1,121.000003692627
256,325,275174,1,0,0:0:0:0:
256,325,275260,1,8,0:0:0:0:
376,153,275605,6,0,B|365:32|365:32|395:82,1,165,0|0,0:0|0:0,0:0:0:0:
475,204,275950,6,0,B|479:259|479:259|451:304|451:304|455:349|455:349|498:364|498:364|491:291,1,247.500009441376,8|0,0:0|0:0,0:0:0:0:
392,238,276294,2,0,L|232:251,1,148.49999546814,0|0,0:0|0:0,0:0:0:0:
106,289,276639,6,0,B|99:209|99:209|130:168|130:168|120:50,1,230.99999295044,8|0,0:0|0:0,0:0:0:0:
239,166,276984,2,0,L|352:156,1,110,0|0,0:0|0:0,0:0:0:0:
465,66,277329,6,0,B|478:106|465:146|465:146|495:184|495:184|467:235|495:299,1,230.99999295044,8|0,0:0|0:0,0:0:0:0:
351,241,277674,2,0,L|241:250,1,110,0|0,0:0|0:0,0:0:0:0:
71,324,278019,6,0,B|56:157|56:157|103:226,1,230.99999295044,8|0,0:0|0:0,0:0:0:0:
241,250,278363,2,0,B|244:229|244:229|232:209|232:209|240:189|240:189|229:172|229:172|237:156|237:156|226:140|226:140|233:121|233:121|223:102,1,165,0|0,0:0|0:0,0:0:0:0:
372,30,278708,6,0,B|284:37|284:37|235:17|235:17|157:24,1,214.49999018097,8|0,0:0|0:0,0:0:0:0:
310,112,279053,1,0,0:0:0:0:
145,98,279225,2,0,L|152:180,1,65.9999979858399,0|0,0:0|0:0,0:0:0:0:
174,344,279398,6,0,B|241:384|309:345|309:345|386:298|478:346,1,280.500005350113,8|0,0:0|0:0,0:0:0:0:
359,205,279743,2,0,P|366:169|406:240,1,214.49999018097
241,250,280088,6,0,B|246:182|246:182|279:156|279:156|288:79,1,181.500005538941,8|0,0:0|0:0,0:0:0:0:
150,29,280432,2,0,L|137:176,1,142.99999345398,0|0,0:0|0:0,0:0:0:0:
127,322,280691,1,0,0:0:0:0:
127,322,280777,1,8,0:0:0:0:
283,120,281122,6,0,B|321:98|364:118|364:118|411:141|460:117,1,165,0|0,0:0|0:0,0:0:0:0:
383,8,281467,6,0,B|314:14|314:14|271:42|271:42|226:21|226:21|138:29,1,247.500009441376,8|0,0:0|0:0,0:0:0:0:
283,120,281812,2,0,L|294:249,1,121.000003692627,0|0,0:0|0:0,0:0:0:0:
215,344,282156,6,0,B|200:175|200:175|168:261,1,230.99999295044,8|0,0:0|0:0,0:0:0:0:
302,315,282501,1,0,0:0:0:0:
115,350,282674,2,0,L|107:266,1,60.5000018463135,0|0,0:0|0:0,0:0:0:0:
39,128,282846,6,0,B|117:121|117:121|163:82|163:82|260:74,1,230.99999295044,8|0,0:0|0:0,0:0:0:0:
86,43,283191,1,0,0:0:0:0:
201,175,283363,2,0,L|276:168,1,60.5000018463135
466,41,283536,6,0,B|471:101|471:101|494:141|494:141|478:187|478:187|486:277,1,230.99999295044,8|0,0:0|0:0,0:0:0:0:
408,151,283881,2,0,B|387:148|387:148|367:160|367:160|347:152|347:152|330:163|330:163|314:155|314:155|298:166|298:166|279:159|279:159|260:169,1,165,0|0,0:0|0:0,0:0:0:0:
401,231,284225,6,0,B|413:379|413:379|374:311,1,214.49999018097,8|0,0:0|0:0,0:0:0:0:
496,343,284570,1,0,0:0:0:0:
322,252,284743,2,0,L|229:260,1,60.5000018463135,0|0,0:0|0:0,0:0:0:0:
99,375,284915,6,0,B|93:320|93:320|67:271|67:271|85:223|85:223|74:97|74:97|-1:70|-1:70|10:222,1,500.499977088929,8|0,0:0|0:0,0:0:0:0:
158,265,285605,6,0,L|230:259,1,55,8|0,0:0|0:0,0:0:0:0:
421,244,285777,2,0,L|366:248,1,55,0|0,0:0|0:0,0:0:0:0:
300,381,285950,6,0,L|292:293,1,88,0|0,0:0|0:0,0:0:0:0:
286,212,286294,6,0,L|278:124,1,65.9999979858399
268,27,286639,6,0,L|272:71,1,44,0|0,0:0|0:0,0:0:0:0:
300,381,286984,1,8,0:0:0:0:
256,192,292501,12,0,296984,0:0:0:0:
106,119,297329,6,0,B|95:237|95:237|71:179,1,165,0|0,0:0|0:0,0:0:0:0:
0,35,297674,2,0,B|68:41|68:41|116:22|116:22|155:48|155:48|252:57,1,230.99999295044,8|0,0:0|0:0,0:0:0:0:
383,126,298019,6,0,B|409:87|373:44|373:44|324:78|321:147|367:221,1,247.500009441376,0|0,0:0|0:0,0:0:0:0:
292,14,298363,1,8,0:0:0:0:
421,261,298622,5,0,0:0:0:0:
421,261,298708,2,0,B|361:282|361:282|270:275,1,121.000003692627,0|0,0:0|0:0,0:0:0:0:
74,245,299053,1,8,0:0:0:0:
175,379,299225,2,0,L|180:313,1,65.9999979858399,0|0,0:0|0:0,0:0:0:0:
121,138,299398,6,0,B|180:160|191:225|191:225|220:164|297:154,1,230.99999295044,0|0,0:0|0:0,0:0:0:0:
208,83,299743,1,8,0:0:0:0:
303,277,299915,2,0,B|357:272|357:272|395:242|395:242|461:236|461:236|489:304|489:304|395:312,1,307.999990600586,0|0,0:0|0:0,0:0:0:0:
325,197,300346,5,0,0:0:0:0:
325,197,300432,2,0,L|331:121,1,60.5000018463135,8|0,0:0|0:0,0:0:0:0:
494,114,300605,2,0,B|492:75|492:75|480:39,1,71.4999967269899,0|0,0:0|0:0,0:0:0:0:
209,2,300777,6,0,B|40:16|40:16|138:50,1,247.500009441376,0|0,0:0|0:0,0:0:0:0:
296,43,301122,1,8,0:0:0:0:
92,124,301294,6,0,B|87:171|87:171|62:209|62:209|80:254|80:254|75:308|75:308|0:364|0:364|9:259,1,384.999988250733,0|0,0:0|0:0,0:0:0:0:
172,222,301812,1,8,0:0:0:0:
172,222,302070,6,0,B|304:210|304:210|247:253,1,176,0|0,0:0|0:0,0:0:0:0:
164,306,302501,1,8,0:0:0:0:
390,236,302674,5,0,0:0:0:0:
390,236,302760,1,0,0:0:0:0:
392,283,302846,1,0,0:0:0:0:
396,330,302932,1,0,0:0:0:0:
400,377,303019,1,0,0:0:0:0:
352,147,303191,6,0,L|285:141,1,60.5000018463135,8|0,0:0|0:0,0:0:0:0:
116,121,303363,2,0,L|55:115,1,60.5000018463135,0|0,0:0|0:0,0:0:0:0:
217,84,303536,6,0,B|188:130|208:184|208:184|166:218|166:218|179:273|156:325,1,247.500009441376,0|0,0:0|0:0,0:0:0:0:
291,141,303881,1,8,0:0:0:0:
392,283,304053,2,0,L|385:213,1,65.9999979858399,0|0,0:0|0:0,0:0:0:0:
292,48,304225,6,0,B|340:52|340:52|391:78|391:78|464:61|464:61|392:54,1,230.99999295044,0|0,0:0|0:0,0:0:0:0:
226,3,304570,1,8,0:0:0:0:
23,112,304743,1,0,0:0:0:0:
24,160,304829,1,0,0:0:0:0:
25,203,304915,6,0,B|82:208|82:208|128:233|128:233|178:216|178:216|246:223,1,230.99999295044,0|0,0:0|0:0,0:0:0:0:
135,144,305260,1,8,0:0:0:0:
320,343,305432,2,0,L|314:282,1,60.5000018463135,0|0,0:0|0:0,0:0:0:0:
280,105,305605,6,0,B|321:101|321:101|371:129|371:129|457:121|457:121|388:61,1,230.99999295044
236,26,305950,1,8,0:0:0:0:
236,26,306036,2,0,L|170:31,2,60.5000018463135,0|0|0,0:0|0:0|0:0,0:0:0:0:
302,192,306294,6,0,B|251:197|251:197|210:177|210:177|90:188,1,214.49999018097,0|0,0:0|0:0,0:0:0:0:
280,105,306639,1,8,0:0:0:0:
181,336,306812,6,0,B|220:355|220:355|321:346|321:346|284:277|284:277|236:280|236:280|191:258|191:258|128:264,1,384.999988250733,0|0,0:0|0:0,0:0:0:0:
302,192,307329,1,8,0:0:0:0:
302,192,307501,1,0,0:0:0:0:
155,107,307674,6,0,B|162:137|162:137|189:175,1,60.5000018463135,0|0,0:0|0:0,0:0:0:0:
419,161,307846,2,0,B|439:137|439:137|454:93,1,60.5000018463135,0|0,0:0|0:0,0:0:0:0:
293,19,308019,1,8,0:0:0:0:
226,241,308191,5,0,0:0:0:0:
226,241,308277,2,0,L|220:308,1,60.5000018463135,0|0,0:0|0:0,0:0:0:0:
385,242,308450,1,0,0:0:0:0:
385,242,308536,2,0,L|390:309,1,60.5000018463135,0|0,0:0|0:0,0:0:0:0:
261,97,308708,6,0,P|290:170|327:100,1,197.99999395752,8|0,0:0|0:0,0:0:0:0:
196,37,309053,6,0,B|149:10|76:3|26:40|26:40|58:72|119:63,1,247.500009441376,0|0,0:0|0:0,0:0:0:0:
275,15,309398,1,8,0:0:0:0:
56,146,309656,5,0,0:0:0:0:
56,146,309743,2,0,B|43:191|43:191|51:281,1,121.000003692627,0|0,0:0|0:0,0:0:0:0:
171,376,310001,1,0,0:0:0:0:
171,376,310087,1,8,0:0:0:0:
201,199,310260,6,0,L|279:205,1,65.9999979858399,0|0,0:0|0:0,0:0:0:0:
423,331,310432,2,0,B|428:261|428:261|450:221|450:221|435:180|435:180|442:101,1,230.99999295044,0|0,0:0|0:0,0:0:0:0:
351,212,310777,1,8,0:0:0:0:
445,8,310950,6,0,B|384:12|384:12|350:48|350:48|279:54|279:54|224:24|224:24|320:15,1,307.999990600586,0|0,0:0|0:0,0:0:0:0:
441,109,311381,1,0,0:0:0:0:
441,109,311467,2,0,L|513:102,1,60.5000018463135,8|0,0:0|0:0,0:0:0:0:
351,212,311639,2,0,B|314:215|314:215|278:205,1,71.4999967269899,0|0,0:0|0:0,0:0:0:0:
126,67,311812,6,0,B|105:106|130:148|130:148|100:199|100:199|139:249|108:313,1,247.500009441376,0|0,0:0|0:0,0:0:0:0:
24,139,312156,1,8,0:0:0:0:
265,280,312329,6,0,B|201:279|189:205|189:205|265:138|354:214|354:214|425:260|514:222,1,467.500008916855,0|0,0:0|0:0,0:0:0:0:
462,60,312846,2,0,B|460:19|416:7|416:7|399:36|399:111|439:149,1,214.49999018097,8|0,0:0|0:0,0:0:0:0:
507,317,313191,5,0,0:0:0:0:
265,280,313363,1,0,0:0:0:0:
330,90,313536,2,0,L|269:95,1,60.5000018463135,8|0,0:0|0:0,0:0:0:0:
18,180,313708,2,0,B|34:139|6:98|6:98|53:74|60:8|60:8|80:75|132:88|132:88|113:131|141:196,1,384.999988250733
114,284,314225,6,0,P|147:285|201:263,1,60.5000018463135,8|0,0:0|0:0,0:0:0:0:
410,276,314398,2,0,P|377:277|323:255,1,60.5000018463135,0|0,0:0|0:0,0:0:0:0:
259,192,314570,6,0,B|244:29|244:29|301:121,1,247.500009441376,0|0,0:0|0:0,0:0:0:0:
265,280,314915,1,8,0:0:0:0:
426,149,315088,2,0,L|351:155,1,60.5000018463135,0|0,0:0|0:0,0:0:0:0:
159,182,315260,6,0,B|59:190|59:190|1:158|1:158|92:150,1,230.99999295044,0|0,0:0|0:0,0:0:0:0:
173,277,315605,1,8,0:0:0:0:
170,81,315777,1,0,0:0:0:0:
208,77,315863,1,0,0:0:0:0:
246,75,315950,6,0,B|310:69|310:69|352:38|352:38|397:61|397:61|477:54,1,230.99999295044,0|0,0:0|0:0,0:0:0:0:
362,134,316294,1,8,0:0:0:0:
512,310,316467,2,0,L|447:304,1,60.5000018463135,0|0,0:0|0:0,0:0:0:0:
304,287,316639,6,0,B|250:282|250:282|212:251|212:251|134:245|134:245|207:306,1,230.99999295044,0|0,0:0|0:0,0:0:0:0:
289,207,316984,1,8,0:0:0:0:
289,207,317070,2,0,L|352:212,2,60.5000018463135,0|0|0,0:0|0:0|0:0,0:0:0:0:
143,167,317329,6,0,B|2:154|2:154|74:135,1,214.49999018097,0|0,0:0|0:0,0:0:0:0:
232,122,317674,1,8,0:0:0:0:
427,249,317846,2,0,B|432:190|432:190|401:142|401:142|409:50|409:50|485:23|485:23|476:131,1,384.999988250733,0|0,0:0|0:0,0:0:0:0:
349,212,318363,1,8,0:0:0:0:
349,212,318536,1,0,0:0:0:0:
242,86,318708,6,0,B|276:94|276:94|312:120,1,60.5000018463135,0|0,0:0|0:0,0:0:0:0:
238,327,318881,2,0,B|272:319|272:319|308:293,1,60.5000018463135,0|0,0:0|0:0,0:0:0:0:
349,212,319053,1,8,0:0:0:0:
183,197,319398,1,0,0:0:0:0:
441,137,319743,6,0,B|434:190|434:190|444:231|444:231|425:265|425:265|415:344,1,197.99999395752,8|0,0:0|0:0,0:0:0:0:
349,212,320088,2,0,L|289:206,1,55,0|0,0:0|0:0,0:0:0:0:
183,197,320260,1,0,0:0:0:0:
263,116,320432,5,8,0:0:0:0:
88,251,320605,1,0,0:0:0:0:
76,215,320691,1,0,0:0:0:0:
75,179,320777,1,0,0:0:0:0:
88,146,320863,1,0,0:0:0:0:
107,117,320949,1,0,0:0:0:0:
298,68,321122,6,0,P|272:97|259:136,1,60.5000018463135,8|0,0:0|0:0,0:0:0:0:
64,77,321294,2,0,P|96:101|115:138,1,60.5000018463135,0|0,0:0|0:0,0:0:0:0:
188,227,321467,6,0,B|200:363|200:363|166:306,1,197.99999395752,0|0,0:0|0:0,0:0:0:0:
153,290,321812,1,8,0:0:0:0:
309,332,321984,5,0,0:0:0:0:
343,348,322070,1,0,0:0:0:0:
378,356,322156,1,0,0:0:0:0:
413,349,322243,1,0,0:0:0:0:
446,335,322329,1,0,0:0:0:0:
380,261,322501,6,0,L|387:193,1,55,8|0,0:0|0:0,0:0:0:0:
399,54,322674,2,0,L|404:0,1,55,0|0,0:0|0:0,0:0:0:0:
492,130,322846,6,0,B|433:125|433:125|392:135|392:135|353:118|353:118|286:112,1,197.99999395752,0|0,0:0|0:0,0:0:0:0:
272,111,323191,1,8,0:0:0:0:
120,204,323363,1,0,0:0:0:0:
120,204,323449,2,0,L|128:128,1,55,0|0,0:0|0:0,0:0:0:0:
255,288,323622,1,0,0:0:0:0:
255,288,323708,2,0,L|263:365,1,55,0|0,0:0|0:0,0:0:0:0:
135,296,323881,6,0,P|105:298|71:287,1,60.5000018463135,8|0,0:0|0:0,0:0:0:0:
229,195,324053,2,0,P|264:193|296:204,1,60.5000018463135,0|0,0:0|0:0,0:0:0:0:
432,297,324225,6,0,P|447:324|374:301,1,197.99999395752,0|0,0:0|0:0,0:0:0:0:
386,277,324570,1,8,0:0:0:0:
488,180,324743,5,0,0:0:0:0:
492,142,324829,1,0,0:0:0:0:
494,103,324915,2,0,L|500:38,2,49.4999984893799,0|0|0,0:0|0:0|0:0,0:0:0:0:
358,184,325173,1,0,0:0:0:0:
358,184,325259,2,0,L|363:135,1,49.4999984893799,8|0,0:0|0:0,0:0:0:0:
262,40,325432,2,0,L|258:90,1,49.4999984893799,0|0,0:0|0:0,0:0:0:0:
250,219,325605,2,0,L|246:269,2,49.4999984893799,0|0|0,0:0|0:0|0:0,0:0:0:0:
262,40,325950,5,8,0:0:0:0:
54,135,326122,1,0,0:0:0:0:
86,155,326208,1,0,0:0:0:0:
121,168,326294,1,0,0:0:0:0:
157,164,326380,1,0,0:0:0:0:
192,153,326467,1,0,0:0:0:0:
11,291,326639,6,0,P|36:272|55:241,1,60.5000018463135,8|0,0:0|0:0,0:0:0:0:
261,289,326812,2,0,P|236:270|217:239,1,60.5000018463135,0|0,0:0|0:0,0:0:0:0:
121,168,326984,6,0,B|108:33|108:33|145:79,1,181.500005538941,0|0,0:0|0:0,0:0:0:0:
156,89,327329,1,8,0:0:0:0:
315,175,327501,5,0,0:0:0:0:
349,185,327587,1,0,0:0:0:0:
387,189,327674,1,0,0:0:0:0:
422,183,327760,1,0,0:0:0:0:
454,166,327846,1,0,0:0:0:0:
230,151,328018,6,0,P|228:184|236:212,1,60.5000018463135,8|0,0:0|0:0,0:0:0:0:
389,278,328191,1,0,0:0:0:0:
393,315,328277,1,0,0:0:0:0:
397,358,328363,6,0,B|339:374|339:374|296:364|296:364|252:380|252:380|163:369,1,214.49999018097
164,368,328708,1,8,0:0:0:0:
80,249,328881,2,0,L|86:184,1,60.5000018463135,0|0,0:0|0:0,0:0:0:0:
45,74,329053,6,0,B|96:47|152:81|152:81|207:115|291:72,1,214.49999018097,0|0,0:0|0:0,0:0:0:0:
274,79,329398,1,8,0:0:0:0:
274,79,329570,1,0,0:0:0:0:
171,181,329743,2,0,B|160:311|160:311|194:257,1,181.500005538941,0|0,0:0|0:0,0:0:0:0:
251,207,330088,6,0,B|308:201|308:201|363:217,1,110,8|0,0:0|0:0,0:0:0:0:
405,290,330346,2,0,B|456:306|456:306|513:299,1,110,0|0,0:0|0:0,0:0:0:0:
468,204,330605,1,0,0:0:0:0:
300,298,330777,2,0,L|296:354,2,55,8|0|0,0:0|0:0|0:0,0:0:0:0:
414,83,331122,6,0,B|354:78|354:78|320:57|320:57|285:72|285:72|187:64,1,197.99999395752
200,64,331467,1,8,0:0:0:0:
311,144,331639,1,0,0:0:0:0:
308,181,331725,1,0,0:0:0:0:
305,218,331812,1,0,0:0:0:0:
302,255,331898,1,0,0:0:0:0:
300,292,331984,1,0,0:0:0:0:
456,232,332156,6,0,P|425:225|391:232,1,60.5000018463135,8|0,0:0|0:0,0:0:0:0:
325,377,332329,2,0,P|294:381|266:376,1,60.5000018463135,0|0,0:0|0:0,0:0:0:0:
193,207,332501,6,0,B|143:187|84:193|52:220|52:220|75:241|127:233,1,197.99999395752,0|0,0:0|0:0,0:0:0:0:
126,232,332846,1,8,0:0:0:0:
239,54,333018,5,0,0:0:0:0:
272,36,333105,1,0,0:0:0:0:
307,26,333191,1,0,0:0:0:0:
344,33,333277,1,0,0:0:0:0:
377,48,333363,1,0,0:0:0:0:
310,117,333536,6,0,L|316:182,1,55,8|0,0:0|0:0,0:0:0:0:
331,330,333708,2,0,L|337:394,1,55,0|0,0:0|0:0,0:0:0:0:
424,252,333881,6,0,B|357:258|357:258|324:244|324:244|291:263|291:263|234:267,1,197.99999395752,0|0,0:0|0:0,0:0:0:0:
213,270,334225,1,8,0:0:0:0:
47,199,334398,5,0,0:0:0:0:
47,199,334484,2,0,L|42:265,1,55,0|0,0:0|0:0,0:0:0:0:
175,105,334656,1,0,0:0:0:0:
175,105,334742,2,0,L|170:40,1,55,0|0,0:0|0:0,0:0:0:0:
68,111,334915,6,0,P|35:106|0:116,1,60.5000018463135,8|0,0:0|0:0,0:0:0:0:
149,184,335087,2,0,P|182:189|217:179,1,60.5000018463135,0|0,0:0|0:0,0:0:0:0:
342,73,335260,6,0,P|358:36|295:77,1,197.99999395752,0|0,0:0|0:0,0:0:0:0:
298,89,335605,1,8,0:0:0:0:
463,187,335777,5,0,0:0:0:0:
467,227,335863,1,0,0:0:0:0:
470,267,335949,2,0,L|476:333,2,49.4999984893799,0|0|0,0:0|0:0|0:0,0:0:0:0:
347,165,336208,1,0,0:0:0:0:
347,165,336294,2,0,L|354:241,1,49.4999984893799,8|0,0:0|0:0,0:0:0:0:
267,341,336467,2,0,L|263:292,1,49.4999984893799,0|0,0:0|0:0,0:0:0:0:
247,131,336639,6,0,B|187:128|187:128|132:145,1,115.49999647522,0|0,0:0|0:0,0:0:0:0:
107,152,336984,1,8,0:0:0:0:
251,21,337156,5,0,0:0:0:0:
288,24,337243,1,0,0:0:0:0:
325,27,337329,1,0,0:0:0:0:
362,30,337415,1,0,0:0:0:0:
399,33,337501,1,0,0:0:0:0:
347,165,337674,6,0,L|341:94,1,60.5000018463135,8|0,0:0|0:0,0:0:0:0:
483,29,337846,2,0,L|490:101,1,60.5000018463135,0|0,0:0|0:0,0:0:0:0:
451,232,338018,6,0,B|393:238|393:238|355:257|355:257|314:245|314:245|245:251,1,197.99999395752,0|0,0:0|0:0,0:0:0:0:
234,252,338363,1,8,0:0:0:0:
75,197,338536,5,0,0:0:0:0:
65,231,338622,1,0,0:0:0:0:
65,267,338708,1,0,0:0:0:0:
76,301,338794,1,0,0:0:0:0:
94,332,338880,1,0,0:0:0:0:
171,201,339053,2,0,P|171:171|148:128,1,60.5000018463135,8|0,0:0|0:0,0:0:0:0:
63,23,339225,1,0,0:0:0:0:
104,28,339312,1,0,0:0:0:0:
147,33,339398,6,0,B|200:51|200:51|254:41|254:41|301:59|301:59|374:44,1,214.49999018097,0|0,0:0|0:0,0:0:0:0:
379,42,339743,1,8,0:0:0:0:
246,127,339915,2,0,B|260:281|260:281|296:194,1,214.49999018097,0|0,0:0|0:0,0:0:0:0:
292,201,340260,1,0,0:0:0:0:
148,340,340432,2,0,B|210:346|210:346|253:366|253:366|302:354|302:354|391:362,1,214.49999018097,8|0,0:0|0:0,0:0:0:0:
465,353,340777,6,0,B|461:301|461:301|434:274|434:274|426:179,1,165,0|0,0:0|0:0,0:0:0:0:
425,172,341122,1,8,0:0:0:0:
246,74,341294,6,0,L|246:20,2,55,0|0|0,0:0|0:0|0:0,0:0:0:0:
312,159,341812,2,0,B|254:179|254:179|128:149,1,165,8|0,0:0|0:0,0:0:0:0:
7,85,342156,6,0,B|-13:55|-12:20|15:8|15:8|55:37|62:115|25:177,1,247.500009441376,0|0,0:0|0:0,0:0:0:0:
142,49,342501,1,8,0:0:0:0:
38,274,342760,5,0,0:0:0:0:
38,274,342846,2,0,B|85:299|85:299|178:307,1,121.000003692627,0|0,0:0|0:0,0:0:0:0:
362,316,343191,1,8,0:0:0:0:
265,196,343363,2,0,L|259:126,1,65.9999979858399,0|0,0:0|0:0,0:0:0:0:
142,49,343536,6,0,B|204:63|204:63|252:41|252:41|305:54|305:54|371:31,1,230.99999295044,0|0,0:0|0:0,0:0:0:0:
260,131,343880,1,8,0:0:0:0:
433,200,344053,2,0,B|438:254|438:254|415:297|415:297|421:363|421:363|492:379|492:379|484:285,1,307.999990600586,0|0,0:0|0:0,0:0:0:0:
349,230,344484,1,0,0:0:0:0:
349,230,344570,2,0,L|345:164,1,60.5000018463135,8|0,0:0|0:0,0:0:0:0:
497,90,344743,2,0,B|507:124|507:124|503:162,1,71.4999967269899,0|0,0:0|0:0,0:0:0:0:
390,325,344915,6,0,B|318:319|318:319|275:291|275:291|229:310|229:310|118:301,1,247.500009441376,0|0,0:0|0:0,0:0:0:0:
30,334,345260,2,0,L|38:251,1,65.9999979858399,8|0,0:0|0:0,0:0:0:0:
15,99,345432,6,0,B|97:107|97:107|133:159|133:159|222:167|222:167|266:100|266:100|146:87,1,384.999988250733,0|0,0:0|0:0,0:0:0:0:
43,181,345949,1,8,0:0:0:0:
43,181,346208,6,0,B|33:306|33:306|71:255,1,176,0|0,0:0|0:0,0:0:0:0:
167,162,346639,1,8,0:0:0:0:
264,340,346812,5,0,0:0:0:0:
264,340,346898,1,0,0:0:0:0:
217,339,346984,1,0,0:0:0:0:
170,336,347070,1,0,0:0:0:0:
123,332,347156,1,0,0:0:0:0:
357,290,347329,6,0,L|364:221,1,60.5000018463135,8|0,0:0|0:0,0:0:0:0:
378,70,347501,2,0,L|385:1,1,60.5000018463135,0|0,0:0|0:0,0:0:0:0:
507,182,347674,6,0,B|466:157|421:174|421:174|371:147|371:147|309:174|241:134,1,247.500009441376,0|0,0:0|0:0,0:0:0:0:
437,213,348018,1,8,0:0:0:0:
287,53,348191,2,0,L|213:60,1,65.9999979858399,0|0,0:0|0:0,0:0:0:0:
35,49,348363,6,0,B|40:95|40:95|63:140|63:140|39:208|39:208|33:133,1,230.99999295044,0|0,0:0|0:0,0:0:0:0:
132,66,348708,1,8,0:0:0:0:
6,297,348880,1,0,0:0:0:0:
45,293,348967,1,0,0:0:0:0:
84,289,349053,6,0,B|254:274|254:274|188:250,1,230.99999295044,0|0,0:0|0:0,0:0:0:0:
141,374,349398,1,8,0:0:0:0:
338,289,349570,2,0,L|333:229,1,60.5000018463135,0|0,0:0|0:0,0:0:0:0:
426,108,349743,6,0,B|367:132|367:132|322:114|322:114|281:140|281:140|208:119,1,230.99999295044,0|0,0:0|0:0,0:0:0:0:
34,34,350087,1,8,0:0:0:0:
34,34,350174,2,0,L|40:99,2,60.5000018463135,0|0|0,0:0|0:0|0:0,0:0:0:0:
7,251,350432,6,0,B|83:245|83:245|122:214|122:214|222:206,1,214.49999018097,0|0,0:0|0:0,0:0:0:0:
48,167,350777,1,8,0:0:0:0:
182,302,350949,6,0,B|253:296|253:296|300:313|300:313|342:289|342:289|427:281|427:281|392:341|392:341|311:348,1,384.999988250733,0|0,0:0|0:0,0:0:0:0:
287,197,351467,1,8,0:0:0:0:
287,197,351639,1,0,0:0:0:0:
430,119,351812,6,0,B|423:150|423:150|405:172,1,60.5000018463135,0|0,0:0|0:0,0:0:0:0:
167,172,351984,2,0,B|149:151|149:151|142:119,1,60.5000018463135,0|0,0:0|0:0,0:0:0:0:
291,5,352156,1,8,0:0:0:0:
212,248,352329,5,0,0:0:0:0:
212,248,352415,2,0,L|206:317,1,60.5000018463135,0|0,0:0|0:0,0:0:0:0:
361,252,352587,1,0,0:0:0:0:
361,252,352673,2,0,L|368:321,1,60.5000018463135,0|0,0:0|0:0,0:0:0:0:
257,105,352846,6,0,P|293:178|330:106,1,197.99999395752,8|0,0:0|0:0,0:0:0:0:
162,44,353191,6,0,B|108:13|33:14|-4:36|-4:36|29:73|84:59,1,247.500009441376,0|0,0:0|0:0,0:0:0:0:
237,11,353536,1,8,0:0:0:0:
55,180,353794,5,0,0:0:0:0:
55,180,353880,2,0,B|45:227|45:227|54:324,1,121.000003692627,0|0,0:0|0:0,0:0:0:0:
196,384,354139,1,0,0:0:0:0:
196,384,354226,1,8,0:0:0:0:
130,231,354398,2,0,L|199:225,1,65.9999979858399,0|0,0:0|0:0,0:0:0:0:
382,202,354570,6,0,B|454:196|454:196|510:157|510:157|473:124|473:124|414:130,1,230.99999295044,0|0,0:0|0:0,0:0:0:0:
512,258,354915,1,8,0:0:0:0:
349,130,355087,6,0,B|293:135|293:135|256:158|256:158|209:142|209:142|130:149|130:149|207:192,1,307.999990600586,0|0,0:0|0:0,0:0:0:0:
243,62,355518,1,0,0:0:0:0:
243,62,355605,2,0,L|249:-5,1,60.5000018463135,8|0,0:0|0:0,0:0:0:0:
431,97,355777,2,0,B|436:136|436:136|424:182,1,71.4999967269899,0|0,0:0|0:0,0:0:0:0:
275,284,355949,6,0,B|199:291|199:291|154:328|154:328|58:337,1,214.49999018097,0|0,0:0|0:0,0:0:0:0:
266,384,356294,1,8,0:0:0:0:
116,238,356467,6,0,B|91:180|106:117|106:117|123:53|97:1|46:6|46:6|-2:85|81:135|174:88,1,467.500008916855
279,96,356984,2,0,B|339:91|372:37|372:37|409:85|490:78,1,214.49999018097,8|0,0:0|0:0,0:0:0:0:
381,152,357329,5,0,0:0:0:0:
213,40,357501,1,0,0:0:0:0:
183,225,357674,2,0,L|254:219,1,60.5000018463135,8|0,0:0|0:0,0:0:0:0:
463,177,357846,6,0,B|469:244|469:244|430:331|430:331|363:293|363:293|388:230|388:230|380:143,1,384.999988250733
351,23,358363,6,0,P|318:25|286:40,1,60.5000018463135,8|0,0:0|0:0,0:0:0:0:
72,27,358536,2,0,P|105:29|137:44,1,60.5000018463135,0|0,0:0|0:0,0:0:0:0:
210,123,358708,6,0,B|225:291|225:291|177:216,1,247.500009441376,0|0,0:0|0:0,0:0:0:0:
213,40,359053,1,8,0:0:0:0:
30,167,359225,2,0,L|96:162,1,60.5000018463135,0|0,0:0|0:0,0:0:0:0:
288,146,359398,6,0,B|354:141|354:141|398:162|398:162|444:133|444:133|519:126,1,230.99999295044,0|0,0:0|0:0,0:0:0:0:
392,59,359743,1,8,0:0:0:0:
337,232,359915,1,0,0:0:0:0:
339,269,360001,1,0,0:0:0:0:
342,305,360087,6,0,B|307:315|269:299|269:299|239:320|239:320|185:287|111:311,1,230.99999295044,0|0,0:0|0:0,0:0:0:0:
281,384,360432,1,8,0:0:0:0:
114,229,360605,2,0,L|120:164,1,60.5000018463135,0|0,0:0|0:0,0:0:0:0:
116,3,360777,6,0,B|173:8|173:8|204:38|204:38|285:45|285:45|244:-4,1,230.99999295044,0|0,0:0|0:0,0:0:0:0:
127,88,361122,1,8,0:0:0:0:
127,88,361208,2,0,L|59:82,2,60.5000018463135,0|0|0,0:0|0:0|0:0,0:0:0:0:
285,131,361467,6,0,B|383:140|383:140|436:113|436:113|342:104,1,214.49999018097,0|0,0:0|0:0,0:0:0:0:
206,122,361812,1,8,0:0:0:0:
286,287,361984,6,0,B|216:281|216:281|191:288|191:288|167:277|167:277|104:272|104:272|139:201|139:201|181:205|181:205|198:211|198:211|215:208|215:208|276:213,1,384.999988250733,0|0,0:0|0:0,0:0:0:0:
389,221,362501,1,8,0:0:0:0:
389,221,362674,1,0,0:0:0:0:
512,96,362846,6,0,B|504:129|504:129|482:164,1,60.5000018463135,0|0,0:0|0:0,0:0:0:0:
282,78,363018,2,0,B|285:112|285:112|295:137,1,60.5000018463135,0|0,0:0|0:0,0:0:0:0:
389,221,363191,1,2,0:0:0:0:
404,47,363536,1,2,0:0:0:0:
473,307,363880,6,0,B|413:302|413:302|381:310|381:310|353:297|353:297|287:291,1,181.500005538941,8|0,0:0|0:0,0:0:0:0:
185,334,364225,6,0,B|192:247|192:247|222:215|222:215|230:127,1,197.99999395752,0|0,0:0|0:0,0:0:0:0:
231,118,364570,1,8,0:0:0:0:
0,96,364743,1,0,0:0:0:0:
37,100,364829,1,0,0:0:0:0:
73,103,364915,1,0,0:0:0:0:
109,106,365001,1,0,0:0:0:0:
145,109,365087,1,0,0:0:0:0:
57,1,365260,6,0,P|91:0|119:12,1,60.5000018463135,8|0,0:0|0:0,0:0:0:0:
52,205,365432,2,0,P|86:205|114:193,1,60.5000018463135,0|0,0:0|0:0,0:0:0:0:
231,118,365605,6,0,B|378:131|378:131|321:154,1,197.99999395752,0|0,0:0|0:0,0:0:0:0:
302,166,365949,1,8,0:0:0:0:
473,47,366122,1,0,0:0:0:0:
492,76,366208,1,0,0:0:0:0:
502,110,366294,1,0,0:0:0:0:
504,146,366381,1,0,0:0:0:0:
494,181,366467,1,0,0:0:0:0:
354,298,366639,6,0,L|299:293,1,55,8|0,0:0|0:0,0:0:0:0:
135,277,366812,1,0,0:0:0:0:
199,371,366984,6,0,B|203:321|203:321|220:287|220:287|208:247|208:247|214:184,1,181.500005538941,0|0,0:0|0:0,0:0:0:0:
218,165,367329,1,8,0:0:0:0:
90,9,367501,6,0,B|84:71|84:71|109:120|109:120|103:183|103:183|48:240|48:240|57:142,1,329.9999899292,0|0,0:0|0:0,0:0:0:0:
56,143,368019,1,8,0:0:0:0:
342,85,368277,5,0,0:0:0:0:
342,85,368363,2,0,L|346:35,2,49.4999984893799,0|0|0,0:0|0:0|0:0,0:0:0:0:
326,234,368708,1,8,0:0:0:0:
283,154,368881,6,0,B|239:147|239:147|195:162|195:162|136:167|136:167|155:130|155:130|201:126,1,220
216,125,369398,1,8,0:0:0:0:
216,125,369570,1,0,0:0:0:0:
249,294,369743,6,0,B|192:299|192:299|157:318|157:318|120:307|120:307|56:312,1,197.99999395752
29,317,370087,1,8,0:0:0:0:
149,229,370260,1,0,0:0:0:0:
144,194,370346,1,0,0:0:0:0:
141,158,370432,1,0,0:0:0:0:
137,122,370518,1,0,0:0:0:0:
134,86,370605,1,0,0:0:0:0:
0,153,370777,6,0,P|35:158|68:147,1,60.5000018463135,8|0,0:0|0:0,0:0:0:0:
94,12,370949,2,0,P|125:1|162:6,1,60.5000018463135,0|0,0:0|0:0,0:0:0:0:
263,146,371122,6,0,B|340:141|340:141|373:158|373:158|471:149,1,197.99999395752,0|0,0:0|0:0,0:0:0:0:
487,147,371467,1,8,0:0:0:0:
320,226,371639,5,0,0:0:0:0:
307,262,371725,1,0,0:0:0:0:
303,299,371811,1,0,0:0:0:0:
312,336,371898,1,0,0:0:0:0:
332,366,371984,1,0,0:0:0:0:
462,294,372156,6,0,P|431:283|400:286,1,60.5000018463135,8|0,0:0|0:0,0:0:0:0:
227,326,372329,1,0,0:0:0:0:
190,323,372415,1,0,0:0:0:0:
154,318,372501,6,0,B|158:268|158:268|183:227|183:227|191:138,1,181.500005538941,0|0,0:0|0:0,0:0:0:0:
194,116,372846,1,8,0:0:0:0:
87,16,373018,2,0,L|76:137,1,121.000003692627
202,26,373363,6,0,L|265:32,1,55
361,39,373536,1,8,0:0:0:0:
361,39,373708,1,0,0:0:0:0:
467,158,373880,6,0,B|478:287|478:287|439:222,1,181.500005538941,0|0,0:0|0:0,0:0:0:0:
385,180,374225,2,0,B|328:170|328:170|271:180,1,110,8|0,0:0|0:0,0:0:0:0:
242,290,374484,2,0,B|190:300|190:300|133:290,1,110,0|0,0:0|0:0,0:0:0:0:
190,203,374743,1,0,0:0:0:0:
333,263,374915,2,0,L|337:318,2,55,8|0|0,0:0|0:0|0:0,0:0:0:0:
351,67,375260,6,0,P|354:29|298:82,1,197.99999395752,0|0,0:0|0:0,0:0:0:0:
321,94,375605,1,8,0:0:0:0:
174,182,375777,5,0,0:0:0:0:
140,197,375863,1,0,0:0:0:0:
104,205,375949,1,0,0:0:0:0:
67,200,376036,1,0,0:0:0:0:
36,180,376122,1,0,0:0:0:0:
99,61,376294,6,0,L|104:122,1,60.5000018463135,8|0,0:0|0:0,0:0:0:0:
120,282,376467,2,0,L|125:343,1,60.5000018463135,0|0,0:0|0:0,0:0:0:0:
253,162,376639,2,0,B|310:168|310:168|351:154|351:154|388:174|388:174|457:180,1,197.99999395752,0|0,0:0|0:0,0:0:0:0:
474,181,376984,1,8,0:0:0:0:
343,236,377156,5,0,0:0:0:0:
339,273,377243,1,0,0:0:0:0:
336,310,377329,1,0,0:0:0:0:
333,347,377415,1,0,0:0:0:0:
330,384,377501,1,0,0:0:0:0:
475,334,377674,6,0,L|407:329,1,60.5000018463135,8|0,0:0|0:0,0:0:0:0:
254,317,377846,1,0,0:0:0:0:
343,236,378018,6,0,B|344:209|344:209|357:187|357:187|363:109,1,121.000003692627,0|0,0:0|0:0,0:0:0:0:
372,16,378277,1,0,0:0:0:0:
372,16,378363,1,8,0:0:0:0:
276,156,378536,6,0,B|202:150|202:150|167:115|167:115|91:108|91:108|48:149|48:149|144:157,1,329.9999899292
146,156,379053,1,8,0:0:0:0:
293,323,379311,5,0,0:0:0:0:
293,323,379398,2,0,L|299:393,2,55,0|0|0,0:0|0:0|0:0,0:0:0:0:
276,156,379743,1,8,0:0:0:0:
417,227,379915,5,0,0:0:0:0:
417,227,380001,1,0,0:0:0:0:
374,232,380087,1,0,0:0:0:0:
330,236,380174,1,0,0:0:0:0:
287,239,380260,1,0,0:0:0:0:
89,116,380432,6,0,L|96:198,1,55,8|0,0:0|0:0,0:0:0:0:
109,330,380605,2,0,L|116:411,1,55,0|0,0:0|0:0,0:0:0:0:
2,268,380777,6,0,B|67:263|67:263|100:244|100:244|136:257|136:257|200:251,1,197.99999395752,0|0,0:0|0:0,0:0:0:0:
215,249,381122,1,8,0:0:0:0:
420,157,381294,5,0,0:0:0:0:
387,142,381380,1,0,0:0:0:0:
352,138,381466,1,0,0:0:0:0:
316,147,381553,1,0,0:0:0:0:
286,166,381639,1,0,0:0:0:0:
334,0,381811,6,0,L|340:74,1,60.5000018463135,8|0,0:0|0:0,0:0:0:0:
354,226,381984,2,0,L|360:300,1,60.5000018463135,0|0,0:0|0:0,0:0:0:0:
187,161,382156,6,0,B|44:149|44:149|116:131,1,197.99999395752,0|0,0:0|0:0,0:0:0:0:
123,129,382501,1,8,0:0:0:0:
203,290,382674,5,0,0:0:0:0:
167,293,382760,1,0,0:0:0:0:
131,296,382846,1,0,0:0:0:0:
95,300,382932,1,0,0:0:0:0:
60,303,383018,1,0,0:0:0:0:
280,320,383191,6,0,P|285:292|280:260,1,60.5000018463135,8|0,0:0|0:0,0:0:0:0:
202,130,383363,1,0,0:0:0:0:
195,89,383449,1,0,0:0:0:0:
202,47,383536,6,0,B|259:47|259:47|290:32|290:32|327:48|327:48|391:48,1,181.500005538941,0|0,0:0|0:0,0:0:0:0:
407,49,383880,1,8,0:0:0:0:
305,248,384053,6,0,B|292:111|292:111|329:172,1,197.99999395752,0|0,0:0|0:0,0:0:0:0:
340,183,384398,1,0,0:0:0:0:
192,231,384570,2,0,B|125:244|125:244|54:231,1,131.99999597168,8|0,0:0|0:0,0:0:0:0:
124,9,384915,6,0,B|127:51|127:51|116:75|116:75|123:158,1,132,0|0,0:0|0:0,0:0:0:0:
126,166,385260,1,8,0:0:0:0:
235,44,385432,5,0,0:0:0:0:
235,44,385518,2,0,B|290:35|290:35|357:47,1,110,0|0,0:0|0:0,0:0:0:0:
423,62,385777,1,8,0:0:0:0:
300,218,385949,5,0,0:0:0:0:
300,218,386036,2,0,L|290:119,1,98.9999969787599,0|4,0:0|0:0,0:0:0:0:
