osu file format v14

[General]
AudioFilename: audio.mp3
AudioLeadIn: 0
PreviewTime: 86565
Countdown: 0
SampleSet: Soft
StackLeniency: 0.2
Mode: 0
LetterboxInBreaks: 0
WidescreenStoryboard: 0

[Editor]
Bookmarks: 100,22168,44237,66306,77341,88375,110444,132513,154582,160444,173893,198720,220789,231824,242858,286996,309065,328375,331134,350444
DistanceSpacing: 0.5
BeatDivisor: 4
GridSize: 32
TimelineZoom: 3.099999

[Metadata]
Title:Dark Eyes
TitleUnicode:Dark Eyes
Artist:Rusty K
ArtistUnicode:Rusty K
Creator:Mir
Version:Nightfall
Source:
Tags:dnb neurofunk dark over overtech otm001 drum and bass
BeatmapID:1383338
BeatmapSetID:652397

[Difficulty]
HPDrainRate:6
CircleSize:4
OverallDifficulty:8.5
ApproachRate:9.3
SliderMultiplier:2
SliderTickRate:1

[Events]
//Background and Video events
0,0,"dark eyes.jpg",0,0
//Break Periods
2,85472,87821
2,239955,242304
//Storyboard Layer 0 (Background)
//Storyboard Layer 1 (Fail)
//Storyboard Layer 2 (Pass)
//Storyboard Layer 3 (Foreground)
//Storyboard Sound Samples

[TimingPoints]
100,344.827586206897,4,2,2,30,1,0
100,-500,4,2,2,30,0,0
44237,-133.333333333333,4,2,2,30,0,0
44927,-250,4,2,2,60,0,0
60100,-133.333333333333,4,2,2,60,0,0
60789,-250,4,2,2,60,0,0
66306,-500,4,2,2,60,0,0
77341,-100,4,2,2,60,0,0
78031,-500,4,2,2,60,0,0
80100,-100,4,2,2,60,0,0
80789,-500,4,2,2,60,0,0
82858,-100,4,2,2,60,0,0
83548,-500,4,2,2,60,0,0
88375,-100,4,2,1,100,0,1
89065,-83.3333333333333,4,2,1,100,0,1
91134,-100,4,2,1,100,0,1
91824,-83.3333333333333,4,2,1,100,0,1
93893,-100,4,2,1,100,0,1
94582,-83.3333333333333,4,2,1,100,0,1
96651,-100,4,2,1,100,0,1
99410,-100,4,2,1,100,0,1
100100,-83.3333333333333,4,2,1,100,0,1
102168,-100,4,2,1,100,0,1
102859,-83.3333333333333,4,2,1,100,0,1
104927,-100,4,2,1,100,0,1
105617,-83.3333333333333,4,2,1,100,0,1
107686,-100,4,2,1,100,0,1
110444,-100,4,2,1,80,0,0
111824,-83.3333333333333,4,2,1,80,0,0
112168,-100,4,2,1,80,0,0
112513,-83.3333333333333,4,2,1,80,0,0
112857,-100,4,2,1,80,0,0
114582,-83.3333333333333,4,2,1,80,0,0
114926,-100,4,2,1,80,0,0
115271,-83.3333333333333,4,2,1,80,0,0
115615,-200,4,2,1,80,0,0
115962,-100,4,2,1,80,0,0
117341,-83.3333333333333,4,2,1,80,0,0
117685,-100,4,2,1,80,0,0
118030,-83.3333333333333,4,2,1,80,0,0
118374,-100,4,2,1,80,0,0
120100,-83.3333333333333,4,2,1,80,0,0
120444,-100,4,2,1,80,0,0
120789,-200,4,2,1,80,0,0
121479,-100,4,2,1,80,0,0
122858,-76.9230769230769,4,2,1,80,0,0
123202,-100,4,2,1,80,0,0
123547,-76.9230769230769,4,2,1,80,0,0
123891,-100,4,2,1,80,0,0
125617,-76.9230769230769,4,2,1,80,0,0
125961,-100,4,2,1,80,0,0
126306,-76.9230769230769,4,2,1,80,0,0
126650,-133.333333333333,4,2,1,80,0,0
126996,-100,4,2,1,80,0,0
128375,-76.9230769230769,4,2,1,80,0,0
128719,-100,4,2,1,80,0,0
129064,-76.9230769230769,4,2,1,80,0,0
129408,-100,4,2,1,80,0,0
131479,-100,4,2,1,5,0,0
132513,-100,4,2,1,100,0,1
133203,-83.3333333333333,4,2,1,100,0,1
135272,-100,4,2,1,100,0,1
135962,-83.3333333333333,4,2,1,100,0,1
138031,-100,4,2,1,100,0,1
138720,-83.3333333333333,4,2,1,100,0,1
140789,-100,4,2,1,100,0,1
143548,-100,4,2,1,100,0,1
144237,-83.3333333333333,4,2,1,100,0,1
146306,-100,4,2,1,100,0,1
146997,-83.3333333333333,4,2,1,100,0,1
149065,-100,4,2,1,100,0,1
149755,-83.3333333333333,4,2,1,100,0,1
151824,-100,4,2,1,100,0,1
154582,-100,4,2,1,80,0,0
173893,-133.333333333333,4,2,1,60,0,0
175272,-133.333333333333,4,2,1,40,0,0
176651,-500,4,2,2,30,0,0
198720,-133.333333333333,4,2,1,60,0,0
199410,-200,4,2,1,60,0,0
200100,-133.333333333333,4,2,1,60,0,0
200789,-200,4,2,1,60,0,0
201479,-133.333333333333,4,2,1,60,0,0
202168,-200,4,2,1,60,0,0
202858,-133.333333333333,4,2,1,60,0,0
203548,-200,4,2,1,60,0,0
204237,-133.333333333333,4,2,1,60,0,0
204927,-200,4,2,1,60,0,0
205617,-133.333333333333,4,2,1,60,0,0
206306,-200,4,2,1,60,0,0
206996,-66.6666666666667,4,2,1,60,0,0
207082,-133.333333333333,4,2,1,5,0,0
207686,-200,4,2,1,60,0,0
208375,-133.333333333333,4,2,1,60,0,0
209065,-200,4,2,1,60,0,0
209755,-133.333333333333,4,2,1,60,0,0
210444,-200,4,2,1,60,0,0
211134,-133.333333333333,4,2,1,60,0,0
211824,-200,4,2,1,60,0,0
212513,-133.333333333333,4,2,1,60,0,0
213203,-200,4,2,1,60,0,0
213893,-133.333333333333,4,2,1,60,0,0
214583,-200,4,2,1,60,0,0
215272,-133.333333333333,4,2,1,60,0,0
215962,-200,4,2,1,60,0,0
216651,-133.333333333333,4,2,1,60,0,0
217341,-200,4,2,1,60,0,0
218031,-66.6666666666667,4,2,1,60,0,0
218117,-133.333333333333,4,2,1,5,0,0
218720,-200,4,2,1,60,0,0
219410,-133.333333333333,4,2,1,60,0,0
220100,-200,4,2,1,60,0,0
220789,-76.9230769230769,4,2,2,60,0,0
221479,-384.615384615385,4,2,2,60,0,0
223548,-76.9230769230769,4,2,2,60,0,0
224237,-384.615384615385,4,2,2,60,0,0
224927,-200,4,2,2,60,0,0
225617,-384.615384615385,4,2,2,60,0,0
226306,-76.9230769230769,4,2,2,60,0,0
226996,-384.615384615385,4,2,2,60,0,0
229065,-76.9230769230769,4,2,2,60,0,0
229755,-384.615384615385,4,2,2,60,0,0
231824,-100,4,2,2,60,0,0
232513,-500,4,2,2,60,0,0
234582,-100,4,2,2,60,0,0
235271,-500,4,2,2,60,0,0
237340,-100,4,2,2,60,0,0
238030,-500,4,2,2,60,0,0
242858,-100,4,2,1,100,0,1
243203,-83.3333333333333,4,2,1,100,0,1
244237,-100,4,2,1,100,0,1
244582,-83.3333333333333,4,2,1,100,0,1
245617,-100,4,2,1,100,0,1
245962,-83.3333333333333,4,2,1,100,0,1
246996,-133.333333333333,4,2,1,100,0,1
247341,-83.3333333333333,4,2,1,100,0,1
248375,-100,4,2,1,100,0,1
248720,-83.3333333333333,4,2,1,100,0,1
249755,-100,4,2,1,100,0,1
250100,-83.3333333333333,4,2,1,100,0,1
251134,-100,4,2,1,100,0,1
253893,-100,4,2,1,100,0,1
254237,-83.3333333333333,4,2,1,100,0,1
255272,-100,4,2,1,100,0,1
255617,-83.3333333333333,4,2,1,100,0,1
256651,-133.333333333333,4,2,1,100,0,1
256996,-83.3333333333333,4,2,1,100,0,1
258030,-100,4,2,1,100,0,1
258375,-83.3333333333333,4,2,1,100,0,1
259409,-100,4,2,1,100,0,1
259754,-83.3333333333333,4,2,1,100,0,1
260789,-100,4,2,1,100,0,1
261134,-83.3333333333333,4,2,1,100,0,1
262168,-100,4,2,1,100,0,1
264926,-100,4,2,1,100,0,1
265271,-83.3333333333333,4,2,1,100,0,1
266305,-100,4,2,1,100,0,1
266650,-83.3333333333333,4,2,1,100,0,1
267685,-100,4,2,1,100,0,1
268030,-83.3333333333333,4,2,1,100,0,1
269064,-100,4,2,1,100,0,1
269409,-83.3333333333333,4,2,1,100,0,1
270443,-100,4,2,1,100,0,1
270788,-83.3333333333333,4,2,1,100,0,1
271823,-100,4,2,1,100,0,1
272168,-83.3333333333333,4,2,1,100,0,1
273202,-100,4,2,1,100,0,1
275961,-100,4,2,1,100,0,1
276305,-83.3333333333333,4,2,1,100,0,1
277340,-100,4,2,1,100,0,1
277685,-83.3333333333333,4,2,1,100,0,1
278720,-100,4,2,1,100,0,1
279065,-83.3333333333333,4,2,1,100,0,1
280099,-100,4,2,1,100,0,1
280444,-83.3333333333333,4,2,1,100,0,1
281478,-100,4,2,1,100,0,1
281823,-83.3333333333333,4,2,1,100,0,1
282858,-100,4,2,1,100,0,1
283203,-83.3333333333333,4,2,1,100,0,1
284237,-100,4,2,1,100,0,1
286996,-100,4,2,1,80,0,0
288375,-83.3333333333333,4,2,1,80,0,0
288719,-100,4,2,1,80,0,0
289064,-83.3333333333333,4,2,1,80,0,0
289408,-100,4,2,1,80,0,0
291133,-83.3333333333333,4,2,1,80,0,0
291477,-100,4,2,1,80,0,0
291822,-83.3333333333333,4,2,1,80,0,0
292166,-200,4,2,1,80,0,0
292513,-100,4,2,1,80,0,0
293892,-83.3333333333333,4,2,1,80,0,0
294236,-100,4,2,1,80,0,0
294581,-83.3333333333333,4,2,1,80,0,0
294925,-100,4,2,1,80,0,0
296651,-83.3333333333333,4,2,1,80,0,0
296995,-100,4,2,1,80,0,0
297340,-200,4,2,1,80,0,0
298030,-100,4,2,1,80,0,0
299409,-76.9230769230769,4,2,1,80,0,0
299753,-100,4,2,1,80,0,0
300098,-76.9230769230769,4,2,1,80,0,0
300442,-100,4,2,1,80,0,0
302168,-76.9230769230769,4,2,1,80,0,0
302512,-100,4,2,1,80,0,0
302857,-76.9230769230769,4,2,1,80,0,0
303201,-133.333333333333,4,2,1,80,0,0
303547,-100,4,2,1,80,0,0
304926,-76.9230769230769,4,2,1,80,0,0
305270,-100,4,2,1,80,0,0
305615,-76.9230769230769,4,2,1,80,0,0
305959,-100,4,2,1,80,0,0
308030,-100,4,2,1,5,0,0
308375,-100,4,2,1,80,0,0
331133,-133.333333333333,4,2,1,60,0,0
331823,-200,4,2,1,60,0,0
332513,-133.333333333333,4,2,1,60,0,0
333203,-200,4,2,1,60,0,0
333893,-133.333333333333,4,2,1,60,0,0
334582,-200,4,2,1,60,0,0
335271,-133.333333333333,4,2,1,60,0,0
335961,-200,4,2,1,60,0,0
336650,-133.333333333333,4,2,1,60,0,0
337340,-200,4,2,1,60,0,0
338030,-133.333333333333,4,2,1,60,0,0
338720,-200,4,2,1,60,0,0
339409,-66.6666666666667,4,2,1,60,0,0
339495,-133.333333333333,4,2,1,5,0,0
340099,-200,4,2,1,60,0,0
340788,-133.333333333333,4,2,1,60,0,0
341478,-200,4,2,1,60,0,0
342168,-133.333333333333,4,2,1,60,0,0
342857,-200,4,2,1,60,0,0
343547,-133.333333333333,4,2,1,60,0,0
344237,-200,4,2,1,60,0,0
344926,-133.333333333333,4,2,1,60,0,0
345616,-200,4,2,1,60,0,0
346306,-133.333333333333,4,2,1,60,0,0
346996,-200,4,2,1,60,0,0
347685,-133.333333333333,4,2,1,60,0,0
348375,-200,4,2,1,60,0,0
349064,-133.333333333333,4,2,1,60,0,0
349754,-200,4,2,1,60,0,0
350444,-133.333333333333,4,2,1,60,0,0
351134,-200,4,2,1,60,0,0
351823,-133.333333333333,4,2,1,60,0,0
352513,-200,4,2,1,60,0,0
362858,-25,4,2,1,100,0,0
362944,-1000,4,2,1,100,0,0

[Colours]
Combo1 : 147,227,138
Combo2 : 125,125,125
Combo3 : 38,234,44
Combo4 : 185,189,183

[HitObjects]
230,149,100,6,0,L|227:192,2,40,2|0|0,0:2|0:2|0:2,0:2:0:0:
302,218,1479,2,0,L|305:261,2,40,2|0|0,0:2|0:2|0:2,0:2:0:0:
230,149,2858,2,0,L|227:192,2,40,2|0|0,0:2|0:2|0:2,0:2:0:0:
302,218,4237,2,0,L|305:261,2,40,2|0|0,0:2|0:2|0:2,0:2:0:0:
204,98,5617,22,0,P|178:94|156:95,2,40,2|0|0,0:2|0:2|0:2,0:2:0:0:
292,147,6996,2,0,P|318:151|340:150,2,40,2|0|0,0:2|0:2|0:2,0:2:0:0:
205,87,8375,2,0,P|179:83|157:84,2,40,2|0|0,0:2|0:2|0:2,0:2:0:0:
293,136,9754,2,0,P|319:140|341:139,2,40,2|0|0,0:2|0:2|0:2,0:2:0:0:
133,273,11134,22,0,L|129:316,2,40,2|0|0,0:2|0:2|0:2,0:2:0:0:
225,334,12513,2,0,L|229:377,2,40,2|0|0,0:2|0:2|0:2,0:2:0:0:
133,273,13893,2,0,L|129:316,2,40,2|0|0,0:2|0:2|0:2,0:2:0:0:
225,334,15272,2,0,L|229:377,2,40,2|0|0,0:2|0:2|0:2,0:2:0:0:
352,281,16651,22,0,P|378:277|400:278,2,40,2|0|0,0:2|0:2|0:2,0:2:0:0:
264,330,18030,2,0,P|238:334|216:333,2,40,2|0|0,0:2|0:2|0:2,0:2:0:0:
349,273,19410,2,0,P|375:269|397:270,2,40,2|0|0,0:2|0:2|0:2,0:2:0:0:
271,330,20444,1,0,0:0:0:0:
264,330,20789,1,2,0:2:0:0:
260,329,21134,1,2,0:2:0:0:
256,328,21479,1,2,0:2:0:0:
252,327,21824,1,2,0:2:0:0:
248,327,22168,22,0,P|206:345|102:311,3,160,6|2|2|2,0:2|0:2|0:2|0:2,0:2:0:0:
248,327,27686,21,2,0:2:0:0:
364,164,29065,2,0,P|406:182|510:148,3,160,2|2|2|2,0:2|0:2|0:2|3:2,0:2:0:0:
509,148,34582,21,2,0:2:0:0:
213,359,35962,1,2,3:2:0:0:
131,64,37341,1,2,0:2:0:0:
486,148,38720,21,2,3:2:0:0:
155,305,40100,2,0,P|194:322|300:283,3,160,2|2|2|2,0:2|0:2|0:2|3:2,0:2:0:0:
354,167,44927,22,0,L|216:159,1,133.333333333333,10|0,0:2|3:2,0:2:0:0:
207,159,45617,1,0,3:2:0:0:
207,159,46306,1,8,0:2:0:0:
207,159,47686,1,8,0:2:0:0:
207,159,48260,1,0,3:2:0:0:
197,168,48375,2,0,L|201:342,1,160,2|8,3:2|0:2,0:2:0:0:
201,354,49295,1,0,3:2:0:0:
95,235,49755,22,0,L|266:234,1,160,2|8,3:2|0:2,0:2:0:0:
254,234,51019,1,0,3:2:0:0:
247,222,51134,2,0,P|225:156|264:78,1,160,2|8,3:2|0:2,0:2:0:0:
263,78,53203,1,8,0:2:0:0:
263,78,53778,1,0,3:2:0:0:
252,69,53893,2,0,L|78:77,1,160,2|8,3:2|0:2,0:2:0:0:
116,164,55272,22,0,L|290:172,1,160,2|8,3:2|0:2,0:2:0:0:
275,171,56536,1,0,3:2:0:0:
284,180,56651,2,0,P|296:253|238:324,1,160,2|8,3:2|0:2,0:2:0:0:
222,328,57571,1,0,3:2:0:0:
222,328,58720,1,8,0:2:0:0:
222,328,59295,1,0,3:2:0:0:
211,320,59410,2,0,L|211:176,1,133.333333333333,2|0,3:2|0:2,0:2:0:0:
171,113,60100,22,0,B|110:116|110:116|154:132,1,100.000003814697,10|0,0:2|0:2,0:2:0:0:
261,118,60444,2,0,B|321:114|321:114|278:99,1,100.000003814697,0|0,0:2|0:2,0:2:0:0:
202,27,60789,22,0,L|32:36,1,160,2|8,3:2|0:2,0:2:0:0:
42,35,62054,1,0,3:2:0:0:
49,45,62168,2,0,P|82:130|36:186,1,160,2|8,3:2|0:2,0:2:0:0:
29,198,63088,1,0,3:2:0:0:
29,198,64237,1,8,0:2:0:0:
29,198,64812,1,0,3:2:0:0:
35,209,64927,21,2,3:2:0:0:
66,210,65272,1,0,0:0:0:0:
97,212,65617,1,0,0:0:0:0:
128,214,65962,1,0,0:0:0:0:
160,215,66306,22,0,P|218:247|306:217,3,160,2|2|2|2,3:2|0:2|3:2|0:2,0:2:0:0:
423,234,71824,22,0,P|365:266|277:236,3,160,2|2|2|2,3:2|0:2|3:2|0:2,0:2:0:0:
81,242,77341,38,0,L|280:239,1,200,0|0,3:2|0:2,0:2:0:0:
280,242,78031,6,2,L|81:245,1,200,2|0,0:2|0:2,0:2:0:0:
356,309,80100,38,0,P|371:204|303:143,1,200,0|0,3:2|0:2,0:2:0:0:
311,144,80789,38,2,P|377:213|355:313,1,200,2|0,0:2|0:2,0:2:0:0:
57,244,82858,6,0,B|210:236|210:236|289:256,1,200,0|0,3:2|0:2,0:2:0:0:
254,250,83548,6,2,B|209:239|209:239|56:247,1,200,2|0,0:2|0:2,0:2:0:0:
33,92,88375,6,0,B|101:74|155:114|155:114|127:118,1,150,4|0,3:2|0:2,0:2:0:0:
133,117,88720,2,0,P|128:141|131:166,1,50,8|0,0:2|0:2,0:2:0:0:
424,206,88979,1,2,3:2:0:0:
380,285,89065,22,0,P|334:212|372:134,1,179.999994506836,2|0,3:2|0:2,0:2:0:0:
506,97,89410,2,0,B|541:64|541:64|440:72|440:72|397:49|397:49|266:63,1,299.999990844727,8|0,0:2|0:2,0:2:0:0:
312,142,89927,2,0,L|371:134,1,59.9999981689454,0|0,3:2|0:2,0:2:0:0:
178,160,90100,2,2,B|150:106|150:106|163:23,1,119.999996337891,8|0,0:2|0:2,0:2:0:0:
224,241,90358,1,2,3:2:0:0:
224,241,90444,2,0,L|41:264,1,179.999994506836,2|0,3:2|0:2,0:2:0:0:
313,308,90789,2,0,B|322:337|322:337|306:387,1,59.9999981689454,8|0,0:2|0:2,0:2:0:0:
126,344,90962,1,0,3:2:0:0:
155,344,91048,1,0,3:2:0:0:
179,344,91134,22,0,B|58:361|58:361|105:377,1,150,0|0,3:2|0:2,0:2:0:0:
84,369,91479,2,0,P|59:352|58:371,1,50,8|0,0:2|0:2,0:2:0:0:
396,196,91737,1,2,3:2:0:0:
312,237,91824,22,0,B|378:229|378:229|423:245|423:245|510:237,1,179.999994506836,2|0,3:2|0:2,0:2:0:0:
289,312,92168,2,0,B|269:368|269:368|244:272|244:272|282:214|282:214|271:144|271:144|223:114|223:114|200:33,1,419.999987182618,8|0,0:0|0:0,0:0:0:0:
205,51,92858,2,0,P|276:43|309:2,1,119.999996337891,8|0,0:2|0:2,0:2:0:0:
126,16,93117,1,0,3:2:0:0:
114,43,93203,1,0,3:2:0:0:
103,71,93289,2,0,P|110:104|136:136,1,59.9999981689454,0|0,3:2|0:2,0:2:0:0:
136,296,93462,1,0,3:2:0:0:
147,268,93548,2,0,P|140:235|114:203,1,59.9999981689454,8|0,0:2|0:2,0:2:0:0:
46,321,93720,1,0,3:2:0:0:
53,349,93806,1,0,3:2:0:0:
70,372,93893,22,0,B|116:365|141:378|141:378|165:359|225:367,1,150,0|0,3:2|0:2,0:2:0:0:
216,366,94237,2,0,P|228:346|226:294,1,50,8|0,0:2|0:2,0:2:0:0:
252,115,94496,1,2,3:2:0:0:
176,171,94582,22,0,B|219:129|265:141|265:141|296:186|365:175,1,179.999994506836,2|0,3:2|0:2,0:2:0:0:
440,166,94927,2,0,P|347:167|358:335,1,299.999990844727,8|0,0:2|0:2,0:2:0:0:
353,333,95444,2,0,P|370:304|357:261,1,59.9999981689454,0|0,3:2|0:2,0:2:0:0:
175,171,95617,2,0,P|105:182|46:168,1,119.999996337891,8|0,0:2|0:2,0:2:0:0:
261,309,95875,1,0,3:2:0:0:
261,309,95962,2,0,B|324:326|386:295|386:295|344:319|351:374,1,179.999994506836,0|0,3:2|0:2,0:2:0:0:
154,320,96306,2,0,B|146:287|146:287|155:237,1,59.9999981689454,8|0,0:2|0:2,0:2:0:0:
279,155,96479,2,0,B|283:180|283:180|275:213,1,59.9999981689454,0|0,0:2|0:2,0:2:0:0:
132,45,96651,22,0,B|179:41|179:41|228:60|228:60|292:53,1,150,2|0,3:2|0:2,0:2:0:0:
367,94,96996,2,0,B|383:49|383:49|359:-30,1,100,10|0,0:2|0:2,0:2:0:0:
339,189,97255,1,0,3:2:0:0:
339,189,97341,2,0,B|367:193|367:193|411:188,1,50,2|0,0:2|0:2,3:2:0:0:
184,173,97513,2,0,B|156:169|156:169|112:174,1,50,2|0,0:2|0:2,0:2:0:0:
225,324,97686,2,0,B|242:356|242:356|245:242,1,150,10|0,0:2|0:2,0:2:0:0:
91,315,98031,22,0,P|156:348|225:324,1,150,2|0,3:2|0:2,0:2:0:0:
344,240,98375,2,0,B|305:239|305:239|282:246|282:246|246:243,1,100,10|0,0:2|0:2,0:2:0:0:
93,200,98634,1,0,3:2:0:0:
76,181,98720,1,0,3:2:0:0:
62,160,98806,1,0,3:2:0:0:
71,137,98893,1,0,3:2:0:0:
88,118,98979,1,0,3:2:0:0:
106,98,99065,2,0,B|137:84|157:93|157:93|209:127|247:93,1,150,10|0,0:2|0:2,0:2:0:0:
391,98,99410,22,0,B|341:77|341:77|247:93,1,150,4|0,3:2|0:2,0:2:0:0:
247,93,99755,2,0,L|246:14,1,50,8|0,0:2|0:2,0:2:0:0:
140,245,100013,1,2,3:2:0:0:
218,274,100100,22,0,B|357:273|357:273|303:303,1,179.999994506836,2|0,3:2|0:2,0:2:0:0:
152,327,100444,2,0,B|76:221|231:206|189:107|110:72|57:128|97:176,1,299.999990844727,8|0,0:2|0:2,0:2:0:0:
86,154,100962,2,0,P|69:113|73:85,1,59.9999981689454,0|0,3:2|0:2,0:2:0:0:
248,43,101134,2,0,P|274:97|248:190,1,119.999996337891,8|0,0:2|0:2,0:2:0:0:
152,327,101393,1,0,3:2:0:0:
152,327,101479,2,0,B|191:355|191:355|353:336,1,179.999994506836,0|0,3:2|0:2,0:2:0:0:
468,343,101824,2,0,B|437:325|437:325|383:330,1,59.9999981689454,8|0,0:2|0:2,0:2:0:0:
479,184,101996,1,0,3:2:0:0:
480,213,102082,1,0,3:2:0:0:
480,242,102168,22,0,B|467:263|467:263|468:131,1,150,0|0,3:2|0:2,0:2:0:0:
467,137,102513,2,0,P|480:165|459:176,1,50,8|0,0:2|0:2,0:2:0:0:
181,171,102772,1,2,3:2:0:0:
216,80,102858,22,0,P|264:136|266:210,1,150,2|0,3:2|0:2,0:2:0:0:
93,220,103203,2,0,B|158:243|213:230|223:171|320:160|378:216|378:216|335:192|297:184|231:231,1,419.999987182618,8|0,0:2|0:2,0:2:0:0:
282,319,103893,2,0,P|294:279|239:191,1,119.999996337891,8|0,0:2|0:2,0:2:0:0:
145,147,104151,1,0,3:2:0:0:
158,120,104237,1,0,3:2:0:0:
156,89,104324,2,0,B|125:83|125:83|76:88,1,59.9999981689454,0|0,3:2|0:2,0:2:0:0:
11,181,104496,1,0,3:2:0:0:
13,212,104583,2,0,B|44:218|44:218|93:213,1,59.9999981689454,8|0,0:2|0:2,0:2:0:0:
151,294,104755,1,0,3:2:0:0:
147,323,104841,1,0,3:2:0:0:
145,352,104927,22,0,B|178:325|178:325|57:331,1,150,0|0,3:2|0:2,0:2:0:0:
70,330,105272,2,0,P|96:319|139:317,1,50,8|0,0:2|0:2,0:2:0:0:
406,169,105531,1,2,3:2:0:0:
349,222,105617,22,0,P|323:156|404:91,1,179.999994506836,2|0,3:2|0:2,0:2:0:0:
137,62,105962,2,0,B|165:66|191:51|191:51|216:75|254:71|254:71|297:15|376:33|397:94,1,299.999990844727,8|0,0:2|0:2,0:2:0:0:
260,148,106479,2,0,P|230:150|185:134,1,59.9999981689454,0|0,3:2|0:2,0:2:0:0:
68,0,106651,2,0,P|46:53|93:148,1,119.999996337891,8|0,0:2|0:2,0:2:0:0:
151,205,106910,1,0,3:2:0:0:
151,205,106996,2,0,P|81:199|25:299,1,179.999994506836,0|0,3:2|0:2,0:2:0:0:
152,326,107341,2,0,P|133:296|91:271,1,59.9999981689454,8|0,0:2|0:2,0:2:0:0:
224,383,107513,2,0,P|243:353|285:328,1,59.9999981689454,0|0,0:2|0:2,0:2:0:0:
438,230,107686,22,0,B|463:247|463:247|321:233,1,150,2|0,3:2|0:2,0:2:0:0:
266,67,108031,2,0,P|320:124|320:171,1,100,10|0,0:2|0:2,0:2:0:0:
134,60,108289,1,2,3:2:0:0:
134,60,108375,2,0,L|192:62,1,50,2|0,3:2|0:2,0:2:0:0:
237,148,108548,2,0,L|179:150,1,50,2|0,0:2|0:2,0:2:0:0:
34,283,108720,2,0,P|85:216|173:240,1,150,10|0,0:2|0:2,0:2:0:0:
265,302,109065,22,0,B|248:289|248:289|118:299,1,150,2|0,3:2|0:2,0:2:0:0:
225,366,109410,2,0,B|242:379|242:379|345:374,1,100,10|0,0:2|0:2,0:2:0:0:
412,319,109668,1,0,3:2:0:0:
422,296,109755,1,0,3:2:0:0:
432,273,109841,1,0,3:2:0:0:
410,259,109927,1,0,3:2:0:0:
400,236,110014,1,0,3:2:0:0:
390,213,110100,2,0,P|433:122|391:71,1,150,8|0,0:2|0:2,0:2:0:0:
394,69,110444,5,4,3:2:0:0:
394,69,110789,2,0,P|326:84|260:72,1,100,8|0,0:2|0:2,0:2:0:0:
151,50,111048,1,0,3:2:0:0:
151,50,111134,2,0,L|101:52,1,50,2|0,3:2|0:2,0:2:0:0:
170,130,111306,2,0,L|219:132,1,50,2|0,0:2|0:2,0:2:0:0:
97,261,111479,2,0,P|100:328|149:387,1,100,8|0,0:2|0:2,0:2:0:0:
348,257,111824,22,0,B|375:244|375:244|206:249,1,179.999994506836,2|0,3:2|0:2,0:2:0:0:
203,339,112168,2,0,L|330:334,1,100,8|0,0:2|0:2,0:2:0:0:
485,162,112513,2,0,L|353:167,1,119.999996337891,2|0,0:2|3:2,0:2:0:0:
211,37,112858,2,0,P|271:53|291:70,1,50,10|0,0:2|0:2,0:2:0:0:
405,71,113031,2,0,P|345:87|325:104,1,50,2|0,0:2|0:2,0:2:0:0:
196,191,113203,22,0,B|159:177|159:177|24:186,1,150,0|0,3:2|0:2,0:2:0:0:
34,268,113548,2,0,L|157:259,1,100,8|0,0:2|0:2,0:2:0:0:
213,97,113806,1,0,3:2:0:0:
232,106,113893,5,2,3:2:0:0:
318,105,114008,1,2,0:2:0:0:
403,105,114122,1,2,0:2:0:0:
483,162,114237,6,0,P|501:97|438:14,1,150,10|0,0:2|0:2,0:2:0:0:
403,105,114582,22,0,B|399:165|399:165|416:216|416:216|404:293,1,179.999994506836,2|0,3:2|0:2,0:2:0:0:
230,199,114927,2,0,P|299:188|350:218,1,100,8|0,0:2|0:2,0:2:0:0:
236,297,115186,1,0,3:2:0:0:
236,297,115272,2,0,B|207:283|207:283|52:290,1,179.999994506836,2|0,3:2|0:2,0:2:0:0:
59,289,115617,22,0,B|70:253|70:253|65:198,1,75,10|0,0:2|3:2,0:2:0:0:
36,146,115962,22,0,P|110:172|203:112,1,150,0|0,3:2|0:2,0:2:0:0:
243,92,116306,1,8,0:2:0:0:
385,235,116479,1,0,0:0:0:0:
385,235,116565,1,0,3:2:0:0:
385,235,116651,2,0,P|434:280|441:304,1,50,2|0,3:2|0:2,0:2:0:0:
512,174,116824,2,0,P|463:219|456:243,1,50,2|0,0:2|0:2,0:2:0:0:
280,344,116996,2,0,L|475:341,1,150,8|0,0:2|0:2,0:2:0:0:
256,258,117341,22,0,B|125:255|125:255|187:285,1,179.999994506836,2|0,3:2|0:2,0:2:0:0:
191,175,117686,2,0,P|219:106|194:22,1,150,8|0,0:2|0:2,0:2:0:0:
82,95,118031,2,0,P|124:107|86:82,1,119.999996337891,2|0,0:2|3:2,0:2:0:0:
304,120,118375,2,0,L|481:119,1,150,8|0,0:2|0:2,0:2:0:0:
466,261,118720,22,0,B|483:213|483:213|451:110,1,150,0|0,3:2|0:2,0:2:0:0:
377,0,119065,2,0,L|398:79,1,50,8|0,0:2|0:2,0:2:0:0:
184,59,119324,1,0,3:2:0:0:
201,73,119410,5,2,3:2:0:0:
148,150,119525,1,2,0:2:0:0:
204,226,119640,1,2,0:2:0:0:
136,288,119755,6,0,P|243:305|263:374,1,150,10|0,0:2|0:2,0:2:0:0:
181,355,120100,22,0,B|244:363|244:363|292:351|292:351|402:360,1,179.999994506836,2|0,3:2|0:2,0:2:0:0:
447,384,120444,5,10,0:2:0:0:
451,350,120559,1,2,0:2:0:0:
445,317,120674,1,2,0:2:0:0:
358,278,120789,21,2,0:0:0:0:
358,231,120904,1,2,0:0:0:0:
398,254,121019,1,2,0:0:0:0:
358,278,121134,22,2,L|297:276,2,33.3333333333333,2|0|2,0:2|0:2|0:2,0:2:0:0:
209,277,121479,6,0,B|191:300|191:300|189:153,1,150,4|0,3:2|0:2,0:2:0:0:
380,91,121824,2,8,P|327:121|261:98,1,100,8|0,0:2|0:2,0:2:0:0:
165,29,122082,1,0,3:2:0:0:
165,29,122168,2,0,L|250:30,1,50,2|0,3:2|0:2,0:2:0:0:
126,101,122341,1,2,3:2:0:0:
101,104,122427,1,0,3:2:0:0:
76,108,122513,2,0,B|50:111|50:111|86:157|86:157|91:248,1,150,8|0,0:2|0:2,0:2:0:0:
48,305,122858,22,2,B|208:299|208:299|179:319,1,194.999991073609,2|0,3:2|0:2,0:1:0:0:
300,318,123203,2,0,P|284:247|220:210,1,150,10|0,0:2|0:2,0:2:0:0:
0,228,123548,2,2,L|158:220,1,129.999994049073,0|0,0:0|0:0,1:0:0:0:
282,138,123893,2,0,L|280:88,1,50,10|0,0:2|0:2,0:2:0:0:
368,158,124065,2,0,L|366:207,1,50,2|0,0:2|0:2,0:2:0:0:
129,221,124237,22,0,P|191:183|131:125,1,150,0|0,3:2|0:2,0:2:0:0:
15,236,124582,2,0,P|11:264|18:301,1,50,8|0,0:2|0:2,0:2:0:0:
179,338,124841,1,0,3:2:0:0:
179,338,124927,2,0,P|228:313|324:348,1,150,0|0,0:2|0:2,0:2:0:0:
315,338,125272,2,0,P|296:316|314:354,1,150,8|0,0:2|0:2,0:2:0:0:
366,255,125617,22,2,B|370:115|370:115|323:171,1,194.999991073609,2|0,3:2|0:2,0:1:0:0:
443,74,125962,2,0,P|371:32|310:58,1,150,10|0,0:2|3:2,0:2:0:0:
173,135,126306,2,2,P|254:145|181:102,1,194.999991073609,2|0,3:2|0:2,0:1:0:0:
90,98,126651,2,0,P|83:128|105:193,1,75.0000028610231,8|0,0:2|0:2,0:2:0:0:
66,354,126996,22,0,B|44:371|44:371|190:360,1,150,0|0,3:2|0:2,0:2:0:0:
279,301,127341,2,0,L|199:306,1,50,8|0,0:2|0:2,0:2:0:0:
435,292,127600,1,0,3:2:0:0:
435,292,127686,2,0,P|457:242|376:152,1,150,0|0,3:2|0:2,0:2:0:0:
297,158,128031,2,0,P|319:164|397:67,1,150,8|0,0:2|0:2,0:2:0:0:
131,94,128375,22,2,B|276:72|276:72|337:93,1,194.999991073609,2|0,3:2|0:2,0:1:0:0:
210,165,128720,2,0,L|49:189,1,150,10|0,0:2|0:2,0:2:0:0:
243,311,129065,2,2,B|273:333|273:333|252:183,1,129.999994049073,2|0,0:2|3:2,0:1:0:0:
47,289,129410,2,0,L|132:276,1,50,10|0,0:2|0:2,0:2:0:0:
243,311,129582,2,0,L|193:318,1,50,2|0,0:2|0:2,0:2:0:0:
319,165,129755,22,0,P|352:215|334:306,1,150,0|0,3:2|0:2,0:2:0:0:
196,330,130100,2,0,L|246:323,1,50,8|0,0:2|0:2,0:2:0:0:
240,129,130358,1,0,3:2:0:0:
240,129,130444,2,0,B|203:119|203:119|89:143,1,150,0|0,3:2|0:2,0:2:0:0:
93,142,130789,2,0,P|148:157|114:96,1,150,8|0,0:2|0:2,0:2:0:0:
129,94,131134,22,2,B|151:119|159:143|159:143|166:110|222:72|152:-16,1,200,0|0,0:2|0:2,0:2:0:0:
142,58,132513,6,0,L|303:57,1,150,4|0,3:2|0:2,0:2:0:0:
291,57,132858,2,0,B|302:81|302:81|293:122,1,50,8|0,0:2|0:2,0:2:0:0:
171,325,133117,1,2,3:2:0:0:
116,266,133203,22,0,P|201:252|242:363,1,179.999994506836,2|0,3:2|0:2,0:2:0:0:
171,325,133548,2,0,B|228:320|228:320|286:338|286:338|337:316|337:316|392:310|392:310|329:351,1,299.999990844727,8|0,0:2|0:2,0:2:0:0:
330,235,134065,2,0,L|423:225,1,59.9999981689454,0|0,3:2|0:2,0:2:0:0:
254,175,134237,2,8,L|117:160,1,119.999996337891,8|0,0:2|0:2,0:2:0:0:
292,87,134496,1,0,3:2:0:0:
292,87,134582,2,0,P|352:190|295:258,1,179.999994506836,0|0,3:2|0:2,0:2:0:0:
223,319,134927,1,8,0:2:0:0:
193,318,135013,1,0,3:2:0:0:
162,319,135100,2,0,L|84:318,1,59.9999981689454,0|0,3:2|0:2,0:2:0:0:
0,151,135272,22,0,P|49:194|-14:278,1,150,0|0,3:2|0:2,0:2:0:0:
24,266,135617,2,0,P|36:237|52:255,1,50,8|0,0:2|0:2,0:2:0:0:
283,179,135875,1,2,3:2:0:0:
224,236,135962,22,0,B|206:211|206:211|368:208,1,179.999994506836,2|0,3:2|0:2,0:2:0:0:
503,299,136306,2,0,P|392:193|441:339,1,419.999987182618,8|0,0:2|0:2,0:2:0:0:
436,259,136996,2,0,P|444:199|380:125,1,119.999996337891,8|0,0:2|0:2,0:2:0:0:
269,158,137255,1,0,3:2:0:0:
253,183,137341,1,0,3:2:0:0:
235,206,137427,2,0,L|342:204,1,59.9999981689454,0|0,3:2|0:2,0:2:0:0:
417,148,137600,1,0,3:2:0:0:
435,125,137686,2,0,L|328:127,1,59.9999981689454,8|0,0:2|0:2,0:2:0:0:
259,21,137858,1,0,3:2:0:0:
290,33,137944,1,0,3:2:0:0:
309,50,138031,22,0,B|258:55|258:55|220:41|220:41|138:48,1,150,0|0,3:2|0:2,0:2:0:0:
161,45,138375,2,0,P|195:60|240:44,1,50,8|0,0:2|0:2,0:2:0:0:
123,230,138634,1,2,3:2:0:0:
44,186,138720,22,0,P|130:143|204:190,1,179.999994506836,2|0,3:2|0:2,0:2:0:0:
197,299,139065,2,0,B|250:269|250:269|163:272|163:272|127:285|127:285|89:273|89:273|-5:272,1,299.999990844727,8|0,0:2|0:2,0:2:0:0:
14,360,139582,2,0,L|102:360,1,59.9999981689454,0|0,3:2|0:2,0:2:0:0:
317,299,139755,2,0,L|197:299,1,119.999996337891,8|0,0:2|0:2,0:2:0:0:
375,203,140013,1,0,3:2:0:0:
375,203,140100,2,0,P|435:285|410:379,1,179.999994506836,0|0,3:2|0:2,0:2:0:0:
288,349,140444,2,0,P|296:320|316:298,1,59.9999981689454,8|0,0:2|0:2,0:2:0:0:
264,209,140617,2,0,P|255:180|235:158,1,59.9999981689454,0|0,0:2|0:2,0:2:0:0:
26,230,140789,22,0,L|197:223,1,150,2|0,3:2|0:2,0:2:0:0:
262,82,141134,2,0,P|195:85|158:150,1,100,10|0,0:2|0:2,0:2:0:0:
422,102,141393,1,2,3:2:0:0:
342,50,141479,2,0,L|341:117,1,50,2|0,3:2|0:2,0:2:0:0:
382,231,141651,2,0,L|381:181,1,50,2|0,0:2|0:2,0:2:0:0:
445,299,141824,2,0,P|363:318|305:267,1,150,10|0,0:2|0:2,0:2:0:0:
202,246,142168,22,0,B|84:251|84:251|120:274,1,150,2|0,3:2|0:2,0:2:0:0:
272,184,142513,2,0,P|216:158|166:167,1,100,10|0,0:2|0:2,0:2:0:0:
110,268,142772,1,0,3:2:0:0:
123,288,142858,1,0,3:2:0:0:
137,308,142944,1,0,3:2:0:0:
154,326,143031,1,0,3:2:0:0:
141,346,143117,1,0,3:2:0:0:
126,366,143203,2,0,P|169:327|265:359,1,150,8|0,0:2|0:2,0:2:0:0:
350,384,143548,22,0,B|378:352|378:352|349:219,1,150,4|0,3:2|0:2,0:2:0:0:
355,246,143893,2,0,P|344:275|344:294,1,50,8|0,0:2|0:2,0:2:0:0:
380,52,144151,1,2,3:2:0:0:
371,141,144237,22,0,B|309:161|309:161|158:142,1,179.999994506836,2|0,3:2|0:2,0:2:0:0:
155,68,144582,2,0,P|249:81|195:238,1,299.999990844727,8|0,0:2|0:2,0:2:0:0:
136,159,145100,2,0,L|199:145,1,59.9999981689454,0|0,3:2|0:2,0:2:0:0:
256,293,145272,2,0,L|128:264,1,119.999996337891,8|0,0:2|0:2,0:2:0:0:
78,354,145531,1,2,3:2:0:0:
78,354,145617,2,0,P|100:275|52:190,1,179.999994506836,2|0,3:2|0:2,0:2:0:0:
75,49,145962,2,0,L|69:141,1,59.9999981689454,8|0,0:2|0:2,0:2:0:0:
234,91,146134,1,0,3:2:0:0:
210,72,146220,1,0,3:2:0:0:
181,63,146306,22,0,P|233:91|172:120,1,150,0|0,3:2|0:2,0:2:0:0:
177,124,146651,2,0,P|193:141|216:137,1,50,8|0,0:2|0:2,0:2:0:0:
236,335,146910,1,2,3:2:0:0:
161,288,146996,22,0,L|349:287,1,150,0|0,3:2|0:2,0:2:0:0:
406,213,147341,2,0,P|348:256|470:229,1,419.999987182618,8|0,0:2|0:2,0:2:0:0:
421,294,148031,2,0,P|489:324|535:307,1,119.999996337891,8|0,0:2|0:2,0:2:0:0:
474,155,148289,1,0,3:2:0:0:
456,130,148375,1,0,3:2:0:0:
441,103,148462,2,0,L|364:102,1,59.9999981689454,0|0,3:2|0:2,0:2:0:0:
243,142,148634,1,0,3:2:0:0:
258,169,148721,2,0,L|335:170,1,59.9999981689454,8|0,0:2|0:2,0:2:0:0:
200,21,148893,1,0,3:2:0:0:
181,44,148979,1,0,3:2:0:0:
172,67,149065,22,0,B|158:110|158:110|147:27|104:-21,1,150,0|0,3:2|0:2,0:2:0:0:
126,10,149410,2,0,P|107:38|100:78,1,50,8|0,0:2|0:2,0:2:0:0:
115,259,149668,1,2,3:2:0:0:
57,197,149755,22,0,P|31:255|116:343,1,179.999994506836,2|0,3:2|0:2,0:2:0:0:
248,278,150100,2,0,B|330:259|330:259|107:259,1,299.999990844727,8|0,0:2|0:2,0:2:0:0:
205,350,150617,2,0,P|236:361|299:344,1,59.9999981689454,0|0,3:2|0:2,0:2:0:0:
330,180,150789,2,0,L|186:178,1,119.999996337891,8|0,0:2|0:2,0:2:0:0:
374,87,151048,1,2,3:2:0:0:
374,87,151134,2,0,B|497:87|497:87|420:103,1,179.999994506836,2|0,3:2|0:2,0:2:0:0:
299,36,151479,2,0,P|323:13|357:2,1,59.9999981689454,8|0,0:2|0:2,0:2:0:0:
330,180,151651,2,0,P|306:157|272:146,1,59.9999981689454,0|0,0:2|0:2,0:2:0:0:
101,220,151824,22,0,P|168:211|147:145,1,150,2|0,3:2|0:2,0:2:0:0:
101,220,152168,2,0,B|124:270|124:270|106:359,1,100,10|0,0:2|0:2,0:2:0:0:
181,60,152427,1,2,3:2:0:0:
152,147,152513,2,0,L|239:152,1,50,2|0,3:2|0:2,0:2:0:0:
308,90,152686,2,0,L|221:95,1,50,2|0,0:2|0:2,0:2:0:0:
380,156,152858,2,0,P|405:57|360:9,1,150,10|0,0:2|0:2,0:2:0:0:
281,205,153203,22,0,B|298:316|298:316|313:260,1,150,2|0,3:2|0:2,0:2:0:0:
208,279,153548,2,0,P|139:305|120:365,1,100,10|0,0:2|0:2,0:2:0:0:
208,371,153806,1,0,3:2:0:0:
233,371,153893,1,0,3:2:0:0:
257,371,153979,1,0,3:2:0:0:
278,357,154065,1,0,3:2:0:0:
302,357,154151,1,0,3:2:0:0:
326,358,154237,2,0,L|504:367,1,150,8|0,0:2|0:2,0:2:0:0:
498,291,154582,6,0,P|509:213|477:167,1,100,4|0,3:2|0:2,0:2:0:0:
271,270,154927,2,0,L|383:273,1,100,8|0,0:2|0:2,0:2:0:0:
370,272,155272,1,0,0:2:0:0:
242,173,155444,1,0,3:2:0:0:
340,28,155617,2,0,P|357:93|321:155,1,100,8|0,0:2|0:2,0:2:0:0:
96,25,155962,22,0,B|217:20|217:20|153:53,1,150,2|0,3:2|0:2,0:2:0:0:
106,127,156306,2,0,P|126:55|211:38,1,150,10|0,0:2|0:2,0:2:0:0:
189,119,156651,2,0,L|181:251,1,100,2|0,0:2|3:2,0:2:0:0:
107,337,156996,2,0,L|241:336,1,100,8|0,0:2|0:2,0:2:0:0:
449,290,157341,22,0,P|380:287|312:318,1,100,0|0,3:2|0:2,0:2:0:0:
182,218,157686,2,0,P|251:221|319:190,1,100,8|0,0:2|0:2,0:2:0:0:
280,212,158031,1,0,0:2:0:0:
157,90,158203,1,0,3:2:0:0:
311,117,158375,2,0,L|313:-12,1,100,8|0,0:2|0:2,0:2:0:0:
28,125,158720,22,0,P|101:137|157:90,1,150,2|0,3:2|0:2,0:2:0:0:
79,57,159065,2,0,L|85:249,1,150,10|0,0:2|0:2,0:2:0:0:
40,262,159410,2,0,L|167:254,1,100,2|0,0:2|3:2,0:2:0:0:
332,214,159755,2,0,P|262:191|219:207,1,100,8|0,0:2|0:2,0:2:0:0:
275,378,160100,22,0,L|270:249,1,100,0|0,3:2|0:2,0:2:0:0:
335,114,160444,2,0,L|331:213,1,100,8|0,0:2|0:2,0:2:0:0:
331,213,160789,1,0,0:2:0:0:
404,64,160962,1,0,3:2:0:0:
245,8,161134,2,0,P|180:7|124:48,1,100,8|0,0:2|0:2,0:2:0:0:
94,131,161479,22,0,B|128:100|128:100|119:231,1,150,2|0,3:2|0:2,0:2:0:0:
75,264,161824,2,0,P|138:224|212:256,1,150,10|0,0:2|0:2,0:2:0:0:
217,376,162168,2,0,P|165:336|147:285,1,100,2|0,0:2|3:2,0:2:0:0:
304,245,162513,2,0,L|158:248,1,100,8|0,0:2|0:2,0:2:0:0:
391,286,162858,22,0,P|397:227|361:175,1,100,0|0,3:2|0:2,0:2:0:0:
301,55,163203,2,0,L|303:187,1,100,8|0,0:2|0:2,0:2:0:0:
302,154,163548,1,0,0:2:0:0:
392,49,163720,1,0,3:2:0:0:
210,50,163893,2,0,P|149:71|106:128,1,100,8|0,0:2|0:2,0:2:0:0:
172,179,164237,22,0,B|191:235|191:235|198:121,1,150,2|0,3:2|0:2,0:2:0:0:
172,179,164582,2,0,P|138:245|176:317,1,150,10|0,0:2|0:2,0:2:0:0:
221,246,164927,1,10,0:2:0:0:
73,324,165100,1,0,3:2:0:0:
221,246,165272,1,8,0:2:0:0:
429,314,165617,22,0,L|287:306,1,100,0|0,3:2|0:2,0:2:0:0:
467,240,165962,2,0,P|505:282|506:346,1,100,8|0,0:2|0:2,0:2:0:0:
512,324,166306,1,0,0:2:0:0:
329,308,166479,1,0,3:2:0:0:
512,142,166651,2,0,P|449:161|399:145,1,100,8|0,0:2|0:2,0:2:0:0:
176,51,166996,22,0,B|290:48|290:48|222:74,1,150,2|0,3:2|0:2,0:2:0:0:
256,60,167341,2,0,P|306:63|310:160,1,150,10|0,0:2|0:2,0:2:0:0:
321,241,167686,2,0,B|339:193|339:193|313:121,1,100,2|0,0:2|3:2,0:2:0:0:
49,185,168031,2,0,L|168:182,1,100,8|0,0:2|0:2,0:2:0:0:
273,312,168375,22,0,P|207:323|155:294,1,100,0|0,3:2|0:2,0:2:0:0:
321,241,168720,2,0,P|387:230|439:259,1,100,8|0,0:2|0:2,0:2:0:0:
416,241,169065,1,0,0:2:0:0:
333,378,169237,1,0,3:2:0:0:
501,274,169410,2,0,L|497:143,1,100,8|0,0:2|0:2,0:2:0:0:
326,40,169755,22,0,P|404:44|446:105,1,150,2|0,3:2|0:2,0:2:0:0:
444,97,170100,2,0,B|411:66|411:66|424:189,1,150,10|0,0:2|0:2,0:2:0:0:
472,222,170444,2,0,P|413:213|347:238,1,100,2|0,0:2|3:2,0:2:0:0:
226,302,170789,2,0,P|285:311|351:286,1,100,8|0,0:2|0:2,0:2:0:0:
165,100,171134,22,0,L|171:246,1,100,0|0,3:2|0:2,0:2:0:0:
112,381,171479,2,0,L|116:281,1,100,8|0,0:2|0:2,0:2:0:0:
116,281,171824,1,0,0:2:0:0:
330,230,171996,1,0,3:2:0:0:
54,216,172168,2,0,P|108:193|155:205,1,100,8|0,0:2|0:2,0:2:0:0:
356,323,172513,22,0,B|324:342|324:342|330:215,1,150,2|0,3:2|0:2,0:2:0:0:
330,230,172858,2,0,B|368:248|368:248|310:272|266:215,1,150,10|0,0:2|0:2,0:2:0:0:
220,171,173203,2,0,L|214:303,1,100,2|0,0:2|3:2,0:2:0:0:
329,134,173548,2,0,L|324:34,1,100,8|0,0:2|0:2,0:2:0:0:
148,81,173893,22,0,L|231:76,1,75.0000028610231,0|0,3:2|0:2,0:2:0:0:
131,90,174237,2,0,L|206:86,1,75.0000028610231,0|0,0:2|0:2,0:2:0:0:
206,86,174582,1,0,0:2:0:0:
100,242,175272,21,0,0:2:0:0:
115,242,175617,1,0,0:2:0:0:
130,242,175962,1,0,0:2:0:0:
230,235,176651,22,0,L|227:192,2,40,2|0|0,0:2|0:2|0:2,0:2:0:0:
302,166,178030,2,0,L|305:123,2,40,2|0|0,0:2|0:2|0:2,0:2:0:0:
230,235,179410,2,0,L|227:192,2,40,2|0|0,0:2|0:2|0:2,0:2:0:0:
302,166,180789,2,0,L|305:123,2,40,2|0|0,0:2|0:2|0:2,0:2:0:0:
204,286,182168,22,0,P|178:290|156:289,2,40,2|0|0,0:2|0:2|0:2,0:2:0:0:
292,237,183547,2,0,P|318:233|340:234,2,40,2|0|0,0:2|0:2|0:2,0:2:0:0:
204,286,184927,2,0,P|178:290|156:289,2,40,2|0|0,0:2|0:2|0:2,0:2:0:0:
292,237,186306,2,0,P|318:233|340:234,2,40,2|0|0,0:2|0:2|0:2,0:2:0:0:
133,111,187685,22,0,L|129:68,2,40,2|0|0,0:2|0:2|0:2,0:2:0:0:
225,50,189065,2,0,L|229:7,2,40,2|0|0,0:2|0:2|0:2,0:2:0:0:
133,111,190444,2,0,L|129:68,2,40,2|0|0,0:2|0:2|0:2,0:2:0:0:
225,50,191823,2,0,L|229:7,2,40,2|0|0,0:2|0:2|0:2,0:2:0:0:
352,103,193203,22,0,P|378:107|400:106,2,40,2|0|0,0:2|0:2|0:2,0:2:0:0:
264,54,194582,2,0,P|238:50|216:51,2,40,2|0|0,0:2|0:2|0:2,0:2:0:0:
421,102,198720,22,0,B|351:78|351:78|284:90,1,112.500004291535,4|0,3:2|0:2,0:2:0:0:
232,93,199065,2,0,B|302:117|302:117|369:105,1,112.500004291535,0|0,0:2|0:2,0:2:0:0:
313,84,199410,2,2,L|147:116,1,150,10|0,0:2|0:2,0:1:0:0:
103,321,200100,22,0,P|109:270|76:192,1,112.500004291535,0|0,3:2|0:2,0:2:0:0:
74,115,200444,2,0,P|56:167|61:223,1,112.500004291535,0|0,0:2|0:2,0:2:0:0:
90,212,200789,2,2,P|50:195|-10:273,1,150,10|0,0:2|0:2,0:1:0:0:
159,306,201479,22,0,B|229:330|229:330|296:318,1,112.500004291535,0|0,3:2|0:2,0:2:0:0:
348,315,201824,2,0,B|278:291|278:291|211:303,1,112.500004291535,0|0,0:2|0:2,0:2:0:0:
267,324,202169,2,2,L|433:292,1,150,10|0,0:2|0:2,0:1:0:0:
290,39,202858,22,0,L|279:154,1,112.500004291535,0|0,3:2|0:2,0:2:0:0:
329,218,203203,2,0,L|318:106,1,112.500004291535,0|0,0:2|0:2,0:2:0:0:
279,150,203548,2,2,L|263:307,1,150,10|0,0:2|0:2,0:1:0:0:
22,308,204237,22,0,P|82:295|138:327,1,112.500004291535,0|0,3:2|0:2,0:2:0:0:
215,354,204582,2,0,P|155:367|99:335,1,112.500004291535,0|0,0:2|0:2,0:2:0:0:
126,315,204927,2,2,P|122:369|44:341,1,150,10|0,0:2|0:2,0:1:0:0:
114,227,205617,22,0,P|126:157|91:102,1,112.500004291535,0|0,3:2|0:2,0:2:0:0:
78,40,205962,2,0,P|59:92|73:145,1,112.500004291535,0|0,0:2|0:2,0:2:0:0:
109,121,206306,2,2,P|54:121|20:213,1,150,10|0,0:2|0:2,0:1:0:0:
191,207,206996,22,0,L|264:191,1,75.0000028610231,0|0,3:2|0:2,0:2:0:0:
227,200,207686,2,2,L|393:232,1,150,10|0,0:2|0:2,0:1:0:0:
414,30,208375,22,0,P|374:27|291:61,1,112.500004291535,0|0,3:2|0:2,0:2:0:0:
452,22,208720,2,0,P|400:1|344:2,1,112.500004291535,0|0,0:2|0:2,0:2:0:0:
480,28,209065,2,2,P|487:93|418:132,1,150,10|0,0:2|0:2,0:1:0:0:
437,277,209755,22,0,L|297:257,1,112.500004291535,0|0,3:2|0:2,0:2:0:0:
251,255,210100,2,0,L|391:235,1,112.500004291535,0|0,0:2|0:2,0:2:0:0:
325,261,210444,2,2,L|257:253,1,50,10|0,0:2|0:2,0:1:0:0:
225,261,210789,2,2,L|283:254,1,50,0|0,0:2|0:2,0:1:0:0:
87,93,211134,22,0,L|97:214,1,112.500004291535,0|0,3:2|0:2,0:2:0:0:
125,308,211479,2,0,L|134:195,1,112.500004291535,0|0,0:2|0:2,0:2:0:0:
120,258,211824,2,2,L|126:330,1,50,10|0,0:2|0:2,0:1:0:0:
120,357,212169,2,2,L|125:290,1,50,0|0,0:2|0:2,0:1:0:0:
267,168,212513,22,0,P|328:154|393:180,1,112.500004291535,0|0,3:2|0:2,0:2:0:0:
459,201,212858,2,0,P|398:215|333:189,1,112.500004291535,0|0,0:2|0:2,0:2:0:0:
374,167,213203,2,2,P|416:158|435:163,1,50,10|0,0:2|0:2,0:1:0:0:
460,190,213548,2,2,P|428:161|409:156,1,50,0|0,0:2|0:2,0:1:0:0:
196,155,213893,22,0,P|135:141|70:167,1,112.500004291535,0|0,3:2|0:2,0:2:0:0:
4,188,214238,2,0,P|65:202|130:176,1,112.500004291535,0|0,0:2|0:2,0:2:0:0:
89,154,214583,2,2,P|47:145|28:150,1,50,10|0,0:2|0:2,0:1:0:0:
3,177,214928,2,2,P|34:148|53:143,1,50,0|0,0:2|0:2,0:1:0:0:
196,155,215272,22,0,L|199:286,1,112.500004291535,0|0,3:2|0:2,0:2:0:0:
227,337,215617,2,0,L|229:224,1,112.500004291535,0|0,0:2|0:2,0:2:0:0:
198,267,215962,2,2,L|199:332,1,50,10|0,0:2|0:2,0:1:0:0:
198,366,216306,2,2,L|199:316,1,50,0|0,0:2|0:2,0:1:0:0:
291,193,216651,22,0,L|434:172,1,112.500004291535,0|0,3:2|0:2,0:2:0:0:
484,215,216996,2,0,L|341:194,1,112.500004291535,0|0,0:2|0:2,0:2:0:0:
402,176,217341,2,2,L|473:165,1,50,10|0,0:2|0:2,0:1:0:0:
500,176,217686,2,2,L|428:165,1,50,0|0,0:2|0:2,0:1:0:0:
358,80,218031,22,0,L|282:66,1,75.0000028610231,0|0,3:2|0:2,0:2:0:0:
321,72,218720,2,2,L|154:75,1,150,10|0,0:2|0:2,0:1:0:0:
142,228,219410,22,0,P|145:168|139:144,1,75.0000028610231,0|0,3:2|0:2,0:2:0:0:
156,255,219755,2,0,P|159:195|153:171,1,75.0000028610231,0|0,0:2|0:2,0:2:0:0:
168,283,220100,2,2,L|330:284,1,150,10|0,0:2|0:2,0:1:0:0:
491,149,220789,6,0,B|439:126|439:126|186:155,1,259.999988098145,4|0,3:2|0:2,0:2:0:0:
237,152,221479,6,2,B|439:129|439:129|491:152,1,259.999988098145,2|0,0:2|0:2,0:2:0:0:
158,216,223548,38,0,P|162:89|293:69,1,259.999988098145,0|0,0:2|0:2,0:2:0:0:
272,53,224237,38,2,P|232:48|189:59,1,77.9999995239258,2|0,0:2|0:2,0:2:0:0:
274,45,224927,22,2,P|233:39|211:43,1,50,0|0,0:2|0:2,0:2:0:0:
276,37,225272,2,2,P|235:31|213:35,1,50,0|0,0:2|0:2,0:2:0:0:
121,234,226306,38,0,L|443:243,1,259.999988098145,0|0,3:2|0:2,0:2:0:0:
380,244,226996,6,2,L|121:237,1,259.999988098145,2|0,0:2|0:2,0:2:0:0:
416,154,229065,38,0,P|457:297|365:340,1,259.999988098145,0|0,3:2|0:2,0:2:0:0:
388,344,229755,38,2,P|475:259|416:149,1,259.999998413086,2|0,0:2|0:2,0:2:0:0:
285,246,231824,6,0,B|235:259|235:259|85:245,1,200,0|0,3:2|0:2,0:2:0:0:
87,242,232513,6,2,B|235:256|235:256|285:243,1,200,2|0,0:2|0:2,0:2:0:0:
343,18,234582,38,0,P|410:96|374:192,1,200,0|0,3:2|0:2,0:2:0:0:
388,181,235272,38,2,P|410:87|345:17,1,200,2|0,0:2|0:2,0:1:0:0:
91,134,237341,6,0,L|317:131,1,200,0|0,3:2|0:2,0:2:0:0:
291,134,238031,6,2,L|92:137,1,200,2|0,0:2|0:2,0:2:0:0:
87,163,242858,6,0,L|195:161,1,100,4|0,3:2|0:2,0:2:0:0:
454,279,243203,22,0,B|437:327|437:327|425:163,1,179.999994506836,10|0,0:2|0:2,0:2:0:0:
390,48,243548,1,0,3:2:0:0:
390,48,243634,1,0,3:2:0:0:
449,106,243720,2,0,B|381:82|381:82|245:105,1,179.999994506836,10|0,0:2|0:2,0:2:0:0:
274,99,244065,1,0,3:2:0:0:
195,31,244237,22,0,L|201:96,1,50,0|0,3:2|0:2,0:2:0:0:
177,188,244410,1,0,3:2:0:0:
177,188,244496,1,0,3:2:0:0:
250,231,244582,22,0,P|154:221|84:293,1,179.999994506836,10|0,0:2|0:2,0:2:0:0:
267,323,244927,1,0,3:2:0:0:
267,323,245013,1,0,3:2:0:0:
348,312,245100,2,0,B|381:320|395:341|395:341|431:268|384:218,1,179.999994506836,10|0,0:2|0:2,0:2:0:0:
267,129,245444,1,0,3:2:0:0:
297,128,245531,1,0,3:2:0:0:
331,127,245617,22,0,B|291:103|291:103|195:105,1,100,0|0,3:2|0:2,0:2:0:0:
109,301,245962,22,0,P|68:242|115:258,1,179.999994506836,10|0,0:2|0:2,0:2:0:0:
231,333,246306,1,0,3:2:0:0:
261,334,246393,1,0,3:2:0:0:
290,338,246479,2,0,B|384:313|378:382|489:338,1,179.999994506836,10|0,0:2|0:2,0:2:0:0:
446,195,246824,1,0,3:2:0:0:
439,222,246910,1,0,3:2:0:0:
434,247,246996,22,0,B|421:273|421:273|406:171,1,112.500004291535,0|0,3:2|0:2,0:2:0:0:
302,104,247341,22,0,B|435:93|435:93|380:114,1,179.999994506836,10|0,0:2|0:2,0:2:0:0:
269,172,247686,1,0,3:2:0:0:
239,174,247772,1,0,3:2:0:0:
209,177,247858,1,10,0:2:0:0:
39,217,248031,2,0,B|25:188|25:188|35:149,1,59.9999981689454,0|0,0:2|0:2,0:2:0:0:
179,48,248203,2,0,B|193:77|193:77|186:104,1,59.9999981689454,0|0,0:2|0:2,0:2:0:0:
147,255,248375,22,0,B|129:304|129:304|146:359,1,100,0|0,3:2|0:2,0:2:0:0:
179,48,248720,22,0,B|240:41|240:41|287:61|287:61|381:53,1,179.999994506836,10|0,0:2|0:2,0:2:0:0:
381,176,249065,1,0,3:2:0:0:
381,176,249151,1,0,3:2:0:0:
462,167,249237,2,0,B|415:144|415:144|244:158,1,179.999994506836,10|0,0:2|0:2,0:2:0:0:
287,154,249582,1,0,3:2:0:0:
344,297,249755,22,0,P|356:266|349:224,1,50,0|0,3:2|0:2,0:2:0:0:
228,103,249927,1,0,3:2:0:0:
228,103,250013,1,0,3:2:0:0:
191,176,250100,22,0,P|211:114|106:113,1,179.999994506836,10|0,0:2|0:2,0:2:0:0:
47,191,250444,1,0,3:2:0:0:
47,191,250531,1,0,3:2:0:0:
41,275,250617,2,0,B|67:298|73:329|73:329|127:299|119:220,1,179.999994506836,10|0,0:2|0:2,0:2:0:0:
122,90,250962,1,0,3:2:0:0:
94,77,251048,1,0,3:2:0:0:
69,82,251134,22,0,P|121:99|225:69,1,150,2|0,3:2|0:2,0:2:0:0:
286,39,251479,2,0,L|296:116,1,50,10|0,0:2|0:2,0:2:0:0:
240,202,251651,2,0,L|246:152,1,50,2|0,0:2|0:2,0:2:0:0:
418,153,251824,1,0,3:2:0:0:
393,152,251910,1,0,3:2:0:0:
368,152,251996,2,0,L|378:229,1,50,10|0,0:2|0:2,0:2:0:0:
295,321,252168,2,0,L|301:271,1,50,2|0,0:2|0:2,0:2:0:0:
347,157,252341,2,0,L|357:234,1,50,2|0,3:2|0:2,0:2:0:0:
58,256,252686,21,0,3:2:0:0:
82,252,252772,1,0,3:2:0:0:
105,243,252858,2,0,L|98:292,1,50,10|0,0:2|0:2,0:2:0:0:
219,367,253030,2,0,L|212:317,1,50,2|0,0:2|0:2,0:2:0:0:
136,139,253203,1,0,3:2:0:0:
161,140,253289,1,0,3:2:0:0:
185,145,253375,2,0,L|178:95,1,50,10|0,0:2|0:2,0:2:0:0:
106,16,253548,1,0,3:2:0:0:
455,274,253893,22,0,P|491:200|470:159,1,100,4|0,3:2|0:2,0:2:0:0:
271,204,254237,22,0,B|397:206|397:206|333:183,1,179.999994506836,10|0,0:2|0:2,0:2:0:0:
270,307,254582,1,0,3:2:0:0:
270,307,254668,1,0,3:2:0:0:
207,251,254755,2,0,P|280:286|354:217,1,179.999994506836,10|0,0:2|0:2,0:2:0:0:
350,230,255100,1,0,3:2:0:0:
352,51,255272,22,0,L|347:127,1,50,0|0,3:2|0:2,0:2:0:0:
192,97,255444,1,0,3:2:0:0:
192,97,255531,1,0,3:2:0:0:
256,152,255617,22,0,P|177:131|79:183,1,179.999994506836,10|0,0:2|0:2,0:2:0:0:
142,298,255962,1,0,3:2:0:0:
142,298,256048,1,0,3:2:0:0:
207,251,256134,2,0,B|135:269|135:269|-18:256,1,179.999994506836,10|0,0:2|0:2,0:2:0:0:
32,163,256479,1,0,3:2:0:0:
61,166,256565,1,0,3:2:0:0:
91,171,256651,22,0,L|93:64,1,75.0000028610231,0|0,3:2|0:2,0:2:0:0:
405,103,256996,22,0,P|338:113|254:20,1,179.999994506836,10|0,0:2|0:2,0:2:0:0:
249,170,257341,1,0,3:2:0:0:
252,199,257427,1,0,3:2:0:0:
254,228,257513,2,0,B|318:226|318:226|359:238|359:238|481:234,1,179.999994506836,10|0,0:2|0:2,0:2:0:0:
446,331,257858,1,0,3:2:0:0:
416,332,257944,1,0,3:2:0:0:
390,333,258031,22,0,B|354:322|354:322|226:324,1,150,0|0,3:2|0:2,0:2:0:0:
73,313,258375,22,0,P|86:205|147:237,1,179.999994506836,10|0,0:2|0:2,0:2:0:0:
225,138,258720,1,0,3:2:0:0:
253,128,258806,1,0,3:2:0:0:
281,116,258893,2,0,L|51:113,1,179.999994506836,10|0,0:2|0:2,0:2:0:0:
67,29,259237,1,0,3:2:0:0:
97,30,259324,1,0,3:2:0:0:
127,31,259410,22,0,L|238:33,1,100,0|0,3:2|0:2,0:2:0:0:
455,82,259755,22,0,B|494:164|494:164|440:280,1,179.999994506836,10|0,0:2|0:2,0:2:0:0:
283,339,260100,1,0,3:2:0:0:
283,339,260186,1,0,3:2:0:0:
356,303,260272,2,0,L|130:298,1,179.999994506836,10|0,0:2|0:2,0:2:0:0:
176,299,260617,1,0,3:2:0:0:
143,162,260789,22,0,L|149:237,1,50,0|0,3:2|0:2,0:2:0:0:
335,69,260962,1,0,3:2:0:0:
335,69,261048,1,0,3:2:0:0:
276,132,261134,22,0,B|310:111|310:111|467:119,1,179.999994506836,10|0,0:2|0:2,0:2:0:0:
512,37,261479,1,0,3:2:0:0:
512,37,261565,1,0,3:2:0:0:
430,34,261651,2,0,L|241:23,1,179.999994506836,10|0,0:2|0:2,0:2:0:0:
106,94,261996,1,0,3:2:0:0:
135,99,262082,1,0,3:2:0:0:
155,85,262168,22,0,P|100:59|27:131,1,150,2|0,3:2|0:2,0:2:0:0:
96,224,262513,2,0,L|98:161,1,50,10|0,0:2|0:2,0:2:0:0:
224,173,262686,2,0,L|225:222,1,50,2|0,0:2|0:2,0:2:0:0:
105,346,262858,1,0,3:2:0:0:
129,346,262944,1,0,3:2:0:0:
154,347,263031,2,0,L|156:284,1,50,10|0,0:2|0:2,0:2:0:0:
282,296,263204,2,0,L|283:345,1,50,2|0,0:2|0:2,0:2:0:0:
224,173,263375,1,0,3:2:0:0:
224,147,263462,1,0,3:2:0:0:
225,122,263548,22,0,L|223:72,1,50,10|0,0:2|0:2,0:2:0:0:
353,67,263720,2,0,L|351:116,1,50,2|0,0:2|0:2,0:2:0:0:
349,229,263893,1,0,3:2:0:0:
491,191,264065,2,0,P|472:185|411:185,1,50,10|0,0:2|0:2,0:2:0:0:
400,317,264237,2,0,P|424:314|448:307,1,50,2|0,0:2|0:2,0:2:0:0:
349,229,264410,1,0,3:2:0:0:
209,276,264582,2,0,P|234:273|258:266,1,50,10|0,0:2|0:2,0:2:0:0:
301,150,264754,2,0,P|277:142|252:140,1,50,2|0,0:2|0:2,0:2:0:0:
14,183,264927,21,2,0:2:0:0:
0,205,265272,22,0,L|193:196,1,179.999994506836,14|0,0:2|0:2,0:2:0:0:
188,115,265617,1,0,3:2:0:0:
188,115,265703,1,0,3:2:0:0:
119,62,265789,2,0,B|78:39|78:39|256:32,1,179.999994506836,10|0,0:2|0:2,0:2:0:0:
353,49,266134,1,0,3:2:0:0:
323,53,266220,1,0,3:2:0:0:
298,56,266306,22,0,L|309:119,1,50,0|0,3:2|0:2,0:2:0:0:
353,190,266479,1,0,3:2:0:0:
353,190,266565,1,0,3:2:0:0:
428,223,266651,22,0,P|363:212|317:328,1,179.999994506836,10|0,0:2|0:2,0:2:0:0:
426,348,266996,1,0,3:2:0:0:
426,348,267082,1,0,3:2:0:0:
486,299,267168,2,0,L|269:297,1,179.999994506836,10|0,0:2|0:2,0:2:0:0:
140,259,267513,1,0,3:2:0:0:
170,259,267600,1,0,3:2:0:0:
195,277,267686,22,0,P|156:238|170:163,1,100,0|0,3:2|0:2,0:2:0:0:
440,56,268031,22,2,P|367:121|375:27,1,239.999992675781,10|0,0:2|0:2,0:1:0:0:
367,247,268548,2,2,P|440:312|432:218,1,239.999992675781,10|0,0:2|3:2,0:1:0:0:
293,181,268979,1,0,3:2:0:0:
277,200,269065,22,0,B|238:220|238:220|126:175,1,150,2|0,3:2|0:2,0:2:0:0:
154,16,269410,22,2,P|234:53|122:173,1,299.999990844727,10|0,0:2|0:2,0:1:0:0:
111,100,269927,2,2,P|140:93|170:100,1,59.9999981689454,10|0,0:2|0:2,0:1:0:0:
324,241,270100,1,0,3:2:0:0:
345,220,270186,1,0,3:2:0:0:
358,193,270272,1,0,3:2:0:0:
358,163,270358,1,0,3:2:0:0:
344,141,270444,22,0,L|205:133,1,100,0|0,3:2|0:2,0:2:0:0:
429,322,270789,22,0,B|454:364|454:364|443:176,1,179.999994506836,10|0,0:2|0:2,0:2:0:0:
288,248,271134,1,0,3:2:0:0:
288,248,271220,1,0,3:2:0:0:
347,199,271306,2,0,B|308:227|308:227|175:219,1,179.999994506836,10|0,0:2|0:2,0:2:0:0:
176,219,271651,1,0,3:2:0:0:
103,50,271824,22,0,L|104:119,1,50,0|0,3:2|0:2,0:2:0:0:
104,247,271996,1,0,3:2:0:0:
104,247,272082,1,0,3:2:0:0:
34,207,272168,22,0,P|88:294|30:344,1,179.999994506836,10|0,0:2|0:2,0:2:0:0:
184,361,272513,1,0,3:2:0:0:
184,361,272600,1,0,3:2:0:0:
240,308,272686,2,0,L|464:331,1,179.999994506836,10|0,0:2|0:2,0:2:0:0:
476,185,273031,1,0,3:2:0:0:
468,213,273117,1,0,3:2:0:0:
450,231,273203,22,0,P|390:196|381:125,1,100,2|0,3:2|0:2,0:2:0:0:
240,308,273548,2,0,P|285:289|311:247,1,100,10|0,0:2|0:2,0:2:0:0:
394,381,273893,1,0,3:2:0:0:
236,298,274065,2,0,P|281:279|307:237,1,100,10|0,0:2|0:2,0:2:0:0:
283,138,274410,1,0,3:2:0:0:
426,177,274582,2,0,B|397:167|397:167|346:174,1,50,2|0,0:2|0:2,0:2:0:0:
363,67,274755,1,0,3:2:0:0:
307,237,274927,22,0,P|367:272|376:343,1,100,10|0,0:2|0:2,0:2:0:0:
426,177,275272,1,0,3:2:0:0:
299,253,275445,2,0,P|330:268|341:286,1,50,10|0,0:2|0:2,0:2:0:0:
248,372,275617,2,0,P|274:330|312:321,1,50,2|0,3:2|0:2,0:2:0:0:
56,159,275962,22,0,L|188:159,1,100,4|0,3:2|0:2,0:2:0:0:
406,74,276306,22,0,P|351:49|268:145,1,179.999994506836,10|0,0:2|0:2,0:2:0:0:
291,235,276651,1,0,3:2:0:0:
291,235,276737,1,0,3:2:0:0:
360,202,276824,2,0,B|354:178|354:178|293:207|305:286|357:332,1,179.999994506836,10|0,0:2|0:2,0:2:0:0:
337,311,277168,1,0,3:2:0:0:
473,310,277341,22,0,L|416:312,1,50,0|0,3:2|0:2,0:2:0:0:
237,309,277513,1,0,3:2:0:0:
237,309,277600,1,0,3:2:0:0:
263,384,277686,22,0,B|292:380|292:380|212:303|126:344,1,179.999994506836,10|0,0:2|0:2,0:2:0:0:
25,306,278031,1,0,3:2:0:0:
25,306,278117,1,0,3:2:0:0:
77,250,278203,2,0,L|79:50,1,179.999994506836,10|0,0:2|0:2,0:2:0:0:
180,15,278548,1,0,3:2:0:0:
178,44,278634,1,0,3:2:0:0:
178,70,278720,22,0,B|192:118|192:118|177:183,1,100,0|0,3:2|0:2,0:2:0:0:
436,120,279065,22,2,P|374:96|434:163,1,239.999992675781,10|0,0:2|3:2,0:1:0:0:
366,315,279582,2,2,P|428:291|368:358,1,239.999992675781,10|0,0:2|3:2,0:1:0:0:
257,287,280013,1,0,3:2:0:0:
257,287,280100,22,0,P|185:265|113:294,1,150,2|0,3:2|0:2,0:2:0:0:
27,362,280444,22,2,B|6:274|6:274|69:98,1,239.999992675781,10|0,0:2|0:2,0:1:0:0:
126,71,280962,2,2,L|161:171,1,59.9999981689454,10|0,0:2|0:2,0:1:0:0:
278,147,281134,1,0,3:2:0:0:
307,147,281220,1,0,3:2:0:0:
336,147,281306,1,0,3:2:0:0:
366,149,281393,1,0,3:2:0:0:
396,150,281479,22,0,P|391:216|349:249,1,100,0|0,3:2|0:2,0:2:0:0:
95,320,281824,22,0,P|176:272|287:330,1,179.999994506836,10|0,0:2|0:2,0:2:0:0:
123,123,282168,1,0,3:2:0:0:
123,123,282255,1,0,3:2:0:0:
201,131,282341,2,0,B|197:97|197:97|107:122|129:227,1,179.999994506836,10|0,0:2|0:2,0:2:0:0:
125,207,282686,1,0,3:2:0:0:
32,100,282858,22,0,L|35:178,1,50,0|0,3:2|0:2,0:2:0:0:
115,298,283031,1,0,3:2:0:0:
115,298,283117,1,0,3:2:0:0:
40,253,283203,22,0,L|250:255,1,179.999994506836,10|0,0:2|0:2,0:2:0:0:
365,301,283548,1,0,3:2:0:0:
365,301,283634,1,0,3:2:0:0:
282,325,283720,2,0,P|243:279|320:191,1,179.999994506836,10|0,0:2|0:2,0:2:0:0:
413,159,284065,1,0,3:2:0:0:
412,188,284151,1,0,3:2:0:0:
411,218,284237,22,0,P|448:180|381:98,1,150,2|0,3:2|0:2,0:2:0:0:
283,68,284582,22,0,L|350:63,1,50,10|0,0:2|0:2,0:2:0:0:
459,11,284755,2,0,L|409:7,1,50,2|0,0:2|0:2,0:2:0:0:
272,72,284927,1,0,3:2:0:0:
285,162,285100,22,0,L|352:157,1,50,10|0,0:2|0:2,0:2:0:0:
461,105,285273,2,0,L|411:101,1,50,2|0,0:2|0:2,0:2:0:0:
274,166,285444,1,0,3:2:0:0:
294,259,285617,22,0,L|361:254,1,50,10|0,0:2|0:2,0:2:0:0:
470,202,285790,2,0,L|420:198,1,50,2|0,0:2|0:2,0:2:0:0:
283,263,285961,1,0,3:2:0:0:
310,362,286134,22,0,L|377:357,1,50,10|0,0:2|0:2,0:2:0:0:
486,305,286307,2,0,L|436:301,1,50,2|0,0:2|0:2,0:2:0:0:
299,366,286478,1,0,3:2:0:0:
148,262,286651,22,0,P|91:274|69:362,1,150,10|0,0:2|0:2,0:2:0:0:
66,355,286996,6,0,L|62:186,1,150,4|0,3:2|0:2,0:2:0:0:
91,116,287341,2,0,P|146:168|143:215,1,100,8|0,0:2|0:2,0:2:0:0:
85,32,287600,1,0,3:2:0:0:
85,32,287686,2,0,L|156:33,1,50,2|0,3:2|0:2,0:2:0:0:
279,31,287858,2,0,L|208:32,1,50,2|0,0:2|0:2,0:2:0:0:
289,119,288031,2,0,L|403:120,1,100,8|0,0:2|0:2,0:2:0:0:
422,325,288375,22,0,B|398:352|398:352|394:194,1,179.999994506836,2|0,3:2|0:2,0:2:0:0:
473,98,288720,2,0,L|479:263,1,150,8|0,0:2|0:2,0:2:0:0:
283,202,289065,2,0,P|348:186|409:226,1,119.999996337891,2|0,0:2|3:2,0:2:0:0:
233,271,289410,2,0,P|199:215|200:193,1,50,10|0,0:2|0:2,0:2:0:0:
220,146,289582,2,0,P|235:82|251:67,1,50,2|0,0:2|0:2,0:2:0:0:
0,183,289755,22,0,B|96:161|96:161|161:181,1,150,0|0,3:2|0:2,0:2:0:0:
99,254,290100,2,0,L|-6:273,1,100,8|0,0:2|0:2,0:2:0:0:
141,352,290358,1,0,3:2:0:0:
160,334,290444,5,2,3:2:0:0:
246,304,290559,1,2,0:2:0:0:
330,344,290674,1,2,0:2:0:0:
418,300,290789,6,0,P|415:226|327:192,1,150,10|0,0:2|0:2,0:2:0:0:
348,269,291134,22,0,B|344:203|344:203|362:163|362:163|354:62,1,179.999994506836,2|0,3:2|0:2,0:2:0:0:
160,143,291479,2,0,L|298:137,1,100,10|0,0:2|0:2,0:2:0:0:
100,82,291737,1,0,3:2:0:0:
100,82,291824,2,0,P|135:164|26:210,1,179.999994506836,2|0,3:2|0:2,0:2:0:0:
76,218,292168,22,0,P|132:210|166:221,1,75,10|0,0:2|0:2,0:2:0:0:
235,280,292513,22,0,L|246:113,1,150,0|0,3:2|0:2,0:2:0:0:
389,99,292858,2,0,L|399:212,1,100,8|0,0:2|0:2,0:2:0:0:
249,134,293117,1,0,3:2:0:0:
249,134,293203,2,0,P|186:138|173:132,1,50,2|0,3:2|0:2,0:2:0:0:
55,45,293375,2,0,P|79:44|103:52,1,50,2|0,0:2|0:2,0:2:0:0:
65,250,293548,2,0,B|60:138|60:138|84:194,1,150,8|0,0:2|0:2,0:2:0:0:
187,319,293893,22,0,P|277:331|315:251,1,179.999994506836,2|0,0:2|0:2,0:2:0:0:
223,134,294237,2,0,P|197:189|251:266,1,150,8|0,0:2|0:2,0:2:0:0:
397,193,294582,2,0,L|259:191,1,119.999996337891,2|0,0:2|3:2,0:2:0:0:
435,120,294927,2,0,P|479:164|471:237,1,100,8|0,0:2|0:2,0:2:0:0:
224,60,295272,22,0,B|189:34|189:34|313:36,1,150,0|0,3:2|0:2,0:2:0:0:
429,112,295617,2,0,L|323:109,1,100,8|0,0:2|0:2,0:2:0:0:
126,190,295875,1,0,3:2:0:0:
154,179,295962,5,2,3:2:0:0:
226,232,296077,1,2,0:2:0:0:
300,180,296191,1,2,0:2:0:0:
372,237,296306,6,0,P|334:304|239:304,1,150,8|0,0:2|0:2,0:2:0:0:
300,180,296651,22,0,P|344:151|455:202,1,179.999994506836,2|0,3:2|0:2,0:2:0:0:
431,309,296996,5,10,0:2:0:0:
409,334,297111,1,2,0:2:0:0:
377,345,297226,1,2,0:2:0:0:
341,278,297341,21,2,0:0:0:0:
341,231,297456,1,2,0:0:0:0:
381,255,297571,1,2,0:0:0:0:
341,278,297686,22,2,L|283:265,2,33.3333333333333,2|0|2,0:2|0:2|0:2,0:2:0:0:
250,319,298031,38,0,B|224:353|224:353|203:218,1,150,4|0,3:2|0:2,0:2:0:0:
284,100,298375,2,0,L|306:211,1,100,8|0,0:2|0:2,0:2:0:0:
284,14,298634,1,0,3:2:0:0:
284,14,298720,2,0,L|363:1,1,50,2|0,3:2|0:2,0:2:0:0:
201,56,298893,1,2,3:2:0:0:
176,61,298979,1,0,3:2:0:0:
151,64,299065,2,0,B|63:77|63:77|31:129,1,150,8|0,0:2|0:2,0:2:0:0:
144,235,299410,22,2,P|121:145|31:129,1,194.999991073609,2|0,3:2|0:2,0:1:0:0:
74,262,299755,2,0,B|144:238|144:238|245:262,1,150,8|0,0:2|0:2,0:2:0:0:
247,370,300100,2,2,P|211:272|237:233,1,129.999994049073,2|0,0:2|3:2,0:1:0:0:
344,287,300444,2,0,P|318:300|257:309,1,50,10|0,0:2|0:2,0:2:0:0:
424,339,300617,2,0,P|450:352|511:361,1,50,2|0,0:2|0:2,0:2:0:0:
430,243,300789,22,0,P|427:159|350:85,1,150,0|0,3:2|0:2,0:2:0:0:
210,138,301134,2,0,P|242:151|334:112,1,100,8|0,0:2|0:2,0:2:0:0:
119,134,301393,1,0,3:2:0:0:
119,134,301479,2,0,L|45:143,1,50,2|0,3:2|0:2,0:2:0:0:
36,25,301651,1,2,3:2:0:0:
49,45,301737,1,0,3:2:0:0:
64,64,301824,2,0,L|66:233,1,150,8|0,1:2|0:2,0:2:0:0:
182,278,302168,22,2,P|93:237|5:274,1,194.999991073609,2|0,3:2|0:2,0:1:0:0:
129,356,302513,2,0,P|69:337|99:384,1,150,10|0,0:2|3:2,0:2:0:0:
220,358,302858,2,2,B|276:366|312:331|312:331|348:363|417:363,1,194.999991073609,2|0,3:2|0:2,0:1:0:0:
442,194,303203,2,0,P|384:234|383:291,1,112.500004291535,10|0,0:2|0:2,0:2:0:0:
496,270,303548,22,0,L|488:91,1,150,0|0,3:2|0:2,0:2:0:0:
297,74,303893,2,0,L|409:72,1,100,8|0,0:2|0:2,0:2:0:0:
214,43,304151,1,0,3:2:0:0:
214,43,304237,2,0,P|236:0|262:-15,1,50,2|0,3:2|0:2,0:2:0:0:
152,110,304410,1,2,3:2:0:0:
140,132,304496,1,0,3:2:0:0:
127,153,304582,2,0,P|53:166|2:92,1,150,8|0,0:2|0:2,0:2:0:0:
79,91,304927,22,2,B|98:155|98:155|72:208|72:208|83:287,1,194.999991073609,2|0,3:2|0:2,0:1:0:0:
172,282,305272,2,0,P|121:286|82:381,1,150,8|0,0:2|0:2,0:2:0:0:
158,357,305617,2,2,L|302:361,1,129.999994049073,2|0,0:2|3:2,0:1:0:0:
512,323,305962,2,8,L|462:322,1,50,10|0,0:2|0:2,0:2:0:0:
329,279,306134,2,0,L|395:280,1,50,2|0,0:2|0:2,0:2:0:0:
473,199,306306,22,0,P|475:129|396:88,1,150,0|0,3:2|0:2,0:2:0:0:
298,181,306651,2,0,B|347:164|347:164|431:172,1,100,8|0,0:2|0:2,0:2:0:0:
220,165,306910,1,0,3:2:0:0:
220,165,306996,2,0,P|229:103|306:48,1,150,0|0,3:2|0:2,0:2:0:0:
280,79,307341,22,0,P|184:79|100:49,1,150,0|0,0:2|0:2,0:2:0:0:
132,64,307686,22,2,B|162:77|191:80|191:80|103:113|136:212,1,200,2|2,3:2|0:2,0:2:0:0:
138,277,308203,21,0,0:0:0:0:
131,298,308375,2,0,L|180:298,1,50,0|0,0:2|0:2,0:2:0:0:
123,312,308548,2,0,L|172:312,1,50,0|0,0:2|0:2,0:2:0:0:
117,327,308720,1,0,0:2:0:0:
112,341,308893,1,0,0:2:0:0:
274,320,309065,22,0,P|282:259|250:210,1,100,4|0,3:2|0:2,0:2:0:0:
212,55,309410,2,0,P|194:100|204:149,1,100,8|0,0:2|0:2,0:2:0:0:
204,149,309755,1,0,0:2:0:0:
321,56,309927,1,0,3:2:0:0:
116,73,310100,2,0,L|5:73,1,100,8|0,0:2|0:2,0:2:0:0:
69,313,310444,22,0,P|117:260|92:193,1,150,2|0,3:2|0:2,0:2:0:0:
92,193,310789,2,0,B|207:193|207:193|151:154,1,150,10|0,0:2|0:2,0:2:0:0:
269,160,311134,2,0,P|246:225|250:274,1,100,2|0,0:2|3:2,0:2:0:0:
203,381,311479,2,0,L|330:382,1,100,8|0,0:2|0:2,0:2:0:0:
508,175,311824,22,0,P|435:195|421:246,1,100,0|0,3:2|0:2,0:2:0:0:
384,328,312168,2,0,P|457:308|471:257,1,100,8|0,0:2|0:2,0:2:0:0:
466,291,312513,1,0,0:2:0:0:
271,214,312686,1,0,3:2:0:0:
336,65,312858,2,0,L|354:183,1,100,8|0,0:2|0:2,0:2:0:0:
154,183,313203,22,0,B|142:109|142:109|196:29,1,150,2|0,3:2|0:2,0:2:0:0:
183,46,313548,2,0,P|143:80|52:47,1,150,10|0,0:2|0:2,0:2:0:0:
0,11,313893,2,0,L|18:131,1,100,2|0,0:2|3:2,0:2:0:0:
85,266,314237,2,0,L|96:163,1,100,8|0,0:2|0:2,0:2:0:0:
317,105,314582,22,0,P|257:131|188:126,1,100,0|0,3:2|0:2,0:2:0:0:
356,25,314927,2,0,P|405:30|449:52,1,100,8|0,0:2|0:2,0:2:0:0:
449,52,315272,1,0,0:2:0:0:
261,17,315444,1,0,3:2:0:0:
447,138,315617,2,0,P|475:189|463:249,1,100,8|0,0:2|0:2,0:2:0:0:
316,322,315962,22,0,L|127:321,1,150,2|0,3:2|0:2,0:2:0:0:
166,321,316306,2,0,P|216:289|176:185,1,150,10|0,0:2|0:2,0:2:0:0:
160,153,316651,2,0,L|259:153,1,100,2|0,0:2|3:2,0:2:0:0:
82,104,316996,2,0,P|67:172|89:213,1,100,8|0,0:2|0:2,0:2:0:0:
261,71,317341,22,0,L|161:70,1,100,0|0,3:2|0:2,0:2:0:0:
341,112,317686,2,0,L|440:111,1,100,8|0,0:2|0:2,0:2:0:0:
440,111,318031,1,0,0:2:0:0:
337,19,318203,1,0,3:2:0:0:
485,196,318375,2,0,P|471:292|439:313,1,100,8|0,0:2|0:2,0:2:0:0:
226,236,318720,22,0,P|299:234|353:323,1,150,2|0,3:2|0:2,0:2:0:0:
348,287,319065,2,0,L|345:109,1,150,10|0,0:2|0:2,0:2:0:0:
345,54,319410,1,10,0:2:0:0:
148,125,319582,1,0,3:2:0:0:
345,54,319755,1,8,0:2:0:0:
51,144,320100,22,0,P|28:211|51:271,1,100,4|0,3:2|0:2,0:2:0:0:
169,318,320444,2,0,P|172:268|150:223,1,100,8|0,0:2|0:2,0:2:0:0:
150,223,320789,1,0,0:2:0:0:
82,361,320962,1,0,3:2:0:0:
225,178,321134,2,0,P|293:157|341:161,1,100,8|0,0:2|0:2,0:2:0:0:
479,348,321479,22,0,P|455:274|501:207,1,150,2|0,3:2|0:2,0:2:0:0:
488,215,321824,2,0,P|429:201|357:275,1,150,10|0,0:2|0:2,0:2:0:0:
316,309,322168,2,0,L|301:171,1,100,2|0,0:2|3:2,0:2:0:0:
378,45,322513,2,0,L|367:144,1,100,8|0,0:2|0:2,0:2:0:0:
135,82,322858,22,0,P|210:51|254:58,1,100,0|0,3:2|0:2,0:2:0:0:
367,144,323203,2,0,P|317:138|274:113,1,100,8|0,0:2|0:2,0:2:0:0:
274,113,323548,1,0,0:2:0:0:
321,33,323720,1,0,3:2:0:0:
191,177,323893,2,0,L|196:293,1,100,8|0,0:2|0:2,0:2:0:0:
448,328,324237,22,0,P|381:302|304:358,1,150,2|0,3:2|0:2,0:2:0:0:
315,336,324582,2,0,P|381:292|311:254,1,150,10|0,0:2|0:2,0:2:0:0:
294,196,324927,2,0,L|435:190,1,100,2|0,0:2|3:2,0:2:0:0:
505,38,325272,2,0,L|364:32,1,100,8|0,0:2|0:2,0:2:0:0:
163,56,325617,22,0,P|259:32|287:39,1,100,0|0,3:2|0:2,0:2:0:0:
412,119,325962,2,0,P|362:115|317:94,1,100,8|0,0:2|0:2,0:2:0:0:
317,94,326306,1,0,0:2:0:0:
405,33,326479,1,0,3:2:0:0:
239,140,326651,2,0,L|101:141,1,100,8|0,0:2|0:2,0:2:0:0:
217,281,326996,22,0,B|243:320|243:320|236:197,1,150,2|0,3:2|0:2,0:2:0:0:
237,217,327341,2,0,P|297:238|378:191,1,150,10|0,0:2|0:2,0:2:0:0:
421,148,327686,2,0,L|432:294,1,100,2|0,0:2|3:2,0:2:0:0:
500,370,328031,2,0,L|507:270,1,100,8|0,0:2|0:2,0:2:0:0:
512,183,328375,21,0,3:2:0:0:
98,198,330789,22,0,L|117:259,1,50,2|0,0:2|0:2,0:2:0:0:
87,209,330962,2,0,L|106:270,1,50,2|0,0:2|0:2,0:2:0:0:
149,354,331134,22,0,B|124:284|124:284|137:217,1,112.500004291535,0|0,3:2|0:2,0:2:0:0:
140,165,331479,2,0,B|164:235|164:235|152:302,1,112.500004291535,0|0,0:2|0:2,0:2:0:0:
131,246,331824,2,2,L|163:80,1,150,10|0,0:2|0:2,0:1:0:0:
442,138,332513,22,0,P|391:144|313:111,1,112.500004291535,0|0,3:2|0:2,0:2:0:0:
250,102,332858,2,0,P|302:84|358:89,1,112.500004291535,0|0,0:2|0:2,0:2:0:0:
333,125,333202,2,2,P|316:85|442:38,1,225.000008583069,10|0,0:2|0:2,0:1:0:0:
217,275,333893,22,0,B|193:205|193:205|205:138,1,112.500004291535,0|0,3:2|0:2,0:2:0:0:
208,86,334238,2,0,B|232:156|232:156|220:223,1,112.500004291535,0|0,0:2|0:2,0:2:0:0:
199,167,334583,2,2,L|231:1,1,150,10|0,0:2|0:2,0:1:0:0:
45,271,335272,22,0,L|159:260,1,112.500004291535,0|0,3:2|0:2,0:2:0:0:
224,310,335617,2,0,L|112:299,1,112.500004291535,0|0,0:2|0:2,0:2:0:0:
156,260,335962,2,2,L|313:244,1,150,10|0,0:2|0:2,0:1:0:0:
368,99,336651,22,0,P|355:159|387:215,1,112.500004291535,0|0,3:2|0:2,0:2:0:0:
413,278,336996,2,0,P|426:218|394:162,1,112.500004291535,0|0,0:2|0:2,0:2:0:0:
375,203,337341,2,2,P|429:198|401:121,1,150,10|0,0:2|0:2,0:1:0:0:
246,160,338031,22,0,P|176:172|121:137,1,112.500004291535,0|0,3:2|0:2,0:2:0:0:
65,123,338376,2,0,P|117:104|170:118,1,112.500004291535,0|0,0:2|0:2,0:2:0:0:
140,155,338720,2,2,P|140:100|230:106,1,150,10|0,0:2|0:2,0:1:0:0:
291,182,339410,22,0,L|276:263,1,75.0000028610231,0|0,3:2|0:2,0:2:0:0:
283,218,340100,2,2,L|315:384,1,150,10|0,0:2|0:2,0:1:0:0:
79,298,340789,22,0,P|76:258|110:175,1,112.500004291535,0|0,3:2|0:2,0:2:0:0:
74,326,341134,2,0,P|53:274|54:218,1,112.500004291535,0|0,0:2|0:2,0:2:0:0:
76,347,341479,2,2,P|141:354|180:285,1,150,10|0,0:2|0:2,0:1:0:0:
341,373,342169,22,0,L|321:233,1,112.500004291535,0|0,3:2|0:2,0:2:0:0:
319,187,342514,2,0,L|299:327,1,112.500004291535,0|0,0:2|0:2,0:2:0:0:
325,261,342858,2,2,L|305:95,1,150,10|0,0:2|0:2,0:1:0:0:
157,23,343548,22,0,L|278:33,1,112.500004291535,0|0,3:2|0:2,0:2:0:0:
352,62,343893,2,0,L|239:72,1,112.500004291535,0|0,0:2|0:2,0:2:0:0:
269,32,344238,2,2,L|428:45,1,150,10|0,0:2|0:2,0:1:0:0:
176,138,344927,22,0,P|162:199|188:264,1,112.500004291535,0|0,3:2|0:2,0:2:0:0:
209,322,345272,2,0,P|223:261|197:196,1,112.500004291535,0|0,0:2|0:2,0:2:0:0:
175,245,345617,2,2,P|166:287|252:324,1,150,10|0,0:2|0:2,0:1:0:0:
311,237,346307,22,0,P|297:176|323:111,1,112.500004291535,0|0,3:2|0:2,0:2:0:0:
348,55,346652,2,0,P|362:116|336:181,1,112.500004291535,0|0,0:2|0:2,0:2:0:0:
310,130,346997,2,2,P|301:88|395:70,1,150,10|0,0:2|0:2,0:1:0:0:
285,213,347686,22,0,L|164:204,1,112.500004291535,0|0,3:2|0:2,0:2:0:0:
89,195,348031,2,0,L|209:186,1,112.500004291535,0|0,0:2|0:2,0:2:0:0:
173,206,348375,2,2,L|14:195,1,150,10|0,0:2|0:2,0:1:0:0:
293,80,349065,22,0,L|272:223,1,112.500004291535,0|0,3:2|0:2,0:2:0:0:
315,273,349410,2,0,L|294:130,1,112.500004291535,0|0,0:2|0:2,0:2:0:0:
276,191,349755,2,2,L|250:353,1,150,10|0,0:2|0:2,0:1:0:0:
156,144,350444,22,0,P|189:201|184:249,1,112.500004291535,0|0,3:2|0:2,0:2:0:0:
136,314,350789,2,0,P|134:258|165:212,1,112.500004291535,0|0,0:2|0:2,0:2:0:0:
185,245,351134,2,2,P|128:245|94:158,1,150,2|0,0:2|0:2,0:1:0:0:
292,78,351824,22,0,P|232:81|208:75,1,75.0000028610231,0|0,3:2|0:2,0:2:0:0:
319,92,352169,2,0,P|259:95|235:89,1,75.0000028610231,0|0,0:2|0:2,0:2:0:0:
351,17,352514,2,2,B|359:57|359:57|352:73|352:73|355:79|355:79|349:83|349:83|354:95|354:95|365:122|365:122|352:179,1,150,2|2,0:1|0:1,0:1:0:0:
357,156,353203,21,4,3:2:0:0:
