osu file format v14

[General]
AudioFilename: audio.mp3
AudioLeadIn: 0
PreviewTime: 54827
Countdown: 0
SampleSet: Soft
StackLeniency: 0.2
Mode: 0
LetterboxInBreaks: 0
WidescreenStoryboard: 0

[Editor]
Bookmarks: 0,11034,33103,49655,55172,77241,99655,121379,143448,154482,165488,187584,204135,207932,209652,228622,231721,254135,275859,297928,308967,319997
DistanceSpacing: 0.6
BeatDivisor: 4
GridSize: 32
TimelineZoom: 2.7

[Metadata]
Title:All That We Lost
TitleUnicode:All That We Lost
Artist:Rusty K
ArtistUnicode:Rusty K
Creator:Mir
Version:Daybreak
Source:
Tags:dark orchestral dnb neurofunk overtech otm001 compression loudness war
BeatmapID:1388622
BeatmapSetID:655248

[Difficulty]
HPDrainRate:5
CircleSize:4
OverallDifficulty:8.5
ApproachRate:9.3
SliderMultiplier:2.4
SliderTickRate:1

[Events]
//Background and Video events
0,0,"all that we lost 2.jpg",0,0
//Break Periods
//Storyboard Layer 0 (Background)
//Storyboard Layer 1 (Fail)
//Storyboard Layer 2 (Pass)
//Storyboard Layer 3 (Foreground)
//Storyboard Sound Samples

[TimingPoints]
0,344.827586206897,4,2,1,50,1,0
11034,-166.666666666667,4,2,1,50,0,0
21724,-200,4,2,1,50,0,0
22068,-142.857142857143,4,2,1,50,0,0
27241,-200,4,2,1,50,0,0
27585,-142.857142857143,4,2,1,50,0,0
32241,-50,4,2,1,50,0,0
32413,-142.857142857143,4,2,1,50,0,0
43793,-200,4,2,1,50,0,0
44137,-142.857142857143,4,2,1,50,0,0
49310,-200,4,2,1,50,0,0
49654,-142.857142857143,4,2,1,50,0,0
54310,-50,4,2,1,50,0,0
54482,-142.857142857143,4,2,1,50,0,0
54827,-100,4,2,1,50,0,0
55172,-83.3333333333333,4,2,1,80,0,1
55517,-100,4,2,1,80,0,1
55862,-66.6666666666667,4,2,1,80,0,1
56206,-200,4,2,1,80,0,1
56551,-83.3333333333333,4,2,1,80,0,1
56896,-100,4,2,1,80,0,1
57241,-66.6666666666667,4,2,1,80,0,1
57586,-200,4,2,1,80,0,1
58275,-83.3333333333333,4,2,1,80,0,1
60344,-133.333333333333,4,2,1,80,0,1
60689,-83.3333333333333,4,2,1,80,0,1
61034,-100,4,2,1,80,0,1
61379,-66.6666666666667,4,2,1,80,0,1
61724,-200,4,2,1,80,0,1
62068,-83.3333333333333,4,2,1,80,0,1
62413,-100,4,2,1,80,0,1
62758,-66.6666666666667,4,2,1,80,0,1
63103,-200,4,2,1,80,0,1
63793,-83.3333333333333,4,2,1,80,0,1
66206,-83.3333333333333,4,2,1,80,0,1
66551,-100,4,2,1,80,0,1
67586,-83.3333333333333,4,2,1,80,0,1
67931,-100,4,2,1,80,0,1
69310,-83.3333333333333,4,2,1,80,0,1
71379,-133.333333333333,4,2,1,80,0,1
71724,-83.3333333333333,4,2,1,80,0,1
72069,-100,4,2,1,80,0,1
72241,-200,4,2,1,80,0,1
72413,-66.6666666666667,4,2,1,80,0,1
72758,-200,4,2,1,80,0,1
73103,-83.3333333333333,4,2,1,80,0,1
73448,-100,4,2,1,80,0,1
73793,-66.6666666666667,4,2,1,80,0,1
74137,-200,4,2,1,80,0,1
74827,-50,4,2,1,80,0,1
75172,-100,4,2,1,80,0,1
75862,-66.6666666666667,4,2,1,80,0,1
76206,-83.3333333333333,4,2,1,80,0,1
76896,-200,4,2,1,80,0,1
77241,-83.3333333333333,4,2,1,60,0,0
86896,-200,4,2,1,60,0,0
87155,-200,4,2,1,5,0,0
87241,-100,4,2,1,60,0,0
87500,-100,4,2,1,5,0,0
87586,-66.6666666666667,4,2,1,60,0,0
87845,-66.6666666666667,4,2,1,5,0,0
87931,-50,4,2,1,60,0,0
88190,-50,4,2,1,5,0,0
88275,-83.3333333333333,4,2,1,60,0,0
98448,-50,4,2,1,60,0,0
98620,-142.857142857143,4,2,1,60,0,0
98965,-200,4,2,1,60,0,0
99612,-200,4,2,1,5,0,0
99655,-66.6666666666667,4,2,1,80,0,1
100000,-66.6666666666667,4,2,1,80,0,1
100344,-200,4,2,1,80,0,1
100689,-83.3333333333333,4,2,1,80,0,1
101034,-100,4,2,1,80,0,1
101379,-66.6666666666667,4,2,1,80,0,1
101724,-200,4,2,1,80,0,1
102413,-83.3333333333333,4,2,1,80,0,1
104482,-133.333333333333,4,2,1,80,0,1
104827,-83.3333333333333,4,2,1,80,0,1
105172,-100,4,2,1,80,0,1
105517,-66.6666666666667,4,2,1,80,0,1
105862,-200,4,2,1,80,0,1
106206,-83.3333333333333,4,2,1,80,0,1
106551,-100,4,2,1,80,0,1
106896,-66.6666666666667,4,2,1,80,0,1
107241,-200,4,2,1,80,0,1
107931,-83.3333333333333,4,2,1,80,0,1
110344,-83.3333333333333,4,2,1,80,0,1
110689,-100,4,2,1,80,0,1
111724,-83.3333333333333,4,2,1,80,0,1
112069,-100,4,2,1,80,0,1
113448,-83.3333333333333,4,2,1,80,0,1
115517,-133.333333333333,4,2,1,80,0,1
115862,-83.3333333333333,4,2,1,80,0,1
116207,-100,4,2,1,80,0,1
116379,-200,4,2,1,80,0,1
116551,-66.6666666666667,4,2,1,80,0,1
116896,-200,4,2,1,80,0,1
117241,-83.3333333333333,4,2,1,80,0,1
117586,-100,4,2,1,80,0,1
117931,-66.6666666666667,4,2,1,80,0,1
118275,-200,4,2,1,80,0,1
118620,-50,4,2,1,80,0,1
118965,-83.3333333333333,4,2,1,80,0,1
119310,-100,4,2,1,80,0,1
120000,-66.6666666666667,4,2,1,80,0,1
120344,-83.3333333333333,4,2,1,80,0,1
121034,-200,4,2,1,80,0,1
121379,-83.3333333333333,4,2,1,60,0,0
123620,-66.6666666666667,4,2,1,60,0,0
123965,-55.5555555555556,4,2,1,60,0,0
124137,-83.3333333333333,4,2,1,60,0,0
124827,-66.6666666666667,4,2,1,60,0,0
125172,-83.3333333333333,4,2,1,60,0,0
127241,-66.6666666666667,4,2,1,60,0,0
128275,-83.3333333333333,4,2,1,60,0,0
129137,-66.6666666666667,4,2,1,60,0,0
129482,-55.5555555555556,4,2,1,60,0,0
129654,-83.3333333333333,4,2,1,60,0,0
130344,-66.6666666666667,4,2,1,60,0,0
130689,-83.3333333333333,4,2,1,60,0,0
131724,-66.6666666666667,4,2,1,60,0,0
132413,-83.3333333333333,4,2,1,60,0,0
134655,-66.6666666666667,4,2,1,60,0,0
135000,-55.5555555555556,4,2,1,60,0,0
135172,-83.3333333333333,4,2,1,60,0,0
135862,-66.6666666666667,4,2,1,60,0,0
136207,-83.3333333333333,4,2,1,60,0,0
140172,-66.6666666666667,4,2,1,60,0,0
140517,-55.5555555555556,4,2,1,60,0,0
140689,-83.3333333333333,4,2,1,60,0,0
141379,-66.6666666666667,4,2,1,60,0,0
141724,-83.3333333333333,4,2,1,60,0,0
142068,-200,4,2,1,60,0,0
142327,-200,4,2,1,5,0,0
142413,-100,4,2,1,60,0,0
142672,-100,4,2,1,5,0,0
142758,-66.6666666666667,4,2,1,60,0,0
143017,-66.6666666666667,4,2,1,5,0,0
143103,-50,4,2,1,60,0,0
143362,-50,4,2,1,5,0,0
143448,-100,4,2,1,60,0,0
147586,-50,4,2,1,60,0,0
147629,-50,4,2,1,5,0,0
147672,-50,4,2,1,60,0,0
147931,-100,4,2,1,60,0,0
153103,-66.6666666666667,4,2,1,60,0,0
153362,-66.6666666666667,4,2,1,5,0,0
153448,-66.6666666666667,4,2,1,60,0,0
153706,-66.6666666666667,4,2,1,5,0,0
153792,-66.6666666666667,4,2,1,60,0,0
154051,-66.6666666666667,4,2,1,5,0,0
154137,-66.6666666666667,4,2,1,60,0,0
154396,-66.6666666666667,4,2,1,5,0,0
154482,-83.3333333333333,4,2,1,60,0,0
165517,338.983050847458,4,2,1,40,1,0
165517,-200,4,2,1,40,0,0
165855,363.636363636364,4,2,1,40,1,0
165855,-200,4,2,1,40,0,0
166218,545.454545454546,4,2,1,40,1,0
166218,-200,4,2,1,40,0,0
166354,348.837209302326,4,2,1,40,1,0
166354,-200,4,2,1,40,0,0
166702,365.853658536585,4,2,1,40,1,0
166702,-200,4,2,1,40,0,0
166884,357.142857142857,4,2,1,40,1,0
166884,-200,4,2,1,40,0,0
167062,329.67032967033,4,2,1,40,1,0
167062,-200,4,2,1,40,0,0
167391,350.877192982456,4,2,1,40,1,0
167391,-200,4,2,1,40,0,0
167917,337.078651685393,4,2,1,40,1,0
167917,-200,4,2,1,40,0,0
168085,363.636363636364,4,2,1,40,1,0
168085,-200,4,2,1,40,0,0
168266,341.880341880342,4,2,1,40,1,0
168266,-200,4,2,1,40,0,0
168949,348.837209302326,4,2,1,40,1,0
168949,-200,4,2,1,40,0,0
169123,335.195530726257,4,2,1,40,1,0
169123,-200,4,2,1,40,0,0
169458,352.941176470588,4,2,1,40,1,0
169458,-200,4,2,1,40,0,0
169810,342.857142857143,4,2,1,40,1,0
169810,-200,4,2,1,40,0,0
170152,346.820809248555,4,2,1,40,1,0
170152,-200,4,2,1,40,0,0
170498,340.909090909091,4,2,1,40,1,0
170498,-200,4,2,1,40,0,0
170838,355.029585798817,4,2,1,40,1,0
170838,-200,4,2,1,40,0,0
171015,337.078651685393,4,2,1,40,1,0
171015,-200,4,2,1,40,0,0
171352,355.029585798817,4,2,1,40,1,0
171352,-200,4,2,1,40,0,0
171707,329.67032967033,4,2,1,40,1,0
171707,-200,4,2,1,40,0,0
171871,361.44578313253,4,2,1,40,1,0
171871,-200,4,2,1,40,0,0
172232,331.491712707182,4,2,1,40,1,0
172232,-200,4,2,1,40,0,0
172563,333.333333333333,4,2,1,40,1,0
172563,-200,4,2,1,40,0,0
172729,357.142857142857,4,2,1,40,1,0
172729,-200,4,2,1,40,0,0
172907,342.857142857143,4,2,1,40,1,0
172907,-200,4,2,1,40,0,0
173249,352.941176470588,4,2,1,40,1,0
173249,-200,4,2,1,40,0,0
173425,344.827586206897,4,2,1,40,1,0
173425,-200,4,2,1,40,0,0
173597,370.37037037037,4,2,1,40,1,0
173597,-200,4,2,1,40,0,0
173782,329.67032967033,4,2,1,40,1,0
173782,-200,4,2,1,40,0,0
174111,361.44578313253,4,2,1,40,1,0
174111,-200,4,2,1,40,0,0
174472,320.855614973262,4,2,1,40,1,0
174472,-200,4,2,1,40,0,0
174632,340.909090909091,4,2,1,40,1,0
174632,-200,4,2,1,40,0,0
174972,348.837209302326,4,2,1,40,1,0
174972,-200,4,2,1,40,0,0
175320,337.078651685393,4,2,1,40,1,0
175320,-200,4,2,1,40,0,0
175657,361.44578313253,4,2,1,40,1,0
175657,-200,4,2,1,40,0,0
175837,356.083086053412,4,2,1,40,1,0
175837,-200,4,2,1,40,0,0
176549,413.793103448276,4,2,1,40,1,0
176549,-200,4,2,1,40,0,0
177376,350.877192982456,4,2,1,40,1,0
177376,-200,4,2,1,40,0,0
177726,355.029585798817,4,2,1,40,1,0
177726,-200,4,2,1,40,0,0
177903,340.909090909091,4,2,1,40,1,0
177903,-200,4,2,1,40,0,0
178414,338.983050847458,4,2,1,40,1,0
178414,-200,4,2,1,40,0,0
178752,350.877192982456,4,2,1,40,1,0
178752,-200,4,2,1,40,0,0
179102,344.827586206897,4,2,1,40,1,0
179102,-200,4,2,1,40,0,0
179274,424.028268551237,4,2,1,40,1,0
179274,-200,4,2,1,40,0,0
180122,350.877192982456,4,2,1,40,1,0
180122,-200,4,2,1,40,0,0
180472,348.837209302326,4,2,1,40,1,0
180472,-200,4,2,1,40,0,0
180820,346.820809248555,4,2,1,40,1,0
180820,-200,4,2,1,40,0,0
181166,340.909090909091,4,2,1,40,1,0
181166,-200,4,2,1,40,0,0
181506,342.857142857143,4,2,1,40,1,0
181506,-200,4,2,1,40,0,0
181848,394.736842105263,4,2,1,40,1,0
181848,-200,4,2,1,40,0,0
182045,335.195530726257,4,2,1,40,1,0
182045,-200,4,2,1,40,0,0
182715,338.983050847458,4,2,1,40,1,0
182715,-200,4,2,1,40,0,0
182884,363.636363636364,4,2,1,40,1,0
182884,-200,4,2,1,40,0,0
183247,326.086956521739,4,2,1,40,1,0
183247,-200,4,2,1,40,0,0
183573,342.857142857143,4,2,1,40,1,0
183573,-200,4,2,1,40,0,0
183915,340.909090909091,4,2,1,40,1,0
183915,-200,4,2,1,40,0,0
184255,357.142857142857,4,2,1,40,1,0
184255,-200,4,2,1,40,0,0
184790,340.909090909091,4,2,1,40,1,0
184790,-200,4,2,1,40,0,0
186153,357.142857142857,4,2,1,40,1,0
186153,-200,4,2,1,40,0,0
186510,566.037735849057,4,2,1,40,1,0
186510,-200,4,2,1,40,0,0
186793,357.142857142857,4,2,1,40,1,0
186793,-200,4,2,1,40,0,0
186971,377.358490566038,4,2,1,40,1,0
186971,-200,4,2,1,40,0,0
187159,335.195530726257,4,2,1,40,1,0
187159,-200,4,2,1,40,0,0
187326,344.827586206897,4,2,1,40,1,0
187326,-200,4,2,1,40,0,0
187588,344.827586206897,4,2,1,50,1,0
187588,-166.666666666667,4,2,1,50,0,0
198277,-200,4,2,1,50,0,0
198622,-142.857142857143,4,2,1,50,0,0
203794,-200,4,2,1,50,0,0
204139,-142.857142857143,4,2,1,50,0,0
208794,-50,4,2,1,50,0,0
208966,-142.857142857143,4,2,1,50,0,0
209312,-100,4,2,1,50,0,0
209656,-83.3333333333333,4,2,1,80,0,1
210001,-100,4,2,1,80,0,1
210346,-66.6666666666667,4,2,1,80,0,1
210691,-200,4,2,1,80,0,1
211035,-83.3333333333333,4,2,1,80,0,1
211380,-100,4,2,1,80,0,1
211725,-66.6666666666667,4,2,1,80,0,1
212070,-200,4,2,1,80,0,1
212759,-83.3333333333333,4,2,1,80,0,1
214828,-133.333333333333,4,2,1,80,0,1
215173,-83.3333333333333,4,2,1,80,0,1
215518,-100,4,2,1,80,0,1
215863,-66.6666666666667,4,2,1,80,0,1
216208,-200,4,2,1,80,0,1
216552,-83.3333333333333,4,2,1,80,0,1
216897,-100,4,2,1,80,0,1
217242,-66.6666666666667,4,2,1,80,0,1
217588,-200,4,2,1,80,0,1
218277,-83.3333333333333,4,2,1,80,0,1
220690,-83.3333333333333,4,2,1,80,0,1
221035,-100,4,2,1,80,0,1
222070,-83.3333333333333,4,2,1,80,0,1
222415,-100,4,2,1,80,0,1
223794,-83.3333333333333,4,2,1,80,0,1
225863,-133.333333333333,4,2,1,80,0,1
226208,-83.3333333333333,4,2,1,80,0,1
226553,-100,4,2,1,80,0,1
226725,-200,4,2,1,80,0,1
226897,-66.6666666666667,4,2,1,80,0,1
227243,-200,4,2,1,80,0,1
227587,-83.3333333333333,4,2,1,80,0,1
227932,-100,4,2,1,80,0,1
228277,-66.6666666666667,4,2,1,80,0,1
228622,-200,4,2,1,80,0,1
229311,-50,4,2,1,80,0,1
229656,-100,4,2,1,80,0,1
230346,-66.6666666666667,4,2,1,80,0,1
230690,-83.3333333333333,4,2,1,80,0,1
231380,-200,4,2,1,80,0,1
231682,-200,4,2,1,5,0,1
231725,-83.3333333333333,4,2,1,60,0,0
241381,-200,4,2,1,60,0,0
241639,-200,4,2,1,5,0,0
241725,-100,4,2,1,60,0,0
241984,-100,4,2,1,5,0,0
242070,-66.6666666666667,4,2,1,60,0,0
242329,-66.6666666666667,4,2,1,5,0,0
242415,-50,4,2,1,60,0,0
242674,-50,4,2,1,5,0,0
242759,-83.3333333333333,4,2,1,60,0,0
252932,-50,4,2,1,60,0,0
253104,-142.857142857143,4,2,1,60,0,0
253449,-200,4,2,1,60,0,0
254096,-200,4,2,1,5,0,0
254139,-66.6666666666667,4,2,1,80,0,1
254484,-66.6666666666667,4,2,1,80,0,1
254829,-200,4,2,1,80,0,1
255173,-83.3333333333333,4,2,1,80,0,1
255518,-100,4,2,1,80,0,1
255863,-66.6666666666667,4,2,1,80,0,1
256208,-200,4,2,1,80,0,1
256897,-83.3333333333333,4,2,1,80,0,1
257586,-83.3333333333333,4,2,1,80,0,1
258967,-133.333333333333,4,2,1,80,0,1
259312,-83.3333333333333,4,2,1,80,0,1
259656,-100,4,2,1,80,0,1
260001,-66.6666666666667,4,2,1,80,0,1
260346,-200,4,2,1,80,0,1
260690,-83.3333333333333,4,2,1,80,0,1
261036,-100,4,2,1,80,0,1
261380,-66.6666666666667,4,2,1,80,0,1
261725,-200,4,2,1,80,0,1
262415,-83.3333333333333,4,2,1,80,0,1
264829,-83.3333333333333,4,2,1,80,0,1
265173,-100,4,2,1,80,0,1
266208,-83.3333333333333,4,2,1,80,0,1
266553,-100,4,2,1,80,0,1
267932,-83.3333333333333,4,2,1,80,0,1
270001,-133.333333333333,4,2,1,80,0,1
270346,-83.3333333333333,4,2,1,80,0,1
270691,-100,4,2,1,80,0,1
270863,-200,4,2,1,80,0,1
271035,-66.6666666666667,4,2,1,80,0,1
271381,-200,4,2,1,80,0,1
271725,-83.3333333333333,4,2,1,80,0,1
272070,-100,4,2,1,80,0,1
272415,-66.6666666666667,4,2,1,80,0,1
272760,-200,4,2,1,80,0,1
273104,-50,4,2,1,80,0,1
273450,-83.3333333333333,4,2,1,80,0,1
273794,-100,4,2,1,80,0,1
274484,-66.6666666666667,4,2,1,80,0,1
274828,-83.3333333333333,4,2,1,80,0,1
275518,-200,4,2,1,80,0,1
275863,-83.3333333333333,4,2,1,60,0,0
278103,-66.6666666666667,4,2,1,60,0,0
278448,-55.5555555555556,4,2,1,60,0,0
278620,-83.3333333333333,4,2,1,60,0,0
279312,-66.6666666666667,4,2,1,60,0,0
279655,-83.3333333333333,4,2,1,60,0,0
281724,-66.6666666666667,4,2,1,60,0,0
282759,-83.3333333333333,4,2,1,60,0,0
283620,-66.6666666666667,4,2,1,60,0,0
283965,-55.5555555555556,4,2,1,60,0,0
284137,-83.3333333333333,4,2,1,60,0,0
284827,-66.6666666666667,4,2,1,60,0,0
285172,-83.3333333333333,4,2,1,60,0,0
286207,-66.6666666666667,4,2,1,60,0,0
286897,-83.3333333333333,4,2,1,60,0,0
289138,-66.6666666666667,4,2,1,60,0,0
289483,-55.5555555555556,4,2,1,60,0,0
289655,-83.3333333333333,4,2,1,60,0,0
290345,-66.6666666666667,4,2,1,60,0,0
290690,-83.3333333333333,4,2,1,60,0,0
294655,-66.6666666666667,4,2,1,60,0,0
295000,-55.5555555555556,4,2,1,60,0,0
295172,-83.3333333333333,4,2,1,60,0,0
295862,-66.6666666666667,4,2,1,60,0,0
296207,-83.3333333333333,4,2,1,60,0,0
296551,-200,4,2,1,60,0,0
296812,-200,4,2,1,5,0,0
296896,-100,4,2,1,60,0,0
297157,-100,4,2,1,5,0,0
297241,-66.6666666666667,4,2,1,60,0,0
297502,-66.6666666666667,4,2,1,5,0,0
297586,-50,4,2,1,60,0,0
297847,-50,4,2,1,5,0,0
297930,-100,4,2,1,60,0,0
302070,-50,4,2,1,60,0,0
302113,-50,4,2,1,5,0,0
302156,-50,4,2,1,60,0,0
302415,-100,4,2,1,60,0,0
307588,-66.6666666666667,4,2,1,60,0,0
307846,-66.6666666666667,4,2,1,5,0,0
307932,-66.6666666666667,4,2,1,60,0,0
308190,-66.6666666666667,4,2,1,5,0,0
308276,-66.6666666666667,4,2,1,60,0,0
308535,-66.6666666666667,4,2,1,5,0,0
308621,-66.6666666666667,4,2,1,60,0,0
308880,-66.6666666666667,4,2,1,5,0,0
308967,-83.3333333333333,4,2,1,60,0,0
328276,-1000,4,2,1,100,0,0
328362,-25,4,2,1,100,0,0

[Colours]
Combo1 : 204,143,115
Combo2 : 129,129,129
Combo3 : 217,168,155
Combo4 : 207,207,207

[HitObjects]
87,51,11034,6,0,P|69:98|119:180,1,143.999995605469,2|0,3:2|0:2,0:2:0:0:
110,175,11551,1,0,0:2:0:0:
236,103,11724,1,8,0:3:0:0:
236,103,11896,2,0,L|153:102,1,71.9999978027344,2|0,0:2|0:2,0:2:0:0:
175,116,12155,1,0,0:2:0:0:
186,129,12241,1,2,0:2:0:0:
197,142,12327,1,0,0:2:0:0:
207,156,12413,5,0,3:2:0:0:
172,232,12586,2,0,P|168:254|181:313,1,71.9999978027344,0|0,0:2|0:2,0:2:0:0:
277,352,12931,2,0,P|285:317|280:281,1,71.9999978027344,2|8,0:2|0:3,0:2:0:0:
274,264,13189,1,0,0:2:0:0:
267,247,13275,1,0,0:2:0:0:
362,253,13448,2,0,L|403:249,1,35.9999989013672,0|0,0:2|0:2,0:2:0:0:
443,170,13620,1,0,0:2:0:0:
436,153,13706,1,0,0:2:0:0:
427,137,13793,6,0,P|365:117|268:133,1,143.999995605469,2|0,3:2|0:2,0:2:0:0:
287,125,14310,1,0,0:2:0:0:
173,80,14482,1,8,0:3:0:0:
173,80,14655,2,0,P|181:125|172:155,1,71.9999978027344,2|0,0:2|0:2,0:2:0:0:
162,163,14913,1,0,0:2:0:0:
150,177,15000,1,2,0:2:0:0:
138,191,15086,1,0,0:2:0:0:
127,205,15172,5,0,3:2:0:0:
8,131,15344,2,0,L|82:127,1,71.9999978027344,0|0,0:2|0:2,0:2:0:0:
201,254,15689,1,2,0:2:0:0:
124,291,15862,1,8,0:3:0:0:
226,248,16034,2,0,P|277:240|311:246,1,71.9999978027344,2|0,0:2|0:2,0:2:0:0:
313,250,16293,1,0,0:2:0:0:
328,258,16379,1,2,0:2:0:0:
385,329,16551,6,0,L|380:168,1,143.999995605469,0|2,3:2|0:2,0:2:0:0:
380,185,17068,1,0,0:2:0:0:
499,62,17241,1,8,0:3:0:0:
499,62,17413,2,0,P|504:116|497:141,1,71.9999978027344,2|0,0:2|0:2,0:2:0:0:
490,148,17672,1,0,0:2:0:0:
481,163,17758,1,0,0:2:0:0:
472,178,17844,1,0,0:2:0:0:
463,193,17931,5,0,3:2:0:0:
336,107,18103,2,0,L|407:104,1,71.9999978027344,2|0,0:2|0:2,0:2:0:0:
278,178,18448,1,0,0:2:0:0:
266,48,18620,1,8,0:3:0:0:
203,120,18793,2,0,L|131:122,1,71.9999978027344,2|0,0:2|0:2,0:2:0:0:
119,136,19051,1,0,0:2:0:0:
108,150,19137,1,0,0:2:0:0:
96,164,19224,1,0,0:2:0:0:
84,177,19310,6,0,P|69:247|121:317,1,143.999995605469,0|2,3:2|0:2,0:2:0:0:
104,306,19827,1,0,0:2:0:0:
237,232,20000,1,8,0:3:0:0:
237,232,20172,2,0,L|152:229,1,71.9999978027344,2|0,0:2|0:2,0:2:0:0:
172,246,20431,1,0,0:2:0:0:
179,262,20517,1,0,0:2:0:0:
186,278,20603,1,0,0:2:0:0:
193,294,20689,5,0,3:2:0:0:
302,298,20862,2,0,P|326:261|331:225,1,71.9999978027344,2|0,0:2|0:2,0:2:0:0:
331,234,21206,1,0,0:2:0:0:
225,141,21379,1,8,0:3:0:0:
225,141,21551,1,2,0:2:0:0:
473,162,21724,6,0,L|356:162,1,90,8|0,0:2|0:2,0:2:0:0:
366,148,22068,6,0,P|360:76|446:28,1,167.999994873047,0|2,3:2|0:2,0:2:0:0:
292,185,22586,1,0,0:2:0:0:
194,35,22758,1,8,0:3:0:0:
282,23,22931,2,0,P|278:64|245:107,1,83.9999974365235,2|0,0:2|0:2,0:2:0:0:
237,111,23189,1,0,0:2:0:0:
218,120,23275,1,0,0:2:0:0:
197,125,23362,1,0,0:2:0:0:
176,124,23448,5,0,3:2:0:0:
94,195,23620,2,0,L|83:112,1,83.9999974365235,2|0,0:2|0:2,0:2:0:0:
168,243,23965,1,2,0:2:0:0:
17,244,24137,1,8,0:3:0:0:
93,300,24310,2,0,L|104:383,1,83.9999974365235,2|0,0:2|0:2,0:2:0:0:
124,381,24568,1,0,0:2:0:0:
145,379,24655,1,0,0:2:0:0:
165,377,24741,1,0,0:2:0:0:
185,374,24827,6,0,L|268:363,1,83.9999974365235,2|0,3:2|0:2,0:2:0:0:
366,347,25172,1,0,0:2:0:0:
299,276,25344,1,2,0:2:0:0:
457,333,25517,1,8,0:3:0:0:
430,180,25689,2,0,P|403:222|399:275,1,83.9999974365235,2|0,0:2|0:2,0:2:0:0:
418,256,25948,1,0,0:2:0:0:
438,257,26034,1,0,0:2:0:0:
458,258,26120,1,0,0:2:0:0:
478,259,26206,5,0,3:2:0:0:
505,132,26379,2,0,P|466:99|417:92,1,83.9999974365235,2|0,0:2|0:2,0:2:0:0:
430,180,26724,1,0,0:2:0:0:
378,28,26896,1,8,0:3:0:0:
378,28,27068,1,2,0:2:0:0:
75,107,27241,6,0,L|173:91,1,90,8|0,0:2|0:2,0:2:0:0:
190,86,27586,6,0,P|174:131|245:242,1,167.999994873047,0|2,3:2|0:2,0:2:0:0:
224,232,28275,1,0,3:2:0:0:
128,329,28448,2,0,P|174:328|222:288,1,83.9999974365235,2|0,0:2|0:2,0:2:0:0:
220,294,28706,1,0,0:2:0:0:
227,274,28793,1,0,0:2:0:0:
229,253,28879,1,0,0:2:0:0:
224,232,28965,5,0,3:2:0:0:
388,287,29137,2,0,P|342:286|294:246,1,83.9999974365235,2|0,0:2|0:2,0:2:0:0:
305,175,29482,1,2,0:2:0:0:
224,232,29655,1,0,3:2:0:0:
249,104,29827,2,0,P|285:83|326:84,1,83.9999974365235,2|0,0:2|0:2,0:2:0:0:
346,93,30086,1,0,0:2:0:0:
363,104,30172,1,0,0:2:0:0:
377,119,30258,1,0,0:2:0:0:
383,138,30344,6,0,P|390:165|373:232,1,83.9999974365235,0|0,3:2|0:2,0:2:0:0:
226,313,30689,2,0,P|215:272|223:231,1,83.9999974365235,0|0,3:2|0:2,0:2:0:0:
431,309,31034,2,0,L|327:311,1,83.9999974365235,2|0,3:2|0:2,0:2:0:0:
328,301,31293,1,0,0:2:0:0:
309,291,31379,1,0,3:2:0:0:
95,326,31551,1,0,0:2:0:0:
114,316,31637,1,0,0:2:0:0:
133,308,31724,5,2,3:2:0:0:
66,208,31896,1,2,0:2:0:0:
113,100,32068,1,2,0:2:0:0:
219,212,32241,2,0,L|152:211,1,60,0|0,0:2|0:2,0:2:0:0:
341,120,32413,5,0,1:2:0:0:
363,145,32500,1,0,1:2:0:0:
378,120,32586,1,0,1:2:0:0:
404,147,32672,1,0,1:2:0:0:
428,118,33103,6,0,P|450:214|394:261,1,167.999994873047,0|2,3:2|0:2,0:2:0:0:
406,256,33620,1,0,0:2:0:0:
361,335,33793,1,8,0:3:0:0:
361,335,33965,2,0,L|268:336,1,83.9999974365235,2|0,0:2|0:2,0:2:0:0:
255,335,34224,1,0,0:2:0:0:
234,335,34310,1,0,0:2:0:0:
213,335,34396,1,0,0:2:0:0:
192,335,34482,5,0,3:2:0:0:
125,275,34655,2,0,P|178:245|227:252,1,83.9999974365235,2|0,0:2|0:2,0:2:0:0:
131,167,35000,1,2,0:2:0:0:
112,363,35172,1,8,0:3:0:0:
91,365,35258,1,0,0:2:0:0:
70,367,35344,1,2,0:2:0:0:
37,247,35517,2,0,L|35:303,1,41.9999987182618,0|0,0:2|0:2,0:2:0:0:
50,126,35689,2,0,L|52:182,1,41.9999987182618,0|0,0:2|0:2,0:2:0:0:
146,162,35862,6,0,P|202:143|227:93,1,83.9999974365235,2|0,3:2|0:2,0:2:0:0:
298,73,36206,2,0,P|267:44|227:36,1,83.9999974365235,0|0,0:2|0:2,0:2:0:0:
138,70,36551,1,8,0:3:0:0:
298,73,36724,2,0,L|397:68,1,83.9999974365235,2|0,0:2|0:2,0:2:0:0:
398,81,36982,1,0,0:2:0:0:
414,93,37068,1,2,0:2:0:0:
430,106,37155,1,0,0:2:0:0:
446,118,37241,5,0,3:2:0:0:
374,249,37413,2,0,P|359:209|367:162,1,83.9999974365235,2|0,0:2|0:2,0:2:0:0:
456,202,37758,1,0,0:2:0:0:
270,213,37931,1,8,0:3:0:0:
455,284,38103,2,0,P|459:325|445:364,1,83.9999974365235,2|0,0:2|0:2,0:2:0:0:
424,366,38362,1,0,0:2:0:0:
403,368,38448,1,2,0:2:0:0:
185,241,38620,6,0,P|247:238|307:322,1,167.999994873047,0|2,3:2|0:2,0:2:0:0:
306,316,39310,1,8,0:3:0:0:
356,215,39482,2,0,L|455:216,1,83.9999974365235,2|0,0:2|0:2,0:2:0:0:
431,196,39741,1,0,0:2:0:0:
422,176,39827,1,0,0:2:0:0:
413,156,39913,1,0,0:2:0:0:
405,136,40000,5,0,3:2:0:0:
309,132,40172,2,0,L|225:131,1,83.9999974365235,2|0,0:2|0:2,0:2:0:0:
224,44,40517,1,0,0:2:0:0:
228,217,40689,1,8,0:3:0:0:
127,146,40862,2,0,P|133:92|165:57,1,83.9999974365235,2|0,0:2|0:2,0:2:0:0:
166,55,41120,1,0,0:2:0:0:
184,46,41206,1,2,0:2:0:0:
204,42,41293,1,0,0:2:0:0:
224,44,41379,6,0,P|301:53|330:37,1,83.9999974365235,0|0,3:2|0:2,0:2:0:0:
461,0,41724,2,0,P|419:-5|380:7,1,83.9999974365235,2|0,0:2|0:2,0:2:0:0:
375,100,42068,1,8,0:3:0:0:
468,178,42241,2,0,L|471:84,1,83.9999974365235,2|0,0:2|0:2,0:2:0:0:
462,113,42500,1,0,0:2:0:0:
453,132,42586,1,0,0:2:0:0:
444,151,42672,1,0,0:2:0:0:
436,170,42758,5,0,3:2:0:0:
484,279,42931,2,0,P|427:270|385:237,1,83.9999974365235,2|0,0:2|0:2,0:2:0:0:
252,219,43275,1,2,0:2:0:0:
252,219,43448,1,8,0:3:0:0:
336,142,43620,1,2,0:0:0:0:
75,261,43793,6,0,L|185:259,1,90,8|0,0:2|0:2,0:2:0:0:
179,243,44137,6,0,P|196:169|117:102,1,167.999994873047,0|2,3:2|0:2,0:2:0:0:
138,106,44655,1,0,0:2:0:0:
111,194,44827,1,8,0:3:0:0:
226,59,45000,2,0,L|336:57,1,83.9999974365235,2|0,0:2|0:2,0:2:0:0:
330,57,45258,1,0,0:2:0:0:
350,57,45344,1,0,0:2:0:0:
371,57,45431,1,0,0:2:0:0:
391,57,45517,5,0,3:2:0:0:
397,153,45689,2,0,L|287:151,1,83.9999974365235,2|0,0:2|0:2,0:2:0:0:
217,160,46034,1,2,0:2:0:0:
309,57,46206,1,8,0:3:0:0:
319,240,46379,2,0,P|313:300|289:337,1,83.9999974365235,2|0,0:2|0:2,0:2:0:0:
287,335,46637,1,0,0:2:0:0:
267,344,46724,1,0,0:2:0:0:
247,351,46810,1,0,0:2:0:0:
226,350,46896,6,0,P|155:333|61:374,1,167.999994873047,2|0,3:2|0:2,0:2:0:0:
69,366,47413,1,0,0:2:0:0:
167,230,47586,1,8,0:3:0:0:
44,182,47758,2,0,P|33:245|45:285,1,83.9999974365235,2|0,0:2|0:2,0:2:0:0:
49,246,48017,1,0,0:2:0:0:
61,229,48103,1,0,0:2:0:0:
73,212,48189,1,0,0:2:0:0:
85,195,48275,5,0,3:2:0:0:
250,223,48448,2,0,L|162:230,1,83.9999974365235,2|0,0:2|0:2,0:2:0:0:
157,137,48793,1,2,0:2:0:0:
196,320,48965,1,8,0:3:0:0:
229,80,49137,1,2,0:2:0:0:
457,201,49310,6,0,P|406:213|352:200,1,90,8|0,0:2|0:2,0:2:0:0:
351,196,49655,6,0,L|354:374,1,167.999994873047,0|2,3:2|0:2,0:2:0:0:
353,363,50344,1,8,0:3:0:0:
205,349,50517,2,0,P|263:326|312:337,1,83.9999974365235,2|0,0:2|0:2,0:2:0:0:
304,330,50775,1,0,0:2:0:0:
324,336,50862,1,0,0:2:0:0:
341,347,50948,1,0,0:2:0:0:
353,363,51034,5,0,3:2:0:0:
371,264,51206,2,0,P|313:241|264:252,1,83.9999974365235,2|0,0:2|0:2,0:2:0:0:
188,267,51551,1,0,0:2:0:0:
336,160,51724,1,8,0:3:0:0:
128,159,51896,2,0,P|186:182|235:171,1,83.9999974365235,2|0,0:2|0:2,0:2:0:0:
220,164,52155,1,0,0:2:0:0:
233,147,52241,1,0,0:2:0:0:
246,131,52327,1,0,0:2:0:0:
261,116,52413,6,0,L|257:11,1,83.9999974365235,2|0,3:2|0:2,0:2:0:0:
160,36,52672,1,0,0:2:0:0:
160,36,52758,2,0,P|102:59|53:48,1,83.9999974365235,2|0,3:2|0:2,0:2:0:0:
50,142,53103,2,0,L|46:247,1,83.9999974365235,2|0,3:2|0:2,0:2:0:0:
26,231,53362,1,0,0:2:0:0:
5,235,53448,1,0,3:2:0:0:
41,316,53620,1,0,0:2:0:0:
60,323,53706,1,0,0:2:0:0:
79,330,53793,5,2,3:2:0:0:
185,368,53965,1,2,0:2:0:0:
288,346,54137,1,2,0:2:0:0:
190,221,54310,2,0,L|193:292,1,60,0|0,0:2|0:2,0:2:0:0:
289,160,54482,5,0,1:0:0:0:
262,140,54568,1,0,1:0:0:0:
296,129,54655,1,0,1:0:0:0:
265,110,54741,1,0,1:0:0:0:
185,80,54827,6,0,B|113:122|41:78|41:78|75:52,1,180,8|0,0:2|0:2,0:2:0:0:
63,61,55172,6,0,B|81:222|81:222|61:203|27:200,1,215.999993408203,4|0,3:2|0:2,0:2:0:0:
25,285,55517,2,0,P|105:300|165:203,1,180,8|0,0:2|0:2,0:2:0:0:
172,41,55862,6,0,B|394:26|394:26|323:60,1,270.000010299683,2|0,0:2|0:2,0:2:0:0:
154,29,56206,2,0,L|243:22,1,90,10|0,0:2|0:2,0:2:0:0:
400,157,56551,6,0,P|337:119|197:199,1,215.999993408203,0|0,3:2|0:2,0:2:0:0:
214,342,56896,2,0,B|231:299|231:299|207:130,1,180,8|0,0:2|0:2,0:2:0:0:
37,99,57241,6,0,B|31:191|31:191|68:249|68:249|66:321|66:321|46:261,1,270.000010299683,2|0,0:2|0:2,0:2:0:0:
21,99,57586,2,0,L|14:205,1,90,10|0,0:2|0:2,0:2:0:0:
312,287,57931,5,4,3:2:0:0:
318,362,58275,2,0,B|354:305|354:305|339:122,1,215.999993408203,8|0,0:2|0:2,0:2:0:0:
331,72,58620,1,0,0:2:0:0:
250,219,58793,2,0,P|207:218|161:187,1,71.9999978027344,0|0,3:2|0:2,0:2:0:0:
75,75,58965,2,0,B|238:57|238:57|181:85,1,215.999993408203,8|0,0:2|0:2,0:2:0:0:
86,168,59310,6,0,B|61:251|61:251|101:392,1,215.999993408203,0|0,3:2|0:2,0:2:0:0:
383,319,59655,2,0,B|294:308|294:308|249:331|249:331|108:309,1,215.999993408203,8|0,0:2|0:2,0:2:0:0:
247,239,60000,2,0,B|281:225|281:225|355:228,1,71.9999978027344,0|0,0:2|0:2,0:2:0:0:
452,331,60172,2,0,B|416:332|416:332|382:318,1,71.9999978027344,0|0,3:2|0:2,0:2:0:0:
474,125,60344,6,0,P|472:190|392:236,1,135.000005149841,8|0,0:2|0:2,0:2:0:0:
394,156,60689,6,0,L|388:71,1,71.9999978027344,0|0,3:2|0:2,0:2:0:0:
380,165,60862,1,0,0:0:0:0:
220,20,61034,2,0,L|226:105,1,60,8|0,0:2|0:2,0:2:0:0:
237,4,61206,1,0,0:0:0:0:
43,291,61379,6,0,P|132:326|236:207,1,270.000010299683,2|0,0:2|0:2,0:2:0:0:
34,303,61724,2,0,P|71:331|126:339,1,90,10|0,0:2|0:2,0:2:0:0:
223,329,62068,6,0,B|265:315|265:315|308:336|308:336|360:299|450:332,1,215.999993408203,0|0,3:2|0:2,0:2:0:0:
512,284,62413,2,0,B|535:226|535:226|503:112,1,180,8|0,0:2|0:2,0:2:0:0:
236,211,62758,6,0,P|262:86|156:17,1,270.000010299683,2|0,0:2|0:2,0:2:0:0:
248,220,63103,2,0,P|276:183|284:128,1,90,10|0,0:2|0:2,0:2:0:0:
45,118,63448,5,4,3:2:0:0:
38,35,63793,2,0,B|-2:120|-2:120|28:276,1,215.999993408203,8|0,0:2|0:2,0:2:0:0:
46,322,64137,1,0,0:2:0:0:
291,239,64310,2,0,B|254:231|254:231|171:249,1,71.9999978027344,0|0,3:2|0:2,0:2:0:0:
219,334,64482,6,0,B|395:335|395:335|312:290,1,215.999993408203,8|0,0:2|0:2,0:2:0:0:
363,210,64827,6,0,B|318:199|290:239|290:239|346:154|286:101,1,215.999993408203,0|0,3:2|0:2,0:2:0:0:
433,147,65172,2,0,P|453:188|438:261,1,71.9999978027344,8|0,0:2|0:2,0:2:0:0:
300,359,65344,1,0,1:2:0:0:
256,358,65431,1,0,1:2:0:0:
219,334,65517,2,0,P|251:326|312:334,1,71.9999978027344,0|0,3:2|0:2,0:2:0:0:
396,295,65689,1,0,1:2:0:0:
440,296,65776,1,0,1:2:0:0:
477,320,65862,2,0,P|445:328|384:320,1,71.9999978027344,8|0,1:2|0:2,0:2:0:0:
155,226,66034,1,0,1:2:0:0:
198,225,66120,1,0,1:2:0:0:
238,223,66206,6,0,L|467:213,1,215.999993408203,0|0,3:2|0:2,0:2:0:0:
413,63,66551,2,0,L|418:152,1,60,8|0,0:2|0:2,0:2:0:0:
434,367,66724,1,0,3:2:0:0:
195,313,66896,6,0,L|406:305,1,180,2|0,0:2|0:2,0:2:0:0:
175,343,67241,2,0,L|386:335,1,180,10|0,0:2|0:2,0:2:0:0:
371,213,67586,6,0,B|414:134|377:60|377:60|374:103|344:131,1,215.999993408203,0|0,3:2|0:2,0:2:0:0:
276,197,67931,2,0,P|234:213|169:202,1,60,8|0,0:2|0:2,0:2:0:0:
60,123,68103,1,0,3:2:0:0:
293,220,68275,6,0,P|229:242|109:199,1,180,2|0,0:2|0:2,0:2:0:0:
20,47,68620,2,0,P|60:38|88:43,1,60,8|0,0:2|0:2,0:2:0:0:
111,231,68793,1,0,1:2:0:0:
73,277,68879,1,0,1:2:0:0:
84,297,68965,5,4,3:2:0:0:
17,346,69310,2,0,B|88:335|88:335|148:350|148:350|258:337,1,215.999993408203,8|0,0:2|0:2,0:2:0:0:
327,329,69655,1,0,0:2:0:0:
195,235,69827,2,0,L|327:226,1,71.9999978027344,0|0,3:2|0:2,0:2:0:0:
468,229,70000,2,0,B|487:242|493:263|493:263|551:195|493:93,1,215.999993408203,8|0,0:2|0:2,0:2:0:0:
245,144,70344,6,0,B|405:132|405:132|308:112,1,215.999993408203,0|0,3:2|0:2,0:2:0:0:
231,55,70689,2,0,B|70:66|70:66|167:86,1,215.999993408203,8|0,0:2|0:2,0:2:0:0:
234,213,71034,2,0,P|247:175|230:111,1,71.9999978027344,0|0,0:2|0:2,0:2:0:0:
74,180,71206,2,0,L|202:168,1,71.9999978027344,0|0,3:2|0:2,0:2:0:0:
288,318,71379,6,0,P|205:323|155:278,1,135.000005149841,8|0,0:2|0:2,0:2:0:0:
240,231,71724,6,0,B|326:262|350:182|420:224|420:224|376:260,1,215.999993408203,0|0,3:2|0:2,0:2:0:0:
473,302,72068,2,0,P|511:234|497:182,1,71.9999978027344,8|0,0:2|0:2,0:2:0:0:
471,140,72241,6,0,L|478:190,1,30,0|0,0:2|0:2,0:2:0:0:
407,71,72413,6,0,L|105:83,1,270.000010299683,2|0,0:2|0:2,0:2:0:0:
419,52,72758,2,0,L|309:56,1,90,10|0,0:2|0:2,0:2:0:0:
81,245,73103,6,0,B|56:292|56:292|53:123,1,215.999993408203,0|0,3:2|0:2,0:2:0:0:
164,281,73448,2,0,B|296:280|296:280|226:265,1,180,8|0,0:2|0:2,0:2:0:0:
140,52,73793,6,0,P|271:56|292:192,1,270.000010299683,2|0,0:2|0:2,0:2:0:0:
112,43,74137,2,0,P|157:20|211:19,1,90,10|0,0:2|0:2,0:2:0:0:
404,124,74482,6,0,L|504:122,1,90,0|0,3:2|0:2,0:2:0:0:
507,152,74827,6,0,B|519:179|519:179|507:235,6,60,0|0|0|0|0|0|0,0:2|0:2|0:2|0:2|0:2|0:2|0:2,0:2:0:0:
415,222,75172,2,0,B|446:254|446:254|397:263|397:263|337:229|337:229|206:260|206:260|154:242|154:242|61:260,1,420,10|0,0:2|0:2,0:2:0:0:
33,384,75862,6,0,B|221:348|221:348|116:312,1,270.000010299683,0|0,3:2|0:2,0:2:0:0:
11,294,76206,6,0,P|8:224|75:175,1,143.999995605469,0|0,3:2|0:2,0:2:0:0:
262,68,76465,1,0,3:2:0:0:
174,118,76551,2,0,L|66:107,1,71.9999978027344,8|0,0:2|0:2,0:2:0:0:
262,173,76724,2,0,L|370:162,1,71.9999978027344,0|0,0:2|0:2,0:2:0:0:
499,32,76896,6,0,P|451:80|449:123,1,90,0|0,3:2|0:2,0:2:0:0:
499,171,77241,6,0,B|524:247|524:247|489:380,1,215.999993408203,4|0,3:2|0:2,0:2:0:0:
279,318,77586,2,0,B|251:285|251:285|425:311,1,215.999993408203,8|0,0:2|0:2,0:2:0:0:
489,378,77931,1,2,0:2:0:0:
411,159,78103,2,0,L|399:245,1,71.9999978027344,2|0,3:2|0:2,0:2:0:0:
379,384,78275,1,8,0:2:0:0:
508,139,78448,2,0,L|496:225,1,71.9999978027344,2|0,0:2|0:2,0:2:0:0:
289,183,78620,6,0,L|233:195,6,35.9999989013672,0|0|0|0|0|0|0,3:2|0:2|0:2|0:2|0:2|0:2|0:2,0:2:0:0:
328,109,78965,2,0,B|356:76|356:76|182:102,1,215.999993408203,8|0,0:2|0:2,0:2:0:0:
214,14,79310,2,0,L|314:-6,1,71.9999978027344,0|0,0:2|0:2,0:2:0:0:
481,84,79482,1,2,3:2:0:0:
477,119,79568,1,2,0:2:0:0:
473,155,79655,1,10,0:2:0:0:
490,320,79827,2,0,P|500:285|500:249,1,71.9999978027344,2|0,0:2|0:2,0:2:0:0:
135,343,80000,6,0,B|186:317|186:317|352:320,1,215.999993408203,0|0,3:2|0:2,0:2:0:0:
375,231,80344,2,0,L|265:231,1,71.9999978027344,8|0,0:2|0:2,0:2:0:0:
129,227,80517,2,0,L|239:227,1,71.9999978027344,0|0,0:2|0:2,0:2:0:0:
302,125,80689,1,2,0:2:0:0:
35,189,80862,2,0,B|21:226|21:226|35:292,1,71.9999978027344,2|0,3:2|0:2,0:2:0:0:
135,343,81034,1,8,0:2:0:0:
193,129,81206,2,0,L|121:129,1,71.9999978027344,2|0,0:2|0:2,0:2:0:0:
381,101,81379,5,0,3:2:0:0:
323,349,81551,2,0,P|349:325|362:292,1,71.9999978027344,2|0,0:2|0:2,0:2:0:0:
268,26,81724,1,8,0:2:0:0:
262,288,81896,2,0,P|281:255|287:216,1,71.9999978027344,2|0,0:2|0:2,0:2:0:0:
136,0,82068,1,0,3:2:0:0:
194,239,82240,2,0,P|204:204|199:169,1,71.9999978027344,2|0,0:2|0:2,0:2:0:0:
0,0,82413,1,8,0:2:0:0:
105,200,82586,2,0,P|106:164|92:131,1,71.9999978027344,2|0,0:2|0:2,0:2:0:0:
51,317,82758,6,0,B|98:337|98:337|277:309,1,215.999993408203,0|0,3:2|0:2,0:2:0:0:
366,222,83103,2,0,B|396:208|410:173|410:173|451:253|396:338,1,215.999993408203,8|0,0:2|0:2,0:2:0:0:
260,311,83448,2,0,L|357:298,1,71.9999978027344,2|0,0:2|0:2,0:2:0:0:
477,361,83620,2,0,L|380:348,1,71.9999978027344,2|0,3:2|0:2,0:2:0:0:
328,145,83793,1,8,0:2:0:0:
512,260,83965,2,0,L|440:250,1,71.9999978027344,2|0,0:2|0:2,0:2:0:0:
187,201,84137,6,0,L|223:209,6,35.9999989013672,0|0|0|0|0|0|0,3:2|0:2|0:2|0:2|0:2|0:2|0:2,0:2:0:0:
107,240,84482,2,0,B|47:191|53:133|82:93|82:93|94:139|147:165,1,215.999993408203,8|0,0:2|0:2,0:2:0:0:
188,202,84827,2,0,P|181:288|152:315,1,71.9999978027344,0|0,0:2|0:2,0:2:0:0:
24,366,85000,1,2,3:2:0:0:
31,330,85086,1,2,0:2:0:0:
39,295,85172,1,10,0:2:0:0:
223,350,85344,2,0,P|137:343|110:314,1,71.9999978027344,2|0,0:2|0:2,0:2:0:0:
270,165,85517,6,0,B|350:152|350:152|406:168|406:168|530:155,1,215.999993408203,0|0,3:2|0:2,0:2:0:0:
501,68,85862,2,0,L|402:79,1,71.9999978027344,8|0,0:2|0:2,0:2:0:0:
421,254,86034,2,0,L|492:246,1,71.9999978027344,0|0,0:2|0:2,0:2:0:0:
385,2,86206,2,0,P|357:27|341:76,1,71.9999978027344,2|0,0:2|0:2,0:2:0:0:
326,247,86379,1,2,3:2:0:0:
99,88,86551,2,0,B|255:69|255:69|164:115,1,215.999993408203,8|0,0:2|0:2,0:2:0:0:
59,194,86896,6,0,L|168:176,1,90,2|0,3:2|0:2,0:2:0:0:
59,194,87241,6,0,B|99:182|99:182|191:182|191:182|247:162,1,180,10|0,3:2|0:2,0:2:0:0:
59,194,87586,6,0,B|115:168|115:168|255:184|255:184|334:148,1,270.000010299683,2|0,3:2|0:2,0:2:0:0:
59,194,87931,6,0,B|115:147|115:147|315:191|315:191|416:134,1,360,2|0,3:2|0:2,0:2:0:0:
445,61,88275,6,0,P|491:132|409:257,1,215.999993408203,6|0,3:2|0:2,0:2:0:0:
311,297,88620,2,0,B|148:258|148:258|259:248,1,215.999993408203,8|0,0:2|0:2,0:2:0:0:
241,175,88965,2,0,L|337:195,1,71.9999978027344,2|0,0:2|0:2,0:2:0:0:
288,384,89137,2,0,L|217:369,1,71.9999978027344,2|0,3:2|0:2,0:2:0:0:
133,351,89310,1,8,0:2:0:0:
394,273,89482,2,0,P|396:307|372:354,1,71.9999978027344,2|0,0:2|0:2,0:2:0:0:
241,175,89655,6,0,L|235:228,6,35.9999989013672,0|0|0|0|0|0|0,3:2|0:2|0:2|0:2|0:2|0:2|0:2,0:2:0:0:
331,107,90000,2,0,P|218:146|168:54,1,215.999993408203,8|0,0:2|0:2,0:2:0:0:
258,0,90344,2,0,B|268:31|268:31|253:82,1,71.9999978027344,0|0,0:2|0:2,0:2:0:0:
151,218,90517,1,2,3:2:0:0:
152,254,90603,1,2,0:2:0:0:
153,290,90689,1,10,0:2:0:0:
20,345,90862,2,0,L|128:335,1,71.9999978027344,2|0,0:2|0:2,0:2:0:0:
349,326,91034,6,0,B|368:336|377:359|377:359|424:276|405:218|359:167,1,215.999993408203,0|0,3:2|0:2,0:2:0:0:
227,131,91379,2,0,L|341:118,1,71.9999978027344,8|0,0:2|0:2,0:2:0:0:
453,188,91551,2,0,L|381:196,1,71.9999978027344,0|0,0:2|0:2,0:2:0:0:
357,35,91724,2,0,B|380:64|380:64|383:100,1,71.9999978027344,2|0,0:2|0:2,0:2:0:0:
275,216,91896,2,0,L|203:224,1,71.9999978027344,2|0,3:2|0:2,0:2:0:0:
85,136,92068,1,8,0:2:0:0:
269,307,92241,2,0,L|340:298,1,71.9999978027344,2|0,0:2|0:2,0:2:0:0:
85,136,92413,5,0,3:2:0:0:
142,384,92585,2,0,P|115:359|102:326,1,71.9999978027344,2|0,0:2|0:2,0:2:0:0:
198,61,92758,1,8,0:2:0:0:
197,325,92930,2,0,P|178:294|173:259,1,71.9999978027344,2|0,0:2|0:2,0:2:0:0:
330,35,93102,1,0,3:2:0:0:
272,274,93275,2,0,P|261:239|266:204,1,71.9999978027344,2|0,0:2|0:2,0:2:0:0:
466,35,93447,1,8,0:2:0:0:
361,235,93620,2,0,P|359:199|373:166,1,71.9999978027344,2|0,0:2|0:2,0:2:0:0:
489,351,93793,6,0,B|380:302|379:414|225:344,1,215.999993408203,0|0,3:2|0:2,0:2:0:0:
361,235,94137,2,0,B|430:201|518:234|518:234|431:268,1,215.999993408203,8|0,0:2|0:2,0:2:0:0:
457,135,94482,2,0,L|457:63,1,71.9999978027344,2|0,0:2|0:2,0:2:0:0:
264,204,94655,2,0,P|260:239|271:274,1,71.9999978027344,2|0,3:2|0:2,0:2:0:0:
467,253,94827,1,8,0:2:0:0:
365,107,95000,2,0,L|293:107,1,71.9999978027344,2|0,0:2|0:2,0:2:0:0:
138,201,95172,6,0,B|122:182|122:182|115:158,6,35.9999989013672,0|0|0|0|0|0|0,3:2|0:2|0:2|0:2|0:2|0:2|0:2,0:2:0:0:
169,58,95517,2,0,P|142:139|20:127,1,215.999993408203,8|0,0:2|0:2,0:2:0:0:
59,8,95862,2,0,P|84:49|83:84,1,71.9999978027344,0|0,0:2|0:2,0:2:0:0:
54,237,96034,1,2,3:2:0:0:
43,271,96120,1,2,0:2:0:0:
36,306,96206,1,10,0:2:0:0:
180,364,96379,2,0,L|60:360,1,71.9999978027344,2|0,0:2|0:2,0:2:0:0:
237,280,96551,6,0,B|182:271|195:228|284:232|289:313|428:237,1,215.999993408203,0|0,3:2|0:2,0:2:0:0:
511,187,96896,2,0,P|476:187|440:191,1,71.9999978027344,8|0,0:2|0:2,0:2:0:0:
306,347,97068,2,0,P|342:347|378:343,1,71.9999978027344,0|0,0:2|0:2,0:2:0:0:
357,101,97241,2,0,L|348:214,1,71.9999978027344,2|0,0:2|0:2,0:2:0:0:
462,309,97413,1,2,3:2:0:0:
465,57,97586,2,0,B|390:49|390:49|333:77|333:77|236:66,1,215.999993408203,8|0,0:2|0:2,0:2:0:0:
166,36,97931,5,2,3:2:0:0:
119,165,98103,1,2,0:2:0:0:
72,294,98275,1,2,0:2:0:0:
237,269,98448,2,0,L|171:261,1,60,0|0,0:2|0:2,0:2:0:0:
354,221,98620,5,0,1:2:0:0:
377,237,98706,1,0,1:2:0:0:
400,218,98793,1,0,1:2:0:0:
420,239,98879,1,0,1:2:0:0:
458,166,98965,6,0,P|423:129|366:116,1,90,8|0,0:2|0:2,0:2:0:0:
336,78,99310,2,0,P|343:120|289:135,1,105,0|0,0:2|0:2,0:2:0:0:
281,141,99655,6,0,B|290:348|290:348|244:239,1,270.000010299683,8|0,0:2|0:2,0:2:0:0:
171,332,100000,6,0,B|149:254|149:254|163:130|163:130|192:203,1,270.000010299683,2|0,0:2|0:2,0:2:0:0:
158,347,100344,2,0,L|129:244,1,90,10|0,0:2|0:2,0:2:0:0:
302,170,100689,6,0,P|233:91|129:97,1,215.999993408203,0|0,3:2|0:2,0:2:0:0:
14,192,101034,2,0,B|84:216|84:216|192:187,1,180,8|0,0:2|0:2,0:2:0:0:
461,286,101379,6,0,B|400:309|400:309|257:262|257:262|338:263,1,270.000010299683,2|0,0:2|0:2,0:2:0:0:
489,294,101724,2,0,L|395:327,1,90,10|0,0:2|0:2,0:2:0:0:
124,219,102068,5,4,3:2:0:0:
41,214,102413,2,0,B|103:190|103:190|311:212,1,215.999993408203,8|0,0:2|0:2,0:2:0:0:
334,215,102758,1,0,0:2:0:0:
109,357,102931,2,0,L|101:257,1,71.9999978027344,0|0,3:2|0:2,0:2:0:0:
113,107,103103,2,0,L|355:133,1,215.999993408203,8|0,0:2|0:2,0:2:0:0:
411,201,103448,6,0,B|436:218|441:241|441:241|507:122|404:62,1,215.999993408203,0|0,3:2|0:2,0:2:0:0:
360,269,103793,2,0,B|302:279|273:327|273:327|241:269|160:260,1,215.999993408203,8|0,0:2|0:2,0:2:0:0:
143,184,104137,1,0,0:2:0:0:
98,363,104310,2,0,L|201:357,1,71.9999978027344,0|0,3:2|0:2,0:2:0:0:
143,94,104482,6,0,P|79:113|46:194,1,135.000005149841,8|0,0:2|0:2,0:2:0:0:
246,180,104827,6,0,B|243:22|243:22|311:94,1,215.999993408203,0|0,3:2|0:2,0:2:0:0:
398,46,105172,2,0,B|431:52|431:52|475:43,1,60,8|0,0:2|0:2,0:2:0:0:
392,64,105344,1,0,0:0:0:0:
466,182,105517,6,0,P|502:308|381:367,1,270.000010299683,2|0,0:2|0:2,0:2:0:0:
459,159,105862,2,0,P|503:196|521:238,1,90,10|0,0:2|0:2,0:2:0:0:
327,278,106206,6,0,B|266:265|266:265|214:284|214:284|74:265,1,215.999993408203,0|0,3:2|0:2,0:2:0:0:
18,275,106551,2,0,B|21:224|56:197|56:197|23:153|36:105,1,180,8|0,0:2|0:2,0:2:0:0:
166,84,106896,6,0,P|259:65|394:188,1,270.000010299683,2|0,0:2|0:2,0:2:0:0:
139,92,107241,2,0,P|185:60|245:58,1,90,10|0,0:2|0:2,0:2:0:0:
229,362,107586,5,4,3:2:0:0:
329,324,107931,2,0,B|248:332|248:332|200:358|200:358|84:366,1,215.999993408203,8|0,0:2|0:2,0:2:0:0:
27,364,108275,1,0,0:2:0:0:
177,278,108448,2,0,L|177:194,1,71.9999978027344,0|0,3:2|0:2,0:2:0:0:
16,121,108620,2,0,B|170:111|170:111|122:115|71:173,1,215.999993408203,8|0,0:2|0:2,0:2:0:0:
232,46,108965,6,0,P|263:112|173:207,1,215.999993408203,0|0,3:2|0:2,0:2:0:0:
10,226,109310,2,0,L|82:222,1,71.9999978027344,8|0,0:2|0:2,0:2:0:0:
338,205,109482,1,0,1:2:0:0:
377,186,109568,1,0,1:2:0:0:
417,169,109655,2,0,P|380:157|344:159,1,71.9999978027344,0|0,3:2|0:2,0:2:0:0:
287,283,109827,1,0,1:2:0:0:
248,302,109913,1,0,1:2:0:0:
208,319,110000,2,0,P|245:331|281:329,1,71.9999978027344,8|0,0:2|0:2,0:2:0:0:
412,339,110172,1,0,1:2:0:0:
454,345,110258,1,0,1:2:0:0:
498,350,110344,6,0,B|520:298|520:298|498:253|498:253|537:188|462:98,1,215.999993408203,0|0,3:2|0:2,0:2:0:0:
351,203,110689,2,0,L|423:199,1,60,8|0,0:2|0:2,0:2:0:0:
371,334,110862,1,0,3:2:0:0:
225,76,111034,6,0,B|286:65|286:65|346:84|346:84|434:71,1,180,2|0,0:2|0:2,0:2:0:0:
200,55,111379,2,0,B|260:44|260:44|321:62|321:62|409:50,1,180,10|0,0:2|0:2,0:2:0:0:
338,238,111724,6,0,B|295:212|246:217|246:217|187:261|93:212,1,215.999993408203,0|0,3:2|0:2,0:2:0:0:
58,148,112068,2,0,P|126:126|176:136,1,71.9999978027344,8|0,0:2|0:2,0:2:0:0:
274,300,112241,1,0,3:2:0:0:
15,162,112413,6,0,P|75:124|197:129,1,180,2|0,0:2|0:2,0:2:0:0:
163,365,112758,2,0,P|171:334|169:284,1,60,8|0,0:2|0:2,0:2:0:0:
254,96,112931,1,0,1:2:0:0:
223,45,113017,1,0,1:2:0:0:
243,23,113103,5,4,3:2:0:0:
138,24,113448,2,0,L|378:17,1,215.999993408203,8|0,0:2|0:2,0:2:0:0:
440,13,113793,1,0,0:2:0:0:
345,178,113965,2,0,P|338:104|358:67,1,71.9999978027344,0|0,3:2|0:2,0:2:0:0:
500,245,114137,2,0,B|425:241|425:241|367:269|367:269|268:257,1,215.999993408203,8|0,0:2|0:2,0:2:0:0:
113,252,114482,6,0,P|152:324|138:240,1,215.999993408203,0|0,3:2|0:2,0:2:0:0:
44,197,114827,2,0,P|11:291|75:394,1,215.999993408203,8|0,0:2|0:2,0:2:0:0:
132,165,115172,2,0,L|134:79,1,71.9999978027344,0|0,0:2|0:2,0:2:0:0:
99,0,115344,1,0,3:2:0:0:
113,252,115517,6,0,L|280:244,1,135.000005149841,8|0,0:2|0:2,0:2:0:0:
303,150,115862,6,0,B|372:127|372:127|309:319,1,215.999993408203,0|0,3:2|0:2,0:2:0:0:
432,221,116206,2,0,L|503:217,1,71.9999978027344,8|0,0:2|0:2,0:2:0:0:
451,319,116379,6,0,L|421:320,1,30,0|0,0:2|0:2,0:2:0:0:
475,26,116551,6,0,B|448:128|448:128|476:248|476:248|523:198,1,270.000010299683,2|0,0:2|0:2,0:2:0:0:
449,6,116896,2,0,L|426:102,1,90,10|0,0:2|0:2,0:2:0:0:
235,106,117241,6,0,B|70:99|70:99|162:74,1,215.999993408203,0|0,3:2|0:2,0:2:0:0:
235,18,117586,2,0,P|310:51|291:174,1,180,8|0,0:2|0:2,0:2:0:0:
18,213,117931,6,0,P|105:182|218:307,1,270.000010299683,2|0,0:2|0:2,0:2:0:0:
4,201,118275,2,0,P|52:171|97:165,1,90,10|0,0:2|0:2,0:2:0:0:
126,350,118620,6,0,B|422:332|422:332|317:315,1,360,2|0,3:2|0:2,0:2:0:0:
337,237,118965,6,0,B|369:230|399:247|399:247|374:186|287:179|209:215,1,215.999993408203,8|0,0:2|0:2,0:2:0:0:
189,217,119310,1,0,0:2:0:0:
475,206,119482,2,0,P|485:244|477:288,1,60,0|0,3:2|0:2,0:2:0:0:
337,116,119655,2,0,B|374:115|421:143|421:143|461:111|529:114,1,180,8|0,0:2|0:2,0:2:0:0:
334,28,120000,6,0,P|274:45|249:93,1,90.0000034332277,0|0,3:2|0:2,0:2:0:0:
106,94,120172,2,0,P|166:111|191:159,1,90.0000034332277,0|0,0:2|0:2,0:2:0:0:
232,202,120344,2,0,B|274:170|274:170|111:178,1,215.999993408203,8|0,0:2|0:2,0:2:0:0:
168,338,120689,2,0,L|171:241,1,71.9999978027344,0|0,3:2|0:2,0:2:0:0:
329,293,120862,1,0,1:2:0:0:
372,294,120948,1,0,1:2:0:0:
413,295,121034,2,0,L|441:295,6,15,8|0|0|0|0|0|0,0:0|0:0|0:0|0:0|0:0|0:0|0:0,0:0:0:0:
441,322,121379,6,0,L|433:77,1,215.999993408203,4|0,3:2|0:2,0:2:0:0:
281,101,121724,2,0,P|379:124|399:118,1,71.9999978027344,8|0,0:2|0:2,0:2:0:0:
419,14,121896,2,0,P|321:37|301:31,1,71.9999978027344,0|0,0:2|0:2,0:2:0:0:
227,38,122068,2,0,L|192:33,2,35.9999989013672,0|0|0,0:2|0:2|0:2,0:2:0:0:
201,198,122241,2,0,L|206:149,1,35.9999989013672,0|0,3:2|0:2,0:2:0:0:
96,262,122413,2,0,P|188:232|271:322,1,215.999993408203,8|0,0:2|0:2,0:2:0:0:
173,322,122758,6,0,L|169:357,6,35.9999989013672,0|0|0|0|0|0|0,3:2|0:2|0:2|0:2|0:2|0:2|0:2,0:2:0:0:
268,306,123103,2,0,L|340:296,1,71.9999978027344,8|0,0:2|0:2,0:2:0:0:
410,349,123275,2,0,L|482:339,1,71.9999978027344,0|0,0:2|0:2,0:2:0:0:
512,118,123448,2,0,P|512:97|503:77,2,35.9999989013672,0|0|0,0:2|0:2|0:2,0:2:0:0:
332,162,123620,2,0,B|288:159|288:159|246:176,1,90.0000034332277,2|0,3:2|0:2,0:2:0:0:
480,204,123793,2,0,L|489:254,2,45.0000017166138,8|0|0,0:2|0:2|0:2,0:2:0:0:
423,133,123965,2,0,P|399:93|322:69,1,107.999996704102,2|0,0:2|0:2,0:2:0:0:
118,196,124137,6,0,L|332:162,1,215.999993408203,0|0,3:2|0:2,0:2:0:0:
260,20,124482,2,0,P|256:62|267:94,1,71.9999978027344,8|0,0:2|0:2,0:2:0:0:
395,293,124655,2,0,P|404:258|399:223,1,71.9999978027344,0|0,0:2|0:2,0:2:0:0:
230,270,124827,2,0,L|339:251,1,90.0000034332277,0|0,0:2|0:2,0:2:0:0:
467,359,125000,1,0,3:2:0:0:
274,363,125172,2,0,B|222:368|185:342|185:342|184:363|184:363|124:325|62:328,1,215.999993408203,8|0,0:2|0:2,0:2:0:0:
87,231,125517,6,0,L|129:228,1,35.9999989013672,0|0,3:2|0:2,0:2:0:0:
104,219,125603,2,0,L|146:216,1,35.9999989013672,0|0,0:2|0:2,0:2:0:0:
121,207,125689,2,0,L|163:204,1,35.9999989013672,0|0,0:2|0:2,0:2:0:0:
136,200,125775,2,0,L|178:197,1,35.9999989013672,0|0,0:2|0:2,0:2:0:0:
152,189,125862,6,0,L|148:162,12,17.9999994506836,8|0|0|0|0|0|0|0|0|0|0|0|0,0:2|0:2|0:2|0:2|0:2|0:2|0:2|0:2|0:2|0:2|0:2|0:2|0:2,0:2:0:0:
147,146,126206,6,0,L|282:133,1,71.9999978027344,0|0,0:2|0:2,0:2:0:0:
435,117,126379,1,0,3:2:0:0:
276,2,126551,2,0,B|268:41|241:58|241:58|282:75|322:120|303:160|272:205,1,215.999993408203,8|0,0:2|0:2,0:2:0:0:
236,248,126896,6,0,P|286:221|395:335,1,215.999993408203,0|0,3:2|0:2,0:2:0:0:
305,312,127241,2,0,B|272:334|268:374|268:374|201:301|145:388|56:340,1,270.000010299683,8|0,0:2|0:2,0:2:0:0:
116,188,127586,2,0,P|128:230|116:273,1,90.0000034332277,2|0,0:2|0:2,0:2:0:0:
43,139,127758,2,0,P|31:98|46:50,1,90.0000034332277,2|0,3:2|0:2,0:2:0:0:
209,102,127931,2,0,L|67:100,1,90.0000034332277,10|0,0:2|0:2,0:2:0:0:
272,169,128103,2,0,L|414:167,1,90.0000034332277,2|0,0:2|0:2,0:2:0:0:
483,159,128275,6,0,B|490:177|490:177|488:224,6,35.9999989013672,0|0|0|0|0|0|0,3:2|0:2|0:2|0:2|0:2|0:2|0:2,0:2:0:0:
382,92,128620,2,0,B|409:180|409:180|378:323,1,215.999993408203,8|0,0:2|0:2,0:2:0:0:
259,312,128965,2,0,L|200:316,2,35.9999989013672,0|0|0,0:2|0:2|0:2,0:2:0:0:
310,211,129137,2,0,L|284:117,1,90.0000034332277,2|0,3:2|0:2,0:2:0:0:
168,112,129310,2,0,L|193:46,2,45.0000017166138,8|0|0,0:2|0:2|0:2,0:2:0:0:
101,192,129482,2,0,P|171:215|224:198,1,107.999996704102,2|0,0:2|0:2,0:2:0:0:
310,211,129655,6,0,B|342:223|358:241|358:241|410:174|357:88,1,215.999993408203,0|0,3:2|0:2,0:2:0:0:
335,6,130000,2,0,P|295:26|277:49,1,71.9999978027344,8|0,0:2|0:2,0:2:0:0:
434,46,130172,2,0,L|514:46,1,71.9999978027344,0|0,0:2|0:2,0:2:0:0:
226,246,130344,2,0,P|220:195|256:145,1,90.0000034332277,0|0,0:2|0:2,0:2:0:0:
359,92,130517,1,0,3:2:0:0:
434,306,130689,2,0,B|459:336|459:336|260:315,1,215.999993408203,8|0,0:2|0:2,0:2:0:0:
152,279,131034,6,0,B|140:294|140:294|137:315,1,35.9999989013672,0|0,3:2|0:2,0:2:0:0:
137,289,131120,2,0,B|125:304|125:304|122:325,1,35.9999989013672,0|0,0:2|0:2,0:2:0:0:
126,299,131206,2,0,B|114:314|114:314|111:335,1,35.9999989013672,0|0,0:2|0:2,0:2:0:0:
111,308,131293,2,0,B|99:323|99:323|96:344,1,35.9999989013672,0|0,0:2|0:2,0:2:0:0:
91,333,131379,6,0,L|60:334,12,17.9999994506836,8|0|0|0|0|0|0|0|0|0|0|0|0,0:2|0:2|0:2|0:2|0:2|0:2|0:2|0:2|0:2|0:2|0:2|0:2|0:2,0:2:0:0:
34,331,131724,6,0,B|30:144|30:144|-12:249,1,270.000010299683,2|0,3:2|0:2,0:2:0:0:
40,339,132068,2,0,B|36:152|36:152|-6:257,1,270.000010299683,2|0,3:2|0:2,0:2:0:0:
120,190,132413,6,0,B|181:184|181:184|240:201|240:201|387:192,1,215.999993408203,4|0,3:2|0:2,0:2:0:0:
498,88,132758,2,0,L|375:99,1,71.9999978027344,8|0,0:2|0:2,0:2:0:0:
398,255,132931,2,0,L|469:248,1,71.9999978027344,0|0,0:2|0:2,0:2:0:0:
351,34,133103,1,0,0:0:0:0:
414,173,133275,2,0,L|485:166,1,71.9999978027344,0|0,3:2|0:2,0:2:0:0:
237,84,133448,2,0,B|87:93|87:93|182:110,1,215.999993408203,8|0,0:2|0:2,0:2:0:0:
204,204,133793,6,0,L|207:253,6,35.9999989013672,0|0|0|0|0|0|0,3:2|0:2|0:2|0:2|0:2|0:2|0:2,0:2:0:0:
75,295,134137,2,0,P|122:260|259:376,1,215.999993408203,8|0,0:2|0:2,0:2:0:0:
145,360,134482,2,0,P|164:339|161:366,1,71.9999978027344,0|0,0:2|0:2,0:2:0:0:
431,351,134655,2,0,L|307:346,1,90.0000034332277,2|0,3:2|0:2,0:2:0:0:
204,204,134827,2,0,L|207:253,2,45.0000017166138,8|0|0,0:2|0:2|0:2,0:2:0:0:
331,259,135000,2,0,L|439:264,1,107.999996704102,2|0,0:2|0:2,0:2:0:0:
367,133,135172,6,0,B|240:172|262:89|155:126,1,215.999993408203,0|0,3:2|0:2,0:2:0:0:
133,211,135517,2,0,L|204:204,1,71.9999978027344,8|0,0:2|0:2,0:2:0:0:
277,0,135689,2,0,P|302:36|304:80,1,71.9999978027344,0|0,0:2|0:2,0:2:0:0:
420,267,135862,2,0,L|331:259,1,90.0000034332277,0|0,0:2|0:2,0:2:0:0:
211,325,136034,1,0,3:2:0:0:
46,73,136206,2,0,B|26:91|0:84|0:84|-63:180|30:258|100:184,1,270.000010299683,8|0,0:2|0:2,0:2:0:0:
91,154,136551,5,0,3:2:0:0:
154,383,136723,2,0,P|128:359|115:326,1,71.9999978027344,2|0,0:2|0:2,0:2:0:0:
209,60,136896,1,8,0:2:0:0:
211,325,137068,2,0,P|192:293|187:257,1,71.9999978027344,2|0,0:2|0:2,0:2:0:0:
341,34,137240,1,0,3:2:0:0:
283,273,137413,2,0,P|273:238|278:203,1,71.9999978027344,2|0,0:2|0:2,0:2:0:0:
477,34,137585,1,8,0:2:0:0:
372,234,137758,2,0,P|371:198|385:165,1,71.9999978027344,2|0,0:2|0:2,0:2:0:0:
508,352,137931,6,0,B|397:307|405:395|266:347,1,215.999993408203,0|0,3:2|0:2,0:2:0:0:
283,273,138275,2,0,P|273:238|278:203,1,71.9999978027344,8|0,0:2|0:2,0:2:0:0:
312,51,138448,2,0,P|316:86|306:120,1,71.9999978027344,0|0,0:2|0:2,0:2:0:0:
221,137,138620,1,0,0:2:0:0:
442,193,138793,2,0,L|370:187,1,71.9999978027344,0|0,3:2|0:2,0:2:0:0:
167,55,138965,2,0,B|7:71|7:71|120:89,1,215.999993408203,8|0,0:2|0:2,0:2:0:0:
132,153,139310,6,0,L|139:213,6,35.9999989013672,0|0|0|0|0|0|0,3:2|0:2|0:2|0:2|0:2|0:2|0:2,0:2:0:0:
64,243,139655,2,0,B|146:234|146:234|190:210|190:210|294:197,1,215.999993408203,8|0,0:2|0:2,0:2:0:0:
367,163,140000,2,0,P|372:202|362:251,1,71.9999978027344,0|0,0:2|0:2,0:2:0:0:
283,367,140172,2,0,P|278:331|304:272,1,90.0000034332277,2|0,3:2|0:2,0:2:0:0:
453,207,140344,2,0,L|509:205,2,45.0000017166138,8|0|0,0:2|0:2|0:2,0:2:0:0:
499,2,140517,2,0,L|494:133,1,107.999996704102,2|0,0:2|0:2,0:2:0:0:
239,121,140689,6,0,B|74:119|74:119|153:90,1,215.999993408203,0|0,3:2|0:2,0:2:0:0:
231,39,141034,2,0,L|316:41,1,71.9999978027344,8|0,0:2|0:2,0:2:0:0:
287,204,141206,2,0,L|215:202,1,71.9999978027344,0|0,0:2|0:2,0:2:0:0:
409,100,141379,2,0,P|410:142|384:184,1,90.0000034332277,0|0,0:2|0:2,0:2:0:0:
355,267,141551,1,0,3:2:0:0:
119,200,141724,2,0,B|287:204|287:204|214:227,1,215.999993408203,8|0,0:2|0:2,0:2:0:0:
129,365,142068,6,0,L|131:254,1,90,2|0,3:2|0:2,0:2:0:0:
129,365,142413,6,0,B|135:323|135:323|122:232|122:232|134:174,1,180,10|0,3:2|0:2,0:2:0:0:
129,365,142758,6,0,B|146:305|146:305|111:169|111:169|136:86,1,270.000010299683,2|0,3:2|0:2,0:2:0:0:
129,365,143103,6,0,B|167:303|167:303|96:111|96:111|138:3,1,360,2|0,3:2|0:2,0:2:0:0:
231,123,143448,6,0,L|410:108,1,180,6|0,3:2|0:2,0:2:0:0:
446,103,143793,1,8,0:2:0:0:
309,31,143965,2,0,L|249:36,1,60,0|0,0:2|0:2,0:2:0:0:
348,195,144137,1,0,3:2:0:0:
164,67,144310,2,0,L|104:72,1,60,0|0,0:2|0:2,0:2:0:0:
192,204,144482,2,0,B|221:249|221:249|233:92,1,180,8|0,0:2|0:2,0:2:0:0:
431,167,144827,6,0,L|474:167,6,30,0|0|0|0|0|0|0,3:2|0:2|0:2|0:2|0:2|0:2|0:2,0:2:0:0:
357,124,145172,2,0,B|361:-5|361:-5|321:79,1,180,8|0,0:2|0:2,0:2:0:0:
441,59,145517,2,0,L|500:60,1,60,0|0,0:2|0:2,0:2:0:0:
230,122,145689,1,2,3:2:0:0:
430,282,145862,1,10,0:2:0:0:
357,124,146034,1,2,0:2:0:0:
155,281,146206,6,0,P|135:221|217:123,1,180,2|0,3:2|0:2,0:2:0:0:
230,122,146551,1,8,0:2:0:0:
291,228,146724,2,0,L|198:217,1,60,0|0,0:2|0:2,0:2:0:0:
321,317,146896,2,0,L|414:306,1,60,0|0,0:2|0:2,0:2:0:0:
231,321,147068,1,0,3:2:0:0:
313,151,147241,2,0,P|307:83|199:42,1,180,8|0,0:2|0:2,0:2:0:0:
86,88,147586,6,0,L|174:84,1,60,2|0,3:2|0:2,0:2:0:0:
61,103,147931,2,0,L|71:314,1,180,8|0,0:2|0:2,0:2:0:0:
72,318,148275,1,0,0:2:0:0:
189,187,148448,1,0,3:2:0:0:
344,293,148620,2,0,L|247:293,1,60,8|0,0:2|0:2,0:2:0:0:
189,187,148793,2,0,L|249:187,1,60,0|0,0:2|0:2,0:2:0:0:
401,135,148965,6,0,B|426:124|426:124|371:78|346:148|253:91,1,180,0|0,3:2|0:2,0:2:0:0:
267,14,149310,2,0,P|296:18|345:41,1,60,8|0,0:2|0:2,0:2:0:0:
201,73,149482,2,0,P|172:77|123:100,1,60,0|0,0:2|0:2,0:2:0:0:
266,355,149655,1,0,3:2:0:0:
271,332,149827,1,0,0:2:0:0:
11,202,150000,2,0,B|67:186|67:186|246:187,1,180,8|0,0:2|0:2,0:2:0:0:
319,247,150344,6,0,B|263:247|263:247|211:271|211:271|101:271,1,180,0|0,3:2|0:2,0:2:0:0:
188,186,150689,2,0,L|191:109,1,60,8|0,0:2|0:2,0:2:0:0:
272,325,150862,2,0,L|269:384,1,60,0|0,0:2|0:2,0:2:0:0:
335,167,151034,2,0,P|369:182|399:218,1,60,0|0,0:2|0:2,0:2:0:0:
144,271,151206,1,2,3:2:0:0:
271,88,151379,1,10,0:2:0:0:
355,282,151551,1,2,0:2:0:0:
190,126,151724,6,0,B|96:97|107:154|13:127,1,180,2|0,3:2|0:2,0:2:0:0:
9,92,152068,1,8,0:2:0:0:
144,201,152241,2,0,L|131:286,1,60,0|0,0:2|0:2,0:2:0:0:
58,353,152413,2,0,L|49:294,1,60,0|0,0:2|0:2,0:2:0:0:
13,127,152586,1,0,3:2:0:0:
159,338,152758,2,0,B|296:327|296:327|227:304,1,180,8|0,0:2|0:2,0:2:0:0:
331,68,153103,6,0,P|342:184|207:173,1,270.000010299683,2|0,3:2|0:2,0:2:0:0:
322,65,153448,6,0,P|333:181|203:158,1,270.000010299683,2|0,3:2|0:2,0:2:0:0:
310,64,153793,6,0,P|322:180|205:151,1,270.000010299683,2|0,3:2|0:2,0:2:0:0:
301,63,154137,6,0,P|317:176|207:147,1,270.000010299683,2|0,3:2|0:2,0:2:0:0:
209,63,154482,6,0,B|38:74|38:74|114:96,1,215.999993408203,6|0,3:2|0:2,0:2:0:0:
44,162,154827,2,0,L|50:254,1,71.9999978027344,8|0,0:2|0:2,0:2:0:0:
114,303,155000,1,0,3:2:0:0:
215,246,155172,1,0,0:2:0:0:
245,227,155258,1,0,0:2:0:0:
279,217,155344,1,0,0:2:0:0:
315,220,155431,1,0,0:2:0:0:
346,237,155517,2,0,L|350:165,1,71.9999978027344,8|0,0:2|0:2,0:2:0:0:
289,309,155689,2,0,L|293:380,1,71.9999978027344,0|0,0:2|0:2,0:2:0:0:
441,161,155862,6,0,P|409:96|271:113,1,215.999993408203,0|0,3:2|0:2,0:2:0:0:
350,165,156206,2,0,L|346:237,1,71.9999978027344,8|0,0:2|0:2,0:2:0:0:
289,309,156379,1,0,3:2:0:0:
36,116,156551,1,0,0:2:0:0:
25,151,156637,1,0,0:2:0:0:
21,188,156724,2,0,P|25:223|36:257,1,71.9999978027344,2|0,0:2|0:2,0:2:0:0:
262,189,156896,2,0,B|111:179|111:179|182:235,1,215.999993408203,10|0,0:2|0:2,0:2:0:0:
282,103,157241,6,0,L|43:92,1,215.999993408203,2|0,3:2|0:2,0:2:0:0:
0,14,157586,2,0,L|71:17,1,71.9999978027344,8|0,0:2|0:2,0:2:0:0:
111,180,157758,1,0,3:2:0:0:
279,10,157931,1,0,0:2:0:0:
314,16,158017,1,0,0:2:0:0:
344,35,158103,1,0,0:2:0:0:
364,65,158189,1,0,0:2:0:0:
372,100,158275,2,0,P|365:139|334:180,1,71.9999978027344,8|0,0:2|0:2,0:2:0:0:
210,110,158448,2,0,L|281:103,1,71.9999978027344,0|0,0:2|0:2,0:2:0:0:
449,173,158620,6,0,B|485:296|485:296|459:383,1,215.999993408203,0|0,3:2|0:2,0:2:0:0:
370,337,158965,2,0,L|299:337,1,71.9999978027344,8|0,0:2|0:2,0:2:0:0:
206,213,159137,1,0,3:2:0:0:
54,355,159310,5,2,0:2:0:0:
35,324,159396,1,2,0:2:0:0:
29,289,159482,1,2,0:2:0:0:
34,253,159568,1,2,0:2:0:0:
52,222,159654,1,10,0:2:0:0:
63,203,159741,1,2,0:2:0:0:
65,188,159827,1,2,0:2:0:0:
64,180,159913,1,2,0:2:0:0:
62,172,160000,6,0,B|131:187|131:187|206:169|206:169|309:187,1,215.999993408203,6|0,3:2|0:2,0:2:0:0:
350,124,160344,2,0,P|368:162|350:230,1,71.9999978027344,8|0,0:2|0:2,0:2:0:0:
324,326,160517,1,0,3:2:0:0:
467,169,160689,1,0,0:2:0:0:
485,199,160775,1,0,0:2:0:0:
494,234,160861,1,0,0:2:0:0:
491,270,160947,1,0,0:2:0:0:
477,303,161034,2,0,P|451:320|395:327,1,71.9999978027344,8|0,0:2|0:2,0:2:0:0:
335,231,161206,2,0,L|427:244,1,71.9999978027344,0|0,0:2|0:2,0:2:0:0:
324,326,161379,6,0,L|83:280,1,215.999993408203,0|0,3:2|0:2,0:2:0:0:
64,213,161724,2,0,P|31:250|27:314,1,71.9999978027344,8|0,0:2|0:2,0:2:0:0:
127,375,161896,1,0,3:2:0:0:
147,208,162068,1,0,0:2:0:0:
149,172,162154,1,0,0:2:0:0:
153,135,162241,2,0,L|159:51,1,71.9999978027344,2|0,0:2|0:2,0:2:0:0:
269,166,162413,2,0,B|434:151|434:151|340:119,1,215.999993408203,10|0,0:2|0:2,0:2:0:0:
249,259,162758,6,0,L|489:238,1,215.999993408203,2|0,3:2|0:2,0:2:0:0:
482,327,163103,2,0,L|352:340,1,71.9999978027344,8|0,0:2|0:2,0:2:0:0:
512,176,163275,1,0,3:2:0:0:
391,52,163448,1,0,0:2:0:0:
355,54,163534,1,0,0:2:0:0:
323,72,163620,2,0,P|284:81|217:76,1,71.9999978027344,0|0,0:2|0:2,0:2:0:0:
127,6,163793,2,0,P|157:87|124:147,1,143.999995605469,8|0,0:2|0:2,0:2:0:0:
146,233,164051,1,0,0:2:0:0:
131,265,164137,5,0,3:2:0:0:
293,326,164310,1,2,0:2:0:0:
414,248,164482,1,2,0:2:0:0:
416,132,164655,1,2,0:2:0:0:
361,65,164827,1,2,0:2:0:0:
303,55,165000,1,2,0:2:0:0:
274,60,165172,1,2,0:2:0:0:
261,66,165344,1,2,0:2:0:0:
254,73,165517,6,0,P|208:81|131:54,1,120,2|0,0:0|0:0,0:0:0:0:
139,59,166218,1,0,0:0:0:0:
72,117,166354,2,0,P|62:150|84:223,1,60
113,271,166702,6,0,L|195:269,1,60,0|2,0:0|0:0,0:0:0:0:
306,316,167062,2,0,L|247:315,1,60
354,238,167391,2,0,L|413:236,1,60
495,283,167741,1,0,0:0:0:0:
489,189,167917,1,0,0:0:0:0:
409,136,168085,1,0,0:0:0:0:
314,160,168266,6,0,P|258:158|196:113,1,120,2|0,0:0|0:0,0:0:0:0:
205,124,168949,1,0,0:0:0:0:
138,219,169123,2,0,P|173:221|210:209,1,60
78,146,169458,6,0,P|43:148|6:136,1,60,0|2,0:0|0:0,0:0:0:0:
42,302,169810,2,0,L|48:226,1,60
129,359,170152,6,0,L|123:283,1,60,0|2,0:0|0:0,0:0:0:0:
221,355,170498,2,0,L|227:279,1,60
310,268,170838,1,0,0:0:0:0:
187,207,171015,5,2,0:0:0:0:
187,207,171352,2,0,P|181:146|230:93,1,120
298,131,171871,2,0,P|336:130|415:78,1,120
492,48,172397,5,2,0:0:0:0:
492,48,172563,2,0,L|484:121,1,60
433,186,172907,2,0,L|441:259,1,60
506,314,173249,2,0,L|498:387,1,60
395,343,173597,1,0,0:0:0:0:
308,303,173782,6,0,P|262:298|173:322,1,120,2|0,0:0|0:0,0:0:0:0:
190,313,174472,1,0,0:0:0:0:
134,249,174632,2,0,P|125:207|127:162,1,60
162,116,174972,1,0,0:0:0:0:
280,153,175146,5,2,0:0:0:0:
280,153,175320,2,0,P|327:137|348:113,1,60
277,64,175657,1,0,0:0:0:0:
465,84,175837,6,0,L|395:80,1,60,2|0,0:0|0:0,0:0:0:0:
486,96,176193,2,0,L|416:92,1,60,2|0,0:0|0:0,0:0:0:0:
465,192,176549,6,0,P|500:237|440:334,1,180,2|0,0:0|0:0,0:0:0:0:
364,289,177376,1,0,0:0:0:0:
364,289,177726,1,0,0:0:0:0:
291,349,177903,6,0,P|249:349|176:304,1,120,2|0,0:0|0:0,0:0:0:0:
181,168,178414,2,0,P|196:214|194:238,1,60
93,176,178752,2,0,P|95:146|107:118,1,60
184,67,179102,1,0,0:0:0:0:
287,116,179274,6,0,P|343:118|396:9,1,180,2|0,0:0|0:0,0:0:0:0:
311,33,180122,1,0,0:0:0:0:
286,229,180472,1,0,0:0:0:0:
356,289,180646,5,2,0:0:0:0:
271,319,180820,2,0,P|230:315|196:295,1,60
121,226,181166,6,0,P|162:222|196:202,1,60,0|2,0:0|0:0,0:0:0:0:
39,188,181506,2,0,P|32:234|43:269,1,60
90,313,181848,1,0,0:0:0:0:
214,305,182045,6,0,B|303:337|303:264|406:304,1,180,2|0,0:0|0:0,0:0:0:0:
389,298,182715,1,0,0:0:0:0:
255,224,182884,2,0,P|248:185|258:145,1,60
332,56,183247,6,0,P|334:85|327:114,1,60,0|2,0:0|0:0,0:0:0:0:
168,83,183573,2,0,L|245:76,1,60
106,141,183915,2,0,L|29:134,1,60
111,319,184255,2,0,P|143:282|135:192,1,120
60,251,184790,6,0,B|186:212|170:296|355:250|355:250|333:257|292:296,1,360,2|0,0:0|0:0,0:0:0:0:
305,283,186153,6,0,P|312:246|307:215,1,60,2|0,0:0|0:0,0:0:0:0:
228,132,186510,1,0,0:0:0:0:
382,155,186793,6,0,P|340:140|310:133,1,60,2|0,0:0|0:0,0:0:0:0:
72,141,187159,2,0,P|114:126|144:119,1,60,2|0,0:0|0:0,0:0:0:0:
304,55,187412,1,0,0:0:0:0:
304,55,187497,1,0,0:2:0:0:
304,55,187588,6,0,L|451:56,1,143.999995605469,4|0,3:2|0:2,0:2:0:0:
447,55,188105,1,0,0:2:0:0:
484,212,188277,1,8,0:3:0:0:
484,212,188450,2,0,P|494:181|490:141,1,71.9999978027344,2|0,0:2|0:2,0:2:0:0:
479,151,188708,1,0,0:2:0:0:
468,161,188794,1,0,0:2:0:0:
456,171,188881,1,0,0:2:0:0:
445,181,188967,5,0,3:2:0:0:
371,231,189139,2,0,P|359:197|359:161,1,71.9999978027344,2|0,0:2|0:2,0:2:0:0:
464,286,189484,2,0,P|464:321|452:355,1,71.9999978027344,2|8,0:2|0:3,0:2:0:0:
436,363,189743,1,0,0:2:0:0:
418,366,189829,1,0,0:2:0:0:
325,323,190001,2,0,L|267:320,1,35.9999989013672,2|0,0:2|0:2,0:2:0:0:
170,331,190174,1,0,0:2:0:0:
152,331,190260,1,0,0:2:0:0:
134,329,190346,6,0,P|123:259|176:203,1,143.999995605469,0|2,3:2|0:2,0:2:0:0:
167,206,190863,1,0,0:2:0:0:
270,136,191036,1,8,0:3:0:0:
270,136,191208,2,0,L|197:128,1,71.9999978027344,2|0,0:2|0:2,0:2:0:0:
341,78,191553,1,0,0:2:0:0:
355,74,191639,1,0,0:2:0:0:
369,70,191725,5,0,3:2:0:0:
445,16,191898,2,0,P|462:71|452:101,1,71.9999978027344,2|0,0:2|0:2,0:2:0:0:
392,231,192243,2,0,P|390:195|406:163,1,71.9999978027344,2|8,0:2|0:3,0:2:0:0:
486,264,192588,2,0,P|501:295|500:331,1,71.9999978027344,2|0,0:2|0:2,0:2:0:0:
482,334,192846,1,0,0:2:0:0:
464,336,192932,1,2,0:2:0:0:
446,338,193019,1,0,0:2:0:0:
428,338,193105,6,0,L|277:343,1,143.999995605469,0|2,3:2|0:2,0:2:0:0:
284,342,193794,1,8,0:3:0:0:
214,218,193967,1,0,0:2:0:0:
214,218,194139,2,0,L|221:297,1,71.9999978027344,0|0,0:2|0:2,0:2:0:0:
322,163,194484,5,0,3:2:0:0:
157,144,194656,2,0,L|261:129,1,71.9999978027344,2|0,0:2|0:2,0:2:0:0:
130,234,195001,1,2,0:2:0:0:
100,69,195174,1,8,0:3:0:0:
72,161,195346,2,0,L|0:171,1,71.9999978027344,2|0,0:2|0:2,0:2:0:0:
2,186,195605,1,0,0:2:0:0:
4,200,195691,1,2,0:2:0:0:
6,214,195777,1,0,0:2:0:0:
8,228,195863,6,0,L|25:373,1,143.999995605469,0|0,3:2|0:2,0:2:0:0:
24,371,196381,1,0,0:2:0:0:
163,301,196553,1,8,0:3:0:0:
163,301,196725,2,0,P|134:297|79:306,1,71.9999978027344,2|0,0:2|0:2,0:2:0:0:
106,312,196984,1,0,0:2:0:0:
120,323,197070,1,0,0:2:0:0:
134,334,197156,1,0,0:2:0:0:
148,345,197243,5,0,3:2:0:0:
244,279,197415,2,0,L|257:208,1,71.9999978027344,2|0,0:2|0:2,0:2:0:0:
162,105,197760,1,2,0:2:0:0:
162,105,197932,2,0,L|176:181,1,71.9999978027344,8|0,0:3|0:2,0:2:0:0:
485,183,198277,6,0,L|376:176,1,90,8|0,0:2|0:2,0:2:0:0:
374,177,198622,6,0,P|351:122|422:38,1,167.999994873047,0|2,3:2|0:2,0:2:0:0:
409,40,199139,1,0,0:2:0:0:
277,47,199312,1,8,0:3:0:0:
277,47,199484,2,0,P|219:53|188:43,1,83.9999974365235,2|0,0:2|0:2,0:2:0:0:
190,66,199743,1,0,0:2:0:0:
185,86,199829,1,0,0:2:0:0:
180,106,199915,1,0,0:2:0:0:
178,126,200001,6,0,P|200:187|125:249,1,167.999994873047,0|0,3:2|0:2,0:2:0:0:
131,249,200519,1,2,0:2:0:0:
60,355,200691,1,8,0:3:0:0:
60,355,200863,2,0,L|145:354,1,83.9999974365235,2|0,0:2|0:2,0:2:0:0:
165,354,201122,1,0,0:2:0:0:
185,354,201208,1,0,0:2:0:0:
205,354,201294,1,0,0:2:0:0:
226,354,201381,6,0,L|405:351,1,167.999994873047,2|0,3:2|0:2,0:2:0:0:
393,352,201898,1,0,0:2:0:0:
351,185,202070,1,8,0:3:0:0:
351,185,202243,2,0,P|348:216|361:279,1,83.9999974365235,2|0,0:2|0:2,0:2:0:0:
377,263,202501,1,0,0:2:0:0:
397,258,202588,1,0,0:2:0:0:
417,254,202674,1,0,0:2:0:0:
437,248,202760,6,0,L|450:74,1,167.999994873047,0|2,3:2|0:2,0:2:0:0:
449,80,203277,1,0,0:2:0:0:
274,116,203450,2,0,L|363:111,1,83.9999974365235,8|0,0:3|0:2,0:2:0:0:
43,161,203794,6,0,P|82:172|143:165,1,90,8|0,0:2|0:2,0:2:0:0:
153,173,204139,6,0,P|165:256|147:287,1,83.9999974365235,0|0,3:2|0:2,0:2:0:0:
75,349,204484,2,0,L|281:341,1,167.999994873047,2|0,0:2|3:2,0:2:0:0:
242,342,205174,1,0,0:2:0:0:
304,257,205346,1,0,0:2:0:0:
315,274,205432,1,0,0:2:0:0:
326,291,205519,6,0,P|361:207|330:112,1,167.999994873047,0|0,3:2|0:2,0:2:0:0:
344,134,206036,1,0,0:2:0:0:
167,172,206208,1,0,3:2:0:0:
167,172,206381,2,0,L|279:170,1,83.9999974365235,2|0,0:2|0:2,0:2:0:0:
232,160,206639,1,0,0:2:0:0:
213,150,206725,1,0,0:2:0:0:
194,139,206812,1,0,0:2:0:0:
174,130,206898,6,0,L|177:23,1,83.9999974365235,2|0,3:2|0:2,0:2:0:0:
290,0,207243,2,0,L|292:83,1,83.9999974365235,0|0,3:2|0:2,0:2:0:0:
396,156,207588,2,0,L|398:72,1,83.9999974365235,0|0,3:2|0:2,0:2:0:0:
512,0,207932,2,0,L|509:83,1,83.9999974365235,0|0,3:2|0:2,0:2:0:0:
394,326,208277,5,2,3:2:0:0:
281,334,208450,1,2,0:2:0:0:
168,342,208622,1,2,0:2:0:0:
273,184,208794,2,0,L|275:263,1,60,0|0,0:2|0:2,0:2:0:0:
194,127,208967,5,0,1:2:0:0:
218,104,209053,1,0,1:2:0:0:
188,93,209139,1,0,1:2:0:0:
216,72,209225,1,0,1:2:0:0:
294,56,209312,6,0,B|357:68|357:68|402:52|402:52|502:65,1,180,8|0,0:2|0:2,0:2:0:0:
491,68,209656,6,0,B|500:229|500:229|487:202|454:183,1,215.999993408203,4|0,3:2|0:2,0:2:0:0:
416,267,210001,2,0,B|342:262|342:262|229:309,1,180,8|0,0:2|0:2,0:2:0:0:
71,341,210346,6,0,P|54:231|231:115,1,270.000010299683,2|0,0:2|0:2,0:2:0:0:
73,367,210691,2,0,P|43:318|41:268,1,90,10|0,0:2|0:2,0:2:0:0:
115,26,211036,6,0,B|189:21|189:21|251:35|251:35|382:27,1,215.999993408203,0|0,3:2|0:2,0:2:0:0:
438,45,211381,2,0,B|506:40|506:40|461:160,1,180,8|0,0:2|0:2,0:2:0:0:
243,296,211725,6,0,B|482:280|482:280|448:303,1,270.000010299683,2|0,0:2|0:2,0:2:0:0:
235,321,212070,2,0,L|337:315,1,90,10|0,0:2|0:2,0:2:0:0:
96,239,212415,5,4,3:2:0:0:
109,311,212760,2,0,B|138:242|138:242|105:70,1,215.999993408203,8|0,0:2|0:2,0:2:0:0:
91,16,213105,1,0,0:2:0:0:
0,160,213277,1,0,3:2:0:0:
200,89,213450,2,0,B|351:57|351:57|428:66,1,215.999993408203,8|0,0:2|0:2,0:2:0:0:
478,157,213794,6,0,B|478:212|478:212|495:241|495:241|495:329|495:329|459:263,1,215.999993408203,0|0,3:2|0:2,0:2:0:0:
372,182,214139,2,0,B|296:177|296:177|133:217,1,215.999993408203,8|0,0:2|0:2,0:2:0:0:
195,294,214484,1,0,0:2:0:0:
200,89,214656,1,0,3:2:0:0:
84,310,214829,6,0,P|42:283|22:197,1,135.000005149841,8|0,0:2|0:2,0:2:0:0:
95,73,215174,6,0,B|99:108|99:108|82:162,1,71.9999978027344,4|0,3:2|0:2,0:2:0:0:
107,57,215346,1,0,0:0:0:0:
237,27,215519,2,0,B|232:62|232:62|250:116,1,60,8|0,0:2|0:2,0:2:0:0:
222,12,215691,1,0,0:0:0:0:
177,336,215863,6,0,P|186:238|386:196,1,270.000010299683,2|0,0:2|0:2,0:2:0:0:
159,362,216208,2,0,P|149:314|155:261,1,90,10|0,0:2|0:2,0:2:0:0:
512,249,216553,6,0,B|447:209|362:248|362:248|408:247|447:283,1,215.999993408203,0|0,3:2|0:2,0:2:0:0:
455,352,216898,2,0,B|402:354|367:333|367:333|320:364|257:353,1,180,8|0,0:2|0:2,0:2:0:0:
100,148,217243,6,0,B|163:125|163:125|233:144|233:144|327:126|327:126|286:113,1,270.000010299683,2|0,0:2|0:2,0:2:0:0:
67,146,217588,2,0,L|162:107,1,90,10|0,0:2|0:2,0:2:0:0:
486,163,217932,5,4,3:2:0:0:
452,95,218277,2,0,B|465:258|465:258|428:190,1,215.999993408203,8|0,0:2|0:2,0:2:0:0:
422,180,218622,1,0,0:2:0:0:
511,342,218794,2,0,L|414:339,1,71.9999978027344,0|0,3:0|0:0,0:0:0:0:
324,287,218967,2,0,B|251:308|211:231|159:281|159:281|191:283|216:322,1,215.999993408203,8|0,0:2|0:2,0:2:0:0:
300,205,219312,6,0,B|298:45|298:45|244:116,1,215.999993408203,0|0,3:2|0:2,0:2:0:0:
209,191,219656,2,0,L|99:176,1,71.9999978027344,8|0,0:2|0:2,0:2:0:0:
85,23,219829,1,0,1:2:0:0:
43,34,219915,1,0,1:2:0:0:
14,66,220001,2,0,P|51:85|103:86,1,71.9999978027344,0|0,3:2|0:2,0:2:0:0:
193,46,220174,1,0,1:2:0:0:
235,57,220260,1,0,1:2:0:0:
264,89,220346,2,0,P|227:108|175:109,1,71.9999978027344,8|0,0:2|0:2,0:2:0:0:
309,178,220519,1,0,1:2:0:0:
346,159,220605,1,0,1:2:0:0:
378,130,220691,6,0,P|460:143|489:295,1,215.999993408203,4|0,3:2|0:2,0:2:0:0:
357,262,221036,2,0,P|389:236|453:230,1,60,8|0,0:2|0:2,0:2:0:0:
455,328,221208,1,0,3:2:0:0:
178,363,221381,6,0,L|394:350,1,180,2|0,0:2|0:2,0:2:0:0:
147,384,221725,2,0,L|363:371,1,180,10|0,0:2|0:2,0:2:0:0:
293,62,222070,6,0,B|215:33|215:33|251:190,1,215.999993408203,0|0,3:2|0:2,0:2:0:0:
278,280,222415,2,0,L|173:275,1,60,8|0,0:2|0:2,0:2:0:0:
5,268,222588,1,0,3:2:0:0:
341,267,222760,6,0,L|131:257,1,180,2|0,0:2|0:2,0:2:0:0:
26,182,223105,2,0,L|95:181,1,60,8|0,0:2|0:2,0:2:0:0:
265,171,223277,1,0,1:2:0:0:
316,139,223363,1,0,1:2:0:0:
335,145,223450,5,4,3:2:0:0:
339,61,223794,2,0,B|371:144|371:144|332:316,1,215.999993408203,8|0,0:2|0:2,0:2:0:0:
323,357,224139,1,0,0:2:0:0:
164,310,224312,2,0,L|295:304,1,71.9999978027344,0|0,3:2|0:2,0:2:0:0:
443,300,224484,2,0,B|475:155|475:155|496:260,1,215.999993408203,8|0,0:2|0:2,0:2:0:0:
371,145,224829,6,0,L|121:140,1,215.999993408203,0|0,3:2|0:2,0:2:0:0:
109,44,225174,2,0,B|47:123|47:123|124:271,1,215.999993408203,8|0,0:2|0:2,0:2:0:0:
119,256,225519,1,0,0:2:0:0:
200,53,225691,2,0,L|313:54,1,71.9999978027344,0|0,3:2|0:2,0:2:0:0:
459,32,225863,6,0,P|499:110|459:172,1,135.000005149841,8|0,0:2|0:2,0:2:0:0:
428,214,226208,6,0,B|408:184|398:151|398:151|330:246|417:312,1,215.999993408203,0|0,3:2|0:2,0:2:0:0:
496,352,226553,2,0,L|404:353,1,60,8|0,0:2|0:2,0:2:0:0:
310,352,226725,6,0,L|259:350,1,30,0|0,0:2|0:2,0:2:0:0:
37,248,226898,6,0,B|123:186|123:186|244:176|244:176|201:193,1,270.000010299683,2|0,0:2|0:2,0:2:0:0:
21,245,227243,2,0,L|94:182,1,90,10|0,0:2|0:2,0:2:0:0:
253,46,227588,6,0,B|351:9|351:9|464:49,1,215.999993408203,0|0,3:2|0:2,0:2:0:0:
467,159,227932,2,0,B|483:144|489:123|489:123|524:182|475:279,1,180,8|0,0:2|0:2,0:2:0:0:
153,322,228277,6,0,P|255:347|376:228,1,270.000010299683,2|0,0:2|0:2,0:2:0:0:
129,330,228622,2,0,P|176:358|231:367,1,90,10|0,0:2|0:2,0:2:0:0:
223,177,228967,6,0,L|109:178,1,90,0|0,3:2|0:2,0:2:0:0:
91,182,229312,6,0,B|80:151|80:151|92:77,6,60,0|0|0|0|0|0|0,0:2|0:2|0:2|0:2|0:2|0:2|0:2,0:2:0:0:
168,78,229656,2,0,B|253:74|253:74|297:104|297:104|363:101|363:101|395:66|395:66|491:61|491:61|408:97,1,420,8|0,0:2|0:2,0:2:0:0:
491,152,230346,6,0,B|500:228|500:228|481:274|481:274|495:360|495:360|457:296,1,270.000010299683,0|0,3:2|0:2,0:2:0:0:
397,269,230691,6,0,B|352:258|352:258|244:268,1,143.999995605469,0|0,3:2|0:2,0:2:0:0:
48,297,230950,1,0,3:2:0:0:
117,358,231036,2,0,P|131:276|121:256,1,71.9999978027344,8|0,0:2|0:2,0:2:0:0:
99,141,231208,2,0,P|85:223|95:243,1,71.9999978027344,0|0,0:2|0:2,0:2:0:0:
266,148,231381,6,0,P|357:138|372:126,1,90,0|0,3:2|0:2,0:2:0:0:
380,122,231725,6,0,B|413:96|413:96|395:299,1,215.999993408203,4|0,3:2|0:2,0:2:0:0:
217,227,232070,2,0,P|179:159|274:55,1,215.999993408203,8|0,0:2|0:2,0:2:0:0:
266,148,232415,1,2,0:2:0:0:
50,75,232588,2,0,L|165:58,1,71.9999978027344,2|0,3:2|0:2,0:2:0:0:
337,44,232760,1,8,0:2:0:0:
126,260,232932,2,0,P|107:226|87:157,1,71.9999978027344,2|0,0:2|0:2,0:2:0:0:
366,132,233105,6,0,L|428:132,6,35.9999989013672,0|0|0|0|0|0|0,3:2|0:2|0:2|0:2|0:2|0:2|0:2,0:2:0:0:
460,70,233450,2,0,B|498:49|498:49|468:228,1,215.999993408203,8|0,0:2|0:2,0:2:0:0:
469,312,233794,2,0,L|373:300,1,71.9999978027344,0|0,0:2|0:2,0:2:0:0:
196,312,233967,1,2,3:2:0:0:
213,280,234053,1,2,0:2:0:0:
230,248,234139,1,10,0:2:0:0:
114,175,234312,2,0,P|117:235|132:261,1,71.9999978027344,2|0,0:2|0:2,0:2:0:0:
312,41,234484,6,0,B|253:21|230:72|143:45|143:45|164:75|205:69,1,215.999993408203,0|0,3:2|0:2,0:2:0:0:
319,129,234829,2,0,P|361:118|388:84,1,71.9999978027344,8|0,0:2|0:2,0:2:0:0:
250,10,235001,2,0,P|276:33|311:40,1,71.9999978027344,0|0,0:2|0:2,0:2:0:0:
458,41,235174,2,0,P|431:17|396:10,1,71.9999978027344,2|0,0:2|0:2,0:2:0:0:
232,157,235346,1,2,3:2:0:0:
479,132,235519,2,0,B|504:201|504:201|482:297,1,143.999995605469,8|2,0:0|0:0,0:0:0:0:
331,368,235863,5,0,3:2:0:0:
380,98,236036,2,0,L|364:198,1,71.9999978027344,2|0,0:2|0:2,0:2:0:0:
251,347,236208,1,8,0:2:0:0:
276,73,236381,2,0,L|268:174,1,71.9999978027344,2|0,0:2|0:2,0:2:0:0:
172,332,236553,1,0,3:2:0:0:
173,57,236726,2,0,L|174:158,1,71.9999978027344,2|0,0:2|0:2,0:2:0:0:
91,316,236898,1,8,0:2:0:0:
63,41,237071,2,0,L|73:141,1,71.9999978027344,2|0,0:2|0:2,0:2:0:0:
216,222,237243,6,0,L|258:225,6,35.9999989013672,0|0|0|0|0|0|0,3:2|0:2|0:2|0:2|0:2|0:2|0:2,0:2:0:0:
280,294,237588,2,0,B|296:347|296:347|353:247|325:179,1,215.999993408203,8|0,0:2|0:2,0:2:0:0:
256,141,237932,1,2,0:2:0:0:
459,343,238105,2,0,L|363:341,1,71.9999978027344,2|0,3:2|0:2,0:2:0:0:
444,224,238277,1,8,0:0:0:0:
208,292,238450,2,0,L|279:293,1,71.9999978027344,2|0,0:2|0:2,0:2:0:0:
459,118,238622,6,0,L|501:121,6,35.9999989013672,0|0|0|0|0|0|0,3:2|0:2|0:2|0:2|0:2|0:2|0:2,0:2:0:0:
384,61,238967,2,0,B|336:33|283:43|283:43|246:74|174:54,1,215.999993408203,8|0,0:2|0:2,0:2:0:0:
104,26,239312,1,0,0:2:0:0:
34,184,239484,1,2,3:2:0:0:
66,199,239570,1,2,0:2:0:0:
97,215,239656,1,10,0:2:0:0:
302,133,239829,2,0,P|264:145|201:142,1,71.9999978027344,2|0,0:2|0:2,0:2:0:0:
191,321,240001,6,0,B|231:338|273:313|273:313|295:328|295:328|343:295|413:321,1,215.999993408203,0|0,3:2|0:2,0:2:0:0:
479,362,240346,2,0,P|486:313|480:264,1,71.9999978027344,8|0,0:2|0:2,0:2:0:0:
403,161,240519,2,0,P|402:196|408:232,1,71.9999978027344,0|0,0:2|0:2,0:2:0:0:
501,68,240691,2,0,L|409:62,1,71.9999978027344,2|0,0:2|0:2,0:2:0:0:
147,33,240863,1,2,3:2:0:0:
270,143,241036,2,0,B|323:130|323:130|140:124,1,215.999993408203,8|0,0:2|0:2,0:2:0:0:
46,35,241381,6,0,L|51:125,1,90,2|0,3:2|0:2,0:2:0:0:
46,35,241725,6,0,B|41:78|41:78|66:143|66:143|55:222,1,180,10|0,3:2|0:2,0:2:0:0:
46,35,242070,6,0,B|31:78|31:78|75:146|75:146|52:302,1,270.000010299683,2|0,3:2|0:2,0:2:0:0:
46,35,242415,6,0,B|19:81|19:81|93:145|93:145|44:358,1,360,2|0,3:2|0:2,0:2:0:0:
236,302,242760,6,0,L|293:299,6,35.9999989013672,4|0|0|0|0|0|0,3:2|0:2|0:2|0:2|0:2|0:2|0:2,0:2:0:0:
211,220,243105,2,0,B|292:216|292:216|432:273,1,215.999993408203,8|0,0:2|0:2,0:2:0:0:
394,345,243450,1,2,0:2:0:0:
512,222,243622,2,0,L|423:176,1,71.9999978027344,2|0,3:2|0:2,0:2:0:0:
268,98,243794,1,8,0:0:0:0:
361,56,243967,2,0,P|372:117|354:152,1,71.9999978027344,2|0,0:2|0:2,0:2:0:0:
137,173,244139,6,0,P|132:158|130:118,6,35.9999989013672,0|0|0|0|0|0|0,3:2|0:2|0:2|0:2|0:2|0:2|0:2,0:2:0:0:
51,129,244484,2,0,B|49:98|71:74|71:74|-8:91|-15:163|1:214,1,215.999993408203,8|0,0:2|0:2,0:2:0:0:
38,310,244829,2,0,P|72:314|117:305,1,71.9999978027344,0|0,0:2|0:2,0:2:0:0:
340,291,245001,1,0,3:2:0:0:
303,295,245088,1,0,0:2:0:0:
267,299,245174,1,8,0:2:0:0:
411,226,245346,2,0,P|436:275|436:314,1,71.9999978027344,0|0,0:2|0:2,0:2:0:0:
318,189,245519,6,0,B|288:109|331:23|331:23|356:84,1,215.999993408203,0|0,3:2|0:2,0:2:0:0:
473,125,245863,2,0,L|393:121,1,71.9999978027344,8|0,0:2|0:2,0:2:0:0:
152,116,246036,2,0,L|232:112,1,71.9999978027344,0|0,0:2|0:2,0:2:0:0:
51,119,246208,2,0,P|35:68|41:22,1,71.9999978027344,2|0,0:2|0:2,0:2:0:0:
256,276,246381,2,0,L|184:279,1,71.9999978027344,2|0,3:2|0:2,0:2:0:0:
7,356,246553,1,8,0:0:0:0:
24,231,246725,2,0,L|95:234,1,71.9999978027344,2|0,0:2|0:2,0:2:0:0:
201,384,246898,5,0,3:2:0:0:
152,114,247071,2,0,L|168:214,1,71.9999978027344,2|0,0:2|0:2,0:2:0:0:
281,363,247243,1,8,0:2:0:0:
256,89,247416,2,0,L|263:190,1,71.9999978027344,2|0,0:2|0:2,0:2:0:0:
360,348,247588,1,0,3:2:0:0:
359,73,247761,2,0,L|357:174,1,71.9999978027344,2|0,0:2|0:2,0:2:0:0:
446,332,247933,1,8,0:2:0:0:
469,57,248106,2,0,L|458:157,1,71.9999978027344,2|0,0:2|0:2,0:2:0:0:
213,259,248277,6,0,L|178:257,6,35.9999989013672,0|0|0|0|0|0|0,3:2|0:2|0:2|0:2|0:2|0:2|0:2,0:2:0:0:
205,377,248622,2,0,B|227:353|253:343|253:343|72:331,1,215.999993408203,8|0,0:2|0:2,0:2:0:0:
213,259,248967,2,0,L|296:263,1,71.9999978027344,2|0,0:2|0:2,0:2:0:0:
257,168,249139,1,2,3:2:0:0:
96,332,249312,1,8,0:0:0:0:
85,189,249484,2,0,L|168:193,1,71.9999978027344,2|0,0:2|0:2,0:2:0:0:
373,192,249656,6,0,B|394:189|394:189|412:171,6,35.9999989013672,0|0|0|0|0|0|0,3:2|0:2|0:2|0:2|0:2|0:2|0:2,0:2:0:0:
355,118,250001,2,0,P|403:97|464:224,1,215.999993408203,8|0,0:2|0:2,0:2:0:0:
423,345,250346,2,0,L|409:266,1,71.9999978027344,0|0,0:2|0:2,0:2:0:0:
335,50,250519,1,2,3:2:0:0:
345,84,250605,1,2,0:2:0:0:
355,118,250691,1,10,0:2:0:0:
141,62,250863,2,0,P|208:55|227:60,1,71.9999978027344,2|0,0:2|0:2,0:2:0:0:
212,289,251036,6,0,B|194:305|187:326|187:326|184:133,1,215.999993408203,0|0,3:2|0:2,0:2:0:0:
95,149,251381,2,0,L|96:240,1,71.9999978027344,8|0,0:2|0:2,0:2:0:0:
272,221,251553,2,0,L|270:143,1,71.9999978027344,0|0,0:2|0:2,0:2:0:0:
36,281,251725,2,0,P|100:304|129:295,1,71.9999978027344,2|0,0:2|0:2,0:2:0:0:
358,283,251898,2,0,P|327:302|292:305,1,71.9999978027344,2|0,3:2|0:2,0:2:0:0:
95,220,252070,1,8,0:0:0:0:
194,370,252243,2,0,L|192:292,1,71.9999978027344,2|0,0:2|0:2,0:2:0:0:
396,87,252415,5,2,3:2:0:0:
431,200,252588,1,2,0:2:0:0:
466,313,252760,1,2,0:2:0:0:
295,269,252932,2,0,L|365:277,1,60,0|0,0:2|0:2,0:2:0:0:
180,211,253105,5,0,1:2:0:0:
150,238,253191,1,0,1:2:0:0:
124,215,253277,1,0,1:2:0:0:
103,240,253363,1,0,1:2:0:0:
57,182,253450,6,0,P|72:136|125:105,1,90,8|0,0:2|0:2,0:2:0:0:
118,108,253794,2,0,P|171:89|146:68,1,105,0|0,0:2|0:2,0:2:0:0:
144,56,254139,6,0,B|199:48|199:48|267:62|267:62|367:52|367:52|318:93,1,270.000010299683,8|0,0:2|0:2,0:2:0:0:
61,244,254484,6,0,B|146:223|146:223|221:248|221:248|349:222,1,270.000010299683,2|0,0:2|0:2,0:2:0:0:
24,239,254829,2,0,L|121:216,1,90,10|0,0:2|0:2,0:2:0:0:
266,348,255174,6,0,B|233:376|233:376|302:362|302:362|336:372|336:372|412:360,1,215.999993408203,0|0,3:2|0:2,0:2:0:0:
454,291,255519,2,0,B|483:330|483:330|465:196,1,180,8|0,0:2|0:2,0:2:0:0:
430,32,255863,6,0,P|343:84|362:260,1,270.000010299683,2|0,0:2|0:2,0:2:0:0:
427,19,256208,2,0,P|363:41|341:57,1,90,8|0,0:2|0:2,0:2:0:0:
101,50,256553,5,4,3:2:0:0:
33,19,256898,2,0,B|87:76|87:76|52:229,1,215.999993408203,8|0,0:2|0:2,0:2:0:0:
66,303,257243,1,0,0:2:0:0:
219,257,257415,2,0,L|129:248,1,71.9999978027344,0|0,3:2|0:2,0:2:0:0:
271,340,257588,2,0,P|312:291|223:163,1,215.999993408203,8|0,0:2|0:2,0:2:0:0:
176,51,257932,6,0,B|164:32|140:17|140:17|307:30,1,215.999993408203,0|0,3:2|0:2,0:2:0:0:
443,106,258277,2,0,B|469:77|469:47|469:47|516:115|467:211,1,215.999993408203,8|0,0:2|0:2,0:2:0:0:
463,224,258622,1,0,0:2:0:0:
256,171,258794,2,0,L|355:174,1,71.9999978027344,0|0,3:2|0:2,0:2:0:0:
107,294,258967,6,0,P|89:260|96:167,1,135.000005149841,8|0,0:2|0:2,0:2:0:0:
176,51,259312,6,0,B|338:47|338:47|266:80,1,215.999993408203,4|0,3:2|0:2,0:2:0:0:
241,186,259656,2,0,L|241:250,1,60,8|0,0:2|0:2,0:2:0:0:
256,171,259829,1,0,0:0:0:0:
468,344,260001,6,0,B|388:331|388:331|306:350|306:350|231:334|231:334|260:328,1,270.000010299683,2|0,0:2|0:2,0:2:0:0:
490,334,260346,2,2,L|394:318,1,90,8|0,0:2|0:2,0:2:0:0:
374,116,260691,6,0,B|392:93|419:86|419:86|246:76,1,215.999993408203,0|0,3:2|0:2,0:2:0:0:
134,58,261036,2,0,B|114:42|100:27|100:27|76:91|106:184,1,180,8|0,0:2|0:2,0:2:0:0:
30,334,261381,6,0,P|135:328|241:163,1,270.000010299683,2|0,0:2|0:2,0:2:0:0:
25,345,261725,2,0,P|80:352|121:342,1,90,10|0,0:2|0:2,0:2:0:0:
86,57,262070,5,4,3:2:0:0:
28,105,262415,2,0,B|-7:75|-7:75|182:84,1,215.999993408203,8|0,0:2|0:2,0:2:0:0:
246,86,262760,1,0,0:2:0:0:
211,246,262932,2,0,L|216:159,1,71.9999978027344,0|0,3:2|0:2,0:2:0:0:
326,57,263105,2,0,B|387:20|387:20|354:186,1,215.999993408203,8|0,0:2|0:2,0:2:0:0:
323,347,263450,6,0,B|253:338|253:338|184:365|184:365|85:351,1,215.999993408203,0|0,3:2|0:2,0:2:0:0:
39,325,263794,2,0,L|31:253,1,71.9999978027344,8|0,0:2|0:2,0:2:0:0:
33,122,263967,1,0,1:2:0:0:
40,79,264053,1,0,1:2:0:0:
74,53,264139,2,0,P|92:84|101:144,1,71.9999978027344,0|0,3:2|0:2,0:2:0:0:
143,242,264312,1,0,1:2:0:0:
150,285,264398,1,0,1:2:0:0:
184,311,264484,2,0,P|202:280|211:220,1,71.9999978027344,8|0,0:2|0:2,0:2:0:0:
188,79,264656,1,0,1:2:0:0:
220,108,264743,1,0,1:2:0:0:
261,120,264829,6,0,P|306:127|267:32,1,215.999993408203,4|0,3:2|0:2,0:2:0:0:
128,81,265174,2,0,L|196:78,1,60,8|0,0:2|0:2,0:2:0:0:
433,82,265346,1,0,3:2:0:0:
191,221,265519,6,0,L|403:212,1,180,2|0,0:2|0:2,0:2:0:0:
170,240,265863,2,0,L|382:231,1,180,10|0,0:2|0:2,0:2:0:0:
452,317,266208,6,0,B|485:353|485:353|286:346,1,215.999993408203,0|0,3:2|0:2,0:2:0:0:
177,365,266553,2,0,P|174:338|179:302,1,60,8|0,0:2|0:2,0:2:0:0:
289,116,266725,1,0,3:2:0:0:
160,384,266898,6,0,P|161:309|227:208,1,180,2|0,0:2|0:2,0:2:0:0:
317,347,267243,2,0,L|399:346,1,60,8|0,0:2|0:2,0:2:0:0:
442,90,267415,1,0,1:2:0:0:
420,48,267501,1,0,1:2:0:0:
434,32,267588,5,4,3:2:0:0:
508,53,267932,2,0,L|273:53,1,215.999993408203,8|0,0:2|0:2,0:2:0:0:
201,49,268277,1,0,0:2:0:0:
61,194,268450,2,0,B|91:206|91:206|155:207,1,71.9999978027344,0|0,3:2|0:2,0:2:0:0:
282,131,268622,2,0,B|349:131|349:131|289:295,1,215.999993408203,8|0,0:2|0:2,0:2:0:0:
216,351,268967,6,0,P|233:308|396:334,1,215.999993408203,0|0,3:2|0:2,0:2:0:0:
459,357,269312,2,0,B|475:285|475:285|451:227|451:227|484:124,1,215.999993408203,8|0,0:2|0:2,0:2:0:0:
508,65,269656,1,0,0:2:0:0:
353,131,269829,2,0,L|280:130,1,71.9999978027344,0|0,3:2|0:2,0:2:0:0:
1,125,270001,6,0,P|80:96|138:115,1,135.000005149841,8|0,0:2|0:2,0:2:0:0:
171,178,270346,6,0,B|128:189|100:184|100:184|166:264|135:340,1,215.999993408203,4|0,3:2|0:2,0:2:0:0:
0,286,270691,2,0,L|69:283,1,60,8|0,0:2|0:2,0:2:0:0:
211,362,270863,6,0,L|246:362,1,30,0|0,0:2|0:2,0:2:0:0:
401,293,271036,6,0,P|439:167|321:67,1,270.000010299683,2|0,0:2|0:2,0:2:0:0:
398,317,271381,2,0,P|426:292|451:228,1,90,10|0,0:2|0:2,0:2:0:0:
171,178,271725,6,0,B|152:184|137:209|137:209|75:150|136:44,1,215.999993408203,0|0,3:2|0:2,0:2:0:0:
227,66,272070,2,0,B|376:53|376:53|337:88,1,180,8|0,0:2|0:2,0:2:0:0:
496,191,272415,6,0,B|281:199|281:199|358:223,1,270.000010299683,2|0,0:2|0:2,0:2:0:0:
512,175,272760,2,0,L|404:181,1,90,10|0,0:2|0:2,0:2:0:0:
431,328,273105,6,0,B|381:329|381:329|345:352|345:352|111:352|111:352|155:327,1,360,0|0,3:2|0:2,0:2:0:0:
184,258,273450,6,0,P|187:183|55:129,1,215.999993408203,8|0,0:2|0:2,0:2:0:0:
94,214,273794,1,0,0:2:0:0:
202,57,273967,2,0,L|286:43,1,60,0|0,3:2|0:2,0:2:0:0:
349,181,274139,2,0,B|385:204|385:204|348:57,1,180,8|0,0:2|0:2,0:2:0:0:
367,294,274484,6,0,P|419:289|461:259,1,90.0000034332277,0|0,3:2|0:2,0:2:0:0:
267,233,274656,2,0,P|215:238|173:268,1,90.0000034332277,0|0,0:2|0:2,0:2:0:0:
62,335,274829,2,0,B|28:373|28:373|32:202,1,215.999993408203,8|0,0:2|0:2,0:2:0:0:
36,112,275174,2,0,B|73:107|73:107|117:117,1,71.9999978027344,0|0,3:2|0:2,0:2:0:0:
267,233,275346,1,0,1:2:0:0:
281,194,275432,1,0,1:2:0:0:
296,159,275519,2,0,L|304:136,6,15,8|0|0|0|0|0|0,0:2|0:2|0:2|0:2|0:2|0:2|0:2,0:2:0:0:
312,125,275863,6,0,B|485:109|485:109|453:144,1,215.999993408203,4|0,3:2|0:2,0:2:0:0:
234,67,276208,2,0,P|216:102|220:163,1,71.9999978027344,8|0,0:2|0:2,0:2:0:0:
131,225,276381,2,0,P|126:189|110:157,1,71.9999978027344,0|0,0:2|0:2,0:2:0:0:
52,77,276553,2,0,L|53:41,2,35.9999989013672,0|0|0,0:2|0:2|0:2,0:2:0:0:
36,230,276725,2,0,L|37:265,1,35.9999989013672,0|0,3:2|0:2,0:2:0:0:
210,146,276898,2,0,L|454:125,1,215.999993408203,8|0,0:2|0:2,0:2:0:0:
463,221,277243,6,0,L|466:260,6,35.9999989013672,0|0|0|0|0|0|0,3:2|0:2|0:2|0:2|0:2|0:2|0:2,0:2:0:0:
504,333,277588,2,0,L|412:336,1,71.9999978027344,8|0,0:2|0:2,0:2:0:0:
369,278,277760,2,0,L|297:275,1,71.9999978027344,0|0,0:2|0:2,0:2:0:0:
213,318,277932,2,0,L|210:379,2,35.9999989013672,0|0|0,0:2|0:2|0:2,0:2:0:0:
39,273,278105,2,0,L|144:273,1,90.0000034332277,2|0,3:2|0:2,0:2:0:0:
293,196,278277,2,0,L|291:145,2,45.0000017166138,8|0|0,0:2|0:2|0:2,0:2:0:0:
147,188,278450,2,0,L|39:188,1,107.999996704102,2|0,0:2|0:2,0:2:0:0:
458,174,278622,6,0,B|479:155|479:155|273:151,1,215.999993408203,0|0,3:2|0:2,0:2:0:0:
224,36,278967,2,0,B|211:69|211:69|219:115,1,71.9999978027344,8|0,0:2|0:2,0:2:0:0:
317,68,279139,2,0,B|323:32|323:32|310:0,1,71.9999978027344,0|0,0:2|0:2,0:2:0:0:
124,104,279312,2,0,L|5:101,1,90.0000034332277,0|0,0:2|0:2,0:2:0:0:
18,13,279484,2,0,L|137:10,1,90.0000034332277,0|0,3:2|0:2,0:2:0:0:
117,248,279656,2,0,B|87:269|87:269|164:298|164:298|286:267,1,215.999993408203,8|0,0:2|0:2,0:2:0:0:
402,293,280001,6,0,B|412:272|412:272|410:249,1,35.9999989013672,0|0,3:2|0:2,0:2:0:0:
397,272,280088,2,0,B|406:251|406:251|405:228,1,35.9999989013672,0|0,0:2|0:2,0:2:0:0:
392,250,280174,2,0,B|401:229|401:229|400:206,1,35.9999989013672,0|0,0:2|0:2,0:2:0:0:
387,227,280260,2,0,B|396:206|396:206|395:183,1,35.9999989013672,0|0,0:2|0:2,0:2:0:0:
382,200,280346,6,0,L|352:191,12,17.9999994506836,8|0|0|0|0|0|0|0|0|0|0|0|0,0:2|0:2|0:2|0:2|0:2|0:2|0:2|0:2|0:2|0:2|0:2|0:2|0:2,0:2:0:0:
279,193,280691,2,0,P|206:190|184:178,1,71.9999978027344,0|0,0:2|0:2,0:2:0:0:
112,142,280863,1,0,3:2:0:0:
323,43,281036,2,0,B|481:39|481:39|401:56,1,215.999993408203,8|0,0:2|0:2,0:2:0:0:
261,108,281381,6,0,L|27:97,1,215.999993408203,0|0,3:2|0:2,0:2:0:0:
11,197,281725,2,0,P|12:251|36:290,1,90.0000034332277,10|0,0:2|0:2,0:2:0:0:
117,348,281898,2,0,P|136:307|134:263,1,90.0000034332277,2|0,0:2|0:2,0:2:0:0:
45,97,282070,2,0,L|147:103,1,90.0000034332277,2|0,0:2|0:2,0:2:0:0:
293,197,282243,2,0,L|191:203,1,90.0000034332277,2|0,3:2|0:2,0:2:0:0:
367,134,282415,2,0,P|396:187|388:237,1,90.0000034332277,10|0,0:2|0:2,0:2:0:0:
274,99,282588,2,0,P|277:54|302:17,1,90.0000034332277,2|0,0:2|0:2,0:2:0:0:
455,95,282760,6,0,P|469:119|484:152,6,35.9999989013672,0|0|0|0|0|0|0,3:2|0:2|0:2|0:2|0:2|0:2|0:2,0:2:0:0:
488,211,283105,2,0,B|498:365|498:365|461:295,1,215.999993408203,8|0,0:2|0:2,0:2:0:0:
345,303,283450,2,0,L|267:309,1,71.9999978027344,0|0,0:2|0:2,0:2:0:0:
124,253,283622,2,0,B|115:298|115:298|130:353,1,90.0000034332277,2|0,3:2|0:2,0:2:0:0:
218,217,283794,2,0,L|262:213,2,45.0000017166138,8|0|0,0:2|0:2|0:2,0:2:0:0:
60,190,283967,2,0,B|50:141|50:141|73:67,1,107.999996704102,2|0,0:2|0:2,0:2:0:0:
205,49,284139,6,0,B|363:42|363:42|300:73,1,215.999993408203,0|0,3:2|0:2,0:2:0:0:
386,135,284484,2,0,P|443:137|477:122,1,71.9999978027344,8|0,0:2|0:2,0:2:0:0:
333,216,284656,2,0,P|276:218|242:203,1,71.9999978027344,0|0,0:2|0:2,0:2:0:0:
431,317,284829,2,0,L|441:214,1,90.0000034332277,0|0,0:2|0:2,0:2:0:0:
465,46,285001,1,0,3:2:0:0:
208,141,285174,2,0,B|50:148|50:148|113:117,1,215.999993408203,8|0,0:2|0:2,0:2:0:0:
172,236,285519,6,0,L|176:298,1,35.9999989013672,0|0,3:2|0:2,0:2:0:0:
187,259,285605,2,0,L|191:321,1,35.9999989013672,0|0,0:2|0:2,0:2:0:0:
202,282,285691,2,0,L|206:344,1,35.9999989013672,0|0,0:2|0:2,0:2:0:0:
216,304,285777,2,0,L|220:366,1,35.9999989013672,0|0,0:2|0:2,0:2:0:0:
227,327,285863,6,0,L|258:328,12,17.9999994506836,8|0|0|0|0|0|0|0|0|0|0|0|0,0:2|0:2|0:2|0:2|0:2|0:2|0:2|0:2|0:2|0:2|0:2|0:2|0:2,0:2:0:0:
331,271,286208,6,0,B|317:199|317:199|353:157|353:157|339:89|339:89|280:177,1,270.000010299683,2|0,3:2|0:2,0:2:0:0:
338,273,286553,2,0,B|324:201|324:201|360:159|360:159|346:91|346:91|287:179,1,270.000010299683,2|0,3:2|0:2,0:2:0:0:
146,189,286898,6,0,B|117:213|106:236|106:236|113:180|113:144|56:62,1,215.999993408203,4|0,3:2|0:2,0:2:0:0:
9,3,287243,2,0,L|104:-2,1,71.9999978027344,8|0,0:2|0:2,0:2:0:0:
165,53,287415,2,0,L|236:56,1,71.9999978027344,0|0,0:2|0:2,0:2:0:0:
433,22,287588,1,0,0:2:0:0:
305,150,287760,2,0,P|289:203|298:250,1,71.9999978027344,0|0,3:2|0:2,0:2:0:0:
467,311,287932,2,0,B|502:320|502:320|421:349|421:349|301:338,1,215.999993408203,8|0,0:2|0:2,0:2:0:0:
192,318,288277,6,0,L|126:306,6,35.9999989013672,0|0|0|0|0|0|0,3:2|0:2|0:2|0:2|0:2|0:2|0:2,0:2:0:0:
68,307,288622,2,0,B|42:348|42:348|58:160,1,215.999993408203,8|0,0:2|0:2,0:2:0:0:
71,88,288967,2,0,L|76:27,2,35.9999989013672,0|0|0,0:2|0:2|0:2,0:2:0:0:
151,146,289139,2,0,L|255:153,1,90.0000034332277,2|0,3:2|0:2,0:2:0:0:
344,160,289312,2,0,L|408:164,2,45.0000017166138,8|0|0,0:2|0:2|0:2,0:2:0:0:
297,56,289484,2,0,L|440:65,1,107.999996704102,2|0,0:2|0:2,0:2:0:0:
448,262,289656,6,0,B|477:303|477:303|482:126,1,215.999993408203,0|0,3:2|0:2,0:2:0:0:
392,337,290001,2,0,P|349:339|312:327,1,71.9999978027344,8|0,0:2|0:2,0:2:0:0:
201,168,290174,2,0,P|244:166|281:178,1,71.9999978027344,0|0,0:2|0:2,0:2:0:0:
235,343,290346,2,0,L|225:253,1,90.0000034332277,0|0,0:2|0:2,0:2:0:0:
155,54,290519,1,0,3:2:0:0:
76,188,290691,2,0,B|55:204|47:229|47:229|17:152|27:123|61:65,1,215.999993408203,8|0,0:2|0:2,0:2:0:0:
155,54,291036,5,0,3:2:0:0:
129,327,291209,2,0,L|136:225,1,71.9999978027344,2|0,0:2|0:2,0:2:0:0:
236,67,291381,1,8,0:2:0:0:
235,343,291554,2,0,L|234:241,1,71.9999978027344,2|0,0:2|0:2,0:2:0:0:
316,76,291726,1,0,3:2:0:0:
339,350,291899,2,0,L|329:249,1,71.9999978027344,2|0,0:2|0:2,0:2:0:0:
395,81,292071,1,8,0:2:0:0:
450,356,292244,2,0,L|431:257,1,71.9999978027344,2|0,0:2|0:2,0:2:0:0:
236,67,292415,6,0,B|200:27|200:27|132:90|175:205,1,215.999993408203,0|0,3:2|0:2,0:2:0:0:
333,182,292760,2,0,L|430:177,1,71.9999978027344,8|0,0:2|0:2,0:2:0:0:
508,281,292932,2,0,L|436:284,1,71.9999978027344,0|0,0:2|0:2,0:2:0:0:
482,102,293105,1,0,0:2:0:0:
252,159,293277,2,0,P|254:213|272:248,1,71.9999978027344,0|0,3:2|0:2,0:2:0:0:
319,359,293450,2,0,B|360:331|360:331|171:339,1,215.999993408203,8|0,0:2|0:2,0:2:0:0:
54,335,293794,6,0,L|35:279,6,35.9999989013672,0|0|0|0|0|0|0,3:2|0:2|0:2|0:2|0:2|0:2|0:2,0:2:0:0:
101,216,294139,2,0,B|88:164|88:164|104:58|104:58|60:123,1,215.999993408203,8|0,0:2|0:2,0:2:0:0:
190,163,294484,2,0,L|204:63,1,71.9999978027344,0|0,0:2|0:2,0:2:0:0:
274,256,294656,2,0,P|199:260|180:250,1,90.0000034332277,2|0,3:2|0:2,0:2:0:0:
352,186,294829,2,0,P|376:185|404:196,2,45.0000017166138,8|0|0,0:2|0:2|0:2,0:2:0:0:
349,384,295001,2,0,L|364:271,1,107.999996704102,2|0,0:2|0:2,0:2:0:0:
452,110,295174,6,0,B|488:84|488:84|292:86,1,215.999993408203,0|0,3:2|0:2,0:2:0:0:
209,8,295519,2,0,L|296:5,1,71.9999978027344,8|0,0:2|0:2,0:2:0:0:
199,91,295691,2,0,L|127:93,1,71.9999978027344,0|0,0:2|0:2,0:2:0:0:
36,52,295863,2,0,P|63:16|104:0,1,90.0000034332277,0|0,0:2|0:2,0:2:0:0:
166,176,296036,1,0,3:2:0:0:
316,85,296208,2,0,B|316:155|316:155|280:214|280:214|283:290,1,215.999993408203,8|0,0:2|0:2,0:2:0:0:
484,282,296553,6,0,L|394:287,1,90,2|0,3:2|0:2,0:2:0:0:
484,282,296898,6,0,B|440:277|440:277|373:296|373:296|297:291,1,180,10|0,3:2|0:2,0:2:0:0:
484,282,297242,6,0,B|441:267|441:267|373:311|373:311|217:288,1,270.000010299683,2|0,3:2|0:2,0:2:0:0:
484,282,297587,6,0,B|438:255|438:255|374:329|374:329|161:280,1,360,2|0,3:2|0:2,0:2:0:0:
62,231,297932,6,0,P|55:139|132:75,1,180,4|0,3:2|0:2,0:2:0:0:
261,172,298277,2,0,L|132:173,1,120,8|0,0:2|0:2,0:2:0:0:
301,89,298622,1,0,3:2:0:0:
318,243,298794,2,0,L|326:317,1,60,0|0,0:2|0:2,0:2:0:0:
368,155,298967,1,8,0:2:0:0:
324,302,299139,2,0,L|332:376,1,60,0|0,0:2|0:2,0:2:0:0:
460,192,299312,6,0,L|467:146,6,30,0|0|0|0|0|0|0,3:2|0:2|0:2|0:2|0:2|0:2|0:2,0:2:0:0:
458,72,299656,2,0,L|263:65,1,180,8|0,0:2|0:2,0:2:0:0:
264,148,300001,1,0,0:2:0:0:
204,14,300174,1,2,3:2:0:0:
138,181,300346,1,10,0:0:0:0:
203,44,300519,1,2,0:0:0:0:
124,290,300691,6,0,B|176:282|176:282|241:297|241:297|321:287,1,180,2|0,3:2|0:2,0:2:0:0:
381,357,301036,2,0,L|304:374,1,60,8|0,0:2|0:2,0:2:0:0:
390,275,301208,2,0,L|448:262,1,60,0|0,0:2|0:2,0:2:0:0:
251,212,301381,1,0,0:2:0:0:
390,131,301553,2,0,P|394:164|379:211,1,60,0|0,3:2|0:2,0:2:0:0:
251,212,301725,2,0,B|186:199|186:199|65:214,1,180,8|0,0:2|0:2,0:2:0:0:
107,61,302070,6,0,L|110:-6,1,60,2|0,3:2|0:2,0:2:0:0:
107,80,302415,2,0,B|246:64|246:64|193:58,1,180,8|0,0:2|0:2,0:2:0:0:
206,29,302760,1,0,0:2:0:0:
302,138,302932,2,0,L|296:217,1,60,0|0,3:2|0:2,0:2:0:0:
415,57,303105,1,8,0:2:0:0:
297,197,303277,2,0,L|291:276,1,60,0|0,0:2|0:2,0:2:0:0:
330,380,303450,6,0,B|362:357|362:357|202:351,1,180,0|0,3:2|0:2,0:2:0:0:
64,342,303794,2,0,P|111:353|141:351,1,60,8|0,0:2|0:2,0:2:0:0:
196,252,303967,2,0,P|166:254|137:263,1,60,0|0,0:2|0:2,0:2:0:0:
502,290,304139,1,0,3:2:0:0:
480,284,304312,1,0,0:2:0:0:
415,57,304484,2,0,B|459:26|459:26|447:172,1,180,8|0,0:2|0:2,0:2:0:0:
324,95,304829,6,0,L|141:88,1,180,0|0,3:2|0:2,0:2:0:0:
50,109,305174,2,0,P|49:70|65:28,1,60,8|0,0:2|0:2,0:2:0:0:
220,12,305346,1,0,0:2:0:0:
112,171,305519,2,0,L|103:245,1,60,0|0,0:2|0:2,0:2:0:0:
80,365,305691,1,2,3:2:0:0:
206,225,305863,1,10,0:0:0:0:
17,266,306036,1,2,0:0:0:0:
303,226,306208,6,0,B|333:195|333:195|325:339,1,180,2|0,3:2|0:2,0:2:0:0:
234,373,306553,2,0,L|237:286,1,60,8|0,0:2|0:2,0:2:0:0:
421,200,306725,2,0,L|419:259,1,60,0|0,0:2|0:2,0:2:0:0:
265,149,306898,1,0,0:2:0:0:
484,315,307070,2,0,P|504:272|502:248,1,60,0|0,3:2|0:2,0:2:0:0:
386,26,307243,2,0,P|428:21|506:143,1,180,8|0,0:2|0:2,0:2:0:0:
371,196,307588,6,0,P|360:312|495:301,1,270.000010299683,2|0,3:2|0:2,0:2:0:0:
380,193,307933,6,0,P|369:309|499:286,1,270.000010299683,2|0,3:2|0:2,0:2:0:0:
392,192,308278,6,0,P|380:308|497:279,1,270.000010299683,2|0,3:2|0:2,0:2:0:0:
401,191,308622,6,0,P|385:304|495:275,1,270.000010299683,2|0,3:2|0:2,0:2:0:0:
480,163,308967,6,0,B|505:133|505:133|406:154|406:154|309:152,1,215.999993408203,6|0,3:2|0:2,0:2:0:0:
253,199,309312,2,0,P|243:166|248:124,1,71.9999978027344,8|0,0:2|0:2,0:2:0:0:
318,23,309484,1,0,3:2:0:0:
163,112,309656,1,0,0:2:0:0:
126,113,309743,1,0,0:2:0:0:
94,95,309829,1,0,0:2:0:0:
72,65,309915,1,0,0:2:0:0:
67,29,310001,2,0,L|149:23,1,71.9999978027344,8|0,0:2|0:2,0:2:0:0:
71,174,310174,2,0,L|-11:168,1,71.9999978027344,0|0,0:2|0:2,0:2:0:0:
241,45,310346,6,0,B|397:37|397:37|331:74,1,215.999993408203,0|0,3:2|0:2,0:2:0:0:
246,129,310691,2,0,P|242:164|253:199,1,71.9999978027344,8|0,0:2|0:2,0:2:0:0:
338,294,310863,1,0,3:2:0:0:
224,353,311036,1,0,0:2:0:0:
188,350,311122,1,0,0:2:0:0:
153,350,311208,2,0,L|70:348,1,71.9999978027344,2|0,0:2|0:2,0:2:0:0:
71,174,311381,2,0,B|97:204|99:244|99:244|109:149|171:98,1,215.999993408203,10|0,0:2|0:2,0:2:0:0:
241,45,311725,6,0,B|397:37|397:37|331:74,1,215.999993408203,2|0,3:2|0:2,0:2:0:0:
422,217,312070,2,0,L|415:126,1,71.9999978027344,8|0,0:2|0:2,0:2:0:0:
372,307,312243,1,0,3:2:0:0:
274,242,312415,1,0,0:2:0:0:
240,230,312501,1,0,0:2:0:0:
204,228,312587,1,0,0:2:0:0:
169,236,312673,1,0,0:2:0:0:
138,254,312760,2,0,L|131:331,1,71.9999978027344,8|0,0:2|0:2,0:2:0:0:
49,224,312932,2,0,P|70:188|113:168,1,71.9999978027344,0|0,0:2|0:2,0:2:0:0:
251,111,313105,6,0,B|269:96|303:97|303:97|244:58|145:72,1,215.999993408203,0|0,3:2|0:2,0:2:0:0:
52,86,313450,2,0,P|58:40|84:-2,1,71.9999978027344,8|0,0:2|0:2,0:2:0:0:
95,172,313622,1,0,3:2:0:0:
368,145,313794,5,2,0:2:0:0:
387,176,313880,1,2,0:2:0:0:
393,211,313966,1,2,0:2:0:0:
388,247,314052,1,2,0:2:0:0:
370,278,314138,1,10,0:2:0:0:
360,297,314225,1,2,0:2:0:0:
356,310,314311,1,2,0:2:0:0:
356,317,314397,1,2,0:2:0:0:
358,323,314484,6,0,B|251:365|255:279|134:335,1,215.999993408203,6|0,3:2|0:2,0:2:0:0:
61,366,314829,2,0,P|55:313|68:278,1,71.9999978027344,8|0,0:2|0:2,0:2:0:0:
99,97,315001,1,0,3:2:0:0:
246,200,315174,1,0,0:2:0:0:
281,203,315260,1,0,0:2:0:0:
316,194,315346,1,0,0:2:0:0:
346,174,315432,1,0,0:2:0:0:
368,145,315519,2,0,P|376:108|359:60,1,71.9999978027344,8|0,0:2|0:2,0:2:0:0:
203,106,315691,2,0,L|290:111,1,71.9999978027344,0|0,0:2|0:2,0:2:0:0:
474,128,315863,6,0,B|467:271|467:271|432:194,1,215.999993408203,0|0,3:2|0:2,0:2:0:0:
297,291,316208,2,0,L|387:291,1,71.9999978027344,8|0,0:2|0:2,0:2:0:0:
504,353,316381,1,0,3:2:0:0:
221,358,316553,1,0,0:2:0:0:
185,360,316639,1,0,0:2:0:0:
149,362,316725,2,0,L|59:362,1,71.9999978027344,2|0,0:2|0:2,0:2:0:0:
19,104,316898,2,0,B|70:130|112:118|112:118|150:165|105:240,1,215.999993408203,10|0,0:2|0:2,0:2:0:0:
33,267,317243,6,0,B|111:254|111:254|170:268|170:268|280:254,1,215.999993408203,2|0,3:2|0:2,0:2:0:0:
322,165,317588,2,0,L|227:179,1,71.9999978027344,8|0,0:2|0:2,0:2:0:0:
221,358,317760,1,0,3:2:0:0:
410,206,317932,1,0,0:2:0:0:
419,171,318018,1,0,0:2:0:0:
416,135,318104,1,0,0:2:0:0:
400,104,318190,1,0,0:2:0:0:
371,81,318277,2,0,P|336:69|292:76,1,71.9999978027344,8|0,0:2|0:2,0:2:0:0:
250,175,318450,2,0,L|322:165,1,71.9999978027344,0|0,0:2|0:2,0:2:0:0:
452,282,318622,5,0,3:2:0:0:
245,344,318794,1,2,0:2:0:0:
107,216,318967,1,2,0:2:0:0:
136,60,319139,1,2,0:2:0:0:
264,39,319312,1,2,0:2:0:0:
350,89,319484,1,2,0:2:0:0:
357,160,319656,1,2,0:2:0:0:
334,196,319829,1,2,0:2:0:0:
321,203,320001,5,2,0:2:0:0:
