osu file format v14

[General]
AudioFilename: audio.mp3
AudioLeadIn: 0
PreviewTime: 87750
Countdown: 0
SampleSet: Soft
StackLeniency: 0.4
Mode: 0
LetterboxInBreaks: 0
WidescreenStoryboard: 0

[Editor]
Bookmarks: 167061
DistanceSpacing: 0.8
BeatDivisor: 4
GridSize: 8
TimelineZoom: 2.3

[Metadata]
Title:AC-130
TitleUnicode:AC-130
Artist:Rusty K
ArtistUnicode:Rusty K
Creator:Catshy
Version:Lockheed
Source:
Tags:tags
BeatmapID:1681027
BeatmapSetID:800729

[Difficulty]
HPDrainRate:6
CircleSize:4
OverallDifficulty:8.4
ApproachRate:9.4
SliderMultiplier:1.4
SliderTickRate:1

[Events]
//Background and Video events
0,0,"wpp_0_388_abstract-dark-desktop-background.jpg",0,0
//Break Periods
//Storyboard Layer 0 (Background)
//Storyboard Layer 1 (Fail)
//Storyboard Layer 2 (Pass)
//Storyboard Layer 3 (Foreground)
//Storyboard Sound Samples

[TimingPoints]
1544,344.827586206897,4,2,1,80,1,0
23612,-166.666666666667,4,2,1,80,0,0
23871,-166.666666666667,4,2,1,5,0,0
23957,-100,4,2,1,80,0,0
24216,-100,4,2,1,5,0,0
24302,-166.666666666667,4,2,1,80,0,0
24561,-166.666666666667,4,2,1,5,0,0
24647,-166.666666666667,4,2,1,80,0,0
24819,-142.857142857143,4,2,1,80,0,0
25509,-142.857142857143,4,2,1,5,0,0
25681,-142.857142857143,4,2,1,80,0,0
26544,-142.857142857143,4,2,1,5,0,0
27061,-166.666666666667,4,2,1,80,0,0
27406,-166.666666666667,4,2,1,5,0,0
27578,-142.857142857143,4,2,1,80,0,0
28268,-142.857142857143,4,2,1,5,0,0
28440,-142.857142857143,4,2,1,80,0,0
29130,-166.666666666667,4,2,1,80,0,0
29388,-166.666666666667,4,2,1,5,0,0
29475,-100,4,2,1,80,0,0
29733,-100,4,2,1,5,0,0
29819,-166.666666666667,4,2,1,80,0,0
30078,-166.666666666667,4,2,1,5,0,0
30164,-166.666666666667,4,2,1,80,0,0
30337,-142.857142857143,4,2,1,80,0,0
31026,-142.857142857143,4,2,1,5,0,0
31199,-142.857142857143,4,2,1,80,0,0
32061,-142.857142857143,4,2,1,5,0,0
32578,-166.666666666667,4,2,1,80,0,0
32923,-166.666666666667,4,2,1,5,0,0
33095,-142.857142857143,4,2,1,80,0,0
33785,-142.857142857143,4,2,1,5,0,0
33957,-142.857142857143,4,2,1,80,0,0
34647,-125,4,2,1,80,0,0
34819,-125,4,2,1,5,0,0
34992,-100,4,2,1,80,0,0
35164,-100,4,2,1,5,0,0
35337,-83.3333333333334,4,2,1,80,0,0
40164,-125,4,2,1,80,0,0
40509,-100,4,2,1,80,0,0
40854,-83.3333333333333,4,2,1,80,0,0
45681,-125,4,2,2,80,0,0
45854,-125,4,2,2,5,0,0
46026,-125,4,2,2,80,0,0
46199,-125,4,2,2,5,0,0
46544,-83.3333333333333,4,2,1,80,0,0
48440,-125,4,2,2,80,0,0
48612,-125,4,2,2,5,0,0
48785,-125,4,2,2,80,0,0
48957,-125,4,2,2,5,0,0
49130,-125,4,2,1,80,0,0
49302,-83.3333333333333,4,2,1,80,0,0
51199,-125,4,2,2,80,0,0
51371,-125,4,2,2,5,0,0
51544,-125,4,2,2,80,0,0
51716,-125,4,2,2,5,0,0
51888,-125,4,2,1,80,0,0
52061,-83.3333333333333,4,2,1,80,0,0
53957,-125,4,2,2,80,0,0
54130,-125,4,2,2,5,0,0
54302,-125,4,2,2,80,0,0
54475,-125,4,2,2,5,0,0
54647,-83.3333333333333,4,2,1,80,0,0
56716,-125,4,2,2,80,0,0
56888,-125,4,2,2,5,0,0
57061,-125,4,2,2,80,0,0
57233,-125,4,2,2,5,0,0
57406,-125,4,2,1,80,0,0
58095,-83.3333333333333,4,2,1,80,0,0
59475,-125,4,2,2,80,0,0
59647,-125,4,2,2,5,0,0
59819,-125,4,2,2,80,0,0
59992,-125,4,2,2,5,0,0
60164,-125,4,2,1,80,0,0
60337,-83.3333333333333,4,2,1,80,0,0
62233,-125,4,2,2,80,0,0
62406,-125,4,2,2,5,0,0
62578,-125,4,2,2,80,0,0
62750,-125,4,2,2,5,0,0
62923,-125,4,2,1,80,0,0
63612,-83.3333333333333,4,2,1,80,0,0
64992,-83.3333333333333,4,2,2,80,0,0
65078,-83.3333333333333,4,2,2,5,0,0
65337,-83.3333333333333,4,2,2,80,0,0
65423,-83.3333333333333,4,2,2,5,0,0
65681,-83.3333333333333,4,2,2,80,0,0
65768,-83.3333333333333,4,2,2,5,0,0
66371,-100,4,2,6,80,0,0
66716,-100,4,2,1,80,0,0
67406,-100,4,2,6,50,0,0
67750,-100,4,1,2,50,0,0
72233,-100,4,2,6,80,0,0
72578,-100,4,1,2,50,0,0
77750,-100,4,2,6,80,0,0
78095,-100,4,1,2,50,0,0
79130,-100,4,2,1,50,0,0
83268,-100,4,2,6,50,0,0
83612,-100,4,2,1,50,0,0
83957,-100,4,2,6,50,0,0
84302,-100,4,2,1,50,0,0
88268,-100,4,2,1,5,0,0
88440,-142.857142857143,4,2,6,80,0,0
88612,-142.857142857143,4,2,6,5,0,0
88699,-142.857142857143,4,2,6,80,0,0
88871,-142.857142857143,4,2,6,5,0,0
88957,-142.857142857143,4,2,6,80,0,0
89130,-142.857142857143,4,2,6,5,0,0
89216,-142.857142857143,4,2,6,80,0,0
89388,-142.857142857143,4,2,6,5,0,0
89475,-142.857142857143,4,2,6,80,0,0
89647,-142.857142857143,4,2,6,5,0,0
89819,-333.333333333333,4,2,4,80,0,0
90423,-333.333333333333,4,2,1,5,0,0
90509,-83.3333333333333,4,2,1,80,0,0
91199,-166.666666666667,4,2,2,80,0,0
91457,-166.666666666667,4,2,2,5,0,0
91544,-166.666666666667,4,2,2,80,0,0
91802,-166.666666666667,4,2,2,5,0,0
91888,-83.3333333333334,4,2,1,80,0,0
92578,-166.666666666667,4,2,2,80,0,0
92837,-166.666666666667,4,2,2,5,0,0
92923,-166.666666666667,4,2,2,80,0,0
93181,-166.666666666667,4,2,2,5,0,0
93268,-83.3333333333333,4,2,1,80,0,0
93957,-166.666666666667,4,2,2,80,0,0
94216,-166.666666666667,4,2,2,5,0,0
94302,-166.666666666667,4,2,2,80,0,0
94561,-166.666666666667,4,2,2,5,0,0
94647,-83.3333333333333,4,2,1,80,0,0
95337,-166.666666666667,4,2,2,80,0,0
95595,-166.666666666667,4,2,2,5,0,0
95681,-166.666666666667,4,2,2,80,0,0
95940,-166.666666666667,4,2,2,5,0,0
96026,-83.3333333333333,4,2,1,80,0,0
96716,-166.666666666667,4,2,2,80,0,0
96975,-166.666666666667,4,2,2,5,0,0
97061,-166.666666666667,4,2,2,80,0,0
97319,-166.666666666667,4,2,2,5,0,0
97406,-83.3333333333333,4,2,1,80,0,0
97492,-83.3333333333333,4,2,2,80,0,0
97923,-83.3333333333333,4,2,1,80,0,0
98095,-166.666666666667,4,2,1,80,0,0
98440,-83.3333333333333,4,2,1,80,0,0
98612,-166.666666666667,4,2,1,80,0,0
98957,-83.3333333333334,4,2,1,80,0,0
99130,-83.3333333333334,4,2,2,80,0,0
99475,-166.666666666667,4,2,1,80,0,0
100164,-666.666666666667,4,2,1,80,0,0
100768,-666.666666666667,4,2,1,5,0,0
100854,-333.333333333333,4,2,4,80,0,0
101544,-83.3333333333333,4,2,1,80,0,0
102233,-166.666666666667,4,2,2,80,0,0
102492,-166.666666666667,4,2,2,5,0,0
102578,-166.666666666667,4,2,2,80,0,0
102837,-166.666666666667,4,2,2,5,0,0
102923,-83.3333333333333,4,2,1,80,0,0
103009,-83.3333333333333,4,2,2,80,0,0
103440,-83.3333333333333,4,2,1,80,0,0
103612,-166.666666666667,4,2,2,80,0,0
103871,-166.666666666667,4,2,2,5,0,0
103957,-166.666666666667,4,2,2,80,0,0
104216,-166.666666666667,4,2,2,5,0,0
104302,-83.3333333333333,4,2,1,80,0,0
104992,-166.666666666667,4,2,2,80,0,0
105337,-166.666666666667,4,2,2,80,0,0
105681,-83.3333333333333,4,2,1,80,0,0
105854,-83.3333333333333,4,2,4,80,0,0
106112,-83.3333333333333,4,2,5,80,0,0
106371,-333.333333333333,4,2,4,80,0,0
106975,-333.333333333333,4,2,1,5,0,0
107061,-83.3333333333333,4,2,1,80,0,0
107750,-166.666666666667,4,2,2,80,0,0
108009,-166.666666666667,4,2,2,5,0,0
108095,-166.666666666667,4,2,2,80,0,0
108354,-166.666666666667,4,2,2,5,0,0
108440,-83.3333333333333,4,2,1,80,0,0
108526,-83.3333333333333,4,2,2,80,0,0
108957,-83.3333333333333,4,2,1,80,0,0
109130,-333.333333333333,4,2,1,80,0,0
109475,-83.3333333333333,4,2,1,80,0,0
109819,-333.333333333333,4,2,1,80,0,0
110164,-83.3333333333333,4,2,1,80,0,0
110509,-333.333333333333,4,2,1,80,0,0
110854,-83.3333333333333,4,2,1,80,0,0
111199,-333.333333333333,4,2,1,80,0,0
111544,-666.666666666667,4,2,1,80,0,0
111888,-333.333333333333,4,2,4,80,0,0
112578,-83.3333333333333,4,2,1,80,0,0
113268,-166.666666666667,4,2,2,80,0,0
113526,-166.666666666667,4,2,2,5,0,0
113612,-166.666666666667,4,2,2,80,0,0
113871,-166.666666666667,4,2,2,5,0,0
113957,-83.3333333333333,4,2,1,80,0,0
114647,-166.666666666667,4,2,4,80,0,0
115250,-166.666666666667,4,2,1,5,0,0
115337,-83.3333333333333,4,2,1,80,0,0
116026,-166.666666666667,4,2,2,80,0,0
116285,-166.666666666667,4,2,2,5,0,0
116371,-166.666666666667,4,2,2,80,0,0
116630,-166.666666666667,4,2,2,5,0,0
116716,-166.666666666667,4,2,1,80,0,0
116975,-83.3333333333333,4,2,1,80,0,0
117406,-166.666666666667,4,2,4,80,0,0
118009,-166.666666666667,4,2,1,5,0,0
118095,-83.3333333333333,4,2,1,80,0,0
118785,-166.666666666667,4,2,2,80,0,0
119044,-166.666666666667,4,2,2,5,0,0
119130,-166.666666666667,4,2,2,80,0,0
119388,-166.666666666667,4,2,2,5,0,0
119475,-83.3333333333333,4,2,1,80,0,0
119561,-83.3333333333333,4,2,2,80,0,0
119992,-83.3333333333333,4,2,1,80,0,0
120164,-166.666666666667,4,2,1,80,0,0
120509,-83.3333333333333,4,2,1,80,0,0
120681,-166.666666666667,4,2,1,80,0,0
121026,-83.3333333333333,4,2,1,80,0,0
121199,-83.3333333333333,4,2,2,80,0,0
121544,-166.666666666667,4,2,2,80,0,0
121802,-166.666666666667,4,2,2,5,0,0
121888,-166.666666666667,4,2,2,80,0,0
122147,-166.666666666667,4,2,2,5,0,0
122233,-666.666666666667,4,2,1,80,0,0
122837,-666.666666666667,4,2,1,5,0,0
122923,-333.333333333333,4,2,4,80,0,0
123526,-333.333333333333,4,2,1,5,0,0
123612,-83.3333333333333,4,2,1,80,0,0
124302,-166.666666666667,4,2,2,80,0,0
124906,-166.666666666667,4,2,2,5,0,0
124992,-83.3333333333333,4,2,1,80,0,0
125164,-166.666666666667,4,2,1,80,0,0
125509,-83.3333333333333,4,2,1,80,0,0
125681,-166.666666666667,4,2,2,80,0,0
125940,-166.666666666667,4,2,2,5,0,0
126026,-166.666666666667,4,2,2,80,0,0
126285,-166.666666666667,4,2,2,5,0,0
126371,-83.3333333333333,4,2,1,80,0,0
127061,-166.666666666667,4,2,1,80,0,0
127406,-166.666666666667,4,2,1,5,0,0
127578,-166.666666666667,4,2,1,80,0,0
127750,-83.3333333333333,4,2,1,80,0,0
127923,-83.3333333333333,4,2,4,80,0,0
128181,-83.3333333333333,4,2,5,80,0,0
128440,-166.666666666667,4,2,2,80,0,0
128699,-166.666666666667,4,2,2,5,0,0
128785,-166.666666666667,4,2,2,80,0,0
129044,-166.666666666667,4,2,2,5,0,0
129130,-83.3333333333333,4,2,1,80,0,0
129819,-166.666666666667,4,2,2,80,0,0
130078,-166.666666666667,4,2,2,5,0,0
130164,-166.666666666667,4,2,2,80,0,0
130423,-166.666666666667,4,2,2,5,0,0
130509,-83.3333333333333,4,2,1,80,0,0
130681,-83.3333333333333,4,2,2,80,0,0
131026,-83.3333333333333,4,2,1,80,0,0
131199,-222.222222222222,4,2,1,80,0,0
131888,-500,4,2,1,80,0,0
132492,-500,4,2,1,5,0,0
132578,-333.333333333333,4,2,7,80,0,0
132750,-333.333333333333,4,2,6,80,0,0
132837,-333.333333333333,4,2,7,80,0,0
133009,-333.333333333333,4,2,6,80,0,0
133095,-333.333333333333,4,2,7,80,0,0
133268,-333.333333333333,4,2,6,80,0,0
133354,-333.333333333333,4,2,7,80,0,0
133526,-333.333333333333,4,2,6,80,0,0
133612,-333.333333333333,4,2,5,80,0,0
133957,-47.6190476190476,4,2,2,80,0,0
134302,-55.5555555555556,4,2,1,80,0,0
134561,-83.3333333333333,4,2,1,80,0,0
134992,-55.5555555555556,4,2,1,80,0,0
135337,-47.6190476190476,4,2,6,80,0,0
135681,-55.5555555555556,4,2,1,80,0,0
135940,-66.6666666666667,4,2,1,80,0,0
136371,-55.5555555555556,4,2,1,80,0,0
136716,-47.6190476190476,4,2,6,80,0,0
137061,-47.6190476190476,4,2,1,80,0,0
137319,-66.6666666666667,4,2,1,80,0,0
137750,-55.5555555555556,4,2,1,80,0,0
138009,-55.5555555555556,4,2,7,80,0,0
138095,-47.6190476190476,4,2,6,80,0,0
138440,-55.5555555555556,4,2,1,80,0,0
138699,-66.6666666666667,4,2,1,80,0,0
139130,-55.5555555555556,4,2,1,80,0,0
139475,-66.6666666666667,4,2,1,80,0,0
139819,-55.5555555555556,4,2,1,80,0,0
140078,-66.6666666666667,4,2,1,80,0,0
140423,-66.6666666666667,4,2,6,80,0,0
140509,-47.6190476190476,4,2,1,80,0,0
140854,-55.5555555555556,4,2,6,80,0,0
141199,-66.6666666666667,4,2,1,80,0,0
141888,-55.5555555555556,4,2,1,80,0,0
142233,-47.6190476190476,4,2,1,80,0,0
142578,-55.5555555555556,4,2,1,80,0,0
142923,-66.6666666666667,4,2,7,80,0,0
143095,-66.6666666666667,4,2,6,80,0,0
143268,-55.5555555555556,4,2,1,80,0,0
143612,-83.3333333333333,4,2,2,80,0,0
143871,-83.3333333333333,4,2,2,5,0,0
143957,-83.3333333333333,4,2,2,80,0,0
144216,-83.3333333333333,4,2,2,5,0,0
144302,-83.3333333333333,4,2,2,80,0,0
144992,-41.6666666666667,4,1,2,80,0,0
145337,-55.5555555555556,4,2,1,80,0,0
145595,-66.6666666666667,4,2,1,80,0,0
146026,-47.6190476190476,4,2,1,80,0,0
146371,-47.6190476190476,4,2,1,80,0,0
146975,-66.6666666666667,4,2,1,80,0,0
147406,-55.5555555555556,4,2,1,80,0,0
147750,-47.6190476190476,4,2,6,80,0,0
148095,-55.5555555555556,4,2,1,80,0,0
148354,-66.6666666666667,4,2,1,80,0,0
148785,-55.5555555555556,4,2,1,80,0,0
149044,-55.5555555555556,4,2,6,80,0,0
149130,-47.6190476190476,4,2,7,80,0,0
149475,-55.5555555555556,4,2,1,80,0,0
149733,-66.6666666666667,4,2,1,80,0,0
150164,-55.5555555555556,4,2,1,80,0,0
150509,-66.6666666666667,4,2,1,80,0,0
150854,-55.5555555555556,4,2,1,80,0,0
151112,-66.6666666666667,4,2,1,80,0,0
151457,-66.6666666666667,4,2,6,80,0,0
151544,-47.6190476190476,4,2,1,80,0,0
151888,-47.6190476190476,4,2,1,80,0,0
152233,-55.5555555555556,4,2,1,80,0,0
152492,-66.6666666666667,4,2,1,80,0,0
152923,-55.5555555555556,4,2,1,80,0,0
153268,-66.6666666666667,4,2,1,80,0,0
153612,-55.5555555555556,4,2,1,80,0,0
153957,-66.6666666666667,4,2,6,80,0,0
154130,-66.6666666666667,4,2,7,80,0,0
154302,-55.5555555555556,4,2,1,80,0,0
154647,-66.6666666666667,4,2,2,80,0,0
154906,-66.6666666666667,4,2,2,5,0,0
154992,-66.6666666666667,4,2,2,80,0,0
155250,-66.6666666666667,4,2,2,5,0,0
155337,-66.6666666666667,4,2,2,80,0,0
155595,-66.6666666666667,4,2,2,5,0,0
155681,-66.6666666666667,4,2,5,100,0,0
156026,-47.6190476190476,4,2,6,80,0,0
156371,-55.5555555555556,4,2,1,80,0,0
156630,-66.6666666666667,4,2,1,80,0,0
157061,-55.5555555555556,4,2,1,80,0,0
157406,-47.6190476190476,4,2,6,80,0,0
157750,-55.5555555555556,4,2,1,80,0,0
158009,-66.6666666666667,4,2,1,80,0,0
158440,-55.5555555555556,4,2,1,80,0,0
158785,-47.6190476190476,4,2,6,80,0,0
159130,-47.6190476190476,4,2,1,80,0,0
159388,-66.6666666666667,4,2,1,80,0,0
159819,-55.5555555555556,4,2,1,80,0,0
160164,-47.6190476190476,4,2,6,80,0,0
160509,-55.5555555555556,4,2,1,80,0,0
160768,-66.6666666666667,4,2,1,80,0,0
161199,-55.5555555555556,4,2,1,80,0,0
161888,-55.5555555555556,4,2,1,80,0,0
162147,-66.6666666666667,4,2,1,80,0,0
162578,-55.5555555555556,4,2,1,80,0,0
162923,-47.6190476190476,4,2,6,80,0,0
163268,-55.5555555555556,4,2,1,80,0,0
163526,-66.6666666666667,4,2,1,80,0,0
163957,-55.5555555555556,4,2,1,80,0,0
164216,-55.5555555555556,4,2,1,80,0,0
164302,-47.6190476190476,4,2,6,80,0,0
164647,-55.5555555555556,4,2,1,80,0,0
164992,-66.6666666666667,4,2,6,80,0,0
165164,-66.6666666666667,4,2,7,80,0,0
165337,-55.5555555555556,4,2,1,80,0,0
165681,-66.6666666666667,4,2,2,80,0,0
165940,-66.6666666666667,4,2,2,5,0,0
166026,-66.6666666666667,4,2,2,80,0,0
166285,-66.6666666666667,4,2,2,5,0,0
166371,-66.6666666666667,4,2,2,80,0,0
166630,-66.6666666666667,4,2,2,5,0,0
166716,-66.6666666666667,4,2,2,80,0,0
166975,-66.6666666666667,4,2,2,5,0,0
167061,-41.6666666666667,4,2,2,80,0,0
167406,-55.5555555555556,4,2,1,80,0,0
167664,-66.6666666666667,4,2,1,80,0,0
168095,-55.5555555555556,4,2,1,80,0,0
168440,-47.6190476190476,4,2,6,80,0,0
168785,-55.5555555555556,4,2,1,80,0,0
169044,-66.6666666666667,4,2,1,80,0,0
169475,-55.5555555555556,4,2,1,80,0,0
169819,-47.6190476190476,4,2,6,80,0,0
170164,-55.5555555555556,4,2,1,80,0,0
170423,-66.6666666666667,4,2,1,80,0,0
170854,-55.5555555555556,4,2,1,80,0,0
171199,-47.6190476190476,4,2,6,80,0,0
171544,-55.5555555555556,4,2,1,80,0,0
171802,-66.6666666666667,4,2,1,80,0,0
172233,-55.5555555555556,4,2,1,80,0,0
172578,-47.6190476190476,4,2,6,80,0,0
172923,-55.5555555555556,4,2,1,80,0,0
173181,-66.6666666666667,4,2,1,80,0,0
173612,-55.5555555555556,4,2,1,80,0,0
173957,-47.6190476190476,4,2,6,80,0,0
174302,-55.5555555555556,4,2,1,80,0,0
174561,-66.6666666666667,4,2,1,80,0,0
174992,-55.5555555555556,4,2,1,80,0,0
175337,-47.6190476190476,4,2,6,80,0,0
175681,-55.5555555555556,4,2,1,80,0,0
176026,-66.6666666666667,4,2,7,80,0,0
176199,-66.6666666666667,4,2,6,80,0,0
176371,-55.5555555555556,4,2,1,80,0,0
176716,-66.6666666666667,4,2,2,80,0,0
176975,-66.6666666666667,4,2,2,5,0,0
177061,-66.6666666666667,4,2,2,80,0,0
177319,-66.6666666666667,4,2,2,5,0,0
177406,-66.6666666666667,4,2,2,80,0,0
177664,-66.6666666666667,4,2,2,5,0,0
178095,-66.6666666666667,4,2,2,80,0,0
180854,-66.6666666666667,4,2,1,5,0,0

[Colours]
Combo1 : 155,170,198
Combo2 : 70,96,162
Combo3 : 101,97,184
Combo4 : 77,130,210

[HitObjects]
193,106,22923,5,8,0:0:0:0:
193,106,23612,6,0,P|236:101|256:108,1,62.9999980773926,2|0,0:0|0:0,0:0:0:0:
335,154,23957,2,0,L|325:43,1,105
415,116,24302,2,0,P|458:121|478:114,1,62.9999980773926,8|0,0:0|0:0,0:0:0:0:
244,255,24647,1,0,0:0:0:0:
181,209,24733,1,0,0:0:0:0:
252,177,24819,2,0,P|313:239|416:191,1,196,2|0,0:0|0:0,0:0:0:0:
193,106,25681,1,8,0:0:0:0:
136,210,26371,6,0,L|142:258,1,48.9999985046387,2|0,0:0|0:0,0:0:0:0:
167,137,27061,2,0,P|124:132|82:151,1,83.9999974365235,8|0,0:0|0:0,0:0:0:0:
175,45,27578,2,0,P|262:12|330:76,1,196,2|0,0:0|0:0,0:0:0:0:
87,147,28440,1,8,0:0:0:0:
400,268,29130,6,0,P|357:273|337:266,1,62.9999980773926,2|0,0:0|0:0,0:0:0:0:
258,220,29475,2,0,L|268:331,1,105
178,258,29820,2,0,P|135:253|115:260,1,62.9999980773926,8|0,0:0|0:0,0:0:0:0:
349,119,30165,1,0,0:0:0:0:
412,165,30251,1,0,0:0:0:0:
341,197,30337,2,0,P|280:135|177:183,1,196,2|0,0:0|0:0,0:0:0:0:
400,268,31199,1,8,0:0:0:0:
457,164,31889,6,0,L|451:116,1,48.9999985046387,2|0,0:0|0:0,0:0:0:0:
426,237,32579,2,0,P|469:242|511:223,1,83.9999974365235,8|0,0:0|0:0,0:0:0:0:
418,329,33096,2,0,P|331:362|263:298,1,196,2|0,0:0|0:0,0:0:0:0:
506,227,33958,1,8,0:0:0:0:
197,173,34647,6,0,L|201:228,1,56,2|0,0:0|0:0,0:0:0:0:
251,105,34992,2,0,P|284:95|331:105,1,70
282,253,35337,2,0,L|291:149,2,83.9999974365235,8|0|0,0:0|0:0|0:0,0:0:0:0:
275,375,35854,1,2,0:0:0:0:
104,301,36026,5,0,0:0:0:0:
127,211,36199,1,0,0:0:0:0:
193,277,36371,1,0,0:0:0:0:
193,277,36544,1,0,0:0:0:0:
38,235,36716,1,8,0:0:0:0:
61,145,36888,1,0,0:0:0:0:
209,185,37061,1,0,0:0:0:0:
147,114,37233,1,0,0:0:0:0:
219,357,37406,6,0,L|355:368,1,125.999996154785,2|0,0:0|0:0,0:0:0:0:
436,332,37750,1,0,0:0:0:0:
436,332,37923,1,0,0:0:0:0:
401,211,38095,2,0,P|389:251|269:252,1,167.999994873047,8|0,0:0|0:0,0:0:0:0:
223,138,38612,1,2,0:0:0:0:
86,301,38785,5,0,0:0:0:0:
109,211,38957,1,0,0:0:0:0:
175,275,39130,2,0,L|156:361,1,83.9999974365235
20,237,39475,1,8,0:0:0:0:
43,147,39647,1,0,0:0:0:0:
117,220,39819,1,0,0:0:0:0:
117,220,39906,1,0,0:0:0:0:
117,220,39992,1,0,0:0:0:0:
315,211,40164,6,0,L|311:156,1,56,2|0,0:0|0:0,0:0:0:0:
261,279,40509,2,0,P|228:289|181:279,1,70
230,131,40854,2,0,L|221:235,2,83.9999974365235,8|0|0,0:0|0:0|0:0,0:0:0:0:
237,9,41371,1,2,0:0:0:0:
408,83,41544,5,0,0:0:0:0:
385,173,41716,1,0,0:0:0:0:
319,107,41888,1,0,0:0:0:0:
319,107,42061,1,0,0:0:0:0:
474,149,42233,1,8,0:0:0:0:
451,239,42406,1,0,0:0:0:0:
303,199,42578,1,0,0:0:0:0:
365,270,42750,1,0,0:0:0:0:
293,27,42923,6,0,L|156:15,1,125.999996154785,2|0,0:0|0:0,0:0:0:0:
76,52,43268,1,0,0:0:0:0:
76,52,43440,1,0,0:0:0:0:
111,173,43612,2,0,P|123:133|243:132,1,167.999994873047,8|0,0:0|0:0,0:0:0:0:
289,246,44130,1,2,0:0:0:0:
426,83,44302,5,0,0:0:0:0:
403,173,44475,1,0,0:0:0:0:
337,109,44647,2,0,L|355:22,1,83.9999974365235
492,147,44992,1,8,0:0:0:0:
469,237,45164,1,0,0:0:0:0:
411,181,45337,1,0,0:0:0:0:
411,181,45423,1,0,0:0:0:0:
411,181,45509,1,0,0:0:0:0:
333,85,45681,6,0,L|326:13,1,56,2|0,1:0|0:0,0:0:0:0:
218,157,46026,2,0,L|224:85,1,56,2|0,1:0|0:0,0:0:0:0:
390,192,46371,1,8,0:0:0:0:
390,192,46544,2,0,P|347:201|302:179,1,83.9999974365235
224,378,46888,1,8,0:0:0:0:
312,300,47061,5,2,0:0:0:0:
309,339,47233,1,0,0:0:0:0:
234,261,47406,1,8,0:0:0:0:
237,222,47578,1,0,0:0:0:0:
241,183,47750,1,0,0:0:0:0:
56,229,47923,2,0,P|99:238|144:216,1,83.9999974365235,2|0,0:0|0:0,0:0:0:0:
247,105,48268,1,8,0:0:0:0:
373,152,48440,6,0,L|301:145,1,56,2|0,1:0|0:0,0:0:0:0:
445,37,48785,2,0,L|373:43,1,56,2|0,1:0|0:0,0:0:0:0:
200,43,49130,1,8,0:0:0:0:
200,43,49302,2,0,P|260:29|311:64,1,125.999996154785,2|0,0:0|0:0,0:0:0:0:
241,183,49647,1,8,0:0:0:0:
103,147,49819,6,0,L|99:61,1,83.9999974365235,2|0,0:0|0:0,0:0:0:0:
247,105,50164,1,8,0:0:0:0:
172,231,50337,1,0,0:0:0:0:
327,225,50509,1,2,0:0:0:0:
325,204,50595,1,0,0:0:0:0:
323,183,50681,1,2,0:0:0:0:
390,290,50854,1,8,0:0:0:0:
241,183,51026,1,0,0:0:0:0:
185,319,51199,6,0,L|192:391,1,56,2|0,1:0|0:0,0:0:0:0:
300,247,51544,2,0,L|294:319,1,56,2|0,0:1|0:0,0:0:0:0:
128,212,51888,1,8,0:0:0:0:
128,212,52061,2,0,P|168:202|207:217,1,83.9999974365235,2|0,0:0|0:0,0:0:0:0:
294,26,52406,1,8,0:0:0:0:
206,104,52578,5,2,0:0:0:0:
209,65,52750,1,0,0:0:0:0:
284,143,52923,1,8,0:0:0:0:
281,182,53095,1,0,0:0:0:0:
277,221,53268,1,0,0:0:0:0:
462,175,53440,2,0,P|419:166|374:188,1,83.9999974365235,2|0,0:0|0:0,0:0:0:0:
271,299,53785,1,8,0:0:0:0:
145,252,53957,6,0,L|217:259,1,56,2|0,1:0|0:0,0:0:0:0:
73,367,54302,2,0,L|145:361,1,56,2|0,1:0|0:0,0:0:0:0:
317,360,54647,1,8,0:0:0:0:
317,360,54819,2,0,P|257:373|206:339,1,125.999996154785,2|0,0:0|0:0,0:0:0:0:
277,221,55164,1,8,0:0:0:0:
415,257,55336,6,0,L|419:343,1,83.9999974365235,2|0,0:0|0:0,0:0:0:0:
271,299,55681,1,8,0:0:0:0:
346,173,55854,1,0,0:0:0:0:
191,179,56026,1,2,0:0:0:0:
193,200,56112,1,0,0:0:0:0:
195,221,56198,1,2,0:0:0:0:
128,114,56371,1,8,0:0:0:0:
277,221,56543,1,0,0:0:0:0:
101,303,56716,6,0,L|95:247,1,56,2|0,1:0|0:0,0:0:0:0:
7,371,57061,2,0,L|12:315,1,56,2|0,1:0|0:0,0:0:0:0:
216,329,57406,1,8,0:0:0:0:
21,233,57578,1,2,0:0:0:0:
21,233,57750,1,0,0:0:0:0:
264,115,57923,1,8,0:0:0:0:
264,115,58095,6,0,P|211:130|180:118,1,84,2|0,0:0|0:0,0:0:0:0:
138,157,58440,2,0,P|191:142|222:154,1,84,8|0,0:0|0:0,0:0:0:0:
325,216,58785,1,0,0:0:0:0:
439,164,58957,2,0,L|431:73,1,83.9999974365235,2|0,0:0|0:0,0:0:0:0:
408,307,59302,1,8,0:0:0:0:
226,169,59475,6,0,L|220:224,1,56,2|0,1:0|0:0,0:0:0:0:
132,101,59819,2,0,L|137:156,1,56,2|0,1:0|0:0,0:0:0:0:
214,306,60164,1,8,0:0:0:0:
305,167,60337,2,0,P|272:156|216:176,1,83.9999974365235,2|0,0:0|0:0,0:0:0:0:
272,82,60681,1,8,0:0:0:0:
347,253,60854,6,0,P|386:265|426:254,1,83.9999974365235,2|0,0:0|0:0,0:0:0:0:
261,316,61199,2,0,L|268:232,1,83.9999974365235,8|0,0:0|0:0,0:0:0:0:
156,368,61544,1,2,0:0:0:0:
156,368,61630,1,8,0:0:0:0:
156,368,61716,1,2,0:0:0:0:
351,339,61888,1,8,0:0:0:0:
98,283,62061,1,0,0:0:0:0:
359,94,62233,6,0,L|364:149,1,56,2|0,1:0|0:0,0:0:0:0:
453,26,62578,2,0,L|447:81,1,56,2|0,1:0|0:0,0:0:0:0:
244,68,62923,1,8,0:0:0:0:
439,164,63095,1,2,0:0:0:0:
439,164,63267,1,0,0:0:0:0:
196,282,63440,1,8,0:0:0:0:
196,282,63612,6,0,P|249:267|280:279,1,84,2|0,0:0|0:0,0:0:0:0:
322,240,63957,2,0,P|269:255|238:243,1,84,8|0,0:0|0:0,0:0:0:0:
167,180,64302,1,0,0:0:0:0:
21,233,64475,2,0,L|28:323,1,83.9999974365235,2|0,0:0|0:0,0:0:0:0:
52,90,64819,1,8,0:0:0:0:
408,158,64992,6,0,L|402:96,1,41.9999987182618,2|0,1:0|0:0,0:0:0:0:
416,141,65337,2,0,L|410:78,1,41.9999987182618,2|0,1:0|0:0,0:0:0:0:
424,124,65681,2,0,L|418:61,1,41.9999987182618,2|0,1:0|0:0,0:0:0:0:
141,270,66371,6,0,B|212:297|212:297|211:296|211:296|212:297|212:297|211:296|211:296|212:297|212:297|211:296|211:296|212:297|212:297|211:296|211:296|212:297|212:297|211:296|211:296|212:297|212:297|211:296|211:296|212:297|212:297|211:296|211:296|296:277|296:277|295:276|295:276|296:277|296:277|295:276|295:276|296:277|296:277|295:276|295:276|296:277|296:277|295:276|295:276|296:277|296:277|295:276|295:276|296:277|296:277|295:276|295:276|386:304|386:304|385:303|385:303|386:304|386:304|385:303|385:303|386:304|386:304|385:303|385:303|386:304|386:304|385:303|385:303|386:304|386:304|385:303|385:303|386:304|386:304|385:303|385:303|386:304|386:304|385:303|385:303|481:278|481:278|482:277|482:277|483:278|483:278|482:277|482:277|483:278|483:278|482:277|482:277|483:278|483:278|482:277|482:277|483:278|483:278|482:277|482:277|483:278|483:278|482:277|482:277|483:278|483:278|482:277|482:277,1,419.999987182618,2|2,0:0|0:1,0:0:0:0:
145,124,67750,5,2,0:0:0:0:
241,71,68095,1,2,0:0:0:0:
145,124,68440,5,2,0:0:0:0:
250,154,68785,1,2,0:0:0:0:
145,124,69130,5,2,0:0:0:0:
198,220,69475,1,2,0:0:0:0:
145,124,69819,5,2,0:0:0:0:
114,229,70164,1,2,0:0:0:0:
145,124,70509,5,2,0:0:0:0:
48,176,70854,1,2,0:0:0:0:
145,124,71199,5,2,0:0:0:0:
40,93,71544,1,2,0:0:0:0:
145,124,71888,5,2,0:0:0:0:
250,155,72233,2,0,L|257:75,1,70,2|0,0:0|0:0,0:0:0:0:
145,124,72578,5,2,0:0:0:0:
304,307,72923,5,2,0:0:0:0:
432,295,73095,5,2,0:0:0:0:
358,191,73268,5,2,0:0:0:0:
262,138,73613,1,2,0:0:0:0:
358,191,73958,5,2,0:0:0:0:
253,221,74303,1,2,0:0:0:0:
358,191,74648,5,2,0:0:0:0:
305,287,74993,1,2,0:0:0:0:
358,191,75337,5,2,0:0:0:0:
389,296,75682,1,2,0:0:0:0:
358,191,76027,5,2,0:0:0:0:
455,243,76372,1,2,0:0:0:0:
358,191,76717,5,2,0:0:0:0:
463,160,77062,1,2,0:0:0:0:
358,191,77406,5,2,0:0:0:0:
253,222,77750,2,0,L|245:138,1,70,2|0,0:0|0:0,0:0:0:0:
358,191,78095,5,2,0:0:0:0:
94,369,78440,5,2,0:0:0:0:
222,357,78612,5,2,0:0:0:0:
148,253,78785,5,2,0:0:0:0:
259,161,79130,2,0,L|254:217,1,35,8|0,0:0|0:0,0:0:0:0:
151,245,79475,5,2,0:0:0:0:
40,153,79820,2,0,L|44:209,1,35,8|0,0:0|0:0,0:0:0:0:
153,238,80164,5,2,0:0:0:0:
264,146,80509,2,0,L|259:202,1,35,8|0,0:0|0:0,0:0:0:0:
156,230,80854,5,2,0:0:0:0:
45,138,81199,2,0,L|49:194,1,35,8|0,0:0|0:0,0:0:0:0:
159,222,81544,5,2,0:0:0:0:
336,97,81888,2,0,L|340:41,1,35,8|0,0:0|0:0,0:0:0:0:
168,218,82233,5,2,0:0:0:0:
345,343,82577,2,0,L|349:399,1,35,8|0,0:0|0:0,0:0:0:0:
175,216,82924,5,2,0:0:0:0:
352,91,83268,2,0,L|356:35,1,35,10|0,0:0|0:0,0:0:0:0:
183,214,83613,5,2,0:0:0:0:
360,339,83957,2,0,L|364:395,1,35,10|0,0:0|0:0,0:0:0:0:
146,207,84302,5,2,0:0:0:0:
457,265,84647,2,0,L|461:300,1,35,8|0,0:0|0:0,0:0:0:0:
139,197,84992,5,2,0:0:0:0:
450,138,85337,2,0,L|454:104,1,35,8|0,0:0|0:0,0:0:0:0:
133,191,85681,5,2,0:0:0:0:
444,249,86026,2,0,L|447:283,1,35,8|0,0:0|0:0,0:0:0:0:
126,183,86371,5,2,0:0:0:0:
437,124,86716,2,0,L|441:90,1,35,8|0,0:0|0:0,0:0:0:0:
256,192,87061,12,0,88268,0:0:0:0:
354,196,88440,6,0,L|346:140,1,48.9999985046387,2|0,0:0|0:0,0:0:0:0:
336,186,88699,2,0,L|328:130,1,48.9999985046387,2|0,0:0|0:0,0:0:0:0:
318,176,88957,2,0,L|310:120,1,48.9999985046387,2|0,0:0|0:0,0:0:0:0:
300,166,89217,2,0,L|292:110,1,48.9999985046387,2|0,0:0|0:0,0:0:0:0:
282,156,89475,2,0,L|274:100,1,48.9999985046387,2|0,0:0|0:0,0:0:0:0:
113,274,89819,6,0,L|189:267,1,73.4999977569581,2|0,0:0|0:0,0:0:0:0:
338,130,90509,6,0,L|329:81,1,41.9999987182618,8|0,0:0|0:0,0:0:0:0:
290,59,90681,1,2,0:0:0:0:
387,200,90854,1,0,0:0:0:0:
423,0,91027,2,0,L|415:41,1,41.9999987182618,8|0,0:0|0:0,0:0:0:0:
25,281,91199,6,0,P|27:312|27:343,1,62.9999980773926,2|0,1:0|0:0,0:0:0:0:
487,281,91544,2,0,P|484:312|484:343,1,62.9999980773926,2|0,1:0|0:0,0:0:0:0:
243,84,91888,6,0,L|250:42,1,41.9999987182618,8|0,0:0|0:0,0:0:0:0:
325,116,92061,1,8,0:0:0:0:
321,137,92147,1,8,0:0:0:0:
318,158,92233,1,8,0:0:0:0:
170,18,92406,1,8,0:0:0:0:
62,262,92578,6,0,P|62:293|59:325,1,62.9999980773926,2|0,1:0|0:0,0:0:0:0:
449,262,92923,2,0,P|449:293|452:325,1,62.9999980773926,2|0,1:0|0:0,0:0:0:0:
248,81,93268,6,0,L|256:129,1,41.9999987182618,8|0,0:0|0:0,0:0:0:0:
296,152,93440,1,2,0:0:0:0:
199,11,93613,1,0,0:0:0:0:
163,211,93785,2,0,L|170:169,1,41.9999987182618,8|0,0:0|0:0,0:0:0:0:
434,248,93957,6,0,P|434:279|432:311,1,62.9999980773926,2|0,1:0|0:0,0:0:0:0:
77,248,94302,2,0,P|77:279|80:311,1,62.9999980773926,2|0,1:0|0:0,0:0:0:0:
396,197,94647,6,0,L|388:238,1,41.9999987182618,8|0,0:0|0:0,0:0:0:0:
371,337,94819,1,2,0:0:0:0:
371,337,94906,2,0,L|338:310,1,41.9999987182618,8|0,0:0|0:0,0:0:0:0:
262,246,95078,1,2,0:0:0:0:
262,246,95164,2,0,L|301:231,1,41.9999987182618,8|0,0:0|0:0,0:0:0:0:
9,34,95337,6,0,P|42:31|76:32,1,62.9999980773926,2|0,1:0|0:0,0:0:0:0:
501,101,95681,2,0,P|468:104|434:103,1,62.9999980773926,2|0,1:0|0:0,0:0:0:0:
213,176,96026,6,0,L|204:127,1,41.9999987182618,8|0,0:0|0:0,0:0:0:0:
165,105,96199,1,2,0:0:0:0:
262,246,96371,1,0,0:0:0:0:
298,46,96544,2,0,L|290:87,1,41.9999987182618,8|0,0:0|0:0,0:0:0:0:
512,348,96716,6,0,P|479:351|445:350,1,62.9999980773926,2|0,1:0|0:0,0:0:0:0:
0,287,97061,2,0,P|33:284|67:285,1,62.9999980773926,2|0,1:0|0:0,0:0:0:0:
349,250,97406,6,0,L|360:185,1,41.9999987182618,8|0,0:0|1:0,0:0:0:0:
211,107,97578,1,0,1:0:0:0:
213,120,97664,1,0,1:0:0:0:
215,134,97750,1,0,1:0:0:0:
217,148,97836,1,0,1:0:0:0:
220,162,97923,2,0,L|230:102,1,41.9999987182618,8|0,0:0|0:0,0:0:0:0:
14,8,98095,6,0,P|10:37|20:87,1,62.9999980773926,2|0,0:0|0:0,0:0:0:0:
28,94,98440,2,0,L|88:83,1,41.9999987182618,8|0,0:0|0:0,0:0:0:0:
498,8,98612,6,0,P|502:37|492:87,1,62.9999980773926,2|0,0:0|0:0,0:0:0:0:
484,94,98957,2,0,L|424:83,1,41.9999987182618,8|0,0:0|0:0,0:0:0:0:
179,112,99130,1,0,1:0:0:0:
169,120,99216,1,0,1:0:0:0:
176,130,99302,1,0,1:0:0:0:
186,123,99388,1,0,1:0:0:0:
260,93,99475,6,0,B|267:59|267:59|266:60|266:60|267:59|267:59|266:60|266:60|267:59|267:59|266:60|266:60|267:59|267:59|266:60|266:60|267:59|267:59|266:60|266:60|267:59|267:59|266:60|266:60|267:59|267:59|266:60|266:60|267:59|267:59|266:60|266:60|267:59|267:59|266:60|266:60|267:59|267:59|266:60|266:60|267:59|267:59|266:60|266:60|267:59|267:59|266:60|266:60|267:59|267:59|266:60|266:60|267:59|267:59|266:60|266:60|267:59|267:59|273:27|273:27|272:28|272:28|273:27|273:27|272:28|272:28|273:27|273:27|272:28|272:28|273:27|273:27|272:28|272:28|273:27|273:27|272:28|272:28|273:27|273:27|272:28|272:28|273:27|273:27|272:28|272:28|273:27|273:27|272:28|272:28|273:27|273:27|272:28|272:28|273:27|273:27|272:28|272:28|273:27|273:27|272:28|272:28|273:27|273:27|272:28|272:28|273:27|273:27|272:28|272:28|273:27|273:27|272:28|272:28|273:27|273:27|272:28|272:28|273:27|273:27|272:28|272:28|273:27|273:27|272:28|272:28|273:27|273:27|272:28|272:28|273:27|273:27|272:28|272:28|273:27|273:27|272:28|272:28|273:27|273:27|272:28|272:28|273:27|273:27,1,146.999995513916,6|0,0:2|0:0,0:0:0:0:
236,245,100164,6,0,L|230:285,1,36.749998878479,10|0,0:0|0:0,0:0:0:0:
155,303,100854,6,0,L|232:296,1,73.4999977569581,2|0,0:0|0:0,0:0:0:0:
297,107,101544,6,0,L|288:60,1,41.9999987182618,8|0,0:0|0:0,0:0:0:0:
373,151,101716,1,2,0:0:0:0:
413,10,101888,1,0,0:0:0:0:
456,236,102061,2,0,L|447:189,1,41.9999987182618,8|0,0:0|0:0,0:0:0:0:
28,202,102233,6,0,P|64:204|105:217,1,62.9999980773926,2|0,1:0|0:0,0:0:0:0:
386,309,102578,2,0,P|350:311|309:324,1,62.9999980773926,2|0,1:0|0:0,0:0:0:0:
89,131,102924,6,0,L|97:82,1,41.9999987182618,8|0,0:0|1:0,0:0:0:0:
160,171,103096,1,0,1:0:0:0:
130,200,103182,1,0,1:0:0:0:
90,211,103268,1,0,1:0:0:0:
50,203,103353,1,0,1:0:0:0:
18,175,103440,1,8,0:0:0:0:
308,7,103612,6,0,P|306:43|293:84,1,62.9999980773926,2|0,1:0|0:0,0:0:0:0:
253,360,103957,2,0,P|251:324|238:283,1,62.9999980773926,2|0,1:0|0:0,0:0:0:0:
26,133,104302,6,0,L|17:179,1,41.9999987182618,8|0,0:0|0:0,0:0:0:0:
102,89,104475,1,2,0:0:0:0:
142,230,104646,1,0,0:0:0:0:
185,4,104819,2,0,L|176:50,1,41.9999987182618,8|0,0:0|0:0,0:0:0:0:
335,335,104992,6,0,P|333:299|320:258,1,62.9999980773926,2|0,1:0|0:0,0:0:0:0:
392,79,105337,1,0,1:0:0:0:
404,82,105423,1,0,1:0:0:0:
408,70,105509,1,0,1:0:0:0:
396,66,105595,1,0,1:0:0:0:
310,39,105681,2,0,L|317:80,1,41.9999987182618,8|0,0:0|0:0,0:0:0:0:
327,274,105854,5,2,0:1:0:0:
319,292,105940,1,2,0:1:0:0:
234,293,106026,1,2,0:1:0:0:
226,311,106112,1,2,0:1:0:0:
165,244,106199,1,2,0:1:0:0:
157,262,106285,1,2,0:1:0:0:
112,181,106371,6,0,L|119:104,1,73.4999977569581,2|0,0:0|0:0,0:0:0:0:
435,195,107061,6,0,L|443:241,1,41.9999987182618,8|0,0:0|0:0,0:0:0:0:
359,151,107233,1,2,0:0:0:0:
319,292,107405,1,0,0:0:0:0:
276,66,107578,2,0,L|284:112,1,41.9999987182618,8|0,0:0|0:0,0:0:0:0:
12,286,107750,6,0,P|43:284|73:277,1,62.9999980773926,2|0,1:0|0:0,0:0:0:0:
500,286,108095,2,0,P|469:284|439:277,1,62.9999980773926,2|0,1:0|0:0,0:0:0:0:
59,66,108440,6,0,L|51:107,1,41.9999987182618,8|0,0:0|1:0,0:0:0:0:
165,308,108612,1,0,1:0:0:0:
204,322,108698,1,0,1:0:0:0:
245,317,108784,1,0,1:0:0:0:
280,294,108870,1,0,1:0:0:0:
309,256,108957,2,0,L|300:207,1,41.9999987182618,8|0,0:0|0:0,0:0:0:0:
145,138,109130,6,0,P|164:140|183:138,1,31.4999990386963,2|0,0:0|0:0,0:0:0:0:
347,81,109475,2,0,L|339:36,1,41.9999987182618,8|0,0:0|0:0,0:0:0:0:
131,146,109819,6,0,P|150:148|169:146,1,31.4999990386963,2|0,0:0|0:0,0:0:0:0:
339,67,110164,2,0,L|331:22,1,41.9999987182618,8|0,0:0|0:0,0:0:0:0:
117,154,110509,6,0,P|136:156|155:154,1,31.4999990386963,2|0,0:0|0:0,0:0:0:0:
331,53,110854,2,0,L|323:8,1,41.9999987182618,8|0,0:0|0:0,0:0:0:0:
103,162,111199,6,0,P|122:164|141:162,1,31.4999990386963,2|0,0:0|0:0,0:0:0:0:
340,261,111544,6,0,L|343:279,1,15.7499995193482,2|0,0:1|0:0,0:0:0:0:
40,250,111888,6,0,L|117:243,1,73.4999977569581,2|0,0:0|0:0,0:0:0:0:
199,64,112578,2,0,L|194:18,1,41.9999987182618,8|0,0:0|0:0,0:0:0:0:
269,129,112750,1,2,0:0:0:0:
354,72,112923,1,0,0:0:0:0:
260,222,113095,2,0,L|256:263,1,41.9999987182618,8|0,0:0|0:0,0:0:0:0:
512,156,113268,6,0,P|481:161|450:155,1,62.9999980773926,2|0,1:0|0:0,0:0:0:0:
15,271,113612,2,0,P|45:264|76:270,1,62.9999980773926,2|0,1:0|0:0,0:0:0:0:
183,84,113957,6,0,L|192:35,1,41.9999987182618,8|0,0:0|0:0,0:0:0:0:
361,82,114130,2,0,L|268:73,1,83.9999974365235,2|0,0:0|0:0,0:0:0:0:
99,180,114388,1,0,0:0:0:0:
99,180,114475,2,0,L|107:130,1,41.9999987182618,8|0,0:0|0:0,0:0:0:0:
318,217,114647,6,0,P|270:183|183:208,1,146.999995513916,2|0,0:0|0:0,0:0:0:0:
38,338,115337,6,0,L|33:383,1,41.9999987182618,8|0,0:0|0:0,0:0:0:0:
108,273,115509,1,2,0:0:0:0:
193,330,115682,1,0,0:0:0:0:
99,180,115854,2,0,L|95:138,1,41.9999987182618,8|0,0:0|0:0,0:0:0:0:
477,230,116026,6,0,P|446:235|415:229,1,62.9999980773926,2|0,1:0|0:0,0:0:0:0:
65,67,116371,2,0,P|95:60|126:66,1,62.9999980773926,2|0,1:0|0:0,0:0:0:0:
322,384,116716,1,8,0:0:0:0:
389,155,116888,1,0,0:0:0:0:
389,155,116975,2,0,L|394:96,1,41.9999987182618,8|0,0:0|0:0,0:0:0:0:
249,303,117147,1,8,0:0:0:0:
249,303,117233,2,0,L|252:344,1,41.9999987182618
93,215,117406,6,0,P|160:236|222:200,1,146.999995513916,2|0,0:0|0:0,0:0:0:0:
404,311,118095,6,0,L|409:357,1,41.9999987182618,8|0,0:0|0:0,0:0:0:0:
334,246,118268,1,2,0:0:0:0:
249,303,118440,1,0,0:0:0:0:
343,153,118612,2,0,L|347:112,1,41.9999987182618,8|0,0:0|0:0,0:0:0:0:
137,378,118785,6,0,P|131:347|137:316,1,62.9999980773926,2|0,1:0|0:0,0:0:0:0:
254,61,119130,2,0,P|261:91|254:122,1,62.9999980773926,2|0,1:0|0:0,0:0:0:0:
35,287,119475,6,0,L|76:283,1,41.9999987182618,8|0,0:0|1:0,0:0:0:0:
183,90,119647,1,0,1:0:0:0:
142,79,119733,1,0,1:0:0:0:
102,91,119819,1,0,1:0:0:0:
74,121,119905,1,0,1:0:0:0:
55,163,119992,2,0,L|68:202,1,41.9999987182618,8|0,0:0|0:0,0:0:0:0:
287,249,120164,6,0,P|254:248|224:253,1,62.9999980773926,2|0,0:0|0:0,0:0:0:0:
128,363,120509,2,0,L|132:312,1,41.9999987182618,8|0,0:0|0:0,0:0:0:0:
0,257,120681,6,0,P|33:258|62:252,1,62.9999980773926,2|0,0:0|0:0,0:0:0:0:
159,143,121026,2,0,L|154:193,1,41.9999987182618,8|0,0:0|0:0,0:0:0:0:
77,138,121199,1,0,1:0:0:0:
79,110,121285,1,0,1:0:0:0:
81,82,121371,1,0,1:0:0:0:
84,54,121457,1,0,1:0:0:0:
87,27,121544,6,0,B|156:16|156:16,1,62.9999980773926,2|0,1:0|0:0,0:0:0:0:
243,77,121888,2,0,B|250:75|181:88,1,62.9999980773926,2|0,1:0|0:0,0:0:0:0:
9,352,122233,6,0,L|12:316,1,36.749998878479,2|0,0:1|0:0,0:0:0:0:
227,197,122923,6,0,L|154:203,1,73.4999977569581,2|0,0:0|0:0,0:0:0:0:
31,74,123612,6,0,L|33:33,1,41.9999987182618,8|0,0:0|0:0,0:0:0:0:
253,124,123785,1,2,0:0:0:0:
125,5,123957,1,0,0:0:0:0:
81,261,124130,2,0,L|85:302,1,41.9999987182618,8|0,0:0|0:0,0:0:0:0:
304,60,124302,6,0,P|230:46|174:95,1,146.999995513916,2|0,1:0|0:0,0:0:0:0:
99,154,124992,6,0,L|103:106,1,41.9999987182618,8|0,0:0|0:0,0:0:0:0:
232,178,125164,2,0,P|200:179|161:153,1,62.9999980773926,2|0,0:0|0:0,0:0:0:0:
31,58,125509,2,0,L|28:100,1,41.9999987182618,8|0,0:0|0:0,0:0:0:0:
127,313,125681,6,0,P|133:281|133:246,1,62.9999980773926,2|0,1:0|0:0,0:0:0:0:
120,3,126026,2,0,P|113:34|113:69,1,62.9999980773926,2|0,1:0|0:0,0:0:0:0:
321,104,126371,6,0,L|317:62,1,41.9999987182618,8|0,0:0|0:0,0:0:0:0:
99,154,126544,1,2,0:0:0:0:
227,35,126716,1,0,0:0:0:0:
271,291,126888,2,0,L|266:332,1,41.9999987182618,8|0,0:0|0:0,0:0:0:0:
177,123,127061,2,0,P|225:121|252:143,1,83.9999974365235,2|0,0:0|0:0,0:0:0:0:
427,337,127578,5,2,0:0:0:0:
427,337,127664,1,2,0:0:0:0:
427,337,127750,2,0,L|433:270,1,41.9999987182618,10|0,0:0|0:0,0:0:0:0:
382,122,127923,5,2,0:1:0:0:
374,104,128009,1,2,0:1:0:0:
289,103,128095,1,2,0:1:0:0:
281,85,128181,1,2,0:1:0:0:
220,152,128268,1,2,0:1:0:0:
212,134,128354,1,2,0:1:0:0:
176,220,128440,6,0,P|169:251|169:286,1,62.9999980773926,2|0,1:0|0:0,0:0:0:0:
119,62,128785,2,0,P|125:30|125:-5,1,62.9999980773926,2|0,1:0|0:0,0:0:0:0:
35,311,129130,6,0,L|39:355,1,41.9999987182618,8|0,0:0|0:0,0:0:0:0:
257,261,129303,1,2,0:0:0:0:
129,380,129475,1,0,0:0:0:0:
85,124,129647,2,0,L|89:82,1,41.9999987182618,8|0,0:0|0:0,0:0:0:0:
322,11,129819,6,0,P|328:42|328:77,1,62.9999980773926,2|0,1:0|0:0,0:0:0:0:
211,384,130164,2,0,P|204:352|204:317,1,62.9999980773926,2|0,1:0|0:0,0:0:0:0:
476,178,130509,6,0,L|472:218,1,41.9999987182618,8|0,0:0|0:0,0:0:0:0:
240,194,130681,1,0,1:0:0:0:
276,173,130767,1,0,1:0:0:0:
317,173,130853,1,0,1:0:0:0:
353,193,130939,1,0,1:0:0:0:
374,228,131026,2,0,L|381:270,1,41.9999987182618,8|0,0:0|0:0,0:0:0:0:
151,295,131199,6,0,P|182:290|208:294,1,47.2499985580445,2|0,0:0|0:0,0:0:0:0:
129,216,131544,2,0,P|106:215|83:220,1,47.2499985580445,2|0,0:0|0:0,0:0:0:0:
15,145,131888,6,0,P|46:140|67:144,1,49,2|0,0:1|0:0,0:0:0:0:
300,74,132578,6,0,L|298:94,1,20.9999993591309,2|2,0:0|0:0,0:0:0:0:
278,128,132837,2,0,L|279:107,1,20.9999993591309,2|2,0:0|0:0,0:0:0:0:
300,74,133095,2,0,L|298:94,1,20.9999993591309,2|2,0:0|0:0,0:0:0:0:
278,128,133354,2,0,L|279:107,1,20.9999993591309,2|2,0:0|0:0,0:0:0:0:
168,74,133612,1,2,0:0:0:0:
172,84,133699,1,2,0:0:0:0:
176,92,133785,1,2,0:0:0:0:
194,224,133957,6,0,B|215:195|203:153|203:153|182:125|190:91|190:91|229:51|207:-7,1,220.499993270874,2|0,1:0|0:0,0:0:0:0:
297,283,134302,2,0,L|290:209,1,62.9999980773926,8|0,0:0|0:0,0:0:0:0:
87,180,134475,1,0,0:0:0:0:
87,180,134561,2,0,P|113:182|147:177,1,41.9999987182618,2|0,0:0|0:0,0:0:0:0:
48,173,134733,2,0,P|91:166|139:189,1,83.9999974365235,2|0,0:0|0:0,0:0:0:0:
297,283,134992,6,0,B|306:211|306:211|286:161|286:161|296:90,1,188.999994232178,14|0,0:0|0:0,0:0:0:0:
206,58,135337,2,0,P|293:101|358:14,1,220.499993270874,2|0,0:0|0:0,0:0:0:0:
120,0,135681,6,0,L|125:62,1,62.9999980773926,8|0,0:0|0:0,0:0:0:0:
44,265,135854,1,0,0:0:0:0:
44,265,135940,2,0,L|110:259,1,52.5000020027161,10|0,0:0|0:0,0:0:0:0:
82,244,136112,2,0,L|134:239,1,52.5000020027161,10|0,0:0|0:0,0:0:0:0:
267,189,136285,1,2,0:0:0:0:
267,189,136371,2,0,P|239:249|286:328,1,125.999996154785,8|0,0:0|0:0,0:0:0:0:
494,240,136630,5,8,0:0:0:0:
494,240,136716,2,0,B|439:214|399:254|399:254|363:282|321:250|321:250|337:228|363:224,1,220.499993270874,2|0,0:0|0:0,0:0:0:0:
403,19,137061,2,0,L|388:181,1,146.999995513916,8|0,0:0|0:0,0:0:0:0:
267,189,137319,2,0,L|260:115,2,52.5000020027161,2|0|0,0:0|0:0|0:0,0:0:0:0:
455,305,137578,2,0,L|450:357,1,52.5000020027161,2|0,0:0|0:0,0:0:0:0:
237,295,137750,2,0,P|325:295|359:345,1,125.999996154785,12|0,0:0|0:0,0:0:0:0:
17,373,138009,5,2,0:0:0:0:
17,373,138095,2,0,B|11:298|11:298|37:242|37:242|26:141,1,220.499993270874,2|0,0:0|0:0,0:0:0:0:
187,93,138440,2,0,L|193:30,1,62.9999980773926,8|0,0:0|0:0,0:0:0:0:
97,314,138612,1,0,0:0:0:0:
97,314,138699,2,0,L|163:308,1,52.5000020027161,10|0,0:0|0:0,0:0:0:0:
135,293,138871,2,0,L|187:288,1,52.5000020027161,10|0,0:0|0:0,0:0:0:0:
320,196,139044,1,2,0:0:0:0:
320,196,139130,2,0,P|391:221|451:183,1,125.999996154785,8|0,0:0|0:0,0:0:0:0:
396,38,139388,5,8,0:0:0:0:
396,38,139475,2,0,L|407:115,1,52.5000020027161,2|0,0:0|0:0,0:0:0:0:
379,137,139647,2,0,L|385:81,1,52.5000020027161,2|0,0:0|0:0,0:0:0:0:
143,5,139819,2,0,L|152:166,1,125.999996154785,8|0,0:0|0:0,0:0:0:0:
254,301,140078,2,0,L|263:219,1,52.5000020027161,2|0,0:0|0:0,0:0:0:0:
237,202,140250,2,0,L|241:254,1,52.5000020027161,2|0,0:0|0:0,0:0:0:0:
470,381,140423,1,2,0:0:0:0:
470,381,140509,2,0,B|476:308|476:308|453:261|453:261|462:151,1,220.499993270874,14|0,0:0|0:0,0:0:0:0:
276,50,140854,6,0,P|342:113|444:62,1,188.999994232178,2|0,0:0|0:0,0:0:0:0:
359,195,141199,2,0,L|353:255,2,52.5000020027161,8|0|0,0:0|0:0|0:0,0:0:0:0:
130,140,141457,2,0,L|195:134,1,52.5000020027161,10|0,0:0|0:0,0:0:0:0:
167,118,141630,2,0,L|219:112,1,52.5000020027161,10|0,0:0|0:0,0:0:0:0:
400,308,141802,1,2,0:0:0:0:
400,308,141888,2,0,P|324:316|279:267,1,125.999996154785,8|0,0:0|0:0,0:0:0:0:
452,70,142147,5,8,0:0:0:0:
452,70,142233,2,0,P|472:137|357:194,1,220.499993270874,2|0,0:0|0:0,0:0:0:0:
143,37,142578,2,0,P|199:14|279:41,1,125.999996154785,8|0,0:0|0:0,0:0:0:0:
271,200,142837,1,2,0:0:0:0:
271,198,142923,2,0,L|266:141,1,52.5000020027161,2|0,0:0|0:0,0:0:0:0:
142,264,143095,2,0,L|147:212,1,52.5000020027161,2|0,0:0|0:0,0:0:0:0:
45,36,143268,2,0,L|54:161,1,125.999996154785,8|0,0:0|0:0,0:0:0:0:
94,347,143526,5,0,0:0:0:0:
94,347,143612,2,0,P|155:357|210:329,1,125.999996154785,2|0,1:0|0:0,0:0:0:0:
336,60,143957,2,0,P|391:31|452:41,1,125.999996154785,2|0,1:0|0:0,0:0:0:0:
432,291,144302,5,0,1:0:0:0:
420,295,144388,1,0,1:0:0:0:
408,291,144475,1,0,1:0:0:0:
403,279,144561,1,0,1:0:0:0:
408,267,144647,1,0,1:0:0:0:
420,262,144733,1,0,1:0:0:0:
432,267,144819,1,0,1:0:0:0:
436,279,144906,1,0,1:0:0:0:
419,274,144992,6,0,B|386:223|411:175|411:175|446:154|445:105|445:105|418:69|433:14,1,251.999992309571,2|0,1:0|0:0,0:0:0:0:
306,320,145337,2,0,L|313:235,1,62.9999980773926,8|0,0:0|0:0,0:0:0:0:
91,189,145510,1,0,0:0:0:0:
91,189,145595,2,0,L|160:182,1,52.5000020027161,2|0,0:0|0:0,0:0:0:0:
118,169,145768,2,0,L|187:162,1,52.5000020027161,2|0,0:0|0:0,0:0:0:0:
438,247,145941,1,0,0:0:0:0:
438,247,146026,2,0,B|441:175|441:175|417:127|417:127|423:23,1,220.499993270874,12|0,0:0|0:0,0:0:0:0:
216,60,146371,6,0,P|280:98|340:-5,1,220.499993270874,2|0,0:0|0:0,0:0:0:0:
115,48,146716,2,0,L|121:122,1,73.4999977569581,8|0,0:0|0:0,0:0:0:0:
342,200,146888,1,0,0:0:0:0:
342,200,146975,2,0,L|272:193,1,52.5000020027161,10|0,0:0|0:0,0:0:0:0:
315,180,147147,2,0,L|245:173,1,52.5000020027161,10|0,0:0|0:0,0:0:0:0:
181,343,147319,1,2,0:0:0:0:
181,343,147406,2,0,L|169:215,1,125.999996154785,8|0,0:0|0:0,0:0:0:0:
38,74,147664,5,8,0:0:0:0:
38,74,147750,2,0,B|-5:103|0:182|0:182|47:157|107:169,1,220.499993270874,2|0,0:0|0:0,0:0:0:0:
377,230,148095,2,0,P|338:256|249:221,1,125.999996154785,8|0,0:0|0:0,0:0:0:0:
206,66,148354,2,0,L|199:-9,2,52.5000020027161,2|0|0,0:0|0:0|0:0,0:0:0:0:
93,219,148612,2,0,L|99:143,1,52.5000020027161,2|0,0:0|0:0,0:0:0:0:
296,328,148785,2,0,P|197:337|163:287,1,125.999996154785,12|0,0:0|0:0,0:0:0:0:
288,138,149044,5,2,0:0:0:0:
288,138,149130,2,0,B|359:128|359:128|402:144|402:144|523:125,1,220.499993270874,2|0,0:0|0:0,0:0:0:0:
264,19,149475,2,0,L|201:13,1,62.9999980773926,8|0,0:0|0:0,0:0:0:0:
35,136,149647,1,0,0:0:0:0:
35,136,149733,2,0,L|104:129,1,52.5000020027161,10|0,0:0|0:0,0:0:0:0:
62,116,149906,2,0,L|131:109,1,52.5000020027161,10|0,0:0|0:0,0:0:0:0:
244,216,150078,1,2,0:0:0:0:
244,216,150164,2,0,P|193:192|115:215,1,125.999996154785,8|0,0:0|0:0,0:0:0:0:
195,373,150423,5,8,0:0:0:0:
195,373,150509,2,0,L|207:299,1,52.5000020027161,2|0,0:0|0:0,0:0:0:0:
178,274,150681,2,0,L|183:331,1,52.5000020027161,2|0,0:0|0:0,0:0:0:0:
426,384,150854,2,0,L|417:258,1,125.999996154785,8|0,0:0|0:0,0:0:0:0:
332,64,151112,2,0,L|344:143,1,52.5000020027161,2|0,0:0|0:0,0:0:0:0:
314,165,151285,2,0,L|320:113,1,52.5000020027161,2|0,0:0|0:0,0:0:0:0:
97,286,151458,1,2,0:0:0:0:
97,286,151544,2,0,B|94:214|94:214|118:166|118:166|109:49,1,220.499993270874,14|0,0:0|0:0,0:0:0:0:
383,76,151888,6,0,B|340:13|236:43|236:43|262:60|279:91,1,220.499993270874,2|0,0:0|0:0,0:0:0:0:
469,224,152233,2,0,L|471:161,2,62.9999980773926,8|0|0,0:0|0:0|0:0,0:0:0:0:
233,293,152492,2,0,L|226:223,1,52.5000020027161,10|0,0:0|0:0,0:0:0:0:
213,266,152664,2,0,L|206:196,1,52.5000020027161,10|0,0:0|0:0,0:0:0:0:
390,191,152837,1,2,0:0:0:0:
390,191,152923,2,0,P|324:205|270:158,1,125.999996154785,8|0,0:0|0:0,0:0:0:0:
463,2,153181,5,8,0:0:0:0:
463,2,153268,2,0,P|473:30|467:74,1,52.5000020027161,2|0,0:0|0:0,0:0:0:0:
341,130,153440,2,0,P|331:102|337:58,1,52.5000020027161
494,282,153612,2,0,P|450:268|373:297,1,125.999996154785,8|0,0:0|0:0,0:0:0:0:
235,364,153871,1,2,0:0:0:0:
235,364,153957,2,0,L|303:370,1,52.5000020027161,2|0,0:0|0:0,0:0:0:0:
69,285,154130,2,0,L|16:289,1,52.5000020027161,2|0,0:0|0:0,0:0:0:0:
150,343,154303,2,0,L|163:189,1,125.999996154785,12|0,0:0|0:0,0:0:0:0:
73,42,154561,5,0,0:0:0:0:
73,42,154647,2,0,P|152:73|227:28,1,157.500006008148,2|0,1:0|0:0,0:0:0:0:
419,124,154992,2,0,P|340:93|265:138,1,157.500006008148,2|0,1:0|0:0,0:0:0:0:
96,229,155337,2,0,P|175:260|250:215,1,157.500006008148,2|0,1:0|0:0,0:0:0:0:
198,109,155681,1,2,0:0:0:0:
196,96,155767,1,2,0:0:0:0:
195,83,155854,1,2,0:0:0:0:
233,8,156026,6,0,L|213:227,1,220.499993270874,2|0,0:0|0:0,0:0:0:0:
354,367,156371,2,0,L|339:288,1,62.9999980773926,8|0,0:0|0:0,0:0:0:0:
163,333,156544,1,0,0:0:0:0:
163,333,156630,2,0,L|233:339,1,52.5000020027161,2|0,0:0|0:0,0:0:0:0:
361,225,156802,2,0,L|308:229,1,52.5000020027161,2|0,0:0|0:0,0:0:0:0:
464,243,156975,1,0,0:0:0:0:
464,243,157061,2,0,B|501:156|482:104|482:104|447:109|431:131,1,188.999994232178,12|0,0:0|0:0,0:0:0:0:
240,274,157406,6,0,P|327:317|349:209,1,220.499993270874,2|0,0:0|0:0,0:0:0:0:
126,164,157750,2,0,L|120:226,1,62.9999980773926,8|0,0:0|0:0,0:0:0:0:
231,84,157923,1,0,0:0:0:0:
231,84,158009,2,0,L|301:77,1,52.5000020027161,2|0,0:0|0:0,0:0:0:0:
258,64,158181,2,0,L|328:57,1,52.5000020027161,2|0,0:0|0:0,0:0:0:0:
441,175,158354,1,0,0:0:0:0:
441,175,158440,2,0,B|424:146|383:145|383:145|354:173|354:207,1,125.999996154785,8|0,0:0|0:0,0:0:0:0:
239,356,158699,5,8,0:0:0:0:
239,356,158785,2,0,B|174:330|197:207|197:207|231:214|247:242,1,220.499993270874,2|0,0:0|0:0,0:0:0:0:
367,47,159130,2,0,L|353:206,1,146.999995513916,8|0,0:0|0:0,0:0:0:0:
279,131,159388,2,0,L|286:59,2,52.5000020027161,2|0|0,0:0|0:0|0:0,0:0:0:0:
180,0,159647,2,0,L|185:52,1,52.5000020027161,2|0,0:0|0:0,0:0:0:0:
296,328,159819,2,0,P|197:337|163:287,1,125.999996154785,12|0,0:0|0:0,0:0:0:0:
142,197,160078,5,0,0:0:0:0:
142,197,160164,2,0,B|191:173|253:209|253:209|329:219|354:157,1,220.499993270874,2|0,0:0|0:0,0:0:0:0:
272,68,160509,2,0,L|280:144,1,62.9999980773926,8|0,0:0|0:0,0:0:0:0:
206,369,160681,1,0,0:0:0:0:
206,369,160768,2,0,L|216:309,1,52.5000020027161,2|0,0:0|0:0,0:0:0:0:
150,248,160940,1,0,0:0:0:0:
150,248,161026,2,0,L|140:188,1,52.5000020027161,2|0,0:0|0:0,0:0:0:0:
344,27,161199,2,0,P|423:40|468:4,1,125.999996154785,8|0,0:0|0:0,0:0:0:0:
202,83,161457,5,0,0:0:0:0:
202,83,161544,2,0,P|231:163|325:131,1,188.999994232178,2|0,0:0|0:0,0:0:0:0:
107,7,161888,2,0,L|119:148,1,125.999996154785,8|0,0:0|0:0,0:0:0:0:
21,309,162147,2,0,L|27:238,1,52.5000020027161,2|0,0:0|0:0,0:0:0:0:
48,197,162319,2,0,L|52:249,1,52.5000020027161,2|0,0:0|0:0,0:0:0:0:
242,384,162492,1,0,0:0:0:0:
242,384,162578,2,0,B|228:179,1,188.999994232178,12|0,0:0|0:0,0:0:0:0:
463,308,162923,6,0,B|479:266|449:231|449:231|472:202|465:161|465:161|446:120|478:81,1,220.499993270874,2|0,0:0|0:0,0:0:0:0:
159,148,163268,2,0,P|211:114|290:139,1,125.999996154785,8|0,0:0|0:0,0:0:0:0:
160,290,163526,2,0,L|90:283,1,52.5000020027161,2|0,0:0|0:0,0:0:0:0:
133,270,163698,2,0,L|63:263,1,52.5000020027161,2|0,0:0|0:0,0:0:0:0:
340,214,163871,1,0,0:0:0:0:
340,214,163957,2,0,P|276:227|219:178,1,125.999996154785,8|0,0:0|0:0,0:0:0:0:
444,18,164216,5,8,0:0:0:0:
444,18,164302,2,0,P|451:66|319:110,1,220.499993270874,2|0,0:0|0:0,0:0:0:0:
115,0,164647,2,0,P|100:40|120:124,1,125.999996154785,8|0,0:0|0:0,0:0:0:0:
269,255,164906,1,2,0:0:0:0:
269,255,164992,2,0,L|196:248,1,52.5000020027161,2|0,0:0|0:0,0:0:0:0:
6,184,165164,2,0,L|78:177,1,52.5000020027161
122,346,165337,2,0,L|133:199,1,125.999996154785,12|0,0:0|0:0,0:0:0:0:
249,86,165595,5,0,0:0:0:0:
249,86,165681,2,0,P|331:112|406:73,1,157.500006008148,2|0,1:0|0:0,0:0:0:0:
337,218,166026,2,0,P|419:192|494:231,1,157.500006008148,2|0,1:0|0:0,0:0:0:0:
259,62,166371,2,0,P|341:88|416:49,1,157.500006008148,2|0,1:0|0:0,0:0:0:0:
347,194,166716,2,0,P|429:168|504:207,1,157.500006008148,2|0,1:0|0:0,0:0:0:0:
419,275,167061,6,0,B|386:224|411:176|411:176|446:155|445:106|445:106|418:70|433:15,1,251.999992309571,2|0,1:0|0:0,0:0:0:0:
324,338,167406,2,0,L|331:256,1,62.9999980773926,8|0,0:0|0:0,0:0:0:0:
54,262,167579,1,0,0:0:0:0:
54,262,167664,2,0,L|119:267,1,52.5000020027161,2|0,0:0|0:0,0:0:0:0:
302,177,167837,2,0,L|236:182,1,52.5000020027161,2|0,0:0|0:0,0:0:0:0:
185,319,168010,1,0,0:0:0:0:
185,319,168095,2,0,B|193:248|193:248|169:200|169:200|176:119,1,188.999994232178,12|0,0:0|0:0,0:0:0:0:
9,54,168440,6,0,P|72:97|129:-17,1,220.499993270874,2|0,0:0|0:0,0:0:0:0:
48,199,168785,2,0,L|53:260,1,62.9999980773926,8|0,0:0|0:0,0:0:0:0:
221,115,168958,1,0,0:0:0:0:
221,115,169044,2,0,L|283:120,1,52.5000020027161,2|0,0:0|0:0,0:0:0:0:
307,136,169216,2,0,L|244:141,1,52.5000020027161,2|0,0:0|0:0,0:0:0:0:
142,296,169389,1,0,0:0:0:0:
142,296,169475,2,0,L|128:139,1,125.999996154785,8|0,0:0|0:0,0:0:0:0:
320,282,169734,5,0,0:0:0:0:
320,282,169819,2,0,P|415:305|446:176,1,220.499993270874,2|0,0:0|0:0,0:0:0:0:
246,52,170164,2,0,L|256:185,1,125.999996154785,8|0,0:0|0:0,0:0:0:0:
383,230,170423,2,0,L|379:155,2,52.5000020027161,2|0|0,0:0|0:0|0:0,0:0:0:0:
456,76,170682,2,0,L|452:128,1,52.5000020027161,2|0,0:0|0:0,0:0:0:0:
226,251,170854,2,0,P|140:256|106:206,1,125.999996154785,12|0,0:0|0:0,0:0:0:0:
268,68,171112,5,0,0:0:0:0:
268,68,171199,2,0,B|280:127|246:132|254:178|254:178|296:194|312:237|304:273,1,220.499993270874,2|0,0:0|0:0,0:0:0:0:
104,103,171544,2,0,L|168:108,1,62.9999980773926,8|0,0:0|0:0,0:0:0:0:
74,330,171716,1,0,0:0:0:0:
74,330,171802,2,0,L|81:260,1,52.5000020027161,2|0,0:0|0:0,0:0:0:0:
151,189,171975,1,0,0:0:0:0:
151,189,172061,2,0,L|158:259,1,52.5000020027161,2|0,0:0|0:0,0:0:0:0:
344,182,172233,2,0,P|290:150|221:172,1,125.999996154785,8|0,0:0|0:0,0:0:0:0:
77,132,172492,5,0,0:0:0:0:
77,132,172578,2,0,P|62:232|194:267,1,220.499993270874,2|0,0:0|0:0,0:0:0:0:
161,63,172923,2,0,L|148:202,1,125.999996154785,8|0,0:0|0:0,0:0:0:0:
274,301,173181,2,0,L|286:222,1,52.5000020027161,2|0,0:0|0:0,0:0:0:0:
256,200,173354,2,0,L|262:252,1,52.5000020027161,2|0,0:0|0:0,0:0:0:0:
506,121,173526,1,0,0:0:0:0:
506,121,173612,2,0,B|434:118|434:118|386:142|386:142|291:135,1,188.999994232178,12|0,0:0|0:0,0:0:0:0:
100,56,173958,6,0,P|194:30|240:140,1,220.499993270874,2|0,0:0|0:0,0:0:0:0:
159,172,174302,2,0,L|165:89,2,62.9999980773926,8|0|0,0:0|0:0|0:0,0:0:0:0:
42,310,174561,2,0,L|104:315,1,52.5000020027161,2|0,0:0|0:0,0:0:0:0:
128,331,174733,2,0,L|65:336,1,52.5000020027161,2|0,0:0|0:0,0:0:0:0:
241,224,174906,1,0,0:0:0:0:
241,224,174992,2,0,P|254:303|218:352,1,125.999996154785,8|0,0:0|0:0,0:0:0:0:
62,129,175250,5,0,0:0:0:0:
62,129,175337,2,0,B|89:122|118:143|118:143|130:118|161:114|161:114|208:153|279:127,1,220.499993270874,2|0,0:0|0:0,0:0:0:0:
464,32,175681,2,0,P|401:18|342:47,1,125.999996154785,8|0,0:0|0:0,0:0:0:0:
331,251,175940,1,2,0:0:0:0:
330,250,176026,2,0,L|320:198,1,52.5000020027161,2|0,0:0|0:0,0:0:0:0:
442,166,176199,2,0,L|451:114,1,52.5000020027161,2|0,0:0|0:0,0:0:0:0:
391,299,176371,2,0,P|458:278|526:345,1,125.999996154785,12|0,0:0|0:0,0:0:0:0:
213,232,176630,5,0,0:0:0:0:
213,232,176716,2,0,P|135:269|59:218,1,157.500006008148,2|0,1:0|0:0,0:0:0:0:
231,137,177062,2,0,P|302:186|295:277,1,157.500006008148,2|0,1:0|0:0,0:0:0:0:
141,169,177406,2,0,P|147:82|230:42,1,157.500006008148,2|0,1:0|0:0,0:0:0:0:
256,192,178095,12,2,180854,0:0:0:0:
