osu file format v14

[General]
AudioFilename: audio.mp3
AudioLeadIn: 0
PreviewTime: 2284
Countdown: 0
SampleSet: Normal
StackLeniency: 0.7
Mode: 0
LetterboxInBreaks: 0
WidescreenStoryboard: 1

[Editor]
DistanceSpacing: 1.2
BeatDivisor: 2
GridSize: 4
TimelineZoom: 2

[Metadata]
Title:Gotta Go Fast
TitleUnicode:Gotta Go Fast
Artist:Russell Velazquez
ArtistUnicode:Russell Velázquez
Creator:seselis1
Version:Normal
Source:Sonic X
Tags:ソニックX speed sanic the hedgehog theme song opening gtg fasta tv size Norman J. Grossfeld Joseph Garrity Cosmolade Ward74 4Kids TMS Entertainment SEGA anime
BeatmapID:1425997
BeatmapSetID:673857

[Difficulty]
HPDrainRate:4
CircleSize:3
OverallDifficulty:4
ApproachRate:5
SliderMultiplier:0.700000005960464
SliderTickRate:1

[Events]
//Background and Video events
0,0,"bg.jpg",0,0
//Break Periods
//Storyboard Layer 0 (Background)
//Storyboard Layer 1 (Fail)
//Storyboard Layer 2 (Pass)
//Storyboard Layer 3 (Foreground)
//Storyboard Sound Samples

[TimingPoints]
904,240,4,1,3,50,1,0
2824,-100,4,1,3,50,0,1
10504,-100,4,1,3,50,0,0
42184,-100,4,1,3,50,0,1
49864,-100,4,1,3,50,0,0
53704,-100,4,1,3,50,0,1
57544,-100,4,1,3,50,0,0

[Colours]
Combo1 : 192,192,192
Combo2 : 128,128,255
Combo3 : 254,208,101
Combo4 : 255,83,83

[HitObjects]
52,101,904,6,0,P|103:86|165:115,2,105.00000089407
100,169,1864,2,0,L|100:258,1,70.0000005960464
100,323,2344,1,0,0:0:0:0:
175,287,2584,1,0,0:0:0:0:
247,329,2824,6,0,P|311:354|382:322,1,140.000001192093
431,267,3544,1,0,0:0:0:0:
429,183,3784,2,0,L|429:113,1,70.0000005960464
429,28,4264,1,0,0:0:0:0:
355,68,4504,1,0,0:0:0:0:
344,151,4744,6,0,P|280:176|209:144,1,140.000001192093
164,85,5464,1,0,0:0:0:0:
102,142,5704,2,0,L|102:220,1,70.0000005960464
104,296,6184,1,0,0:0:0:0:
66,371,6424,1,0,0:0:0:0:
149,373,6664,6,0,L|233:373,1,70.0000005960464
232,289,7144,2,0,L|310:317,1,70.0000005960464
338,239,7624,2,0,L|399:290,2,70.0000005960464
272,186,8344,1,0,0:0:0:0:
344,142,8584,6,0,L|473:68,2,140.000001192093
193,66,10024,1,0,0:0:0:0:
43,142,10504,6,0,L|24:220,1,70.0000005960464
0,288,10984,1,0,0:0:0:0:
5,291,11224,1,0,0:0:0:0:
62,351,11464,2,0,P|94:358|139:344,1,70.0000005960464
166,273,11944,2,0,P|200:263|240:278,1,70.0000005960464
280,341,12424,6,0,B|295:349|295:349|362:348,1,70.0000005960464
431,348,12904,1,0,0:0:0:0:
431,348,13144,1,0,0:0:0:0:
429,264,13384,2,0,B|429:211|429:211|421:196,2,70.0000005960464
344,263,14104,1,0,0:0:0:0:
330,180,14344,6,0,L|323:103,1,70.0000005960464
407,114,14824,1,0,0:0:0:0:
407,114,15064,1,0,0:0:0:0:
490,113,15304,2,0,L|497:36,1,70.0000005960464
414,21,15784,1,0,0:0:0:0:
414,21,16024,1,0,0:0:0:0:
330,31,16264,6,0,L|243:46,1,70.0000005960464
190,88,16744,2,0,L|103:73,2,70.0000005960464
243,153,17464,1,0,0:0:0:0:
244,236,17704,2,0,L|244:330,1,70.0000005960464
161,289,18184,6,0,B|92:278|92:278|7:293,2,140.000001192093
314,357,19624,2,0,B|352:371|352:371|460:371,1,140.000001192093
356,231,20584,2,0,B|318:217|318:217|210:217,1,140.000001192093
314,357,21544,1,0,0:0:0:0:
456,267,22024,6,0,L|456:184,2,70.0000005960464
1,49,23944,5,0,0:0:0:0:
1,49,24184,2,0,L|29:126,1,70.0000005960464
105,139,24664,2,0,L|70:213,1,70.0000005960464
119,274,25144,2,0,L|41:302,2,70.0000005960464
169,206,25864,6,0,L|316:206,1,140.000001192093
364,269,26584,1,0,0:0:0:0:
421,329,26824,2,0,P|448:267|420:206,1,140.000001192093
364,142,27544,1,0,0:0:0:0:
297,90,27784,6,0,L|213:90,1,70.0000005960464
229,174,28264,2,0,L|145:174,1,70.0000005960464
157,258,28744,2,0,L|73:258,2,70.0000005960464
241,258,29464,1,0,0:0:0:0:
320,286,29704,6,0,P|418:279|316:253,1,280.000002384186
241,258,30904,6,0,P|206:266|159:248,1,70.0000005960464
127,187,31384,1,0,0:0:0:0:
84,114,31624,2,0,P|49:106|2:124,2,70.0000005960464
127,187,32344,1,0,0:0:0:0:
58,235,32584,5,0,0:0:0:0:
130,277,32824,2,0,L|204:317,1,70.0000005960464
268,344,33304,1,0,0:0:0:0:
344,309,33544,2,0,L|418:269,2,70.0000005960464
268,344,34264,1,0,0:0:0:0:
265,260,34504,6,0,L|265:98,1,140.000001192093
260,35,35224,1,0,0:0:0:0:
343,45,35464,2,0,L|420:56,1,70.0000005960464
399,138,35944,2,0,L|476:149,1,70.0000005960464
472,232,36424,6,0,L|472:380,1,140.000001192093
387,372,37144,1,0,0:0:0:0:
366,290,37384,2,0,L|347:197,1,70.0000005960464
270,239,37864,2,0,L|251:146,1,70.0000005960464
232,89,38344,6,0,L|70:89,1,140.000001192093
26,141,39064,1,0,0:0:0:0:
57,218,39304,2,0,L|131:253,1,70.0000005960464
80,322,39784,2,0,L|154:357,1,70.0000005960464
226,340,40264,5,0,0:0:0:0:
226,340,40504,1,0,0:0:0:0:
308,354,40744,2,0,L|382:319,1,70.0000005960464
331,249,41224,2,0,L|412:210,1,70.0000005960464
468,179,41704,1,0,0:0:0:0:
462,95,41944,1,0,0:0:0:0:
399,39,42184,6,0,P|336:18|259:43,1,140.000001192093
208,98,42904,1,0,0:0:0:0:
263,160,43144,2,0,L|337:161,1,70.0000005960464
392,219,43624,1,0,0:0:0:0:
390,302,43864,1,0,0:0:0:0:
317,344,44104,6,0,P|254:365|177:340,1,140.000001192093
190,261,44824,1,0,0:0:0:0:
106,260,45064,2,0,L|10:259,1,70.0000005960464
23,175,45544,1,0,0:0:0:0:
84,118,45784,1,0,0:0:0:0:
159,154,46024,6,0,P|195:159|239:149,1,70.0000005960464
276,221,46504,2,0,P|298:192|311:149,1,70.0000005960464
393,152,46984,2,0,P|379:118|348:85,2,70.0000005960464
411,234,47704,1,0,0:0:0:0:
385,314,47944,6,0,P|316:332|250:303,1,140.000001192093
202,240,48664,1,0,0:0:0:0:
204,156,48904,2,0,L|283:156,1,70.0000005960464
274,71,49384,2,0,L|195:71,1,70.0000005960464
131,113,49864,6,0,P|61:139|-3:102,1,140.000001192093
68,56,50584,1,0,0:0:0:0:
131,113,50824,2,0,L|131:259,1,140.000001192093
60,299,51544,1,0,0:0:0:0:
131,253,51784,6,0,P|201:227|265:264,1,140.000001192093
302,324,52504,1,0,0:0:0:0:
343,251,52744,2,0,L|383:158,1,70.0000005960464
454,181,53224,1,0,0:0:0:0:
486,103,53464,1,0,0:0:0:0:
402,98,53704,6,0,L|246:98,1,140.000001192093
177,98,54424,1,0,0:0:0:0:
98,68,54664,2,0,P|93:105|106:149,1,70.0000005960464
143,208,55144,1,0,0:0:0:0:
103,281,55384,1,0,0:0:0:0:
128,361,55624,6,0,L|222:380,1,70.0000005960464
227,296,56104,2,0,L|321:277,1,70.0000005960464
305,198,56584,2,0,L|368:149,2,70.0000005960464
221,199,57304,1,0,0:0:0:0:
256,192,57544,12,0,59464,0:0:0:0:
