osu file format v14

[General]
AudioFilename: audio.mp3
AudioLeadIn: 0
PreviewTime: 2284
Countdown: 0
SampleSet: Normal
StackLeniency: 0.7
Mode: 0
LetterboxInBreaks: 0
WidescreenStoryboard: 1

[Editor]
DistanceSpacing: 1
BeatDivisor: 2
GridSize: 4
TimelineZoom: 2

[Metadata]
Title:Gotta Go Fast
TitleUnicode:Gotta Go Fast
Artist:Russell Velazquez
ArtistUnicode:Russell Velázquez
Creator:seselis1
Version:Easy
Source:Sonic X
Tags:ソニックX speed sanic the hedgehog theme song opening gtg fasta tv size Norman J. Grossfeld Joseph Garrity Cosmolade Ward74 4Kids TMS Entertainment SEGA anime
BeatmapID:1425992
BeatmapSetID:673857

[Difficulty]
HPDrainRate:2
CircleSize:2
OverallDifficulty:2
ApproachRate:2
SliderMultiplier:0.500000005960464
SliderTickRate:1

[Events]
//Background and Video events
0,0,"bg.jpg",0,0
//Break Periods
//Storyboard Layer 0 (Background)
//Storyboard Layer 1 (Fail)
//Storyboard Layer 2 (Pass)
//Storyboard Layer 3 (Foreground)
//Storyboard Sound Samples

[TimingPoints]
904,240,4,1,3,50,1,0
2824,-100,4,1,3,50,0,1
10504,-100,4,1,3,50,0,0
42184,-100,4,1,3,50,0,1
49864,-100,4,1,3,50,0,0
53704,-100,4,1,3,50,0,1
57544,-100,4,1,3,50,0,0

[Colours]
Combo1 : 192,192,192
Combo2 : 128,128,255
Combo3 : 254,208,101
Combo4 : 255,83,83

[HitObjects]
227,92,904,6,0,L|77:81,2,150.000001788139
321,58,2824,6,0,P|327:107|306:157,1,100.000001192093
215,190,3784,1,0,0:0:0:0:
115,183,4264,1,0,0:0:0:0:
21,147,4744,6,0,P|15:196|36:246,1,100.000001192093
127,279,5704,1,0,0:0:0:0:
226,272,6184,1,0,0:0:0:0:
309,216,6664,6,0,L|352:308,1,100.000001192093
434,362,7624,2,0,L|488:359,2,50.0000005960464
439,261,8584,6,0,L|482:169,1,100.000001192093
481,70,9544,1,0,0:0:0:0:
381,71,10024,1,0,0:0:0:0:
375,171,10505,6,0,P|328:184|277:171,1,100.000001192093
276,72,11464,2,0,P|229:59|178:72,1,100.000001192093
88,112,12424,6,0,L|88:220,1,100.000001192093
188,208,13384,2,0,L|188:316,1,100.000001192093
285,285,14344,6,0,P|333:274|384:288,1,100.000001192093
468,335,15304,1,0,0:0:0:0:
468,335,15784,1,0,0:0:0:0:
468,235,16264,6,0,L|468:116,1,100.000001192093
470,34,17224,1,0,0:0:0:0:
470,34,17704,1,0,0:0:0:0:
383,83,18184,6,0,P|309:105|239:80,2,150.000001788139
469,32,20104,2,0,L|501:142,1,100.000001192093
410,179,21064,2,0,L|378:289,1,100.000001192093
459,338,22024,5,0,0:0:0:0:
492,243,22504,1,0,0:0:0:0:
245,71,23944,6,0,L|142:54,1,100.000001192093
147,154,24904,2,0,L|44:171,1,100.000001192093
98,257,25864,6,0,B|82:286|82:286|82:357,1,100.000001192093
181,360,26824,2,0,B|197:331|197:331|197:265,1,100.000001192093
279,208,27784,6,0,P|329:197|379:209,1,100.000001192093
379,307,28744,2,0,P|429:318|479:306,1,100.000001192093
490,208,29704,6,0,P|420:142|377:215,1,200.000002384186
379,307,31144,5,0,0:0:0:0:
296,363,31624,2,0,P|249:375|197:363,2,100.000001192093
245,276,33064,5,0,0:0:0:0:
196,188,33544,2,0,P|243:176|295:188,2,100.000001192093
245,276,34984,5,0,0:0:0:0:
145,278,35464,2,0,L|43:278,1,100.000001192093
11,183,36424,6,0,B|4:135|4:135|18:78,1,100.000001192093
107,42,37384,2,0,B|114:90|114:90|100:147,1,100.000001192093
201,140,38344,6,0,L|321:121,1,100.000001192093
302,24,39304,2,0,L|422:43,1,100.000001192093
492,0,40264,6,0,P|483:103|392:141,1,200.000002384186
299,124,41704,1,0,0:0:0:0:
331,218,42184,6,0,L|331:331,1,100.000001192093
234,345,43144,1,0,0:0:0:0:
137,369,43624,1,0,0:0:0:0:
47,325,44104,6,0,L|47:212,1,100.000001192093
144,198,45064,1,0,0:0:0:0:
241,174,45544,1,0,0:0:0:0:
331,218,46024,6,0,P|341:171|319:111,1,100.000001192093
271,38,46984,2,0,L|200:38,2,50.0000005960464
371,38,47944,6,0,L|488:38,1,100.000001192093
508,130,48904,1,0,0:0:0:0:
475,224,49384,1,0,0:0:0:0:
508,318,49864,6,0,L|396:318,1,100.000001192093
345,239,50824,2,0,L|233:239,1,100.000001192093
184,319,51784,6,0,L|72:319,1,100.000001192093
22,240,52744,2,0,L|22:129,1,100.000001192093
103,71,53704,6,0,P|150:58|208:78,1,100.000001192093
233,164,54664,1,0,0:0:0:0:
333,164,55144,1,0,0:0:0:0:
371,71,55624,6,0,P|418:58|476:78,1,100.000001192093
505,163,56584,2,0,L|505:221,2,50.0000005960464
256,192,57544,12,0,59464,0:0:0:0:
