osu file format v14

[General]
AudioFilename: audio.mp3
AudioLeadIn: 0
PreviewTime: -1
Countdown: 0
SampleSet: Soft
StackLeniency: 0.7
Mode: 0
LetterboxInBreaks: 0
WidescreenStoryboard: 0

[Editor]
Bookmarks: 135518,153296,259962
DistanceSpacing: 1
BeatDivisor: 4
GridSize: 4
TimelineZoom: 1

[Metadata]
Title:Balada pro pryntsesu
TitleUnicode:Балада про принцесу
Artist:Ruslana
ArtistUnicode:Руслана
Creator:Tony
Version:Calm
Source:
Tags:
BeatmapID:1766491
BeatmapSetID:844457

[Difficulty]
HPDrainRate:4
CircleSize:4
OverallDifficulty:4
ApproachRate:5
SliderMultiplier:1.9
SliderTickRate:2

[Events]
//Background and Video events
//Break Periods
2,135718,149873
2,171273,178762
2,206829,209873
//Storyboard Layer 0 (Background)
//Storyboard Layer 1 (Fail)
//Storyboard Layer 2 (Pass)
//Storyboard Layer 3 (Foreground)
//Storyboard Sound Samples

[TimingPoints]
19962.8043401116,740.740740740741,3,2,0,45,1,0

[HitObjects]
296,204,19962,6,0,L|404:208,2,95,2|0|0,0:0|0:0|0:0,0:0:0:0:
220,148,21073,2,0,B|184:204|220:260|220:260|216:288,2,142.5,0|0|2,0:0|0:0|0:0,0:0:0:0:
276,72,22555,5,0,0:0:0:0:
352,128,22925,1,0,0:0:0:0:
296,204,23296,2,0,B|312:276|312:276|296:348,2,142.5,0|0|2,0:0|0:0|0:0,0:0:0:0:
208,172,24777,5,0,0:0:0:0:
264,96,25147,1,0,0:0:0:0:
180,52,25518,2,0,B|128:32|80:56|80:56|32:44,2,142.5,0|0|2,0:0|0:0|0:0,0:0:0:0:
264,96,26999,6,0,P|316:104|360:88,1,95
432,32,27740,1,0,0:0:0:0:
444,128,28110,1,0,0:0:0:0:
448,224,28481,1,0,0:0:0:0:
404,308,28851,6,0,L|304:312,1,95,2|0,0:0|0:0,0:0:0:0:
256,232,29592,1,0,0:0:0:0:
203,311,29962,2,0,L|60:305,2,142.5,0|0|2,0:0|0:0|0:0,0:0:0:0:
256,232,31444,5,0,0:0:0:0:
308,152,31814,1,0,0:0:0:0:
352,68,32185,2,0,B|383:79|400:119|400:119|434:130|448:167,2,142.5,0|0|2,0:0|0:0|0:0,0:0:0:0:
256,60,33666,5,0,0:0:0:0:
160,68,34036,1,0,0:0:0:0:
104,144,34407,2,0,P|96:244|140:292,1,142.5
256,316,35518,5,0,0:0:0:0:
256,192,37740,12,0,39962,1:0:0:0:
188,152,42185,6,0,P|200:308|324:152,1,475,0|0,1:0|0:0,0:0:0:0:
256,88,44407,6,0,P|193:53|123:71,1,142.5,0|0,1:0|0:0,0:0:0:0:
68,197,45518,2,0,P|53:265|88:325,1,142.5
208,240,46629,6,0,B|204:187|234:142|294:141|347:173|338:240|338:240|326:315|378:346|439:345|469:301|465:248,1,475,0|0,1:0|0:0,0:0:0:0:
428,160,48851,6,0,P|416:96|456:16,1,142.5,0|0,1:0|0:0,0:0:0:0:
304,12,49962,2,0,P|316:76|276:156,1,142.5
200,256,51073,6,0,B|142:266|99:226|56:163|74:104|116:76|169:86|215:122|216:170|171:226|99:226|54:234|18:191,1,475,0|0,1:0|0:0,0:0:0:0:
16,284,53296,6,0,B|38:306|83:304|83:304|107:333|151:336,3,142.5,0|0|0|0,1:0|0:0|0:0|0:0,0:0:0:0:
64,216,55518,6,0,P|52:112|160:244,1,475,0|0,1:0|0:0,0:0:0:0:
92,312,57740,6,0,P|148:336|228:312,1,142.5,0|0,1:0|0:0,0:0:0:0:
344,236,58851,2,0,P|322:169|347:103,1,142.5
224,32,59962,5,2,0:0:0:0:
148,88,60333,2,0,L|88:108,1,47.5,0|2,0:0|0:0,0:0:0:0:
124,196,60888,2,0,L|64:216,1,47.5,2|0,0:0|0:0,0:0:0:0:
52,304,61444,5,0,0:0:0:0:
132,352,61814,1,0,0:0:0:0:
204,292,62185,1,2,0:0:0:0:
284,340,62555,2,0,P|356:344|416:300,1,142.5
440,268,63296,2,0,L|392:120,1,142.5
264,84,64407,6,0,L|312:232,2,142.5,2|0|0,0:0|0:0|0:0,0:0:0:0:
180,40,65888,1,0,0:0:0:0:
124,116,66259,1,0,0:0:0:0:
40,72,66629,1,2,0:0:0:0:
16,164,66999,2,0,P|4:224|40:308,1,142.5
68,332,67740,2,0,L|224:348,1,142.5
308,244,68851,6,0,L|166:229,2,142.5,2|0|0,0:0|0:0|0:0,0:0:0:0:
404,252,70333,1,0,0:0:0:0:
444,168,70703,1,0,0:0:0:0:
476,80,71073,1,2,0:0:0:0:
384,96,71444,2,0,P|312:104|240:64,1,142.5
212,44,72185,2,0,L|124:156,1,142.5
128,300,73296,6,0,L|216:188,2,142.5,2|0|0,0:0|0:0|0:0,0:0:0:0:
48,352,74777,1,0,0:0:0:0:
8,268,75147,1,0,0:0:0:0:
76,200,75518,1,2,0:0:0:0:
16,124,75888,1,0,0:0:0:0:
256,192,76073,12,0,77740,1:0:0:0:
192,192,78851,6,0,P|164:270|197:333,2,142.5,0|0|2,0:0|0:0|0:0,0:0:0:0:
256,260,80333,1,0,0:0:0:0:
320,192,80703,1,0,0:0:0:0:
256,120,81073,2,0,L|268:72,5,47.5
228,48,82185,6,0,L|128:20,1,95,2|0,0:0|0:0,0:0:0:0:
64,80,82925,1,0,0:0:0:0:
104,168,83296,2,0,P|113:237|75:295,2,142.5,0|0|2,0:0|0:0|0:0,0:0:0:0:
64,80,84777,5,0,0:0:0:0:
136,22,85147,1,0,0:0:0:0:
196,96,85518,2,0,L|185:142,2,47.5
272,40,86259,1,0,0:0:0:0:
344,104,86629,6,0,P|374:166|349:247,1,142.5,2|0,0:0|0:0,0:0:0:0:
252,328,87740,2,0,P|182:334|124:295,1,142.5
64,168,88851,5,2,0:0:0:0:
12,88,89222,1,0,0:0:0:0:
88,28,89592,1,0,0:0:0:0:
144,104,89962,2,0,L|208:120,5,47.5
200,160,91073,6,0,L|312:184,1,95,2|0,0:0|0:0,0:0:0:0:
388,196,91814,1,0,0:0:0:0:
472,236,92185,2,0,P|425:284|336:276,1,142.5
256,184,93296,5,0,0:0:0:0:
256,192,95518,12,0,97740,1:0:0:0:
264,248,98851,6,0,P|310:174|200:212,1,285,0|0,0:0|1:0,0:0:0:0:
192,304,100333,1,0,1:0:0:0:
192,304,100518,2,0,P|108:328|52:288,1,142.5
28,216,101444,2,0,L|28:160,1,47.5,0|2,0:0|0:0,0:0:0:0:
60,80,101999,5,0,0:0:0:0:
59,80,102185,2,0,P|123:53|187:80,1,142.5,0|0,1:0|0:0,0:0:0:0:
257,206,103296,2,0,P|320:225|390:199,1,142.5
425,60,104407,6,0,B|401:25|363:10|310:31|249:74|244:134|273:174|325:184|379:167|397:124|376:57|310:31|265:12|223:28|207:63,1,475,0|0,1:0|0:0,0:0:0:0:
180,156,106629,6,0,P|124:212|48:204,1,142.5,0|0,1:0|0:0,0:0:0:0:
112,348,107740,2,0,P|168:292|244:300,1,142.5
360,348,108851,6,0,B|388:321|410:245|398:166|318:157|318:157|283:229|344:281|420:303|458:293,1,475,0|0,1:0|0:0,0:0:0:0:
488,204,111073,6,0,L|504:56,1,142.5,0|0,1:0|0:0,0:0:0:0:
364,24,112185,2,0,L|348:165,1,142.5
332,308,113296,2,0,P|176:308|96:40,1,475,0|0,1:0|0:0,0:0:0:0:
176,92,115518,6,0,P|160:168|204:216,3,142.5,0|0|0|0,1:0|0:0|0:0|0:0,0:0:0:0:
308,120,117740,6,0,L|420:92,1,95,2|0,0:0|0:0,0:0:0:0:
404,144,118296,2,0,L|516:116,1,95,2|2,0:0|0:0,0:0:0:0:
496,120,118851,1,0,0:0:0:0:
488,216,119222,5,0,0:0:0:0:
476,312,119592,1,0,0:0:0:0:
396,264,119962,2,0,L|303:287,2,95,2|0|0,0:0|0:0|0:0,0:0:0:0:
352,180,121073,2,0,L|204:216,1,142.5
76,248,122185,6,0,P|56:304|80:384,2,142.5,2|0|0,0:0|0:0|0:0,0:0:0:0:
128,168,123666,1,0,0:0:0:0:
212,124,124036,1,0,0:0:0:0:
128,76,124407,1,2,0:0:0:0:
212,32,124777,2,0,L|356:28,1,142.5
344,76,125518,2,0,L|488:72,1,142.5,2|0,0:0|0:0,0:0:0:0:
420,200,126629,6,0,P|408:280|444:344,2,142.5,2|0|0,0:0|0:0|0:0,0:0:0:0:
332,168,128110,2,0,P|312:232|312:260,1,95
340,352,128851,1,2,0:0:0:0:
244,336,129222,2,0,L|104:312,1,142.5
56,304,129962,2,0,P|24:260|24:172,1,142.5,2|0,0:0|0:0,0:0:0:0:
140,92,131073,6,0,B|90:109|90:109|53:75|7:85,2,142.5,2|0|0,0:0|0:0|0:0,0:0:0:0:
232,64,132555,1,0,0:0:0:0:
324,36,132925,1,0,0:0:0:0:
376,116,133296,1,2,0:0:0:0:
284,144,133666,1,0,0:0:0:0:
256,192,133851,12,0,135518,1:0:0:0:
256,192,151073,12,2,153296,0:0:0:0:
216,36,154407,6,0,P|212:108|256:180,1,142.5
372,236,155518,2,0,P|376:164|332:92,3,142.5,2|0|0|0,0:0|0:0|0:0|0:0,0:0:0:0:
216,36,157740,5,2,0:0:0:0:
164,116,158110,2,0,L|112:136,1,47.5
144,224,158666,2,0,L|92:244,1,47.5,0|2,0:0|0:0,0:0:0:0:
36,312,159222,5,0,0:0:0:0:
116,360,159592,1,0,0:0:0:0:
188,300,159963,1,2,0:0:0:0:
268,348,160333,2,0,P|340:352|400:308,1,142.5
424,276,161074,2,0,L|376:128,1,142.5,2|0,0:0|0:0,0:0:0:0:
256,208,162185,5,0,0:0:0:0:
176,156,162555,2,0,L|157:199,1,47.5
64,192,163110,2,0,L|82:148,1,47.5
136,68,163666,5,0,0:0:0:0:
224,28,164036,1,0,0:0:0:0:
308,68,164407,1,0,0:0:0:0:
396,36,164777,2,0,P|424:104|408:196,1,142.5
400,216,165518,2,0,P|334:243|264:238,1,142.5
164,136,166629,6,0,L|116:264,1,95
88,204,167185,2,0,L|54:292,1,95
54,292,167740,1,0,0:0:0:0:
256,192,168481,12,0,171073,0:0:0:0:
56,224,179962,6,0,P|212:328|328:280,2,285
156,120,182740,2,0,P|206:170|276:154,2,142.5
56,224,184407,6,0,P|212:328|328:280,2,285
108,92,187185,1,0,0:0:0:0:
196,204,187740,1,0,0:0:0:0:
336,164,188296,1,0,0:0:0:0:
294,305,188851,6,0,B|291:273|309:246|345:245|377:264|371:305|371:305|364:349|395:368|432:367|450:341|447:309,2,285
176,224,191629,2,0,P|160:316|184:368,2,142.5
220,88,193296,6,0,P|117:124|196:41,2,285
352,32,196073,1,0,0:0:0:0:
384,172,196629,1,0,0:0:0:0:
420,312,197185,1,0,0:0:0:0:
284,264,197740,6,0,L|0:284,2,285
192,156,200518,2,0,L|46:165,2,142.5
100,44,202185,6,0,L|384:24,2,285
52,180,204962,1,0,0:0:0:0:
100,316,205518,1,0,0:0:0:0:
196,212,206073,1,0,0:0:0:0:
52,180,206629,1,0,0:0:0:0:
168,228,211073,6,0,P|152:264|148:292,2,47.5
256,192,211814,1,0,0:0:0:0:
344,228,212185,2,0,P|360:264|364:292,2,47.5
168,156,213296,6,0,P|152:120|148:92,2,47.5
256,192,214037,1,0,0:0:0:0:
340,152,214408,2,0,P|356:116|360:88,2,47.5
256,192,215147,1,0,0:0:0:0:
168,228,215518,6,0,L|116:240,1,47.5
76,248,215888,2,0,P|44:208|40:160,1,95
52,72,216629,2,0,L|104:60,1,47.5
144,52,216999,2,0,P|176:92|180:140,1,95
256,192,217740,6,0,L|308:180,2,47.5
200,268,218481,1,0,0:0:0:0:
136,340,218851,2,0,L|84:328,5,47.5
44,316,219962,6,0,P|28:288|28:264,1,47.5
28,224,220333,2,0,L|44:112,1,95
80,44,221073,2,0,P|108:60|132:60,1,47.5
172,60,221444,2,0,L|284:44,1,95
324,120,222185,6,0,L|313:185,2,47.5
388,52,222925,1,0,0:0:0:0:
456,116,223296,2,0,L|448:172,2,47.5
388,52,224036,1,0,0:0:0:0:
324,120,224407,6,0,P|264:136|184:104,1,142.5
172,252,225518,2,0,P|232:236|312:268,2,142.5
132,276,226814,2,0,L|70:307,1,47.5
20,232,227370,1,0,0:0:0:0:
36,136,227740,2,0,L|80:116,5,47.5
124,96,228851,6,0,P|196:72|268:88,3,142.5
204,216,231073,2,0,L|212:276,2,47.5
116,180,231814,1,0,0:0:0:0:
52,252,232185,2,0,L|60:312,2,47.5
116,180,232925,1,0,0:0:0:0:
176,104,233296,6,0,B|212:61|257:69|329:69|374:125|373:173|327:209|274:219|232:191|214:132|257:69|300:29|358:39,1,475,0|0,1:0|0:0,0:0:0:0:
428,104,235518,2,0,P|419:243|163:199,1,475
176,104,237740,6,0,L|32:92,1,142.5
48,232,238851,2,0,L|190:243,1,142.5
308,164,239962,1,0,0:0:0:0:
256,192,240333,12,0,242185,0:0:0:0:
216,348,243296,6,0,P|212:276|256:204,1,142.5
372,148,244407,2,0,P|376:220|332:292,3,142.5,2|0|0|0,0:0|0:0|0:0|0:0,0:0:0:0:
216,348,246629,5,2,0:0:0:0:
164,268,246999,2,0,L|112:248,1,47.5
144,160,247555,2,0,L|92:140,1,47.5,0|2,0:0|0:0,0:0:0:0:
36,72,248111,5,0,0:0:0:0:
116,24,248481,1,0,0:0:0:0:
188,84,248852,1,2,0:0:0:0:
268,36,249222,2,0,P|340:32|400:76,1,142.5
424,108,249963,2,0,L|376:256,1,142.5,2|0,0:0|0:0,0:0:0:0:
256,176,251074,5,0,0:0:0:0:
176,228,251444,2,0,L|157:185,1,47.5
64,192,251999,2,0,L|82:236,1,47.5
136,316,252555,5,0,0:0:0:0:
224,356,252925,1,0,0:0:0:0:
308,316,253296,1,0,0:0:0:0:
396,348,253666,2,0,P|424:280|408:188,1,142.5
400,168,254407,2,0,P|334:141|264:146,1,142.5
164,248,255518,6,0,L|116:120,1,95
88,180,256074,2,0,L|54:92,1,95
54,92,256629,1,0,0:0:0:0:
256,192,257370,12,0,259962,0:0:0:0:
