osu file format v14

[General]
AudioFilename: audio.mp3
AudioLeadIn: 0
PreviewTime: -1
Countdown: 1
SampleSet: None
StackLeniency: 0.7
Mode: 3
LetterboxInBreaks: 0
SpecialStyle: 0
WidescreenStoryboard: 0

[Editor]
Bookmarks: 102527,108906
DistanceSpacing: 0.5
BeatDivisor: 8
GridSize: 32
TimelineZoom: 2.7

[Metadata]
Title:Exam Cram
TitleUnicode:Exam Cram
Artist:Rushjet1
ArtistUnicode:Rushjet1
Creator:Hydria
Version:Knowledge
Source:
Tags:
BeatmapID:2061065
BeatmapSetID:985085

[Difficulty]
HPDrainRate:8
CircleSize:4
OverallDifficulty:8
ApproachRate:5
SliderMultiplier:1.4
SliderTickRate:1

[Events]
//Background and Video events
0,0,"Toaru_Majutsu_no_Index_E08_02m_01s.jpg",0,0
//Break Periods
//Storyboard Layer 0 (Background)
//Storyboard Layer 1 (Fail)
//Storyboard Layer 2 (Pass)
//Storyboard Layer 3 (Foreground)
//Storyboard Sound Samples

[TimingPoints]
461,398.697587879593,4,1,0,40,1,0

[HitObjects]
320,192,461,5,0,0:0:0:0:
320,192,660,1,0,0:0:0:0:
192,192,859,1,0,0:0:0:0:
192,192,959,1,0,0:0:0:0:
192,192,1158,1,0,0:0:0:0:
64,192,1358,1,0,0:0:0:0:
64,192,1457,1,0,0:0:0:0:
64,192,1657,1,0,0:0:0:0:
192,192,1856,1,0,0:0:0:0:
320,192,2055,1,0,0:0:0:0:
320,192,2255,1,0,0:0:0:0:
192,192,2454,1,0,0:0:0:0:
192,192,2554,1,0,0:0:0:0:
192,192,2753,1,0,0:0:0:0:
64,192,2952,1,0,0:0:0:0:
64,192,3052,1,0,0:0:0:0:
64,192,3251,1,0,0:0:0:0:
192,192,3451,1,0,0:0:0:0:
448,192,3650,1,0,0:0:0:0:
448,192,3849,1,0,0:0:0:0:
320,192,4049,1,0,0:0:0:0:
320,192,4148,1,0,0:0:0:0:
320,192,4348,1,0,0:0:0:0:
192,192,4547,1,0,0:0:0:0:
192,192,4647,1,0,0:0:0:0:
192,192,4846,1,0,0:0:0:0:
320,192,5046,1,0,0:0:0:0:
448,192,5245,1,0,0:0:0:0:
448,192,5444,1,0,0:0:0:0:
320,192,5644,1,0,0:0:0:0:
320,192,5743,1,0,0:0:0:0:
320,192,5943,1,0,0:0:0:0:
192,192,6142,1,0,0:0:0:0:
192,192,6242,1,0,0:0:0:0:
192,192,6441,1,0,0:0:0:0:
320,192,6640,1,0,0:0:0:0:
320,192,6840,1,0,0:0:0:0:
320,192,7039,1,0,0:0:0:0:
192,192,7238,1,0,0:0:0:0:
192,192,7338,1,0,0:0:0:0:
192,192,7537,1,0,0:0:0:0:
64,192,7737,1,0,0:0:0:0:
64,192,7836,1,0,0:0:0:0:
64,192,8036,1,0,0:0:0:0:
192,192,8235,1,0,0:0:0:0:
320,192,8434,1,0,0:0:0:0:
320,192,8634,1,0,0:0:0:0:
192,192,8833,1,0,0:0:0:0:
192,192,8933,1,0,0:0:0:0:
192,192,9132,1,0,0:0:0:0:
64,192,9332,1,0,0:0:0:0:
64,192,9431,1,0,0:0:0:0:
64,192,9631,1,0,0:0:0:0:
192,192,9830,1,0,0:0:0:0:
448,192,10029,1,0,0:0:0:0:
448,192,10229,1,0,0:0:0:0:
320,192,10428,1,0,0:0:0:0:
320,192,10528,1,0,0:0:0:0:
320,192,10727,1,0,0:0:0:0:
192,192,10926,1,0,0:0:0:0:
192,192,11026,1,0,0:0:0:0:
192,192,11225,1,0,0:0:0:0:
320,192,11425,1,0,0:0:0:0:
448,192,11624,1,0,0:0:0:0:
448,192,11823,1,0,0:0:0:0:
320,192,12023,1,0,0:0:0:0:
320,192,12122,1,0,0:0:0:0:
320,192,12322,1,0,0:0:0:0:
192,192,12521,1,0,0:0:0:0:
192,192,12621,1,0,0:0:0:0:
192,192,12820,1,0,0:0:0:0:
320,192,13019,1,0,0:0:0:0:
320,192,13219,1,0,0:0:0:0:
448,192,13219,1,0,0:0:0:0:
320,192,13418,1,0,0:0:0:0:
192,192,13618,1,0,0:0:0:0:
64,192,13618,1,0,0:0:0:0:
192,192,13717,1,0,0:0:0:0:
192,192,13917,1,0,0:0:0:0:
320,192,14016,1,0,0:0:0:0:
64,192,14116,1,0,0:0:0:0:
64,192,14216,1,0,0:0:0:0:
64,192,14415,1,0,0:0:0:0:
192,192,14415,1,0,0:0:0:0:
192,192,14614,1,0,0:0:0:0:
320,192,14814,1,0,0:0:0:0:
448,192,14814,1,0,0:0:0:0:
320,192,15013,1,0,0:0:0:0:
192,192,15212,1,0,0:0:0:0:
64,192,15212,1,0,0:0:0:0:
192,192,15312,1,0,0:0:0:0:
192,192,15511,1,0,0:0:0:0:
320,192,15611,1,0,0:0:0:0:
64,192,15711,1,0,0:0:0:0:
64,192,15810,1,0,0:0:0:0:
64,192,16010,1,0,0:0:0:0:
320,192,16010,1,0,0:0:0:0:
192,192,16209,1,0,0:0:0:0:
448,192,16408,1,0,0:0:0:0:
320,192,16408,1,0,0:0:0:0:
448,192,16608,1,0,0:0:0:0:
320,192,16807,1,0,0:0:0:0:
448,192,16807,1,0,0:0:0:0:
320,192,16907,1,0,0:0:0:0:
320,192,17106,1,0,0:0:0:0:
64,192,17206,1,0,0:0:0:0:
192,192,17305,1,0,0:0:0:0:
192,192,17405,1,0,0:0:0:0:
192,192,17604,1,0,0:0:0:0:
64,192,17604,1,0,0:0:0:0:
320,192,17804,1,0,0:0:0:0:
448,192,18003,1,0,0:0:0:0:
320,192,18003,1,0,0:0:0:0:
448,192,18203,1,0,0:0:0:0:
320,192,18402,1,0,0:0:0:0:
448,192,18402,1,0,0:0:0:0:
320,192,18502,1,0,0:0:0:0:
320,192,18701,1,0,0:0:0:0:
64,192,18801,1,0,0:0:0:0:
192,192,18900,1,0,0:0:0:0:
192,192,19000,1,0,0:0:0:0:
192,192,19199,1,0,0:0:0:0:
64,192,19199,1,0,0:0:0:0:
320,192,19399,1,0,0:0:0:0:
320,192,19598,1,0,0:0:0:0:
448,192,19598,1,0,0:0:0:0:
192,192,19698,1,0,0:0:0:0:
320,192,19797,1,0,0:0:0:0:
448,192,19897,1,0,0:0:0:0:
192,192,19997,1,0,0:0:0:0:
64,192,19997,1,0,0:0:0:0:
192,192,20096,1,0,0:0:0:0:
448,192,20196,1,0,0:0:0:0:
192,192,20296,1,0,0:0:0:0:
320,192,20395,1,0,0:0:0:0:
448,192,20395,1,0,0:0:0:0:
64,192,20495,1,0,0:0:0:0:
64,192,20595,1,0,0:0:0:0:
320,192,20694,1,0,0:0:0:0:
64,192,20794,1,0,0:0:0:0:
192,192,20794,1,0,0:0:0:0:
448,192,20894,1,0,0:0:0:0:
192,192,20993,1,0,0:0:0:0:
64,192,21093,1,0,0:0:0:0:
320,192,21193,1,0,0:0:0:0:
448,192,21193,1,0,0:0:0:0:
192,192,21292,1,0,0:0:0:0:
320,192,21392,1,0,0:0:0:0:
448,192,21492,1,0,0:0:0:0:
192,192,21591,1,0,0:0:0:0:
64,192,21591,1,0,0:0:0:0:
192,192,21691,1,0,0:0:0:0:
320,192,21791,1,0,0:0:0:0:
192,192,21890,1,0,0:0:0:0:
320,192,21990,1,0,0:0:0:0:
448,192,21990,1,0,0:0:0:0:
64,192,22090,1,0,0:0:0:0:
64,192,22190,1,0,0:0:0:0:
448,192,22289,1,0,0:0:0:0:
64,192,22389,1,0,0:0:0:0:
320,192,22389,1,0,0:0:0:0:
448,192,22489,1,0,0:0:0:0:
192,192,22588,1,0,0:0:0:0:
64,192,22688,1,0,0:0:0:0:
448,192,22788,1,0,0:0:0:0:
320,192,22788,1,0,0:0:0:0:
192,192,22887,1,0,0:0:0:0:
448,192,22987,1,0,0:0:0:0:
192,192,23087,1,0,0:0:0:0:
320,192,23186,1,0,0:0:0:0:
448,192,23186,1,0,0:0:0:0:
320,192,23286,1,0,0:0:0:0:
64,192,23386,1,0,0:0:0:0:
320,192,23485,1,0,0:0:0:0:
64,192,23585,1,0,0:0:0:0:
448,192,23585,1,0,0:0:0:0:
192,192,23685,1,0,0:0:0:0:
192,192,23784,1,0,0:0:0:0:
320,192,23884,1,0,0:0:0:0:
192,192,23984,1,0,0:0:0:0:
64,192,23984,1,0,0:0:0:0:
448,192,24083,1,0,0:0:0:0:
320,192,24183,1,0,0:0:0:0:
192,192,24283,1,0,0:0:0:0:
448,192,24382,1,0,0:0:0:0:
320,192,24382,1,0,0:0:0:0:
64,192,24482,1,0,0:0:0:0:
448,192,24582,1,0,0:0:0:0:
192,192,24681,1,0,0:0:0:0:
320,192,24781,1,0,0:0:0:0:
448,192,24781,1,0,0:0:0:0:
320,192,24881,1,0,0:0:0:0:
192,192,24980,1,0,0:0:0:0:
320,192,25080,1,0,0:0:0:0:
64,192,25180,1,0,0:0:0:0:
448,192,25180,1,0,0:0:0:0:
192,192,25279,1,0,0:0:0:0:
192,192,25379,1,0,0:0:0:0:
320,192,25479,1,0,0:0:0:0:
192,192,25578,1,0,0:0:0:0:
64,192,25578,1,0,0:0:0:0:
448,192,25678,1,0,0:0:0:0:
320,192,25778,1,0,0:0:0:0:
192,192,25877,1,0,0:0:0:0:
64,192,25977,128,0,26176:0:0:0:0:
320,192,25977,1,0,0:0:0:0:
320,192,26077,1,0,0:0:0:0:
192,192,26176,128,0,26376:0:0:0:0:
448,192,26176,1,0,0:0:0:0:
448,192,26276,1,0,0:0:0:0:
64,192,26376,128,0,26575:0:0:0:0:
320,192,26376,1,0,0:0:0:0:
192,192,26476,1,0,0:0:0:0:
320,192,26575,128,0,26775:0:0:0:0:
448,192,26575,1,0,0:0:0:0:
192,192,26675,1,0,0:0:0:0:
64,192,26775,128,0,26974:0:0:0:0:
448,192,26775,1,0,0:0:0:0:
192,192,26874,1,0,0:0:0:0:
448,192,26974,128,0,27173:0:0:0:0:
320,192,26974,1,0,0:0:0:0:
64,192,27074,1,0,0:0:0:0:
192,192,27173,128,0,27373:0:0:0:0:
320,192,27173,1,0,0:0:0:0:
448,192,27373,128,0,27572:0:0:0:0:
64,192,27373,1,0,0:0:0:0:
64,192,27572,128,0,27771:0:0:0:0:
320,192,27572,1,0,0:0:0:0:
320,192,27672,1,0,0:0:0:0:
192,192,27771,128,0,27971:0:0:0:0:
448,192,27771,1,0,0:0:0:0:
448,192,27871,1,0,0:0:0:0:
64,192,27971,128,0,28170:0:0:0:0:
320,192,27971,1,0,0:0:0:0:
448,192,28070,1,0,0:0:0:0:
320,192,28170,128,0,28369:0:0:0:0:
192,192,28170,1,0,0:0:0:0:
448,192,28270,1,0,0:0:0:0:
64,192,28369,128,0,28569:0:0:0:0:
192,192,28369,1,0,0:0:0:0:
320,192,28469,1,0,0:0:0:0:
448,192,28569,128,0,28768:0:0:0:0:
192,192,28569,1,0,0:0:0:0:
320,192,28668,1,0,0:0:0:0:
192,192,28768,128,0,28967:0:0:0:0:
64,192,28768,1,0,0:0:0:0:
320,192,28967,128,0,29167:0:0:0:0:
448,192,28967,1,0,0:0:0:0:
448,192,29167,128,0,29366:0:0:0:0:
64,192,29167,1,0,0:0:0:0:
64,192,29266,1,0,0:0:0:0:
192,192,29366,128,0,29565:0:0:0:0:
320,192,29366,1,0,0:0:0:0:
320,192,29466,1,0,0:0:0:0:
64,192,29565,128,0,29765:0:0:0:0:
448,192,29565,1,0,0:0:0:0:
192,192,29665,1,0,0:0:0:0:
320,192,29765,128,0,29964:0:0:0:0:
448,192,29765,1,0,0:0:0:0:
192,192,29864,1,0,0:0:0:0:
64,192,29964,128,0,30163:0:0:0:0:
448,192,29964,1,0,0:0:0:0:
320,192,30064,1,0,0:0:0:0:
192,192,30163,128,0,30363:0:0:0:0:
448,192,30163,1,0,0:0:0:0:
64,192,30263,1,0,0:0:0:0:
320,192,30363,128,0,30562:0:0:0:0:
448,192,30363,1,0,0:0:0:0:
448,192,30562,128,0,30762:0:0:0:0:
192,192,30562,1,0,0:0:0:0:
320,192,30762,128,0,30961:0:0:0:0:
64,192,30762,1,0,0:0:0:0:
64,192,30861,1,0,0:0:0:0:
192,192,30961,128,0,31160:0:0:0:0:
448,192,30961,1,0,0:0:0:0:
448,192,31061,1,0,0:0:0:0:
64,192,31160,128,0,31360:0:0:0:0:
320,192,31160,1,0,0:0:0:0:
448,192,31260,1,0,0:0:0:0:
320,192,31360,128,0,31559:0:0:0:0:
192,192,31360,1,0,0:0:0:0:
448,192,31459,1,0,0:0:0:0:
64,192,31559,128,0,31758:0:0:0:0:
192,192,31559,1,0,0:0:0:0:
320,192,31659,1,0,0:0:0:0:
448,192,31758,128,0,31958:0:0:0:0:
192,192,31758,1,0,0:0:0:0:
320,192,31858,1,0,0:0:0:0:
192,192,31958,128,0,32157:0:0:0:0:
64,192,31958,1,0,0:0:0:0:
320,192,32157,1,0,0:0:0:0:
448,192,32157,128,0,32356:0:0:0:0:
64,192,32356,128,0,32556:0:0:0:0:
320,192,32356,1,0,0:0:0:0:
320,192,32456,1,0,0:0:0:0:
192,192,32556,128,0,32755:0:0:0:0:
448,192,32556,1,0,0:0:0:0:
448,192,32655,1,0,0:0:0:0:
64,192,32755,128,0,32954:0:0:0:0:
320,192,32755,1,0,0:0:0:0:
192,192,32855,1,0,0:0:0:0:
320,192,32954,128,0,33154:0:0:0:0:
448,192,32954,1,0,0:0:0:0:
192,192,33054,1,0,0:0:0:0:
64,192,33154,128,0,33353:0:0:0:0:
448,192,33154,1,0,0:0:0:0:
192,192,33253,1,0,0:0:0:0:
448,192,33353,128,0,33552:0:0:0:0:
320,192,33353,1,0,0:0:0:0:
64,192,33453,1,0,0:0:0:0:
192,192,33552,128,0,33752:0:0:0:0:
320,192,33552,1,0,0:0:0:0:
448,192,33752,128,0,33951:0:0:0:0:
64,192,33752,1,0,0:0:0:0:
64,192,33951,128,0,34150:0:0:0:0:
320,192,33951,1,0,0:0:0:0:
320,192,34051,1,0,0:0:0:0:
192,192,34150,128,0,34350:0:0:0:0:
448,192,34150,1,0,0:0:0:0:
448,192,34250,1,0,0:0:0:0:
64,192,34350,128,0,34549:0:0:0:0:
320,192,34350,1,0,0:0:0:0:
448,192,34449,1,0,0:0:0:0:
320,192,34549,128,0,34748:0:0:0:0:
192,192,34549,1,0,0:0:0:0:
448,192,34649,1,0,0:0:0:0:
64,192,34748,128,0,34948:0:0:0:0:
192,192,34748,1,0,0:0:0:0:
320,192,34848,1,0,0:0:0:0:
448,192,34948,128,0,35147:0:0:0:0:
192,192,34948,1,0,0:0:0:0:
320,192,35048,1,0,0:0:0:0:
192,192,35147,128,0,35347:0:0:0:0:
64,192,35147,1,0,0:0:0:0:
320,192,35347,128,0,35546:0:0:0:0:
448,192,35347,1,0,0:0:0:0:
448,192,35546,128,0,35745:0:0:0:0:
64,192,35546,1,0,0:0:0:0:
64,192,35646,1,0,0:0:0:0:
192,192,35745,128,0,35945:0:0:0:0:
320,192,35745,1,0,0:0:0:0:
320,192,35845,1,0,0:0:0:0:
64,192,35945,128,0,36144:0:0:0:0:
448,192,35945,1,0,0:0:0:0:
192,192,36044,1,0,0:0:0:0:
320,192,36144,128,0,36343:0:0:0:0:
448,192,36144,1,0,0:0:0:0:
192,192,36244,1,0,0:0:0:0:
64,192,36343,128,0,36543:0:0:0:0:
448,192,36343,1,0,0:0:0:0:
320,192,36443,1,0,0:0:0:0:
192,192,36543,128,0,36742:0:0:0:0:
448,192,36543,1,0,0:0:0:0:
64,192,36642,1,0,0:0:0:0:
320,192,36742,128,0,36941:0:0:0:0:
448,192,36742,1,0,0:0:0:0:
192,192,36941,128,0,37141:0:0:0:0:
448,192,36941,1,0,0:0:0:0:
448,192,37141,128,0,37340:0:0:0:0:
64,192,37141,1,0,0:0:0:0:
64,192,37240,1,0,0:0:0:0:
192,192,37340,128,0,37539:0:0:0:0:
320,192,37340,1,0,0:0:0:0:
320,192,37440,1,0,0:0:0:0:
64,192,37539,128,0,37739:0:0:0:0:
448,192,37539,1,0,0:0:0:0:
192,192,37639,1,0,0:0:0:0:
320,192,37739,128,0,37938:0:0:0:0:
448,192,37739,1,0,0:0:0:0:
192,192,37838,1,0,0:0:0:0:
448,192,37938,128,0,38137:0:0:0:0:
64,192,37938,1,0,0:0:0:0:
320,192,38038,1,0,0:0:0:0:
64,192,38137,128,0,38337:0:0:0:0:
192,192,38137,1,0,0:0:0:0:
320,192,38237,1,0,0:0:0:0:
192,192,38337,128,0,38536:0:0:0:0:
448,192,38337,1,0,0:0:0:0:
448,192,38536,128,0,38735:0:0:0:0:
320,192,38536,1,0,0:0:0:0:
320,192,38735,1,0,0:0:0:0:
64,192,38735,1,0,0:0:0:0:
192,192,38785,1,0,0:0:0:0:
448,192,38835,1,0,0:0:0:0:
320,192,38885,1,0,0:0:0:0:
192,192,38935,1,0,0:0:0:0:
64,192,38935,1,0,0:0:0:0:
448,192,38985,1,0,0:0:0:0:
320,192,39034,1,0,0:0:0:0:
64,192,39084,1,0,0:0:0:0:
192,192,39134,1,0,0:0:0:0:
448,192,39134,1,0,0:0:0:0:
320,192,39184,1,0,0:0:0:0:
64,192,39234,1,0,0:0:0:0:
192,192,39284,1,0,0:0:0:0:
448,192,39334,1,0,0:0:0:0:
320,192,39383,1,0,0:0:0:0:
192,192,39433,1,0,0:0:0:0:
64,192,39433,1,0,0:0:0:0:
448,192,39483,1,0,0:0:0:0:
320,192,39533,1,0,0:0:0:0:
64,192,39583,1,0,0:0:0:0:
192,192,39633,1,0,0:0:0:0:
448,192,39633,1,0,0:0:0:0:
320,192,39682,1,0,0:0:0:0:
64,192,39732,1,0,0:0:0:0:
192,192,39732,1,0,0:0:0:0:
448,192,39782,1,0,0:0:0:0:
320,192,39832,1,0,0:0:0:0:
64,192,39882,1,0,0:0:0:0:
192,192,39932,1,0,0:0:0:0:
448,192,39932,1,0,0:0:0:0:
320,192,39981,1,0,0:0:0:0:
64,192,40031,1,0,0:0:0:0:
192,192,40081,1,0,0:0:0:0:
448,192,40131,1,0,0:0:0:0:
320,192,40131,1,0,0:0:0:0:
192,192,40181,1,0,0:0:0:0:
64,192,40231,1,0,0:0:0:0:
448,192,40280,1,0,0:0:0:0:
320,192,40330,1,0,0:0:0:0:
192,192,40330,1,0,0:0:0:0:
64,192,40380,1,0,0:0:0:0:
448,192,40430,1,0,0:0:0:0:
192,192,40480,1,0,0:0:0:0:
320,192,40530,1,0,0:0:0:0:
448,192,40530,1,0,0:0:0:0:
64,192,40579,1,0,0:0:0:0:
192,192,40629,1,0,0:0:0:0:
320,192,40679,1,0,0:0:0:0:
448,192,40729,1,0,0:0:0:0:
64,192,40729,1,0,0:0:0:0:
192,192,40779,1,0,0:0:0:0:
320,192,40829,1,0,0:0:0:0:
448,192,40878,1,0,0:0:0:0:
192,192,40928,1,0,0:0:0:0:
64,192,40978,1,0,0:0:0:0:
320,192,41028,1,0,0:0:0:0:
448,192,41028,1,0,0:0:0:0:
192,192,41078,1,0,0:0:0:0:
64,192,41128,1,0,0:0:0:0:
320,192,41177,1,0,0:0:0:0:
192,192,41227,1,0,0:0:0:0:
448,192,41227,1,0,0:0:0:0:
64,192,41277,1,0,0:0:0:0:
320,192,41327,1,0,0:0:0:0:
448,192,41327,1,0,0:0:0:0:
192,192,41377,1,0,0:0:0:0:
320,192,41427,1,0,0:0:0:0:
64,192,41477,1,0,0:0:0:0:
192,192,41526,1,0,0:0:0:0:
448,192,41526,1,0,0:0:0:0:
320,192,41576,1,0,0:0:0:0:
64,192,41626,1,0,0:0:0:0:
192,192,41676,1,0,0:0:0:0:
448,192,41726,1,0,0:0:0:0:
320,192,41726,1,0,0:0:0:0:
192,192,41776,1,0,0:0:0:0:
64,192,41825,1,0,0:0:0:0:
320,192,41875,1,0,0:0:0:0:
192,192,41925,1,0,0:0:0:0:
448,192,41925,1,0,0:0:0:0:
64,192,41975,1,0,0:0:0:0:
320,192,42025,1,0,0:0:0:0:
192,192,42075,1,0,0:0:0:0:
320,192,42124,1,0,0:0:0:0:
448,192,42124,1,0,0:0:0:0:
64,192,42174,1,0,0:0:0:0:
192,192,42224,1,0,0:0:0:0:
320,192,42274,1,0,0:0:0:0:
448,192,42324,1,0,0:0:0:0:
64,192,42324,1,0,0:0:0:0:
192,192,42374,1,0,0:0:0:0:
320,192,42423,1,0,0:0:0:0:
64,192,42473,1,0,0:0:0:0:
192,192,42523,1,0,0:0:0:0:
448,192,42573,1,0,0:0:0:0:
320,192,42623,1,0,0:0:0:0:
64,192,42623,1,0,0:0:0:0:
192,192,42673,1,0,0:0:0:0:
448,192,42722,1,0,0:0:0:0:
320,192,42772,1,0,0:0:0:0:
192,192,42822,1,0,0:0:0:0:
64,192,42822,1,0,0:0:0:0:
448,192,42872,1,0,0:0:0:0:
64,192,42922,1,0,0:0:0:0:
320,192,42922,1,0,0:0:0:0:
192,192,42972,1,0,0:0:0:0:
448,192,43021,1,0,0:0:0:0:
64,192,43071,1,0,0:0:0:0:
320,192,43121,1,0,0:0:0:0:
448,192,43121,1,0,0:0:0:0:
192,192,43171,1,0,0:0:0:0:
64,192,43221,1,0,0:0:0:0:
320,192,43271,1,0,0:0:0:0:
192,192,43320,1,0,0:0:0:0:
448,192,43320,1,0,0:0:0:0:
64,192,43370,1,0,0:0:0:0:
320,192,43420,1,0,0:0:0:0:
448,192,43470,1,0,0:0:0:0:
192,192,43520,1,0,0:0:0:0:
64,192,43520,1,0,0:0:0:0:
320,192,43570,1,0,0:0:0:0:
448,192,43620,1,0,0:0:0:0:
192,192,43669,1,0,0:0:0:0:
64,192,43719,1,0,0:0:0:0:
320,192,43719,1,0,0:0:0:0:
448,192,43769,1,0,0:0:0:0:
192,192,43819,1,0,0:0:0:0:
320,192,43869,1,0,0:0:0:0:
192,192,43919,1,0,0:0:0:0:
64,192,43919,1,0,0:0:0:0:
448,192,43968,1,0,0:0:0:0:
320,192,44018,1,0,0:0:0:0:
64,192,44068,1,0,0:0:0:0:
448,192,44118,1,0,0:0:0:0:
192,192,44168,1,0,0:0:0:0:
320,192,44218,1,0,0:0:0:0:
64,192,44218,1,0,0:0:0:0:
448,192,44267,1,0,0:0:0:0:
192,192,44317,1,0,0:0:0:0:
320,192,44367,1,0,0:0:0:0:
64,192,44417,1,0,0:0:0:0:
192,192,44417,1,0,0:0:0:0:
448,192,44467,1,0,0:0:0:0:
320,192,44517,1,0,0:0:0:0:
64,192,44517,1,0,0:0:0:0:
192,192,44566,1,0,0:0:0:0:
448,192,44616,1,0,0:0:0:0:
320,192,44666,1,0,0:0:0:0:
192,192,44716,1,0,0:0:0:0:
64,192,44716,1,0,0:0:0:0:
448,192,44766,1,0,0:0:0:0:
320,192,44816,1,0,0:0:0:0:
192,192,44865,1,0,0:0:0:0:
320,192,44915,1,0,0:0:0:0:
448,192,44915,1,0,0:0:0:0:
64,192,44965,1,0,0:0:0:0:
192,192,45015,1,0,0:0:0:0:
448,192,45065,1,0,0:0:0:0:
64,192,45115,1,0,0:0:0:0:
320,192,45115,1,0,0:0:0:0:
192,192,45164,1,0,0:0:0:0:
448,192,45214,1,0,0:0:0:0:
320,192,45264,1,0,0:0:0:0:
64,192,45314,1,0,0:0:0:0:
192,192,45314,1,0,0:0:0:0:
448,192,45364,1,0,0:0:0:0:
320,192,45414,1,0,0:0:0:0:
64,192,45463,1,0,0:0:0:0:
448,192,45513,1,0,0:0:0:0:
192,192,45513,1,0,0:0:0:0:
320,192,45563,1,0,0:0:0:0:
64,192,45613,1,0,0:0:0:0:
192,192,45663,1,0,0:0:0:0:
448,192,45713,1,0,0:0:0:0:
320,192,45763,1,0,0:0:0:0:
64,192,45812,1,0,0:0:0:0:
192,192,45812,1,0,0:0:0:0:
448,192,45862,1,0,0:0:0:0:
320,192,45912,1,0,0:0:0:0:
64,192,45962,1,0,0:0:0:0:
448,192,46012,1,0,0:0:0:0:
192,192,46012,1,0,0:0:0:0:
320,192,46062,1,0,0:0:0:0:
192,192,46111,1,0,0:0:0:0:
64,192,46111,1,0,0:0:0:0:
448,192,46161,1,0,0:0:0:0:
320,192,46211,1,0,0:0:0:0:
64,192,46261,1,0,0:0:0:0:
448,192,46311,1,0,0:0:0:0:
192,192,46311,1,0,0:0:0:0:
320,192,46361,1,0,0:0:0:0:
64,192,46410,1,0,0:0:0:0:
192,192,46460,1,0,0:0:0:0:
320,192,46510,1,0,0:0:0:0:
448,192,46510,1,0,0:0:0:0:
192,192,46560,1,0,0:0:0:0:
64,192,46610,1,0,0:0:0:0:
448,192,46660,1,0,0:0:0:0:
192,192,46709,1,0,0:0:0:0:
320,192,46709,1,0,0:0:0:0:
64,192,46759,1,0,0:0:0:0:
448,192,46809,1,0,0:0:0:0:
192,192,46859,1,0,0:0:0:0:
448,192,46909,1,0,0:0:0:0:
320,192,46909,1,0,0:0:0:0:
64,192,46959,1,0,0:0:0:0:
192,192,47008,1,0,0:0:0:0:
320,192,47058,1,0,0:0:0:0:
64,192,47108,1,0,0:0:0:0:
448,192,47108,1,0,0:0:0:0:
192,192,47158,1,0,0:0:0:0:
320,192,47208,1,0,0:0:0:0:
448,192,47258,1,0,0:0:0:0:
192,192,47307,1,0,0:0:0:0:
64,192,47357,1,0,0:0:0:0:
448,192,47407,1,0,0:0:0:0:
320,192,47407,1,0,0:0:0:0:
192,192,47457,1,0,0:0:0:0:
64,192,47507,1,0,0:0:0:0:
320,192,47557,1,0,0:0:0:0:
448,192,47606,1,0,0:0:0:0:
192,192,47606,1,0,0:0:0:0:
64,192,47656,1,0,0:0:0:0:
448,192,47706,1,0,0:0:0:0:
320,192,47706,1,0,0:0:0:0:
192,192,47756,1,0,0:0:0:0:
320,192,47806,1,0,0:0:0:0:
64,192,47856,1,0,0:0:0:0:
448,192,47906,1,0,0:0:0:0:
192,192,47906,1,0,0:0:0:0:
320,192,47955,1,0,0:0:0:0:
64,192,48005,1,0,0:0:0:0:
192,192,48055,1,0,0:0:0:0:
320,192,48105,1,0,0:0:0:0:
448,192,48105,1,0,0:0:0:0:
192,192,48155,1,0,0:0:0:0:
64,192,48205,1,0,0:0:0:0:
320,192,48254,1,0,0:0:0:0:
448,192,48304,1,0,0:0:0:0:
192,192,48304,1,0,0:0:0:0:
64,192,48354,1,0,0:0:0:0:
320,192,48404,1,0,0:0:0:0:
192,192,48454,1,0,0:0:0:0:
448,192,48504,1,0,0:0:0:0:
320,192,48504,1,0,0:0:0:0:
64,192,48553,1,0,0:0:0:0:
192,192,48603,1,0,0:0:0:0:
320,192,48653,1,0,0:0:0:0:
64,192,48703,1,0,0:0:0:0:
448,192,48703,1,0,0:0:0:0:
192,192,48753,1,0,0:0:0:0:
320,192,48803,1,0,0:0:0:0:
64,192,48852,1,0,0:0:0:0:
192,192,48902,1,0,0:0:0:0:
448,192,48952,1,0,0:0:0:0:
64,192,49002,1,0,0:0:0:0:
320,192,49002,1,0,0:0:0:0:
192,192,49052,1,0,0:0:0:0:
448,192,49102,1,0,0:0:0:0:
320,192,49151,1,0,0:0:0:0:
64,192,49201,1,0,0:0:0:0:
192,192,49201,1,0,0:0:0:0:
448,192,49251,1,0,0:0:0:0:
320,192,49301,1,0,0:0:0:0:
64,192,49301,1,0,0:0:0:0:
192,192,49351,1,0,0:0:0:0:
448,192,49401,1,0,0:0:0:0:
64,192,49450,1,0,0:0:0:0:
448,192,49500,1,0,0:0:0:0:
320,192,49500,1,0,0:0:0:0:
192,192,49550,1,0,0:0:0:0:
64,192,49600,1,0,0:0:0:0:
320,192,49650,1,0,0:0:0:0:
448,192,49700,1,0,0:0:0:0:
192,192,49700,1,0,0:0:0:0:
64,192,49749,1,0,0:0:0:0:
320,192,49799,1,0,0:0:0:0:
448,192,49849,1,0,0:0:0:0:
64,192,49899,1,0,0:0:0:0:
192,192,49899,1,0,0:0:0:0:
320,192,49949,1,0,0:0:0:0:
448,192,49999,1,0,0:0:0:0:
192,192,50049,1,0,0:0:0:0:
320,192,50098,1,0,0:0:0:0:
64,192,50098,1,0,0:0:0:0:
448,192,50148,1,0,0:0:0:0:
192,192,50198,1,0,0:0:0:0:
320,192,50248,1,0,0:0:0:0:
64,192,50298,1,0,0:0:0:0:
192,192,50298,1,0,0:0:0:0:
448,192,50348,1,0,0:0:0:0:
320,192,50397,1,0,0:0:0:0:
64,192,50447,1,0,0:0:0:0:
448,192,50497,1,0,0:0:0:0:
192,192,50547,1,0,0:0:0:0:
64,192,50597,1,0,0:0:0:0:
320,192,50597,1,0,0:0:0:0:
448,192,50647,1,0,0:0:0:0:
192,192,50696,1,0,0:0:0:0:
320,192,50746,1,0,0:0:0:0:
192,192,50796,1,0,0:0:0:0:
64,192,50796,1,0,0:0:0:0:
448,192,50846,1,0,0:0:0:0:
64,192,50896,1,0,0:0:0:0:
320,192,50896,1,0,0:0:0:0:
192,192,50946,1,0,0:0:0:0:
448,192,50995,1,0,0:0:0:0:
320,192,51045,1,0,0:0:0:0:
64,192,51095,1,0,0:0:0:0:
192,192,51095,1,0,0:0:0:0:
448,192,51145,1,0,0:0:0:0:
320,192,51195,1,0,0:0:0:0:
192,192,51245,1,0,0:0:0:0:
448,192,51294,1,0,0:0:0:0:
320,192,51294,1,0,0:0:0:0:
64,192,51344,1,0,0:0:0:0:
192,192,51394,1,0,0:0:0:0:
448,192,51444,1,0,0:0:0:0:
320,192,51494,5,0,0:0:0:0:
320,192,51693,1,0,0:0:0:0:
192,192,51892,128,0,51942:0:0:0:0:
192,192,51992,1,0,0:0:0:0:
192,192,52192,1,0,0:0:0:0:
64,192,52391,1,0,0:0:0:0:
64,192,52491,1,0,0:0:0:0:
64,192,52690,128,0,52740:0:0:0:0:
192,192,52889,1,0,0:0:0:0:
320,192,53089,1,0,0:0:0:0:
320,192,53288,1,0,0:0:0:0:
192,192,53487,128,0,53537:0:0:0:0:
192,192,53587,1,0,0:0:0:0:
192,192,53786,1,0,0:0:0:0:
64,192,53986,1,0,0:0:0:0:
64,192,54085,1,0,0:0:0:0:
64,192,54285,128,0,54335:0:0:0:0:
192,192,54484,1,0,0:0:0:0:
448,192,54683,1,0,0:0:0:0:
448,192,54883,1,0,0:0:0:0:
320,192,55082,128,0,55132:0:0:0:0:
320,192,55182,1,0,0:0:0:0:
320,192,55381,1,0,0:0:0:0:
192,192,55580,1,0,0:0:0:0:
192,192,55680,1,0,0:0:0:0:
192,192,55879,128,0,55929:0:0:0:0:
320,192,56079,1,0,0:0:0:0:
448,192,56278,1,0,0:0:0:0:
448,192,56478,1,0,0:0:0:0:
320,192,56677,128,0,56727:0:0:0:0:
320,192,56777,1,0,0:0:0:0:
320,192,56976,1,0,0:0:0:0:
192,192,57175,1,0,0:0:0:0:
192,192,57275,1,0,0:0:0:0:
192,192,57474,128,0,57524:0:0:0:0:
320,192,57674,1,0,0:0:0:0:
320,192,57873,1,0,0:0:0:0:
320,192,58072,1,0,0:0:0:0:
192,192,58272,128,0,58321:0:0:0:0:
192,192,58371,1,0,0:0:0:0:
192,192,58571,1,0,0:0:0:0:
64,192,58770,1,0,0:0:0:0:
64,192,58870,1,0,0:0:0:0:
64,192,59069,128,0,59119:0:0:0:0:
192,192,59268,1,0,0:0:0:0:
320,192,59468,1,0,0:0:0:0:
320,192,59667,1,0,0:0:0:0:
192,192,59866,128,0,59916:0:0:0:0:
192,192,59966,1,0,0:0:0:0:
192,192,60165,1,0,0:0:0:0:
64,192,60365,1,0,0:0:0:0:
64,192,60464,1,0,0:0:0:0:
64,192,60664,128,0,60714:0:0:0:0:
192,192,60863,1,0,0:0:0:0:
448,192,61063,1,0,0:0:0:0:
448,192,61262,1,0,0:0:0:0:
320,192,61461,128,0,61511:0:0:0:0:
320,192,61561,1,0,0:0:0:0:
320,192,61760,1,0,0:0:0:0:
192,192,61960,1,0,0:0:0:0:
192,192,62059,1,0,0:0:0:0:
192,192,62259,128,0,62308:0:0:0:0:
320,192,62458,1,0,0:0:0:0:
448,192,62657,1,0,0:0:0:0:
448,192,62857,1,0,0:0:0:0:
320,192,63056,128,0,63106:0:0:0:0:
320,192,63156,1,0,0:0:0:0:
320,192,63355,1,0,0:0:0:0:
192,192,63554,1,0,0:0:0:0:
192,192,63654,1,0,0:0:0:0:
192,192,63853,128,0,63903:0:0:0:0:
320,192,64053,1,0,0:0:0:0:
64,192,64252,5,0,0:0:0:0:
320,192,64252,1,0,0:0:0:0:
448,192,64252,1,0,0:0:0:0:
320,192,64352,1,0,0:0:0:0:
192,192,64451,1,0,0:0:0:0:
64,192,64451,1,0,0:0:0:0:
64,192,64551,1,0,0:0:0:0:
320,192,64651,1,0,0:0:0:0:
448,192,64651,1,0,0:0:0:0:
448,192,64750,1,0,0:0:0:0:
192,192,64750,1,0,0:0:0:0:
192,192,64850,1,0,0:0:0:0:
320,192,64950,1,0,0:0:0:0:
448,192,64950,1,0,0:0:0:0:
320,192,65050,1,0,0:0:0:0:
64,192,65050,1,0,0:0:0:0:
64,192,65149,1,0,0:0:0:0:
192,192,65149,1,0,0:0:0:0:
192,192,65249,1,0,0:0:0:0:
320,192,65249,1,0,0:0:0:0:
320,192,65349,1,0,0:0:0:0:
448,192,65349,1,0,0:0:0:0:
448,192,65448,1,0,0:0:0:0:
64,192,65448,1,0,0:0:0:0:
64,192,65548,1,0,0:0:0:0:
320,192,65648,1,0,0:0:0:0:
448,192,65648,1,0,0:0:0:0:
320,192,65747,1,0,0:0:0:0:
448,192,65847,1,0,0:0:0:0:
192,192,65847,1,0,0:0:0:0:
64,192,65847,1,0,0:0:0:0:
192,192,65947,1,0,0:0:0:0:
320,192,66046,1,0,0:0:0:0:
448,192,66046,1,0,0:0:0:0:
448,192,66146,1,0,0:0:0:0:
192,192,66246,1,0,0:0:0:0:
64,192,66246,1,0,0:0:0:0:
64,192,66345,1,0,0:0:0:0:
320,192,66345,1,0,0:0:0:0:
320,192,66445,1,0,0:0:0:0:
192,192,66545,1,0,0:0:0:0:
64,192,66545,1,0,0:0:0:0:
192,192,66644,1,0,0:0:0:0:
448,192,66644,1,0,0:0:0:0:
448,192,66744,1,0,0:0:0:0:
320,192,66744,1,0,0:0:0:0:
320,192,66844,1,0,0:0:0:0:
192,192,66844,1,0,0:0:0:0:
192,192,66943,1,0,0:0:0:0:
64,192,66943,1,0,0:0:0:0:
64,192,67043,1,0,0:0:0:0:
448,192,67043,1,0,0:0:0:0:
448,192,67143,1,0,0:0:0:0:
192,192,67242,1,0,0:0:0:0:
64,192,67242,1,0,0:0:0:0:
192,192,67342,1,0,0:0:0:0:
64,192,67442,1,0,0:0:0:0:
320,192,67442,1,0,0:0:0:0:
448,192,67442,1,0,0:0:0:0:
320,192,67541,1,0,0:0:0:0:
192,192,67641,1,0,0:0:0:0:
64,192,67641,1,0,0:0:0:0:
64,192,67741,1,0,0:0:0:0:
320,192,67840,1,0,0:0:0:0:
448,192,67840,1,0,0:0:0:0:
448,192,67940,1,0,0:0:0:0:
192,192,67940,1,0,0:0:0:0:
192,192,68040,1,0,0:0:0:0:
320,192,68139,1,0,0:0:0:0:
448,192,68139,1,0,0:0:0:0:
320,192,68239,1,0,0:0:0:0:
64,192,68239,1,0,0:0:0:0:
64,192,68339,1,0,0:0:0:0:
192,192,68339,1,0,0:0:0:0:
192,192,68438,1,0,0:0:0:0:
320,192,68438,1,0,0:0:0:0:
320,192,68538,1,0,0:0:0:0:
448,192,68538,1,0,0:0:0:0:
448,192,68638,1,0,0:0:0:0:
64,192,68638,1,0,0:0:0:0:
64,192,68737,1,0,0:0:0:0:
320,192,68837,1,0,0:0:0:0:
448,192,68837,1,0,0:0:0:0:
320,192,68937,1,0,0:0:0:0:
448,192,69036,1,0,0:0:0:0:
192,192,69036,1,0,0:0:0:0:
64,192,69036,1,0,0:0:0:0:
192,192,69136,1,0,0:0:0:0:
320,192,69236,1,0,0:0:0:0:
448,192,69236,1,0,0:0:0:0:
448,192,69336,1,0,0:0:0:0:
192,192,69435,1,0,0:0:0:0:
64,192,69435,1,0,0:0:0:0:
64,192,69535,1,0,0:0:0:0:
320,192,69535,1,0,0:0:0:0:
320,192,69635,1,0,0:0:0:0:
192,192,69734,1,0,0:0:0:0:
64,192,69734,1,0,0:0:0:0:
192,192,69834,1,0,0:0:0:0:
448,192,69834,1,0,0:0:0:0:
448,192,69934,1,0,0:0:0:0:
320,192,69934,1,0,0:0:0:0:
320,192,70033,1,0,0:0:0:0:
192,192,70033,1,0,0:0:0:0:
192,192,70133,1,0,0:0:0:0:
64,192,70133,1,0,0:0:0:0:
64,192,70233,1,0,0:0:0:0:
448,192,70233,1,0,0:0:0:0:
448,192,70332,1,0,0:0:0:0:
192,192,70432,1,0,0:0:0:0:
64,192,70432,1,0,0:0:0:0:
192,192,70532,1,0,0:0:0:0:
64,192,70631,1,0,0:0:0:0:
320,192,70631,1,0,0:0:0:0:
448,192,70631,1,0,0:0:0:0:
320,192,70731,1,0,0:0:0:0:
192,192,70831,1,0,0:0:0:0:
64,192,70831,1,0,0:0:0:0:
64,192,70930,1,0,0:0:0:0:
320,192,71030,1,0,0:0:0:0:
448,192,71030,1,0,0:0:0:0:
448,192,71130,1,0,0:0:0:0:
192,192,71130,1,0,0:0:0:0:
192,192,71229,1,0,0:0:0:0:
320,192,71329,1,0,0:0:0:0:
448,192,71329,1,0,0:0:0:0:
320,192,71429,1,0,0:0:0:0:
64,192,71429,1,0,0:0:0:0:
64,192,71528,1,0,0:0:0:0:
192,192,71528,1,0,0:0:0:0:
192,192,71628,1,0,0:0:0:0:
320,192,71628,1,0,0:0:0:0:
320,192,71728,1,0,0:0:0:0:
448,192,71728,1,0,0:0:0:0:
448,192,71827,1,0,0:0:0:0:
64,192,71827,1,0,0:0:0:0:
64,192,71927,1,0,0:0:0:0:
320,192,72027,1,0,0:0:0:0:
448,192,72027,1,0,0:0:0:0:
320,192,72126,1,0,0:0:0:0:
448,192,72226,1,0,0:0:0:0:
192,192,72226,1,0,0:0:0:0:
64,192,72226,1,0,0:0:0:0:
192,192,72326,1,0,0:0:0:0:
320,192,72425,1,0,0:0:0:0:
448,192,72425,1,0,0:0:0:0:
448,192,72525,1,0,0:0:0:0:
192,192,72625,1,0,0:0:0:0:
64,192,72625,1,0,0:0:0:0:
64,192,72724,1,0,0:0:0:0:
320,192,72724,1,0,0:0:0:0:
320,192,72824,1,0,0:0:0:0:
192,192,72924,1,0,0:0:0:0:
64,192,72924,1,0,0:0:0:0:
192,192,73023,1,0,0:0:0:0:
448,192,73023,1,0,0:0:0:0:
448,192,73123,1,0,0:0:0:0:
320,192,73123,1,0,0:0:0:0:
320,192,73223,1,0,0:0:0:0:
192,192,73223,1,0,0:0:0:0:
192,192,73322,1,0,0:0:0:0:
64,192,73322,1,0,0:0:0:0:
64,192,73422,1,0,0:0:0:0:
448,192,73422,1,0,0:0:0:0:
448,192,73522,1,0,0:0:0:0:
192,192,73622,1,0,0:0:0:0:
64,192,73622,1,0,0:0:0:0:
192,192,73721,1,0,0:0:0:0:
64,192,73821,1,0,0:0:0:0:
320,192,73821,1,0,0:0:0:0:
448,192,73821,1,0,0:0:0:0:
320,192,73921,1,0,0:0:0:0:
192,192,74020,1,0,0:0:0:0:
64,192,74020,1,0,0:0:0:0:
64,192,74120,1,0,0:0:0:0:
320,192,74220,1,0,0:0:0:0:
448,192,74220,1,0,0:0:0:0:
448,192,74319,1,0,0:0:0:0:
192,192,74319,1,0,0:0:0:0:
192,192,74419,1,0,0:0:0:0:
320,192,74519,1,0,0:0:0:0:
448,192,74519,1,0,0:0:0:0:
320,192,74618,1,0,0:0:0:0:
64,192,74618,1,0,0:0:0:0:
64,192,74718,1,0,0:0:0:0:
192,192,74718,1,0,0:0:0:0:
192,192,74818,1,0,0:0:0:0:
320,192,74818,1,0,0:0:0:0:
320,192,74917,1,0,0:0:0:0:
448,192,74917,1,0,0:0:0:0:
448,192,75017,1,0,0:0:0:0:
64,192,75017,1,0,0:0:0:0:
64,192,75117,1,0,0:0:0:0:
320,192,75216,1,0,0:0:0:0:
448,192,75216,1,0,0:0:0:0:
320,192,75316,1,0,0:0:0:0:
448,192,75416,1,0,0:0:0:0:
192,192,75416,1,0,0:0:0:0:
64,192,75416,1,0,0:0:0:0:
192,192,75515,1,0,0:0:0:0:
320,192,75615,1,0,0:0:0:0:
448,192,75615,1,0,0:0:0:0:
448,192,75715,1,0,0:0:0:0:
192,192,75814,1,0,0:0:0:0:
64,192,75814,1,0,0:0:0:0:
64,192,75914,1,0,0:0:0:0:
320,192,75914,1,0,0:0:0:0:
320,192,76014,1,0,0:0:0:0:
192,192,76113,1,0,0:0:0:0:
64,192,76113,1,0,0:0:0:0:
192,192,76213,1,0,0:0:0:0:
448,192,76213,1,0,0:0:0:0:
448,192,76313,1,0,0:0:0:0:
320,192,76313,1,0,0:0:0:0:
320,192,76412,1,0,0:0:0:0:
192,192,76412,1,0,0:0:0:0:
192,192,76512,1,0,0:0:0:0:
64,192,76512,1,0,0:0:0:0:
64,192,76612,1,0,0:0:0:0:
448,192,76612,1,0,0:0:0:0:
448,192,76711,1,0,0:0:0:0:
192,192,76811,1,0,0:0:0:0:
64,192,76811,1,0,0:0:0:0:
192,192,76911,1,0,0:0:0:0:
448,192,77010,5,0,0:0:0:0:
64,192,77110,1,0,0:0:0:0:
192,192,77160,1,0,0:0:0:0:
320,192,77210,1,0,0:0:0:0:
64,192,77260,1,0,0:0:0:0:
192,192,77309,1,0,0:0:0:0:
448,192,77359,1,0,0:0:0:0:
64,192,77409,1,0,0:0:0:0:
320,192,77459,1,0,0:0:0:0:
448,192,77509,1,0,0:0:0:0:
192,192,77559,1,0,0:0:0:0:
320,192,77608,1,0,0:0:0:0:
448,192,77658,1,0,0:0:0:0:
64,192,77708,1,0,0:0:0:0:
192,192,77758,1,0,0:0:0:0:
448,192,77808,1,0,0:0:0:0:
64,192,77858,1,0,0:0:0:0:
320,192,77908,1,0,0:0:0:0:
192,192,77957,1,0,0:0:0:0:
448,192,78007,1,0,0:0:0:0:
320,192,78057,1,0,0:0:0:0:
192,192,78107,1,0,0:0:0:0:
64,192,78157,1,0,0:0:0:0:
448,192,78207,1,0,0:0:0:0:
320,192,78256,1,0,0:0:0:0:
192,192,78306,1,0,0:0:0:0:
448,192,78356,1,0,0:0:0:0:
320,192,78406,1,0,0:0:0:0:
64,192,78456,1,0,0:0:0:0:
448,192,78506,1,0,0:0:0:0:
192,192,78555,1,0,0:0:0:0:
64,192,78605,1,0,0:0:0:0:
320,192,78655,1,0,0:0:0:0:
192,192,78705,1,0,0:0:0:0:
448,192,78755,1,0,0:0:0:0:
64,192,78805,1,0,0:0:0:0:
320,192,78854,1,0,0:0:0:0:
448,192,78904,1,0,0:0:0:0:
64,192,78954,1,0,0:0:0:0:
192,192,79004,1,0,0:0:0:0:
320,192,79054,1,0,0:0:0:0:
448,192,79104,1,0,0:0:0:0:
64,192,79153,1,0,0:0:0:0:
192,192,79203,1,0,0:0:0:0:
448,192,79253,1,0,0:0:0:0:
64,192,79303,1,0,0:0:0:0:
320,192,79353,1,0,0:0:0:0:
448,192,79403,1,0,0:0:0:0:
192,192,79452,1,0,0:0:0:0:
320,192,79502,1,0,0:0:0:0:
448,192,79552,1,0,0:0:0:0:
192,192,79602,1,0,0:0:0:0:
64,192,79652,1,0,0:0:0:0:
320,192,79702,1,0,0:0:0:0:
192,192,79751,1,0,0:0:0:0:
64,192,79801,1,0,0:0:0:0:
448,192,79851,1,0,0:0:0:0:
320,192,79901,1,0,0:0:0:0:
64,192,79951,1,0,0:0:0:0:
448,192,80001,1,0,0:0:0:0:
192,192,80051,1,0,0:0:0:0:
320,192,80100,1,0,0:0:0:0:
64,192,80150,1,0,0:0:0:0:
448,192,80200,1,0,0:0:0:0:
192,192,80250,1,0,0:0:0:0:
64,192,80300,1,0,0:0:0:0:
320,192,80350,1,0,0:0:0:0:
192,192,80399,1,0,0:0:0:0:
448,192,80449,1,0,0:0:0:0:
320,192,80499,1,0,0:0:0:0:
64,192,80549,1,0,0:0:0:0:
192,192,80599,1,0,0:0:0:0:
448,192,80649,1,0,0:0:0:0:
64,192,80698,1,0,0:0:0:0:
320,192,80748,1,0,0:0:0:0:
448,192,80798,1,0,0:0:0:0:
192,192,80848,1,0,0:0:0:0:
320,192,80898,1,0,0:0:0:0:
64,192,80948,1,0,0:0:0:0:
192,192,80997,1,0,0:0:0:0:
448,192,81047,1,0,0:0:0:0:
64,192,81097,1,0,0:0:0:0:
320,192,81147,1,0,0:0:0:0:
192,192,81197,1,0,0:0:0:0:
448,192,81247,1,0,0:0:0:0:
320,192,81296,1,0,0:0:0:0:
64,192,81346,1,0,0:0:0:0:
192,192,81396,1,0,0:0:0:0:
448,192,81446,1,0,0:0:0:0:
64,192,81496,1,0,0:0:0:0:
320,192,81546,1,0,0:0:0:0:
448,192,81595,1,0,0:0:0:0:
64,192,81645,1,0,0:0:0:0:
192,192,81695,1,0,0:0:0:0:
320,192,81745,1,0,0:0:0:0:
64,192,81795,1,0,0:0:0:0:
448,192,81845,1,0,0:0:0:0:
192,192,81894,1,0,0:0:0:0:
320,192,81944,1,0,0:0:0:0:
448,192,81994,1,0,0:0:0:0:
64,192,82044,1,0,0:0:0:0:
192,192,82094,1,0,0:0:0:0:
320,192,82144,1,0,0:0:0:0:
64,192,82194,1,0,0:0:0:0:
448,192,82243,1,0,0:0:0:0:
192,192,82293,1,0,0:0:0:0:
320,192,82343,1,0,0:0:0:0:
448,192,82393,1,0,0:0:0:0:
64,192,82443,1,0,0:0:0:0:
320,192,82493,1,0,0:0:0:0:
192,192,82542,1,0,0:0:0:0:
448,192,82592,1,0,0:0:0:0:
64,192,82642,1,0,0:0:0:0:
320,192,82692,1,0,0:0:0:0:
192,192,82742,1,0,0:0:0:0:
448,192,82792,1,0,0:0:0:0:
64,192,82841,1,0,0:0:0:0:
320,192,82891,1,0,0:0:0:0:
448,192,82941,1,0,0:0:0:0:
192,192,82991,1,0,0:0:0:0:
64,192,83041,1,0,0:0:0:0:
320,192,83091,1,0,0:0:0:0:
192,192,83140,1,0,0:0:0:0:
448,192,83190,1,0,0:0:0:0:
320,192,83240,1,0,0:0:0:0:
192,192,83290,1,0,0:0:0:0:
448,192,83340,1,0,0:0:0:0:
320,192,83390,1,0,0:0:0:0:
64,192,83390,1,0,0:0:0:0:
192,192,83439,1,0,0:0:0:0:
448,192,83489,1,0,0:0:0:0:
320,192,83539,1,0,0:0:0:0:
192,192,83589,1,0,0:0:0:0:
64,192,83589,1,0,0:0:0:0:
448,192,83639,1,0,0:0:0:0:
320,192,83689,1,0,0:0:0:0:
64,192,83738,1,0,0:0:0:0:
192,192,83788,1,0,0:0:0:0:
448,192,83788,1,0,0:0:0:0:
320,192,83838,1,0,0:0:0:0:
64,192,83888,1,0,0:0:0:0:
192,192,83938,1,0,0:0:0:0:
448,192,83988,1,0,0:0:0:0:
320,192,84037,1,0,0:0:0:0:
192,192,84087,1,0,0:0:0:0:
64,192,84087,1,0,0:0:0:0:
448,192,84137,1,0,0:0:0:0:
320,192,84187,1,0,0:0:0:0:
64,192,84237,1,0,0:0:0:0:
192,192,84287,1,0,0:0:0:0:
448,192,84287,1,0,0:0:0:0:
320,192,84337,1,0,0:0:0:0:
64,192,84386,1,0,0:0:0:0:
192,192,84436,1,0,0:0:0:0:
320,192,84486,1,0,0:0:0:0:
448,192,84486,1,0,0:0:0:0:
64,192,84536,1,0,0:0:0:0:
192,192,84586,1,0,0:0:0:0:
448,192,84586,1,0,0:0:0:0:
320,192,84636,1,0,0:0:0:0:
64,192,84685,1,0,0:0:0:0:
192,192,84735,1,0,0:0:0:0:
448,192,84785,1,0,0:0:0:0:
320,192,84785,1,0,0:0:0:0:
192,192,84835,1,0,0:0:0:0:
64,192,84885,1,0,0:0:0:0:
448,192,84935,1,0,0:0:0:0:
320,192,84984,1,0,0:0:0:0:
192,192,84984,1,0,0:0:0:0:
64,192,85034,1,0,0:0:0:0:
448,192,85084,1,0,0:0:0:0:
192,192,85134,1,0,0:0:0:0:
320,192,85184,1,0,0:0:0:0:
448,192,85184,1,0,0:0:0:0:
64,192,85234,1,0,0:0:0:0:
192,192,85283,1,0,0:0:0:0:
320,192,85333,1,0,0:0:0:0:
448,192,85383,1,0,0:0:0:0:
64,192,85383,1,0,0:0:0:0:
192,192,85433,1,0,0:0:0:0:
320,192,85483,1,0,0:0:0:0:
448,192,85533,1,0,0:0:0:0:
192,192,85582,1,0,0:0:0:0:
64,192,85632,1,0,0:0:0:0:
320,192,85682,1,0,0:0:0:0:
448,192,85682,1,0,0:0:0:0:
192,192,85732,1,0,0:0:0:0:
64,192,85782,1,0,0:0:0:0:
320,192,85832,1,0,0:0:0:0:
192,192,85881,1,0,0:0:0:0:
448,192,85881,1,0,0:0:0:0:
64,192,85931,1,0,0:0:0:0:
320,192,85981,1,0,0:0:0:0:
192,192,86031,1,0,0:0:0:0:
320,192,86081,1,0,0:0:0:0:
448,192,86081,1,0,0:0:0:0:
64,192,86131,1,0,0:0:0:0:
192,192,86180,1,0,0:0:0:0:
448,192,86180,1,0,0:0:0:0:
320,192,86230,1,0,0:0:0:0:
64,192,86280,1,0,0:0:0:0:
192,192,86330,1,0,0:0:0:0:
448,192,86380,1,0,0:0:0:0:
320,192,86380,1,0,0:0:0:0:
192,192,86430,1,0,0:0:0:0:
64,192,86480,1,0,0:0:0:0:
320,192,86529,1,0,0:0:0:0:
192,192,86579,1,0,0:0:0:0:
448,192,86579,1,0,0:0:0:0:
64,192,86629,1,0,0:0:0:0:
320,192,86679,1,0,0:0:0:0:
192,192,86729,1,0,0:0:0:0:
320,192,86779,1,0,0:0:0:0:
448,192,86779,1,0,0:0:0:0:
64,192,86828,1,0,0:0:0:0:
192,192,86878,1,0,0:0:0:0:
320,192,86928,1,0,0:0:0:0:
448,192,86978,1,0,0:0:0:0:
64,192,86978,1,0,0:0:0:0:
192,192,87028,1,0,0:0:0:0:
320,192,87078,1,0,0:0:0:0:
64,192,87127,1,0,0:0:0:0:
192,192,87177,1,0,0:0:0:0:
448,192,87227,1,0,0:0:0:0:
320,192,87277,1,0,0:0:0:0:
64,192,87277,1,0,0:0:0:0:
192,192,87327,1,0,0:0:0:0:
448,192,87377,1,0,0:0:0:0:
320,192,87426,1,0,0:0:0:0:
192,192,87476,1,0,0:0:0:0:
64,192,87476,1,0,0:0:0:0:
448,192,87526,1,0,0:0:0:0:
64,192,87576,1,0,0:0:0:0:
320,192,87626,1,0,0:0:0:0:
192,192,87676,1,0,0:0:0:0:
448,192,87676,1,0,0:0:0:0:
64,192,87725,1,0,0:0:0:0:
320,192,87775,1,0,0:0:0:0:
448,192,87775,1,0,0:0:0:0:
192,192,87825,1,0,0:0:0:0:
64,192,87875,1,0,0:0:0:0:
320,192,87925,1,0,0:0:0:0:
192,192,87975,1,0,0:0:0:0:
448,192,87975,1,0,0:0:0:0:
64,192,88024,1,0,0:0:0:0:
320,192,88074,1,0,0:0:0:0:
448,192,88124,1,0,0:0:0:0:
192,192,88174,1,0,0:0:0:0:
64,192,88174,1,0,0:0:0:0:
320,192,88224,1,0,0:0:0:0:
448,192,88274,1,0,0:0:0:0:
192,192,88323,1,0,0:0:0:0:
64,192,88373,1,0,0:0:0:0:
320,192,88373,1,0,0:0:0:0:
448,192,88423,1,0,0:0:0:0:
192,192,88473,1,0,0:0:0:0:
320,192,88523,1,0,0:0:0:0:
192,192,88573,1,0,0:0:0:0:
64,192,88573,1,0,0:0:0:0:
448,192,88623,1,0,0:0:0:0:
320,192,88672,1,0,0:0:0:0:
64,192,88722,1,0,0:0:0:0:
448,192,88772,1,0,0:0:0:0:
192,192,88822,1,0,0:0:0:0:
320,192,88872,1,0,0:0:0:0:
64,192,88872,1,0,0:0:0:0:
448,192,88922,1,0,0:0:0:0:
192,192,88971,1,0,0:0:0:0:
320,192,89021,1,0,0:0:0:0:
64,192,89071,1,0,0:0:0:0:
192,192,89071,1,0,0:0:0:0:
448,192,89121,1,0,0:0:0:0:
320,192,89171,1,0,0:0:0:0:
192,192,89221,1,0,0:0:0:0:
448,192,89270,1,0,0:0:0:0:
64,192,89270,1,0,0:0:0:0:
320,192,89320,1,0,0:0:0:0:
192,192,89370,1,0,0:0:0:0:
64,192,89370,1,0,0:0:0:0:
448,192,89420,1,0,0:0:0:0:
320,192,89470,1,0,0:0:0:0:
192,192,89520,1,0,0:0:0:0:
320,192,89569,1,0,0:0:0:0:
448,192,89569,1,0,0:0:0:0:
64,192,89619,1,0,0:0:0:0:
192,192,89669,1,0,0:0:0:0:
448,192,89719,1,0,0:0:0:0:
320,192,89769,1,0,0:0:0:0:
64,192,89769,1,0,0:0:0:0:
192,192,89819,1,0,0:0:0:0:
448,192,89868,1,0,0:0:0:0:
320,192,89918,1,0,0:0:0:0:
64,192,89968,1,0,0:0:0:0:
192,192,90001,1,0,0:0:0:0:
320,192,90035,1,0,0:0:0:0:
448,192,90068,1,0,0:0:0:0:
64,192,90101,1,0,0:0:0:0:
192,192,90134,1,0,0:0:0:0:
448,192,90167,1,0,0:0:0:0:
64,192,90201,1,0,0:0:0:0:
320,192,90234,1,0,0:0:0:0:
448,192,90267,1,0,0:0:0:0:
192,192,90300,1,0,0:0:0:0:
64,192,90334,1,0,0:0:0:0:
320,192,90367,1,0,0:0:0:0:
448,192,90400,1,0,0:0:0:0:
192,192,90433,1,0,0:0:0:0:
64,192,90466,1,0,0:0:0:0:
320,192,90500,1,0,0:0:0:0:
192,192,90533,1,0,0:0:0:0:
448,192,90566,1,0,0:0:0:0:
320,192,90599,1,0,0:0:0:0:
64,192,90633,1,0,0:0:0:0:
192,192,90666,1,0,0:0:0:0:
320,192,90699,1,0,0:0:0:0:
448,192,90732,1,0,0:0:0:0:
64,192,90766,1,0,0:0:0:0:
320,192,90799,1,0,0:0:0:0:
448,192,90832,1,0,0:0:0:0:
64,192,90865,1,0,0:0:0:0:
192,192,90898,1,0,0:0:0:0:
320,192,90932,1,0,0:0:0:0:
64,192,90965,1,0,0:0:0:0:
448,192,90998,1,0,0:0:0:0:
320,192,91031,1,0,0:0:0:0:
192,192,91065,1,0,0:0:0:0:
448,192,91098,1,0,0:0:0:0:
320,192,91131,1,0,0:0:0:0:
64,192,91164,1,0,0:0:0:0:
448,192,91197,1,0,0:0:0:0:
192,192,91231,1,0,0:0:0:0:
320,192,91264,1,0,0:0:0:0:
448,192,91297,1,0,0:0:0:0:
64,192,91330,1,0,0:0:0:0:
320,192,91364,1,0,0:0:0:0:
192,192,91397,1,0,0:0:0:0:
64,192,91430,1,0,0:0:0:0:
448,192,91463,1,0,0:0:0:0:
320,192,91496,1,0,0:0:0:0:
192,192,91530,1,0,0:0:0:0:
448,192,91563,1,0,0:0:0:0:
64,192,91596,1,0,0:0:0:0:
192,192,91629,1,0,0:0:0:0:
320,192,91663,1,0,0:0:0:0:
448,192,91696,1,0,0:0:0:0:
64,192,91729,1,0,0:0:0:0:
192,192,91762,1,0,0:0:0:0:
320,192,91795,1,0,0:0:0:0:
64,192,91829,1,0,0:0:0:0:
448,192,91862,1,0,0:0:0:0:
192,192,91895,1,0,0:0:0:0:
64,192,91928,1,0,0:0:0:0:
320,192,91962,1,0,0:0:0:0:
448,192,91995,1,0,0:0:0:0:
192,192,92028,1,0,0:0:0:0:
64,192,92061,1,0,0:0:0:0:
320,192,92094,1,0,0:0:0:0:
448,192,92128,1,0,0:0:0:0:
192,192,92161,1,0,0:0:0:0:
320,192,92194,1,0,0:0:0:0:
448,192,92227,1,0,0:0:0:0:
64,192,92261,1,0,0:0:0:0:
192,192,92294,1,0,0:0:0:0:
320,192,92327,1,0,0:0:0:0:
64,192,92360,1,0,0:0:0:0:
448,192,92394,1,0,0:0:0:0:
192,192,92427,1,0,0:0:0:0:
320,192,92460,1,0,0:0:0:0:
448,192,92493,1,0,0:0:0:0:
64,192,92526,1,0,0:0:0:0:
320,192,92560,1,0,0:0:0:0:
192,192,92593,1,0,0:0:0:0:
64,192,92626,1,0,0:0:0:0:
448,192,92659,1,0,0:0:0:0:
320,192,92693,1,0,0:0:0:0:
192,192,92726,1,0,0:0:0:0:
64,192,92759,1,0,0:0:0:0:
448,192,92792,1,0,0:0:0:0:
320,192,92825,1,0,0:0:0:0:
192,192,92859,1,0,0:0:0:0:
448,192,92892,1,0,0:0:0:0:
64,192,92925,1,0,0:0:0:0:
320,192,92958,1,0,0:0:0:0:
448,192,92992,1,0,0:0:0:0:
192,192,93025,1,0,0:0:0:0:
320,192,93058,1,0,0:0:0:0:
64,192,93091,1,0,0:0:0:0:
448,192,93124,1,0,0:0:0:0:
192,192,93158,1,0,0:0:0:0:
320,192,93191,1,0,0:0:0:0:
448,192,93224,1,0,0:0:0:0:
64,192,93257,1,0,0:0:0:0:
320,192,93291,1,0,0:0:0:0:
192,192,93324,1,0,0:0:0:0:
64,192,93357,1,0,0:0:0:0:
448,192,93390,1,0,0:0:0:0:
320,192,93423,1,0,0:0:0:0:
192,192,93457,1,0,0:0:0:0:
448,192,93490,1,0,0:0:0:0:
64,192,93523,1,0,0:0:0:0:
320,192,93556,1,0,0:0:0:0:
448,192,93590,1,0,0:0:0:0:
64,192,93623,1,0,0:0:0:0:
192,192,93656,1,0,0:0:0:0:
320,192,93689,1,0,0:0:0:0:
64,192,93723,1,0,0:0:0:0:
448,192,93756,1,0,0:0:0:0:
192,192,93789,1,0,0:0:0:0:
320,192,93822,1,0,0:0:0:0:
448,192,93855,1,0,0:0:0:0:
192,192,93889,1,0,0:0:0:0:
64,192,93922,1,0,0:0:0:0:
320,192,93955,1,0,0:0:0:0:
192,192,93988,1,0,0:0:0:0:
448,192,94022,1,0,0:0:0:0:
320,192,94055,1,0,0:0:0:0:
64,192,94088,1,0,0:0:0:0:
448,192,94121,1,0,0:0:0:0:
192,192,94154,1,0,0:0:0:0:
320,192,94188,1,0,0:0:0:0:
448,192,94221,1,0,0:0:0:0:
64,192,94254,1,0,0:0:0:0:
320,192,94287,1,0,0:0:0:0:
192,192,94321,1,0,0:0:0:0:
64,192,94354,1,0,0:0:0:0:
448,192,94387,1,0,0:0:0:0:
320,192,94420,1,0,0:0:0:0:
192,192,94453,1,0,0:0:0:0:
448,192,94487,1,0,0:0:0:0:
320,192,94520,1,0,0:0:0:0:
64,192,94553,1,0,0:0:0:0:
192,192,94586,1,0,0:0:0:0:
448,192,94620,1,0,0:0:0:0:
64,192,94653,1,0,0:0:0:0:
320,192,94686,1,0,0:0:0:0:
448,192,94719,1,0,0:0:0:0:
192,192,94752,1,0,0:0:0:0:
64,192,94786,1,0,0:0:0:0:
320,192,94819,1,0,0:0:0:0:
192,192,94852,1,0,0:0:0:0:
448,192,94885,1,0,0:0:0:0:
320,192,94919,1,0,0:0:0:0:
64,192,94952,1,0,0:0:0:0:
192,192,94985,1,0,0:0:0:0:
320,192,95018,1,0,0:0:0:0:
448,192,95052,1,0,0:0:0:0:
64,192,95085,1,0,0:0:0:0:
320,192,95118,1,0,0:0:0:0:
192,192,95151,1,0,0:0:0:0:
448,192,95184,1,0,0:0:0:0:
64,192,95218,1,0,0:0:0:0:
320,192,95251,1,0,0:0:0:0:
448,192,95284,1,0,0:0:0:0:
192,192,95317,1,0,0:0:0:0:
64,192,95351,1,0,0:0:0:0:
320,192,95384,1,0,0:0:0:0:
192,192,95417,1,0,0:0:0:0:
448,192,95450,1,0,0:0:0:0:
320,192,95483,1,0,0:0:0:0:
64,192,95517,1,0,0:0:0:0:
192,192,95550,1,0,0:0:0:0:
448,192,95583,1,0,0:0:0:0:
64,192,95616,1,0,0:0:0:0:
320,192,95650,1,0,0:0:0:0:
192,192,95683,1,0,0:0:0:0:
64,192,95716,1,0,0:0:0:0:
448,192,95749,1,0,0:0:0:0:
320,192,95782,1,0,0:0:0:0:
192,192,95816,1,0,0:0:0:0:
448,192,95849,1,0,0:0:0:0:
64,192,95882,1,0,0:0:0:0:
320,192,95915,1,0,0:0:0:0:
448,192,95949,1,0,0:0:0:0:
192,192,95982,1,0,0:0:0:0:
64,192,96015,1,0,0:0:0:0:
320,192,96048,1,0,0:0:0:0:
192,192,96081,1,0,0:0:0:0:
448,192,96115,1,0,0:0:0:0:
64,192,96148,1,0,0:0:0:0:
192,192,96181,1,0,0:0:0:0:
320,192,96214,1,0,0:0:0:0:
448,192,96248,1,0,0:0:0:0:
64,192,96281,1,0,0:0:0:0:
192,192,96314,1,0,0:0:0:0:
448,192,96347,1,0,0:0:0:0:
64,192,96380,1,0,0:0:0:0:
320,192,96414,1,0,0:0:0:0:
448,192,96447,1,0,0:0:0:0:
192,192,96480,1,0,0:0:0:0:
64,192,96513,1,0,0:0:0:0:
320,192,96547,1,0,0:0:0:0:
448,192,96580,1,0,0:0:0:0:
192,192,96613,1,0,0:0:0:0:
64,192,96646,1,0,0:0:0:0:
320,192,96680,1,0,0:0:0:0:
192,192,96713,1,0,0:0:0:0:
448,192,96746,1,0,0:0:0:0:
320,192,96779,1,0,0:0:0:0:
64,192,96812,1,0,0:0:0:0:
192,192,96846,1,0,0:0:0:0:
320,192,96879,1,0,0:0:0:0:
448,192,96912,1,0,0:0:0:0:
64,192,96945,1,0,0:0:0:0:
320,192,96979,1,0,0:0:0:0:
448,192,97012,1,0,0:0:0:0:
64,192,97045,1,0,0:0:0:0:
192,192,97078,1,0,0:0:0:0:
320,192,97111,1,0,0:0:0:0:
64,192,97145,1,0,0:0:0:0:
448,192,97178,1,0,0:0:0:0:
320,192,97211,1,0,0:0:0:0:
192,192,97244,1,0,0:0:0:0:
448,192,97278,1,0,0:0:0:0:
320,192,97311,1,0,0:0:0:0:
64,192,97344,1,0,0:0:0:0:
448,192,97377,1,0,0:0:0:0:
192,192,97410,1,0,0:0:0:0:
320,192,97444,1,0,0:0:0:0:
448,192,97477,1,0,0:0:0:0:
64,192,97510,1,0,0:0:0:0:
320,192,97543,1,0,0:0:0:0:
192,192,97577,1,0,0:0:0:0:
64,192,97610,1,0,0:0:0:0:
448,192,97643,1,0,0:0:0:0:
320,192,97676,1,0,0:0:0:0:
192,192,97709,1,0,0:0:0:0:
448,192,97743,1,0,0:0:0:0:
64,192,97776,1,0,0:0:0:0:
192,192,97809,1,0,0:0:0:0:
320,192,97842,1,0,0:0:0:0:
448,192,97876,1,0,0:0:0:0:
64,192,97909,1,0,0:0:0:0:
192,192,97942,1,0,0:0:0:0:
320,192,97975,1,0,0:0:0:0:
64,192,98009,1,0,0:0:0:0:
448,192,98042,1,0,0:0:0:0:
192,192,98075,1,0,0:0:0:0:
64,192,98108,1,0,0:0:0:0:
320,192,98141,1,0,0:0:0:0:
448,192,98175,1,0,0:0:0:0:
192,192,98208,1,0,0:0:0:0:
64,192,98241,1,0,0:0:0:0:
320,192,98274,1,0,0:0:0:0:
448,192,98308,1,0,0:0:0:0:
192,192,98341,1,0,0:0:0:0:
320,192,98374,1,0,0:0:0:0:
448,192,98407,1,0,0:0:0:0:
64,192,98440,1,0,0:0:0:0:
192,192,98474,1,0,0:0:0:0:
320,192,98507,1,0,0:0:0:0:
64,192,98540,1,0,0:0:0:0:
448,192,98573,1,0,0:0:0:0:
192,192,98607,1,0,0:0:0:0:
320,192,98640,1,0,0:0:0:0:
448,192,98673,1,0,0:0:0:0:
64,192,98706,1,0,0:0:0:0:
320,192,98739,1,0,0:0:0:0:
192,192,98773,1,0,0:0:0:0:
64,192,98806,1,0,0:0:0:0:
448,192,98839,1,0,0:0:0:0:
320,192,98872,1,0,0:0:0:0:
192,192,98906,1,0,0:0:0:0:
64,192,98939,1,0,0:0:0:0:
448,192,98972,1,0,0:0:0:0:
320,192,99005,1,0,0:0:0:0:
192,192,99038,1,0,0:0:0:0:
448,192,99072,1,0,0:0:0:0:
64,192,99105,1,0,0:0:0:0:
320,192,99138,1,0,0:0:0:0:
448,192,99171,1,0,0:0:0:0:
192,192,99205,1,0,0:0:0:0:
320,192,99238,1,0,0:0:0:0:
64,192,99271,1,0,0:0:0:0:
448,192,99304,1,0,0:0:0:0:
192,192,99338,1,0,0:0:0:0:
320,192,99371,1,0,0:0:0:0:
448,192,99404,1,0,0:0:0:0:
64,192,99437,1,0,0:0:0:0:
320,192,99470,1,0,0:0:0:0:
192,192,99504,1,0,0:0:0:0:
64,192,99537,1,0,0:0:0:0:
448,192,99570,1,0,0:0:0:0:
320,192,99603,1,0,0:0:0:0:
192,192,99637,1,0,0:0:0:0:
448,192,99670,1,0,0:0:0:0:
64,192,99703,1,0,0:0:0:0:
320,192,99736,1,0,0:0:0:0:
448,192,99769,1,0,0:0:0:0:
64,192,99803,1,0,0:0:0:0:
192,192,99836,1,0,0:0:0:0:
320,192,99869,1,0,0:0:0:0:
64,192,99902,1,0,0:0:0:0:
448,192,99936,1,0,0:0:0:0:
192,192,99969,1,0,0:0:0:0:
320,192,100002,1,0,0:0:0:0:
448,192,100035,1,0,0:0:0:0:
192,192,100068,1,0,0:0:0:0:
64,192,100102,1,0,0:0:0:0:
320,192,100135,1,0,0:0:0:0:
192,192,100168,1,0,0:0:0:0:
448,192,100201,1,0,0:0:0:0:
320,192,100235,1,0,0:0:0:0:
64,192,100268,1,0,0:0:0:0:
448,192,100301,1,0,0:0:0:0:
192,192,100334,1,0,0:0:0:0:
320,192,100367,1,0,0:0:0:0:
448,192,100401,1,0,0:0:0:0:
64,192,100434,1,0,0:0:0:0:
320,192,100467,1,0,0:0:0:0:
192,192,100500,1,0,0:0:0:0:
64,192,100534,1,0,0:0:0:0:
448,192,100567,1,0,0:0:0:0:
320,192,100600,1,0,0:0:0:0:
192,192,100633,1,0,0:0:0:0:
448,192,100666,1,0,0:0:0:0:
320,192,100700,1,0,0:0:0:0:
64,192,100733,1,0,0:0:0:0:
192,192,100766,1,0,0:0:0:0:
448,192,100799,1,0,0:0:0:0:
64,192,100833,1,0,0:0:0:0:
320,192,100866,1,0,0:0:0:0:
448,192,100899,1,0,0:0:0:0:
192,192,100932,1,0,0:0:0:0:
64,192,100966,1,0,0:0:0:0:
320,192,100999,1,0,0:0:0:0:
192,192,101032,1,0,0:0:0:0:
448,192,101065,1,0,0:0:0:0:
320,192,101098,1,0,0:0:0:0:
64,192,101132,1,0,0:0:0:0:
192,192,101165,1,0,0:0:0:0:
320,192,101198,1,0,0:0:0:0:
448,192,101231,1,0,0:0:0:0:
64,192,101265,1,0,0:0:0:0:
320,192,101298,1,0,0:0:0:0:
192,192,101331,1,0,0:0:0:0:
448,192,101364,1,0,0:0:0:0:
64,192,101397,1,0,0:0:0:0:
320,192,101431,1,0,0:0:0:0:
448,192,101464,1,0,0:0:0:0:
192,192,101497,1,0,0:0:0:0:
64,192,101530,1,0,0:0:0:0:
320,192,101564,1,0,0:0:0:0:
192,192,101597,1,0,0:0:0:0:
448,192,101630,1,0,0:0:0:0:
320,192,101663,1,0,0:0:0:0:
64,192,101696,1,0,0:0:0:0:
192,192,101730,1,0,0:0:0:0:
448,192,101763,1,0,0:0:0:0:
64,192,101796,1,0,0:0:0:0:
320,192,101829,1,0,0:0:0:0:
192,192,101863,1,0,0:0:0:0:
64,192,101896,1,0,0:0:0:0:
448,192,101929,1,0,0:0:0:0:
320,192,101962,1,0,0:0:0:0:
192,192,101995,1,0,0:0:0:0:
448,192,102029,1,0,0:0:0:0:
64,192,102062,1,0,0:0:0:0:
320,192,102095,1,0,0:0:0:0:
448,192,102128,1,0,0:0:0:0:
192,192,102162,1,0,0:0:0:0:
64,192,102195,1,0,0:0:0:0:
320,192,102228,1,0,0:0:0:0:
192,192,102261,1,0,0:0:0:0:
448,192,102295,1,0,0:0:0:0:
64,192,102328,1,0,0:0:0:0:
320,192,102361,1,0,0:0:0:0:
192,192,102394,1,0,0:0:0:0:
448,192,102427,1,0,0:0:0:0:
320,192,102461,1,0,0:0:0:0:
192,192,102494,1,0,0:0:0:0:
64,192,102527,1,0,0:0:0:0:
448,192,102527,1,0,0:0:0:0:
320,192,102560,1,0,0:0:0:0:
192,192,102594,1,0,0:0:0:0:
64,192,102627,1,0,0:0:0:0:
448,192,102627,1,0,0:0:0:0:
320,192,102660,1,0,0:0:0:0:
192,192,102693,1,0,0:0:0:0:
448,192,102726,1,0,0:0:0:0:
320,192,102760,1,0,0:0:0:0:
64,192,102793,1,0,0:0:0:0:
192,192,102826,1,0,0:0:0:0:
448,192,102826,1,0,0:0:0:0:
320,192,102859,1,0,0:0:0:0:
64,192,102893,1,0,0:0:0:0:
192,192,102926,1,0,0:0:0:0:
448,192,102959,1,0,0:0:0:0:
320,192,102992,1,0,0:0:0:0:
192,192,103025,1,0,0:0:0:0:
64,192,103025,1,0,0:0:0:0:
448,192,103059,1,0,0:0:0:0:
320,192,103092,1,0,0:0:0:0:
192,192,103125,1,0,0:0:0:0:
64,192,103158,1,0,0:0:0:0:
320,192,103192,1,0,0:0:0:0:
448,192,103225,1,0,0:0:0:0:
192,192,103225,1,0,0:0:0:0:
64,192,103258,1,0,0:0:0:0:
320,192,103291,1,0,0:0:0:0:
448,192,103324,1,0,0:0:0:0:
64,192,103358,1,0,0:0:0:0:
192,192,103391,1,0,0:0:0:0:
320,192,103424,1,0,0:0:0:0:
448,192,103424,1,0,0:0:0:0:
64,192,103457,1,0,0:0:0:0:
192,192,103491,1,0,0:0:0:0:
320,192,103524,1,0,0:0:0:0:
448,192,103557,1,0,0:0:0:0:
192,192,103590,1,0,0:0:0:0:
64,192,103624,1,0,0:0:0:0:
320,192,103624,1,0,0:0:0:0:
448,192,103657,1,0,0:0:0:0:
192,192,103690,1,0,0:0:0:0:
64,192,103723,1,0,0:0:0:0:
320,192,103756,1,0,0:0:0:0:
192,192,103790,1,0,0:0:0:0:
448,192,103823,1,0,0:0:0:0:
64,192,103823,1,0,0:0:0:0:
320,192,103856,1,0,0:0:0:0:
192,192,103889,1,0,0:0:0:0:
448,192,103923,1,0,0:0:0:0:
320,192,103956,1,0,0:0:0:0:
64,192,103989,1,0,0:0:0:0:
192,192,104022,1,0,0:0:0:0:
448,192,104022,1,0,0:0:0:0:
320,192,104055,1,0,0:0:0:0:
64,192,104089,1,0,0:0:0:0:
192,192,104122,1,0,0:0:0:0:
320,192,104155,1,0,0:0:0:0:
448,192,104188,1,0,0:0:0:0:
192,192,104222,1,0,0:0:0:0:
64,192,104222,1,0,0:0:0:0:
320,192,104255,1,0,0:0:0:0:
448,192,104288,1,0,0:0:0:0:
192,192,104321,1,0,0:0:0:0:
320,192,104354,1,0,0:0:0:0:
64,192,104388,1,0,0:0:0:0:
192,192,104421,1,0,0:0:0:0:
448,192,104421,1,0,0:0:0:0:
320,192,104454,1,0,0:0:0:0:
64,192,104487,1,0,0:0:0:0:
448,192,104521,1,0,0:0:0:0:
320,192,104554,1,0,0:0:0:0:
192,192,104587,1,0,0:0:0:0:
64,192,104620,1,0,0:0:0:0:
448,192,104620,1,0,0:0:0:0:
320,192,104653,1,0,0:0:0:0:
192,192,104687,1,0,0:0:0:0:
448,192,104720,1,0,0:0:0:0:
320,192,104753,1,0,0:0:0:0:
64,192,104786,1,0,0:0:0:0:
192,192,104820,1,0,0:0:0:0:
448,192,104820,1,0,0:0:0:0:
320,192,104853,1,0,0:0:0:0:
64,192,104886,1,0,0:0:0:0:
192,192,104919,1,0,0:0:0:0:
320,192,104952,1,0,0:0:0:0:
448,192,104986,1,0,0:0:0:0:
192,192,105019,1,0,0:0:0:0:
64,192,105019,1,0,0:0:0:0:
320,192,105052,1,0,0:0:0:0:
448,192,105085,1,0,0:0:0:0:
192,192,105119,1,0,0:0:0:0:
64,192,105152,1,0,0:0:0:0:
320,192,105185,1,0,0:0:0:0:
192,192,105218,1,0,0:0:0:0:
448,192,105218,1,0,0:0:0:0:
64,192,105252,1,0,0:0:0:0:
320,192,105285,1,0,0:0:0:0:
192,192,105318,1,0,0:0:0:0:
448,192,105351,1,0,0:0:0:0:
320,192,105384,1,0,0:0:0:0:
192,192,105418,1,0,0:0:0:0:
64,192,105418,1,0,0:0:0:0:
448,192,105451,1,0,0:0:0:0:
320,192,105484,1,0,0:0:0:0:
64,192,105517,1,0,0:0:0:0:
192,192,105551,1,0,0:0:0:0:
320,192,105584,1,0,0:0:0:0:
448,192,105617,1,0,0:0:0:0:
64,192,105617,1,0,0:0:0:0:
192,192,105650,1,0,0:0:0:0:
320,192,105683,1,0,0:0:0:0:
64,192,105717,1,0,0:0:0:0:
192,192,105750,1,0,0:0:0:0:
448,192,105783,1,0,0:0:0:0:
320,192,105816,1,0,0:0:0:0:
64,192,105816,1,0,0:0:0:0:
192,192,105850,1,0,0:0:0:0:
448,192,105883,1,0,0:0:0:0:
320,192,105916,1,0,0:0:0:0:
192,192,105949,1,0,0:0:0:0:
448,192,105982,1,0,0:0:0:0:
320,192,106016,1,0,0:0:0:0:
64,192,106016,1,0,0:0:0:0:
192,192,106049,1,0,0:0:0:0:
448,192,106082,1,0,0:0:0:0:
320,192,106115,1,0,0:0:0:0:
64,192,106149,1,0,0:0:0:0:
192,192,106182,1,0,0:0:0:0:
320,192,106215,1,0,0:0:0:0:
448,192,106215,1,0,0:0:0:0:
64,192,106248,1,0,0:0:0:0:
192,192,106281,1,0,0:0:0:0:
320,192,106315,1,0,0:0:0:0:
448,192,106348,1,0,0:0:0:0:
192,192,106381,1,0,0:0:0:0:
64,192,106414,1,0,0:0:0:0:
320,192,106414,1,0,0:0:0:0:
448,192,106448,1,0,0:0:0:0:
192,192,106481,1,0,0:0:0:0:
64,192,106514,1,0,0:0:0:0:
448,192,106547,1,0,0:0:0:0:
320,192,106581,1,0,0:0:0:0:
192,192,106614,1,0,0:0:0:0:
64,192,106614,1,0,0:0:0:0:
448,192,106647,1,0,0:0:0:0:
320,192,106680,1,0,0:0:0:0:
192,192,106713,1,0,0:0:0:0:
64,192,106747,1,0,0:0:0:0:
320,192,106780,1,0,0:0:0:0:
448,192,106813,1,0,0:0:0:0:
192,192,106813,1,0,0:0:0:0:
64,192,106846,1,0,0:0:0:0:
320,192,106880,1,0,0:0:0:0:
448,192,106913,1,0,0:0:0:0:
192,192,106946,1,0,0:0:0:0:
320,192,106979,1,0,0:0:0:0:
64,192,107012,1,0,0:0:0:0:
448,192,107012,1,0,0:0:0:0:
192,192,107046,1,0,0:0:0:0:
320,192,107079,1,0,0:0:0:0:
64,192,107112,1,0,0:0:0:0:
192,192,107145,1,0,0:0:0:0:
448,192,107179,1,0,0:0:0:0:
320,192,107212,1,0,0:0:0:0:
64,192,107212,1,0,0:0:0:0:
192,192,107245,1,0,0:0:0:0:
448,192,107278,1,0,0:0:0:0:
320,192,107311,1,0,0:0:0:0:
192,192,107345,1,0,0:0:0:0:
64,192,107378,1,0,0:0:0:0:
320,192,107411,1,0,0:0:0:0:
448,192,107411,1,0,0:0:0:0:
192,192,107444,1,0,0:0:0:0:
64,192,107478,1,0,0:0:0:0:
320,192,107511,1,0,0:0:0:0:
192,192,107544,1,0,0:0:0:0:
448,192,107577,1,0,0:0:0:0:
320,192,107610,1,0,0:0:0:0:
64,192,107610,1,0,0:0:0:0:
192,192,107644,1,0,0:0:0:0:
448,192,107677,1,0,0:0:0:0:
64,192,107710,1,0,0:0:0:0:
192,192,107743,1,0,0:0:0:0:
320,192,107777,1,0,0:0:0:0:
448,192,107810,1,0,0:0:0:0:
64,192,107810,1,0,0:0:0:0:
192,192,107843,1,0,0:0:0:0:
320,192,107876,1,0,0:0:0:0:
64,192,107909,1,0,0:0:0:0:
192,192,107943,1,0,0:0:0:0:
448,192,107976,1,0,0:0:0:0:
320,192,108009,1,0,0:0:0:0:
64,192,108009,1,0,0:0:0:0:
192,192,108042,1,0,0:0:0:0:
448,192,108076,1,0,0:0:0:0:
320,192,108109,1,0,0:0:0:0:
192,192,108142,1,0,0:0:0:0:
64,192,108175,1,0,0:0:0:0:
320,192,108209,1,0,0:0:0:0:
448,192,108209,1,0,0:0:0:0:
192,192,108242,1,0,0:0:0:0:
64,192,108275,1,0,0:0:0:0:
320,192,108308,1,0,0:0:0:0:
448,192,108341,1,0,0:0:0:0:
192,192,108375,1,0,0:0:0:0:
320,192,108408,1,0,0:0:0:0:
64,192,108408,1,0,0:0:0:0:
448,192,108441,1,0,0:0:0:0:
192,192,108474,1,0,0:0:0:0:
320,192,108508,1,0,0:0:0:0:
64,192,108541,1,0,0:0:0:0:
192,192,108574,1,0,0:0:0:0:
320,192,108607,1,0,0:0:0:0:
448,192,108607,1,0,0:0:0:0:
64,192,108640,1,0,0:0:0:0:
192,192,108674,1,0,0:0:0:0:
448,192,108707,1,0,0:0:0:0:
320,192,108740,1,0,0:0:0:0:
192,192,108773,1,0,0:0:0:0:
448,192,108807,128,0,110235:0:0:0:0:
