osu file format v14

[General]
AudioFilename: audio.mp3
AudioLeadIn: 0
PreviewTime: 36071
Countdown: 0
SampleSet: Drum
StackLeniency: 0.7
Mode: 3
LetterboxInBreaks: 0
SpecialStyle: 0
WidescreenStoryboard: 1

[Editor]
Bookmarks: 5359,36116,43249,70573,97898,142286,171346,200376
DistanceSpacing: 1
BeatDivisor: 4
GridSize: 4
TimelineZoom: 1.100001

[Metadata]
Title:YYZ (Cut Ver.)
TitleUnicode:YYZ (Cut Ver.)
Artist:Rush
ArtistUnicode:Rush
Creator:Pope Gadget
Version:EZ
Source:
Tags:ilikexd moving pictures progressive instrumental hard rock terry brown moon records
BeatmapID:2674858
BeatmapSetID:1285555

[Difficulty]
HPDrainRate:6.5
CircleSize:4
OverallDifficulty:6.5
ApproachRate:5
SliderMultiplier:1.4
SliderTickRate:1

[Events]
//Background and Video events
0,0,"bg.jpg",0,0
//Break Periods
//Storyboard Layer 0 (Background)
//Storyboard Layer 1 (Fail)
//Storyboard Layer 2 (Pass)
//Storyboard Layer 3 (Foreground)
//Storyboard Layer 4 (Overlay)
//Storyboard Sound Samples
Sample,8250,0,"cymbal1.wav",50
Sample,11145,0,"cymbal1.wav",50
Sample,12155,0,"cymbal1.wav",50
Sample,14067,0,"cymbal1.wav",50
Sample,17434,0,"cymbal4.wav",50
Sample,19957,0,"cymbal2.wav",50
Sample,23299,0,"cymbal4.wav",50
Sample,23880,0,"cymbal2.wav",50
Sample,25782,0,"cymbal2.wav",50
Sample,32113,0,"cymbal6.wav",50
Sample,33321,0,"cymbal6.wav",50
Sample,37792,0,"cymbal2.wav",50
Sample,41318,0,"cymbal2.wav",50
Sample,43249,0,"cymbal3.wav",50
Sample,43692,0,"cymbal1.wav",50
Sample,44530,0,"cymbal1.wav",50
Sample,44959,0,"cymbal1.wav",50
Sample,45366,0,"cymbal1.wav",50
Sample,46219,0,"cymbal1.wav",50
Sample,47083,0,"cymbal1.wav",50
Sample,47508,0,"cymbal1.wav",50
Sample,47949,0,"cymbal1.wav",50
Sample,48804,0,"cymbal1.wav",50
Sample,49231,0,"cymbal1.wav",50
Sample,49679,0,"cymbal1.wav",50
Sample,50533,0,"cymbal1.wav",50
Sample,51388,0,"cymbal1.wav",50
Sample,51805,0,"cymbal1.wav",50
Sample,52219,0,"cymbal1.wav",50
Sample,53070,0,"cymbal1.wav",50
Sample,53499,0,"cymbal1.wav",50
Sample,53927,0,"cymbal1.wav",50
Sample,54783,0,"cymbal1.wav",50
Sample,55222,0,"cymbal1.wav",50
Sample,55650,0,"cymbal1.wav",50
Sample,56514,0,"cymbal1.wav",50
Sample,58236,0,"cymbal1.wav",50
Sample,59065,0,"cymbal1.wav",50
Sample,59491,0,"cymbal1.wav",50
Sample,59918,0,"cymbal1.wav",50
Sample,60781,0,"cymbal1.wav",50
Sample,61209,0,"cymbal1.wav",50
Sample,61628,0,"cymbal1.wav",50
Sample,62481,0,"cymbal1.wav",50
Sample,62903,0,"cymbal1.wav",50
Sample,63317,0,"cymbal1.wav",50
Sample,64175,0,"cymbal1.wav",50
Sample,65028,0,"cymbal1.wav",50
Sample,65460,0,"cymbal1.wav",50
Sample,65893,0,"cymbal1.wav",50
Sample,66762,0,"cymbal1.wav",50
Sample,67190,0,"cymbal1.wav",50
Sample,67606,0,"cymbal1.wav",50
Sample,68468,0,"cymbal1.wav",50
Sample,68883,0,"cymbal1.wav",50
Sample,71847,0,"cymbal2.wav",50
Sample,72272,0,"cymbal2.wav",50
Sample,72686,0,"cymbal2.wav",50
Sample,73569,0,"cymbal2.wav",50
Sample,74005,0,"cymbal2.wav",50
Sample,74409,0,"cymbal2.wav",50
Sample,75297,0,"cymbal2.wav",50
Sample,75733,0,"cymbal2.wav",50
Sample,76138,0,"cymbal2.wav",50
Sample,77415,0,"cymbal2.wav",50
Sample,77839,0,"cymbal2.wav",50
Sample,78710,0,"cymbal2.wav",50
Sample,79131,0,"cymbal2.wav",50
Sample,79546,0,"cymbal2.wav",50
Sample,80411,0,"cymbal2.wav",50
Sample,80854,0,"cymbal2.wav",50
Sample,81256,0,"cymbal2.wav",50
Sample,82131,0,"cymbal2.wav",50
Sample,82577,0,"cymbal2.wav",50
Sample,82968,0,"cymbal2.wav",50
Sample,85525,0,"cymbal2.wav",50
Sample,85954,0,"cymbal2.wav",50
Sample,86362,0,"cymbal2.wav",50
Sample,87238,0,"cymbal2.wav",50
Sample,87664,0,"cymbal2.wav",50
Sample,88080,0,"cymbal2.wav",50
Sample,88959,0,"cymbal2.wav",50
Sample,89397,0,"cymbal2.wav",50
Sample,89795,0,"cymbal2.wav",50
Sample,91079,0,"cymbal2.wav",50
Sample,91513,0,"cymbal2.wav",50
Sample,92370,0,"cymbal2.wav",50
Sample,92798,0,"cymbal2.wav",50
Sample,93215,0,"cymbal2.wav",50
Sample,94090,0,"cymbal2.wav",50
Sample,94521,0,"cymbal2.wav",50
Sample,94924,0,"cymbal2.wav",50
Sample,95792,0,"cymbal2.wav",50
Sample,96225,0,"cymbal2.wav",50
Sample,96619,0,"cymbal2.wav",50
Sample,100277,0,"cymbal5.wav",50
Sample,101993,0,"cymbal5.wav",50
Sample,107109,0,"cymbal5.wav",50
Sample,108808,0,"cymbal5.wav",50
Sample,116055,0,"cymbal5.wav",50
Sample,116682,0,"cymbal5.wav",50
Sample,121165,0,"cymbal5.wav",50
Sample,122881,0,"cymbal5.wav",50
Sample,136097,0,"cymbal5.wav",50
Sample,137810,0,"cymbal5.wav",50
Sample,142936,0,"cymbal2.wav",50
Sample,143572,0,"cymbal2.wav",50
Sample,143993,0,"cymbal2.wav",50
Sample,144638,0,"cymbal2.wav",50
Sample,145297,0,"cymbal2.wav",50
Sample,145733,0,"cymbal2.wav",50
Sample,146367,0,"cymbal2.wav",50
Sample,147016,0,"cymbal2.wav",50
Sample,147441,0,"cymbal2.wav",50
Sample,147843,0,"cymbal2.wav",50
Sample,148497,0,"cymbal2.wav",50
Sample,148710,0,"cymbal2.wav",50
Sample,149126,0,"cymbal2.wav",50
Sample,149766,0,"cymbal2.wav",50
Sample,150429,0,"cymbal2.wav",50
Sample,150839,0,"cymbal2.wav",50
Sample,151484,0,"cymbal2.wav",50
Sample,152121,0,"cymbal2.wav",50
Sample,152553,0,"cymbal2.wav",50
Sample,153178,0,"cymbal2.wav",50
Sample,153830,0,"cymbal2.wav",50
Sample,154243,0,"cymbal2.wav",50
Sample,154656,0,"cymbal2.wav",50
Sample,156599,0,"cymbal2.wav",50
Sample,157241,0,"cymbal2.wav",50
Sample,157656,0,"cymbal2.wav",50
Sample,158292,0,"cymbal2.wav",50
Sample,158949,0,"cymbal2.wav",50
Sample,159355,0,"cymbal2.wav",50
Sample,160000,0,"cymbal2.wav",50
Sample,160653,0,"cymbal2.wav",50
Sample,161078,0,"cymbal2.wav",50
Sample,161500,0,"cymbal2.wav",50
Sample,162368,0,"cymbal2.wav",50
Sample,162784,0,"cymbal2.wav",50
Sample,163431,0,"cymbal2.wav",50
Sample,164090,0,"cymbal2.wav",50
Sample,164507,0,"cymbal2.wav",50
Sample,165151,0,"cymbal2.wav",50
Sample,165790,0,"cymbal2.wav",50
Sample,166208,0,"cymbal2.wav",50
Sample,166630,0,"cymbal2.wav",50
Sample,185000,0,"cymbal2.wav",50
Sample,188409,0,"cymbal2.wav",50
Sample,191799,0,"cymbal2.wav",50
Sample,199942,0,"cymbal4.wav",50

[TimingPoints]
-8,252.676263,5,3,1,50,1,8
-8,-169.491525423729,4,3,1,50,0,0
245,299.365345,5,3,1,50,1,8
245,-142.857142857143,4,3,1,50,0,0
544,213.265089,5,3,1,50,1,8
544,-200,4,3,1,50,0,0
757,272.336099,5,3,1,50,1,8
757,-156.25,4,3,1,50,0,0
1030,264.058938,5,3,1,50,1,8
1030,-161.290322580645,4,3,1,50,0,0
1294,266.031738,5,3,1,50,1,8
1294,-161.290322580645,4,3,1,50,0,0
1560,261.678493,5,3,1,50,1,8
1560,-163.934426229508,4,3,1,50,0,0
1821,271.609968,5,3,1,50,1,8
1821,-158.730158730159,4,3,1,50,0,0
2093,261.202314,5,3,1,50,1,8
2093,-163.934426229508,4,3,1,50,0,0
2354,269.002807,5,3,1,50,1,8
2354,-158.730158730159,4,3,1,50,0,0
2623,264.898323,5,3,1,50,1,8
2623,-161.290322580645,4,3,1,50,0,0
2888,297.551154,5,3,1,50,1,8
2888,-144.927536231884,4,3,1,50,0,0
3186,245.125075,5,3,1,50,1,8
3186,-175.438596491228,4,3,1,50,0,0
3431,263.288384,5,3,1,50,1,8
3431,-163.934426229508,4,3,1,50,0,0
3694,275.397375,5,3,1,50,1,8
3694,-156.25,4,3,1,50,0,0
3969,268.18639,5,3,1,50,1,8
3969,-158.730158730159,4,3,1,50,0,0
4238,266.145022,5,3,1,50,1,8
4238,-161.290322580645,4,3,1,50,0,0
4504,258.57165,5,3,1,50,1,8
4504,-166.666666666667,4,3,1,50,0,0
4762,296.984126,5,3,1,50,1,8
4762,-144.927536231884,4,3,1,50,0,0
5059,299.160854,5,3,1,50,1,8
5059,-142.857142857143,4,3,1,50,0,0
5359,315.056553,5,3,1,50,1,0
5359,-135.135135135135,4,3,1,50,0,0
5674,276.598393,5,3,1,50,1,8
5674,-153.846153846154,4,3,1,50,0,0
5950,292.563047,5,3,1,50,1,8
5950,-147.058823529412,4,3,1,50,0,0
6243,253.378378,5,3,1,50,1,8
6243,-169.491525423729,4,3,1,50,0,0
6496,299.81861,5,3,1,50,1,8
6496,-142.857142857143,4,3,1,50,0,0
6796,294.036931,5,3,1,50,1,0
6796,-144.927536231884,4,3,1,50,0,0
7090,291.156132,5,3,1,50,1,8
7090,-147.058823529412,4,3,1,50,0,0
7381,281.837014,5,3,1,50,1,8
7381,-151.515151515152,4,3,1,50,0,0
7663,301.38335,5,3,1,50,1,8
7663,-142.857142857143,4,3,1,50,0,0
7964,285.374554,5,3,1,50,1,8
7964,-149.253731343284,4,3,1,50,0,0
8250,293.378448,5,3,1,50,1,0
8250,-147.058823529412,4,3,1,50,0,0
8543,301.996195,5,3,1,50,1,8
8543,-142.857142857143,4,3,1,50,0,0
8845,270.22645,5,3,1,50,1,8
8845,-158.730158730159,4,3,1,50,0,0
9115,292.72148,5,3,1,50,1,8
9115,-147.058823529412,4,3,1,50,0,0
9408,291.926765,5,3,1,50,1,8
9408,-147.058823529412,4,3,1,50,0,0
9700,307.23382,5,3,1,50,1,0
9700,-138.888888888889,4,3,1,50,0,0
10007,278.934841,5,3,1,50,1,8
10007,-153.846153846154,4,3,1,50,0,0
10286,286.89328,5,3,1,50,1,8
10286,-149.253731343284,4,3,1,50,0,0
10573,305.782344,5,3,1,50,1,8
10573,-140.845070422535,4,3,1,50,0,0
10879,265.850211,5,3,1,50,1,8
10879,-161.290322580645,4,3,1,50,0,0
11145,283.220596,5,3,1,50,1,0
11145,-151.515151515152,4,3,1,50,0,0
11428,327.777505,5,3,1,50,1,8
11428,-131.578947368421,4,3,1,50,0,0
11756,253.764168,5,3,1,50,1,8
11756,-169.491525423729,4,3,1,50,0,0
12009,292.245272,5,3,1,50,1,8
12009,-147.058823529412,4,3,1,50,0,0
12302,307.23382,5,3,1,50,1,8
12302,-138.888888888889,4,3,1,50,0,0
12609,296.348981,5,3,1,50,1,0
12609,-144.927536231884,4,3,1,50,0,0
12905,289.070254,5,3,1,50,1,8
12905,-149.253731343284,4,3,1,50,0,0
13194,284.014258,5,3,1,50,1,8
13194,-151.515151515152,4,3,1,50,0,0
13478,296.348981,5,3,1,50,1,8
13478,-144.927536231884,4,3,1,50,0,0
13775,292.698633,5,3,1,50,1,8
13775,-147.058823529412,4,3,1,50,0,0
14067,284.014258,5,3,1,50,1,0
14067,-151.515151515152,4,3,1,50,0,0
14351,356.552847,5,3,1,50,1,8
14351,-120.481927710843,4,3,1,50,0,0
14708,231.042928,5,3,1,50,1,8
14708,-185.185185185185,4,3,1,50,0,0
14939,291.269206,5,3,1,50,1,8
14939,-147.058823529412,4,3,1,50,0,0
15230,312.29018,5,3,1,50,1,8
15230,-136.986301369863,4,3,1,50,0,0
15543,293.42436,5,3,1,50,1,0
15543,-147.058823529412,4,3,1,50,0,0
15836,288.367265,5,3,1,50,1,8
15836,-149.253731343284,4,3,1,50,0,0
16124,281.837014,5,3,1,50,1,8
16124,-151.515151515152,4,3,1,50,0,0
16406,286.848018,5,3,1,50,1,8
16406,-149.253731343284,4,3,1,50,0,0
16693,309.342132,5,3,1,50,1,8
16693,-138.888888888889,4,3,1,50,0,0
17002,302.834531,5,3,1,50,1,0
17002,-140.845070422535,4,3,1,50,0,0
17305,258.548252,5,3,1,50,1,8
17305,-166.666666666667,4,3,1,50,0,0
17564,343.424284,5,3,1,50,1,8
17564,-125,4,3,1,50,0,0
17907,271.609968,5,3,1,50,1,8
17907,-158.730158730159,4,3,1,50,0,0
18179,298.480733,5,3,1,50,1,8
18179,-142.857142857143,4,3,1,50,0,0
18477,316.393953,5,3,1,50,1,0
18477,-135.135135135135,4,3,1,50,0,0
18794,294.626021,5,3,1,50,1,8
18794,-144.927536231884,4,3,1,50,0,0
19088,290.068069,5,3,1,50,1,8
19088,-147.058823529412,4,3,1,50,0,0
19378,313.060901,5,3,1,50,1,8
19378,-136.986301369863,4,3,1,50,0,0
19691,265.192198,5,3,1,50,1,8
19691,-161.290322580645,4,3,1,50,0,0
19957,292.744332,5,3,1,50,1,0
19957,-147.058823529412,4,3,1,50,0,0
20249,302.924738,5,3,1,50,1,8
20249,-140.845070422535,4,3,1,50,0,0
20552,281.882032,5,3,1,50,1,8
20552,-151.515151515152,4,3,1,50,0,0
20834,290.56675,5,3,1,50,1,8
20834,-147.058823529412,4,3,1,50,0,0
21125,277.528516,5,3,1,50,1,8
21125,-153.846153846154,4,3,1,50,0,0
21402,290.56675,5,3,1,50,1,0
21402,-147.058823529412,4,3,1,50,0,0
21693,292.040438,5,3,1,50,1,8
21693,-147.058823529412,4,3,1,50,0,0
21985,285.51035,5,3,1,50,1,8
21985,-149.253731343284,4,3,1,50,0,0
22270,272.426365,5,3,1,50,1,8
22270,-156.25,4,3,1,50,0,0
22543,301.474209,5,3,1,50,1,8
22543,-142.857142857143,4,3,1,50,0,0
22844,306.530635,5,3,1,50,1,0
22844,-138.888888888889,4,3,1,50,0,0
23151,297.845091,5,3,1,50,1,8
23151,-144.927536231884,4,3,1,50,0,0
23449,292.765758,5,3,1,50,1,8
23449,-147.058823529412,4,3,1,50,0,0
23741,278.162827,5,3,1,50,1,8
23741,-153.846153846154,4,3,1,50,0,0
24020,300.656935,5,3,1,50,1,8
24020,-142.857142857143,4,3,1,50,0,0
24320,299.229484,5,3,1,50,1,0
24320,-142.857142857143,4,3,1,50,0,0
24619,294.126298,5,3,1,50,1,8
24619,-144.927536231884,4,3,1,50,0,0
24914,289.77388,5,3,1,50,1,8
24914,-147.058823529412,4,3,1,50,0,0
25203,310.816411,5,3,1,50,1,8
25203,-136.986301369863,4,3,1,50,0,0
25514,268.027053,5,3,1,50,1,8
25514,-158.730158730159,4,3,1,50,0,0
25782,297.754928,5,3,1,50,1,0
25782,-144.927536231884,4,3,1,50,0,0
26080,301.451489,5,3,1,50,1,8
26080,-142.857142857143,4,3,1,50,0,0
26381,275.555474,5,3,1,50,1,8
26381,-156.25,4,3,1,50,0,0
26657,280.634796,5,3,1,50,1,8
26657,-153.846153846154,4,3,1,50,0,0
26938,274.104022,5,3,1,50,1,8
26938,-156.25,4,3,1,50,0,0
27212,288.616948,5,3,1,50,1,0
27212,-149.253731343284,4,3,1,50,0,0
27500,284.26319,5,3,1,50,1,8
27500,-151.515151515152,4,3,1,50,0,0
27785,289.342084,5,3,1,50,1,8
27785,-147.058823529412,4,3,1,50,0,0
28074,284.988244,5,3,1,50,1,8
28074,-151.515151515152,4,3,1,50,0,0
28359,316.62102,5,3,1,50,1,8
28359,-135.135135135135,4,3,1,50,0,0
28676,273.810067,5,3,1,50,1,0
28676,-156.25,4,3,1,50,0,0
28949,354.377447,5,3,1,50,1,8
28949,-120.481927710843,4,3,1,50,0,0
29304,243.333671,5,3,1,50,1,8
29304,-175.438596491228,4,3,1,50,0,0
29547,272.358351,5,3,1,50,1,8
29547,-156.25,4,3,1,50,0,0
29819,289.047972,5,3,1,50,1,8
29819,-149.253731343284,4,3,1,50,0,0
30108,310.838954,5,3,1,50,1,0
30108,-136.986301369863,4,3,1,50,0,0
30419,305.827544,5,3,1,50,1,8
30419,-140.845070422535,4,3,1,50,0,0
30725,302.744378,5,3,1,50,1,8
30725,-140.845070422535,4,3,1,50,0,0
31028,309.364462,5,3,1,50,1,8
31028,-138.888888888889,4,3,1,50,0,0
31337,273.810067,5,3,1,50,1,8
31337,-156.25,4,3,1,50,0,0
31611,343.174825,5,3,1,50,1,0
31611,-125,4,3,1,50,0,0
31954,319.388478,5,3,1,50,1,8
31954,-133.333333333333,4,3,1,50,0,0
32274,331.722636,5,3,1,50,1,8
32274,-129.87012987013,4,3,1,50,0,0
32605,365.510435,5,3,1,50,1,8
32605,-117.647058823529,4,3,1,50,0,0
32971,350.295416,5,3,1,50,1,8
32971,-121.951219512195,4,3,1,50,0,0
33321,345.214464,5,3,1,50,1,0
33321,-123.456790123457,4,3,1,50,0,0
33666,334.308399,5,3,1,50,1,8
33666,-128.205128205128,4,3,1,50,0,0
34001,345.940959,5,3,1,50,1,8
34001,-123.456790123457,4,3,1,50,0,0
34347,353.804877,5,3,1,50,1,8
34347,-120.481927710843,5,3,1,50,0,0
36116,308.29942,4,3,1,50,1,0
36116,-138.888888888889,4,3,1,50,0,0
36193,331.610799,4,3,1,50,1,8
36193,-129.87012987013,4,3,1,50,0,0
36276,241.632469,4,3,1,50,1,8
36276,-178.571428571429,4,3,1,50,0,0
36396,245.736472,4,3,1,50,1,8
36396,-175.438596491228,4,3,1,50,0,0
36642,247.823285,4,3,1,50,1,0
36642,-172.413793103448,4,3,1,50,0,0
36890,256.530848,4,3,1,50,1,8
36890,-166.666666666667,4,3,1,50,0,0
37147,252.540133,4,3,1,50,1,0
37147,-169.491525423729,4,3,1,50,0,0
37399,259.795368,4,3,1,50,1,8
37399,-163.934426229508,4,3,1,50,0,0
37659,266.666667,4,3,1,50,1,0
37659,-161.290322580645,4,3,1,50,0,0
37926,292.804334,4,3,1,50,1,8
37926,-147.058823529412,4,3,1,50,0,0
38804,357.030223,4,3,1,50,1,0
38804,-120.481927710843,4,3,1,50,0,0
39161,299.704791,4,3,1,50,1,8
39161,-142.857142857143,4,3,1,50,0,0
39461,331.963064,4,3,1,50,1,0
39461,-129.87012987013,4,3,1,50,0,0
40291,268.93408,4,3,1,50,1,8
40291,-158.730158730159,4,3,1,50,0,0
40358,370.61287,4,3,1,50,1,8
40358,-116.279069767442,4,3,1,50,0,0
40450,232.018561,4,3,1,50,1,0
40450,-185.185185185185,4,3,1,50,0,0
40683,253.083399,4,3,1,50,1,8
40683,-169.491525423729,4,3,1,50,0,0
40936,258.503694,4,3,1,50,1,0
40936,-166.666666666667,4,3,1,50,0,0
41194,248.004596,4,3,1,50,1,8
41194,-172.413793103448,4,3,1,50,0,0
41442,446.372111,4,3,1,50,1,0
41442,-96.1538461538461,4,3,1,50,0,0
42781,467.708618,4,3,1,50,1,8
42781,-91.743119266055,4,3,1,50,0,0
43249,443.062745,4,3,1,50,1,1
43249,-97.0873786407767,4,3,1,50,0,1
43692,403.174326,4,3,1,50,1,9
43692,-106.382978723404,4,3,1,50,0,1
44095,434.376561,4,3,1,50,1,9
44095,-99.009900990099,4,3,1,50,0,1
44530,429.298169,4,3,1,50,1,9
44530,-100,4,3,1,50,0,1
44959,407.528408,4,3,1,50,1,1
44959,-105.263157894737,4,3,1,50,0,1
45366,417.687681,4,3,1,50,1,9
45366,-103.092783505155,4,3,1,50,0,1
45784,435.101052,4,3,1,50,1,9
45784,-98.0392156862745,4,3,1,50,0,1
46219,420.589246,4,3,1,50,1,9
46219,-102.040816326531,4,3,1,50,0,1
46640,443.062745,4,3,1,50,1,1
46640,-97.0873786407767,4,3,1,50,0,1
47083,425.667766,4,3,1,50,1,9
47083,-101.010101010101,4,3,1,50,0,1
47508,440.182823,4,3,1,50,1,9
47508,-97.0873786407767,4,3,1,50,0,1
47949,427.66417,4,3,1,50,1,9
47949,-100,4,3,1,50,0,1
48376,428.027223,4,3,1,50,1,1
48376,-100,4,3,1,50,0,1
48804,426.393775,4,3,1,50,1,9
48804,-101.010101010101,4,3,1,50,0,1
49231,447.93502,4,3,1,50,1,9
49231,-95.2380952380952,4,3,1,50,0,1
49679,437.075672,4,3,1,50,1,9
49679,-98.0392156862745,4,3,1,50,0,1
50116,417.48424,4,3,1,50,1,1
50116,-103.092783505155,4,3,1,50,0,1
50533,442.155064,4,3,1,50,1,9
50533,-97.0873786407767,4,3,1,50,0,1
50975,412.402312,4,3,1,50,1,9
50975,-104.166666666667,4,3,1,50,0,1
51388,416.756385,4,3,1,50,1,9
51388,-103.092783505155,4,3,1,50,0,1
51805,414.579375,4,3,1,50,1,1
51805,-103.092783505155,4,3,1,50,0,1
52219,422.767436,4,3,1,50,1,9
52219,-101.010101010101,4,3,1,50,0,1
52642,427.847144,4,3,1,50,1,9
52642,-100,4,3,1,50,0,1
53070,429.298169,4,3,1,50,1,9
53070,-100,4,3,1,50,0,1
53499,427.847144,4,3,1,50,1,1
53499,-100,4,3,1,50,0,1
53927,423.492543,4,3,1,50,1,9
53927,-101.010101010101,4,3,1,50,0,1
54350,432.925421,4,3,1,50,1,9
54350,-99.009900990099,4,3,1,50,0,1
54783,438.731189,4,3,1,50,1,9
54783,-98.0392156862745,4,3,1,50,0,1
55222,427.847144,4,3,1,50,1,1
55222,-100,4,3,1,50,0,1
55650,413.33416,4,3,1,50,1,9
55650,-104.166666666667,4,3,1,50,0,1
56063,451.066773,4,3,1,50,1,9
56063,-95.2380952380952,4,3,1,50,0,1
56514,416.235978,4,3,1,50,1,9
56514,-103.092783505155,4,3,1,50,0,1
56931,443.809961,4,3,1,50,1,1
56931,-96.1538461538461,4,3,1,50,0,1
57374,402.449576,4,3,1,50,1,9
57374,-106.382978723404,4,3,1,50,0,1
57777,459.049003,4,3,1,50,1,9
57777,-93.4579439252336,4,3,1,50,0,1
58236,415.509588,4,3,1,50,1,9
58236,-103.092783505155,4,3,1,50,0,1
58651,413.379724,4,3,1,50,1,1
58651,-104.166666666667,4,3,1,50,0,1
59065,426.439232,4,3,1,50,1,9
59065,-100,4,3,1,50,0,1
59491,427.164836,4,3,1,50,1,9
59491,-100,4,3,1,50,0,1
59918,434.420592,4,3,1,50,1,9
59918,-99.009900990099,4,3,1,50,0,1
60353,428.592858,4,3,1,50,1,1
60353,-100,4,3,1,50,0,1
60781,427.889861,4,3,1,50,1,9
60781,-100,4,3,1,50,0,1
61209,419.184686,4,3,1,50,1,9
61209,-102.040816326531,4,3,1,50,0,1
61628,424.989375,4,3,1,50,1,9
61628,-101.010101010101,4,3,1,50,0,1
62053,427.889861,4,3,1,50,1,1
62053,-100,4,3,1,50,0,1
62481,422.086373,4,3,1,50,1,9
62481,-102.040816326531,4,3,1,50,0,1
62903,413.379724,4,3,1,50,1,9
62903,-104.166666666667,4,3,1,50,0,1
63317,417.005484,4,3,1,50,1,9
63317,-103.092783505155,4,3,1,50,0,1
63734,441.676604,4,3,1,50,1,1
63734,-97.0873786407767,4,3,1,50,0,1
64175,431.518081,4,3,1,50,1,9
64175,-99.009900990099,4,3,1,50,0,1
64607,421.360151,4,3,1,50,1,9
64607,-102.040816326531,4,3,1,50,0,1
65028,431.881492,4,3,1,50,1,9
65028,-99.009900990099,4,3,1,50,0,1
65460,432.607034,4,3,1,50,1,1
65460,-99.009900990099,4,3,1,50,0,1
65893,446.757656,4,3,1,50,1,9
65893,-96.1538461538461,4,3,1,50,0,1
66340,422.812123,4,3,1,50,1,9
66340,-101.010101010101,4,3,1,50,0,1
66762,427.889861,4,3,1,50,1,9
66762,-100,4,3,1,50,0,1
67190,415.555633,4,3,1,50,1,1
67190,-103.092783505155,4,3,1,50,0,1
67606,422.812123,4,3,1,50,1,9
67606,-101.010101010101,4,3,1,50,0,1
68029,439.502483,4,3,1,50,1,9
68029,-97.0873786407767,4,3,1,50,0,1
68468,415.193307,4,3,1,50,1,9
68468,-103.092783505155,4,3,1,50,0,1
68883,405.759074,4,3,1,50,1,1
68883,-105.263157894737,4,3,1,50,0,1
69289,440.228038,4,3,1,50,1,9
69289,-97.0873786407767,4,3,1,50,0,1
69729,406.121606,4,3,1,50,1,9
69729,-105.263157894737,4,3,1,50,0,1
70135,440.952752,4,3,1,50,1,9
70135,-97.0873786407767,4,3,1,50,0,1
70576,426.348327,4,3,1,50,1,0
70576,-101.010101010101,4,3,1,50,0,0
71003,429.288953984252,4,3,1,50,1,8
71003,-100,4,3,1,50,0,0
71432,415.000899168615,4,3,1,50,1,8
71432,-103.270000000366,4,3,1,50,0,0
71847,425.622473,4,3,1,50,1,8
71847,-101.010101010101,4,3,1,50,0,0
72272,413.288606,4,3,1,50,1,0
72272,-104.166666666667,4,3,1,50,0,0
72686,448.11902,4,3,1,50,1,8
72686,-95.2380952380952,4,3,1,50,0,0
73134,435.056884,4,3,1,50,1,8
73134,-98.0392156862745,4,3,1,50,0,0
73569,436.484265,4,3,1,50,1,8
73569,-98.0392156862745,4,3,1,50,0,0
74005,403.855474,4,3,1,50,1,0
74005,-106.382978723404,4,3,1,50,0,0
74409,457.550731,4,3,1,50,1,8
74409,-93.4579439252336,4,3,1,50,0,0
74867,429.978071,4,3,1,50,1,8
74867,-100,4,3,1,50,0,0
75297,436.506493,4,3,1,50,1,8
75297,-98.0392156862745,4,3,1,50,0,0
75733,404.579844,4,3,1,50,1,0
75733,-106.382978723404,4,3,1,50,0,0
76138,432.15523,4,3,1,50,1,8
76138,-99.009900990099,4,3,1,50,0,0
76570,416.189783,4,3,1,50,1,8
76570,-103.092783505155,4,3,1,50,0,0
76986,428.525515,4,3,1,50,1,8
76986,-100,4,3,1,50,0,0
77415,424.172157,4,3,1,50,1,0
77415,-101.010101010101,4,3,1,50,0,0
77839,450.294943,4,3,1,50,1,8
77839,-95.2380952380952,4,3,1,50,0,0
78289,421.268439,4,3,1,50,1,8
78289,-102.040816326531,4,3,1,50,0,0
78710,420.545026,4,3,1,50,1,8
78710,-102.040816326531,4,3,1,50,0,0
79131,415.463553,4,3,1,50,1,0
79131,-103.092783505155,4,3,1,50,0,0
79546,445.239279,4,3,1,50,1,8
79546,-96.1538461538461,4,3,1,50,0,0
79992,419.093919,4,3,1,50,1,8
79992,-102.040816326531,4,3,1,50,0,0
80411,443.764006,4,3,1,50,1,8
80411,-96.1538461538461,4,3,1,50,0,0
80854,401.679018,4,3,1,50,1,0
80854,-106.382978723404,4,3,1,50,0,0
81256,452.471626,4,3,1,50,1,8
81256,-94.3396226415094,4,3,1,50,0,0
81709,421.994345,4,3,1,50,1,8
81709,-102.040816326531,4,3,1,50,0,0
82131,446.667858,4,3,1,50,1,8
82131,-96.1538461538461,4,3,1,50,0,0
82577,390.792919,4,3,1,50,1,0
82577,-109.89010989011,4,3,1,50,0,0
82968,417.641163,4,3,1,50,1,8
82968,-103.092783505155,4,3,1,50,0,0
83386,409.659778,4,3,1,50,1,8
83386,-104.166666666667,4,3,1,50,0,0
83795,422.719779,4,3,1,50,1,8
83795,-101.010101010101,4,3,1,50,0,0
84218,445.98723,4,3,1,50,1,0
84218,-96.1538461538461,4,3,1,50,0,0
84664,446.71109,4,3,1,50,1,8
84664,-96.1538461538461,4,3,1,50,0,0
85111,414.058672,4,3,1,50,1,8
85111,-103.092783505155,4,3,1,50,0,0
85525,429.298169,4,3,1,50,1,8
85525,-100,4,3,1,50,0,0
85954,407.528408,4,3,1,50,1,0
85954,-105.263157894737,4,3,1,50,0,0
86362,453.967678,4,3,1,50,1,8
86362,-94.3396226415094,4,3,1,50,0,0
86816,422.767436,4,3,1,50,1,8
86816,-101.010101010101,4,3,1,50,0,0
87238,425.667766,4,3,1,50,1,8
87238,-101.010101010101,4,3,1,50,0,0
87664,416.235978,4,3,1,50,1,0
87664,-103.092783505155,4,3,1,50,0,0
88080,446.71109,4,3,1,50,1,8
88080,-96.1538461538461,4,3,1,50,0,0
88527,432.198811,4,3,1,50,1,8
88527,-99.009900990099,4,3,1,50,0,0
88959,438.004161,4,3,1,50,1,8
88959,-98.0392156862745,4,3,1,50,0,0
89397,397.369414,4,3,1,50,1,0
89397,-107.52688172043,4,3,1,50,0,0
89795,424.944226,4,3,1,50,1,8
89795,-101.010101010101,4,3,1,50,0,0
90220,408.97844,4,3,1,50,1,8
90220,-105.263157894737,4,3,1,50,0,0
90629,450.33888,4,3,1,50,1,8
90629,-95.2380952380952,4,3,1,50,0,0
91079,433.651344,4,3,1,50,1,0
91079,-99.009900990099,4,3,1,50,0,0
91513,439.454198,4,3,1,50,1,8
91513,-97.0873786407767,4,3,1,50,0,0
91952,417.687681,4,3,1,50,1,8
91952,-103.092783505155,4,3,1,50,0,0
92370,428.571429,4,3,1,50,1,8
92370,-100,4,3,1,50,0,0
92798,416.962015,4,3,1,50,1,0
92798,-103.092783505155,4,3,1,50,0,0
93215,447.437303,4,3,1,50,1,8
93215,-96.1538461538461,4,3,1,50,0,0
93663,427.119223,4,3,1,50,1,8
93663,-100,4,3,1,50,0,0
94090,431.474636,4,3,1,50,1,8
94090,-99.009900990099,4,3,1,50,0,0
94521,403.174326,4,3,1,50,1,0
94521,-106.382978723404,4,3,1,50,0,0
94924,443.082376,4,3,1,50,1,8
94924,-97.0873786407767,4,3,1,50,0,0
95367,424.217143,4,3,1,50,1,8
95367,-101.010101010101,4,3,1,50,0,0
95792,432.925421,4,3,1,50,1,8
95792,-99.009900990099,4,3,1,50,0,0
96225,394.466944,4,3,1,50,1,0
96225,-108.695652173913,4,3,1,50,0,0
96619,422.767436,4,3,1,50,1,8
96619,-101.010101010101,4,3,1,50,0,0
97042,403.898971,4,3,1,50,1,8
97042,-106.382978723404,4,3,1,50,0,0
97446,451.790219,4,3,1,50,1,8
97446,-95.2380952380952,4,3,1,50,0,0
97898,414.444782,4,3,1,50,1,0
97898,-103.092783505155,4,3,1,50,0,0
98312,456.530671,4,3,1,50,1,8
98312,-93.4579439252336,4,3,1,50,0,0
98769,416.620376,4,3,1,50,1,8
98769,-103.092783505155,4,3,1,50,0,0
99185,440.567451,4,3,1,50,1,8
99185,-97.0873786407767,4,3,1,50,0,0
99626,431.111909,4,3,1,50,1,0
99626,-99.009900990099,4,3,1,50,0,0
100057,441.293284,4,3,1,50,1,8
100057,-97.0873786407767,4,3,1,50,0,0
100498,415.895527,4,3,1,50,1,8
100498,-103.092783505155,4,3,1,50,0,0
100914,434.760556,4,3,1,50,1,8
100914,-99.009900990099,4,3,1,50,0,0
101349,430.406806,4,3,1,50,1,0
101349,-100,4,3,1,50,0,0
101779,429.660926,4,3,1,50,1,8
101779,-100,4,3,1,50,0,0
102209,422.425143,4,3,1,50,1,8
102209,-101.010101010101,4,3,1,50,0,0
102631,419.524679,4,3,1,50,1,8
102631,-102.040816326531,4,3,1,50,0,0
103051,858.639343,4,3,1,50,1,0
103051,-50,4,3,1,50,0,0
103480,896.37863,4,3,1,50,1,8
103480,-47.8468899521531,4,3,1,50,0,0
103928,897.102359,4,3,1,50,1,8
103928,-47.8468899521531,4,3,1,50,0,0
104377,769.388593,4,3,1,50,1,8
104377,-55.5555555555556,4,3,1,50,0,0
104762,416.962015,4,3,1,50,1,0
104762,-103.092783505155,4,3,1,50,0,0
105179,435.827964,4,3,1,50,1,8
105179,-98.0392156862745,4,3,1,50,0,0
105614,416.962015,4,3,1,50,1,8
105614,-103.092783505155,4,3,1,50,0,0
106031,441.631091,4,3,1,50,1,8
106031,-97.0873786407767,4,3,1,50,0,0
106473,419.865223,4,3,1,50,1,0
106473,-102.040816326531,4,3,1,50,0,0
106893,433.651344,4,3,1,50,1,8
106893,-99.009900990099,4,3,1,50,0,0
107326,410.430405,4,3,1,50,1,8
107326,-104.166666666667,4,3,1,50,0,0
107737,425.667766,4,3,1,50,1,8
107737,-101.010101010101,4,3,1,50,0,0
108163,427.119223,4,3,1,50,1,0
108163,-100,4,3,1,50,0,0
108590,436.554133,4,3,1,50,1,8
108590,-98.0392156862745,4,3,1,50,0,0
109026,414.058672,4,3,1,50,1,8
109026,-103.092783505155,4,3,1,50,0,0
109440,415.509588,4,3,1,50,1,8
109440,-103.092783505155,4,3,1,50,0,0
109856,459.049003,4,3,1,50,1,0
109856,-93.4579439252336,4,3,1,50,0,0
110315,503.309258,4,3,1,50,1,8
110315,-85.4700854700855,4,3,1,50,0,0
110818,449.613333,4,3,1,50,1,8
110818,-95.2380952380952,4,3,1,50,0,0
111268,305.941382,4,3,1,50,1,8
111268,-140.845070422535,4,3,1,50,0,0
111574,453.967678,4,3,1,50,1,0
111574,-94.3396226415094,4,3,1,50,0,0
112028,427.847144,4,3,1,50,1,8
112028,-100,4,3,1,50,0,0
112456,405.350628,4,3,1,50,1,8
112456,-105.263157894737,4,3,1,50,0,0
112861,433.651344,4,3,1,50,1,8
112861,-99.009900990099,4,3,1,50,0,0
113295,422.041838,4,3,1,50,1,0
113295,-102.040816326531,4,3,1,50,0,0
113717,435.101052,4,3,1,50,1,8
113717,-98.0392156862745,4,3,1,50,0,0
114152,416.235978,4,3,1,50,1,8
114152,-103.092783505155,4,3,1,50,0,0
114568,421.315769,4,3,1,50,1,8
114568,-102.040816326531,4,3,1,50,0,0
114989,428.571429,4,3,1,50,1,0
114989,-100,4,3,1,50,0,0
115418,431.474636,4,3,1,50,1,8
115418,-99.009900990099,4,3,1,50,0,0
115849,412.606504,4,3,1,50,1,8
115849,-104.166666666667,4,3,1,50,0,0
116262,420.589246,4,3,1,50,1,8
116262,-102.040816326531,4,3,1,50,0,0
116682,852.79361,4,3,1,50,1,0
116682,-50.251256281407,4,3,1,50,0,0
117109,838.281523,4,3,1,50,1,8
117109,-51.0204081632653,4,3,1,50,0,0
117528,848.392297,4,3,1,50,1,8
117528,-50.5050505050505,4,3,1,50,0,0
117952,944.212763,4,3,1,50,1,8
117952,-45.4545454545455,4,3,1,50,0,0
118424,424.013286,4,3,1,50,1,0
118424,-101.010101010101,4,3,1,50,0,0
118848,426.21204,4,3,1,50,1,8
118848,-101.010101010101,4,3,1,50,0,0
119275,407.345803,4,3,1,50,1,8
119275,-105.263157894737,4,3,1,50,0,0
119682,422.561993,4,3,1,50,1,8
119682,-101.010101010101,4,3,1,50,0,0
120104,420.409479,4,3,1,50,1,0
120104,-102.040816326531,4,3,1,50,0,0
120525,434.194244,4,3,1,50,1,8
120525,-99.009900990099,4,3,1,50,0,0
120959,413.855895,4,3,1,50,1,8
120959,-103.092783505155,4,3,1,50,0,0
121373,437.821982,4,3,1,50,1,8
121373,-98.0392156862745,4,3,1,50,0,0
121811,422.585803,4,3,1,50,1,0
121811,-101.010101010101,4,3,1,50,0,0
122233,438.525968,4,3,1,50,1,8
122233,-98.0392156862745,4,3,1,50,0,0
122672,418.232133,4,3,1,50,1,8
122672,-102.040816326531,4,3,1,50,0,0
123090,407.345803,4,3,1,50,1,8
123090,-105.263157894737,4,3,1,50,0,0
123497,450.136166,4,3,1,50,1,0
123497,-95.2380952380952,4,3,1,50,0,0
123948,461.769346,4,3,1,50,1,8
123948,-92.5925925925926,4,3,1,50,0,0
124409,389.183299,4,3,1,50,1,8
124409,-109.89010989011,4,3,1,50,0,0
124798,458.141169,4,3,1,50,1,8
124798,-93.4579439252336,4,3,1,50,0,0
125257,426.985482,4,3,1,50,1,0
125257,-100,4,3,1,50,0,0
125684,422.630452,4,3,1,50,1,8
125684,-101.010101010101,4,3,1,50,0,0
126106,417.551063,4,3,1,50,1,8
126106,-103.092783505155,4,3,1,50,0,0
126524,432.78802,4,3,1,50,1,8
126524,-99.009900990099,4,3,1,50,0,0
126957,422.630452,4,3,1,50,1,0
126957,-101.010101010101,4,3,1,50,0,0
127379,436.395374,4,3,1,50,1,8
127379,-98.0392156862745,4,3,1,50,0,0
127816,419.003191,4,3,1,50,1,8
127816,-102.040816326531,4,3,1,50,0,0
128235,431.338155,4,3,1,50,1,8
128235,-99.009900990099,4,3,1,50,0,0
128666,423.355089,4,3,1,50,1,0
128666,-101.010101010101,4,3,1,50,0,0
129089,438.593285,4,3,1,50,1,8
129089,-98.0392156862745,4,3,1,50,0,0
129528,414.648137,4,3,1,50,1,8
129528,-103.092783505155,4,3,1,50,0,0
129943,426.25746,4,3,1,50,1,8
129943,-101.010101010101,4,3,1,50,0,0
130369,859.045028,4,3,1,50,1,0
130369,-50,4,3,1,50,0,0
130798,893.881382,4,3,1,50,1,8
130798,-47.8468899521531,4,3,1,50,0,0
131245,907.660656,4,3,1,50,1,8
131245,-47.1698113207547,4,3,1,50,0,0
131699,858.319982,4,3,1,50,1,8
131699,-50,4,3,1,50,0,0
132128,820.591373,4,3,1,50,1,0
132128,-52.3560209424084,4,3,1,50,0,0
132539,864.129965,4,3,1,50,1,8
132539,-49.5049504950495,4,3,1,50,0,0
132971,815.505477,4,3,1,50,1,8
132971,-52.6315789473684,4,3,1,50,0,0
133378,771.97226,4,3,1,50,1,8
133378,-55.5555555555556,4,3,1,50,0,0
133764,439.319055,4,3,1,50,1,0
133764,-97.0873786407767,4,3,1,50,0,0
134204,416.100308,4,3,1,50,1,8
134204,-103.092783505155,4,3,1,50,0,0
134620,411.020839,4,3,1,50,1,8
134620,-104.166666666667,4,3,1,50,0,0
135031,429.88565,4,3,1,50,1,8
135031,-100,4,3,1,50,0,0
135461,421.179724,4,3,1,50,1,0
135461,-102.040816326531,4,3,1,50,0,0
135882,430.610678,4,3,1,50,1,8
135882,-100,4,3,1,50,0,0
136312,415.351387,4,3,1,50,1,8
136312,-103.092783505155,4,3,1,50,0,0
136728,440.77135,4,3,1,50,1,8
136728,-97.0873786407767,4,3,1,50,0,0
137169,424.805828,4,3,1,50,1,0
137169,-101.010101010101,4,3,1,50,0,0
137593,434.943349,4,3,1,50,1,8
137593,-99.009900990099,4,3,1,50,0,0
138028,430.610678,4,3,1,50,1,8
138028,-100,4,3,1,50,0,0
138459,408.844673,4,3,1,50,1,8
138459,-105.263157894737,4,3,1,50,0,0
138868,452.379516,4,3,1,50,1,0
138868,-94.3396226415094,4,3,1,50,0,0
139320,400.136046,4,3,1,50,1,8
139320,-107.52688172043,4,3,1,50,0,0
139720,409.570293,4,3,1,50,1,8
139720,-104.166666666667,4,3,1,50,0,0
140130,419.727177,4,3,1,50,1,8
140130,-102.040816326531,4,3,1,50,0,0
140550,485.032699,4,3,1,50,1,0
140550,-88.495575221239,4,3,1,50,0,0
140792,409.570293,4,3,1,50,1,8
140792,-104.166666666667,4,3,1,50,0,0
140997,423.355089,4,3,1,50,1,8
140997,-101.010101010101,4,3,1,50,0,0
141420,435.691879,4,3,1,50,1,8
141420,-98.0392156862745,4,3,1,50,0,0
141856,429.88565,4,3,1,50,1,8
141856,-100,4,3,1,50,0,0
142286,422.630452,4,3,1,50,1,0
142286,-101.010101010101,4,3,1,50,0,0
142708,457.596095,4,3,1,50,1,8
142708,-93.4579439252336,4,3,1,50,0,0
143166,406.077629,4,3,1,50,1,8
143166,-105.263157894737,4,3,1,50,0,0
143572,420.589246,4,3,1,50,1,8
143572,-102.040816326531,4,3,1,50,0,0
143993,418.41296,4,3,1,50,1,0
143993,-102.040816326531,4,3,1,50,0,0
144411,454.693574,4,3,1,50,1,8
144411,-94.3396226415094,4,3,1,50,0,0
144866,430.749792,4,3,1,50,1,8
144866,-99.009900990099,4,3,1,50,0,0
145297,436.554133,4,3,1,50,1,8
145297,-98.0392156862745,4,3,1,50,0,0
145733,406.801725,4,3,1,50,1,0
145733,-105.263157894737,4,3,1,50,0,0
146140,455.41834,4,3,1,50,1,8
146140,-94.3396226415094,4,3,1,50,0,0
146595,420.589246,4,3,1,50,1,8
146595,-102.040816326531,4,3,1,50,0,0
147016,424.944226,4,3,1,50,1,8
147016,-101.010101010101,4,3,1,50,0,0
147441,401.722049,4,3,1,50,1,0
147441,-106.382978723404,4,3,1,50,0,0
147843,443.809961,4,3,1,50,1,8
147843,-96.1538461538461,4,3,1,50,0,0
148286,423.492543,4,3,1,50,1,8
148286,-101.010101010101,4,3,1,50,0,0
148710,416.100308,4,3,1,50,1,8
148710,-103.092783505155,4,3,1,50,0,0
149126,426.985482,4,3,1,50,1,0
149126,-100,4,3,1,50,0,0
149553,427.709899,4,3,1,50,1,8
149553,-100,4,3,1,50,0,0
149981,448.028674,4,3,1,50,1,8
149981,-95.2380952380952,4,3,1,50,0,0
150429,410.295686,4,3,1,50,1,8
150429,-104.166666666667,4,3,1,50,0,0
150839,423.33418,4,3,1,50,1,0
150839,-101.010101010101,4,3,1,50,0,0
151262,445.851353,4,3,1,50,1,8
151262,-96.1538461538461,4,3,1,50,0,0
151708,413.197529,4,3,1,50,1,8
151708,-104.166666666667,4,3,1,50,0,0
152121,431.338155,4,3,1,50,1,8
152121,-99.009900990099,4,3,1,50,0,0
152553,403.763072,4,3,1,50,1,0
152553,-106.382978723404,4,3,1,50,0,0
152957,442.948264,4,3,1,50,1,8
152957,-97.0873786407767,4,3,1,50,0,0
153399,430.610678,4,3,1,50,1,8
153399,-100,4,3,1,50,0,0
153830,412.447671,4,3,1,50,1,8
153830,-104.166666666667,4,3,1,50,0,0
154243,413.197529,4,3,1,50,1,0
154243,-104.166666666667,4,3,1,50,0,0
154656,456.010215,4,3,1,50,1,8
154656,-94.3396226415094,4,3,1,50,0,0
155112,422.517358,4,3,1,50,1,8
155112,-101.010101010101,4,3,1,50,0,0
155534,408.435556,4,3,1,50,1,8
155534,-105.263157894737,4,3,1,50,0,0
155943,434.376561,4,3,1,50,1,0
155943,-99.009900990099,4,3,1,50,0,0
156377,445.98723,4,3,1,50,1,8
156377,-96.1538461538461,4,3,1,50,0,0
156823,418.41296,4,3,1,50,1,8
156823,-102.040816326531,4,3,1,50,0,0
157241,414.785729,4,3,1,50,1,8
157241,-103.092783505155,4,3,1,50,0,0
157656,420.589246,4,3,1,50,1,0
157656,-102.040816326531,4,3,1,50,0,0
158077,431.474636,4,3,1,50,1,8
158077,-99.009900990099,4,3,1,50,0,0
158508,440.182823,4,3,1,50,1,8
158508,-97.0873786407767,4,3,1,50,0,0
158949,406.801725,4,3,1,50,1,8
158949,-105.263157894737,4,3,1,50,0,0
159355,422.041838,4,3,1,50,1,0
159355,-102.040816326531,4,3,1,50,0,0
159777,447.437303,4,3,1,50,1,8
159777,-96.1538461538461,4,3,1,50,0,0
160225,427.847144,4,3,1,50,1,8
160225,-100,4,3,1,50,0,0
160653,424.944226,4,3,1,50,1,8
160653,-101.010101010101,4,3,1,50,0,0
161078,422.767436,4,3,1,50,1,0
161078,-101.010101010101,4,3,1,50,0,0
161500,454.693574,4,3,1,50,1,8
161500,-94.3396226415094,4,3,1,50,0,0
161955,413.33416,4,3,1,50,1,8
161955,-104.166666666667,4,3,1,50,0,0
162368,415.509588,4,3,1,50,1,8
162368,-103.092783505155,4,3,1,50,0,0
162784,430.135278,4,3,1,50,1,0
162784,-100,4,3,1,50,0,0
163214,435.21467,4,3,1,50,1,8
163214,-98.0392156862745,4,3,1,50,0,0
163649,440.295879,4,3,1,50,1,8
163649,-97.0873786407767,4,3,1,50,0,0
164090,417.801113,4,3,1,50,1,8
164090,-103.092783505155,4,3,1,50,0,0
164507,418.526786,4,3,1,50,1,0
164507,-102.040816326531,4,3,1,50,0,0
164926,450.453832,4,3,1,50,1,8
164926,-95.2380952380952,4,3,1,50,0,0
165376,413.448088,4,3,1,50,1,8
165376,-104.166666666667,4,3,1,50,0,0
165790,418.526786,4,3,1,50,1,8
165790,-102.040816326531,4,3,1,50,0,0
166208,421.42822,4,3,1,50,1,0
166208,-102.040816326531,4,3,1,50,0,0
166630,433.764206,4,3,1,50,1,8
166630,-99.009900990099,4,3,1,50,0,0
167063,440.295879,4,3,1,50,1,8
167063,-97.0873786407767,4,3,1,50,0,0
167504,439.264379,4,3,1,50,1,8
167504,-98.0392156862745,4,3,1,50,0,0
167870,554.287879,4,3,1,50,1,8
167870,-77.5193798449612,4,3,1,50,0,0
167962,940.763273,4,3,1,50,1,0
167962,-45.4545454545455,4,3,1,50,0,0
168080,834.65487,4,3,1,50,1,8
168080,-51.2820512820513,4,3,1,50,0,0
168288,1090.076669,4,3,1,50,1,8
168288,-39.3700787401575,4,3,1,50,0,0
168425,828.843763,4,3,1,50,1,8
168425,-51.8134715025907,4,3,1,50,0,0
168528,712.741441,4,3,1,50,1,8
168528,-60.2409638554217,4,3,1,50,0,0
168617,631.472594,4,3,1,50,1,8
168617,-68.0272108843538,4,3,1,50,0,0
168696,1119.277693,4,3,1,50,1,8
168696,-38.3141762452107,4,3,1,50,0,0
168836,903.043256,4,3,1,50,1,8
168836,-47.39336492891,4,3,1,50,0,0
168949,740.503048,4,3,1,50,1,8
168949,-57.8034682080925,4,3,1,50,0,0
169042,821.771465,4,3,1,50,1,8
169042,-52.0833333333333,4,3,1,50,0,0
169144,868.206286,4,3,1,50,1,8
169144,-49.2610837438424,4,3,1,50,0,0
169253,949.472252,4,3,1,50,1,8
169253,-45.045045045045,4,3,1,50,0,0
169372,554.738857,4,3,1,50,1,8
169372,-77.5193798449612,4,3,1,50,0,0
169441,647.801255,4,3,1,50,1,8
169441,-66.2251655629139,4,3,1,50,0,0
169522,1112.202717,4,3,1,50,1,8
169522,-38.4615384615385,4,3,1,50,0,0
169661,1019.142901,4,3,1,50,1,8
169661,-42.0168067226891,4,3,1,50,0,0
169788,715.648855,4,3,1,50,1,8
169788,-59.8802395209581,4,3,1,50,0,0
169878,698.23463,4,3,1,50,1,8
169878,-61.3496932515337,4,3,1,50,0,0
169965,1086.071138,4,3,1,50,1,8
169965,-39.5256916996047,4,3,1,50,0,0
170101,810.339938,4,3,1,50,1,8
170101,-52.9100529100529,4,3,1,50,0,0
170202,589.570498,4,3,1,50,1,8
170202,-72.463768115942,4,3,1,50,0,0
170276,804.537592,4,3,1,50,1,8
170276,-53.1914893617021,4,3,1,50,0,0
170376,1083.169354,4,3,1,50,1,8
170376,-39.5256916996047,4,3,1,50,0,0
170512,842.081626,4,3,1,50,1,8
170512,-51.0204081632653,4,3,1,50,0,0
170617,342.857143,4,3,1,50,1,8
170617,-125,4,3,1,50,0,0
170660,1041.449698,4,3,1,50,1,8
170660,-41.1522633744856,4,3,1,50,0,0
170790,1169.157622,4,3,1,50,1,8
170790,-36.6300366300366,4,3,1,50,0,0
170936,603.172688,4,3,1,50,1,8
170936,-70.9219858156028,4,3,1,50,0,0
171012,757.910693,4,3,1,50,1,8
171012,-56.4971751412429,4,3,1,50,0,0
171154,1110.206498,4,3,1,50,1,8
171154,-38.6100386100386,4,3,1,50,0,0
171293,854.78609,4,3,1,50,1,8
171293,-50.251256281407,4,3,1,50,0,0
171346,847.936687,4,3,1,50,1,0
171346,-50.5050505050505,4,3,1,50,0,0
172194,843.585237,4,3,1,50,1,8
172194,-50.761421319797,4,3,1,50,0,0
173038,853.011843,4,3,1,50,1,0
173038,-50.251256281407,4,3,1,50,0,0
173891,861.722296,4,3,1,50,1,8
173891,-49.7512437810945,4,3,1,50,0,0
174752,832.697245,4,3,1,50,1,0
174752,-51.5463917525773,4,3,1,50,0,0
175585,854.676505,4,3,1,50,1,8
175585,-50.251256281407,4,3,1,50,0,0
176440,869.18731,4,3,1,50,1,0
176440,-49.2610837438424,4,3,1,50,0,0
177309,869.111768,4,3,1,50,1,8
177309,-49.2610837438424,4,3,1,50,0,0
178178,827.027251,4,3,1,50,1,0
178178,-51.8134715025907,4,3,1,50,0,0
179005,846.979108,4,3,1,50,1,8
179005,-50.5050505050505,4,3,1,50,0,0
179852,862.180454,4,3,1,50,1,0
179852,-49.7512437810945,4,3,1,50,0,0
180714,863.669733,4,3,1,50,1,8
180714,-49.5049504950495,4,3,1,50,0,0
181578,833.92403,4,3,1,50,1,0
181578,-51.2820512820513,4,3,1,50,0,0
182307,1280.901755,4,3,1,50,1,8
182307,-33.4448160535117,4,3,1,50,0,0
182468,832.928438,4,3,1,50,1,8
182468,-51.5463917525773,4,3,1,50,0,0
183300,846.716153,4,3,1,50,1,0
183300,-50.5050505050505,4,3,1,50,0,0
184147,853.218054,4,3,1,50,1,8
184147,-50.251256281407,4,3,1,50,0,0
185000,846.716153,4,3,1,50,1,0
185000,-50.5050505050505,4,3,1,50,0,0
185847,851.788756,4,3,1,50,1,8
185847,-50.251256281407,4,3,1,50,0,0
186699,864.129965,4,3,1,50,1,0
186699,-49.5049504950495,4,3,1,50,0,0
187563,845.964047,4,3,1,50,1,8
187563,-50.761421319797,4,3,1,50,0,0
188409,841.632768,4,3,1,50,1,0
188409,-51.0204081632653,4,3,1,50,0,0
189251,857.596158,4,3,1,50,1,8
189251,-50,4,3,1,50,0,0
190108,839.454355,4,3,1,50,1,0
190108,-51.0204081632653,4,3,1,50,0,0
190948,851.06383,4,3,1,50,1,8
190948,-50.251256281407,4,3,1,50,0,0
191799,853.970965,4,3,1,50,1,0
191799,-50.251256281407,4,3,1,50,0,0
192653,822.763113,4,3,1,50,1,8
192653,-52.0833333333333,4,3,1,50,0,0
193476,884.916597,4,3,1,50,1,0
193476,-48.5436893203883,4,3,1,50,0,0
194360,862.192844,4,3,1,50,1,8
194360,-49.7512437810945,4,3,1,50,0,0
195223,844.012435,4,3,1,50,1,0
195223,-50.761421319797,4,3,1,50,0,0
196067,888.98108,4,3,1,50,1,8
196067,-48.3091787439614,4,3,1,50,0,0
196956,808.461901,4,3,1,50,1,0
196956,-52.9100529100529,4,3,1,50,0,0
197764,836.027199,4,3,1,50,1,8
197764,-51.2820512820513,4,3,1,50,0,0
198600,862.515094,4,3,1,50,1,0
198600,-49.7512437810945,4,3,1,50,0,0
199463,479.321281,4,3,1,50,1,8
199463,-89.2857142857143,4,3,1,50,0,0
199942,433.651344,4,3,1,50,1,8
199942,-99.009900990099,4,3,1,50,0,0
200376,425.531915,4,3,1,50,1,0
200376,-101.010101010101,4,3,1,50,0,0

[HitObjects]
192,192,5359,128,0,8250:0:0:0:50:drum1.wav
320,192,5359,1,0,0:0:0:50:cymbal3.wav
448,192,8250,128,0,11145:0:0:0:50:drum1.wav
320,192,11145,128,0,12155:0:0:0:50:drum1.wav
192,192,12155,128,0,14067:0:0:0:50:drum1.wav
64,192,14067,128,0,17002:0:0:0:50:drum1.wav
320,192,17002,128,0,19957:0:0:0:50:cymbal3.wav
192,192,17002,1,0,0:0:0:50:kick.wav
64,192,17434,1,0,0:0:0:50:drum1.wav
448,192,19957,128,0,22844:0:0:0:50:drum1.wav
64,192,22844,128,0,23880:0:0:0:50:kick.wav
320,192,22844,1,0,0:0:0:50:cymbal3.wav
448,192,23299,1,0,0:0:0:50:drum1.wav
320,192,23880,128,0,25782:0:0:0:50:drum1.wav
192,192,25782,128,0,28676:0:0:0:50:drum1.wav
64,192,28676,128,0,31611:0:0:0:50:kick.wav
448,192,28676,1,0,0:0:0:50:cymbal3.wav
64,192,32113,128,0,32787:0:0:0:50:kick.wav
64,192,33321,128,0,34347:0:0:0:50:kick.wav
448,192,36116,128,0,37792:0:0:0:50:drum1.wav
64,192,37792,1,0,0:0:0:50:kick.wav
192,192,38982,128,0,39461:0:0:0:50:drum1.wav
320,192,40291,128,0,41318:0:0:0:50:drum1.wav
192,192,41318,1,0,0:0:0:50:drum1.wav
64,192,43249,1,0,0:0:0:50:kick.wav
448,192,43249,1,0,0:0:0:50:drum1.wav
320,192,43692,1,0,0:0:0:50:drum1.wav
64,192,44095,1,0,0:0:0:50:cymbal1.wav
192,192,44530,1,0,0:0:0:50:drum1.wav
320,192,44959,1,0,0:0:0:50:kick.wav
448,192,45366,1,0,0:0:0:50:drum1.wav
192,192,45784,1,0,0:0:0:50:cymbal1.wav
64,192,46219,1,0,0:0:0:50:drum1.wav
320,192,46640,1,0,0:0:0:50:cymbal1.wav
448,192,47083,1,0,0:0:0:50:drum1.wav
64,192,47508,1,0,0:0:0:50:kick.wav
320,192,47949,1,0,0:0:0:50:drum1.wav
64,192,48376,1,0,0:0:0:50:cymbal1.wav
192,192,48804,1,0,0:0:0:50:drum1.wav
448,192,49231,1,0,0:0:0:50:kick.wav
320,192,49454,1,0,0:0:0:50:kick.wav
64,192,49679,1,0,0:0:0:50:drum1.wav
192,192,50116,1,0,0:0:0:50:kick.wav
320,192,50116,1,0,0:0:0:50:cymbal3.wav
448,192,50533,1,0,0:0:0:50:drum1.wav
64,192,50975,1,0,0:0:0:50:cymbal1.wav
192,192,51388,1,0,0:0:0:50:drum1.wav
448,192,51805,1,0,0:0:0:50:kick.wav
320,192,52219,1,0,0:0:0:50:drum1.wav
192,192,52642,1,0,0:0:0:50:cymbal1.wav
64,192,53070,1,0,0:0:0:50:drum1.wav
320,192,53499,1,0,0:0:0:50:kick.wav
192,192,53927,1,0,0:0:0:50:drum1.wav
448,192,54350,1,0,0:0:0:50:cymbal1.wav
320,192,54783,1,0,0:0:0:50:drum1.wav
64,192,55222,1,0,0:0:0:50:kick.wav
448,192,55650,1,0,0:0:0:50:drum1.wav
192,192,56063,1,0,0:0:0:50:cymbal1.wav
64,192,56514,1,0,0:0:0:50:drum1.wav
448,192,56931,1,0,0:0:0:50:drum1.wav
64,192,57263,1,0,0:0:0:50:drum1.wav
192,192,57777,1,0,0:0:0:50:kick.wav
448,192,57777,1,0,0:0:0:50:cymbal3.wav
320,192,58236,1,0,0:0:0:50:drum1.wav
448,192,58651,1,0,0:0:0:50:cymbal1.wav
192,192,59065,1,0,0:0:0:50:drum1.wav
64,192,59491,1,0,0:0:0:50:kick.wav
320,192,59918,1,0,0:0:0:50:drum1.wav
192,192,60353,1,0,0:0:0:50:cymbal1.wav
64,192,60781,1,0,0:0:0:50:drum1.wav
320,192,61209,1,0,0:0:0:50:kick.wav
448,192,61628,1,0,0:0:0:50:drum1.wav
64,192,62053,1,0,0:0:0:50:cymbal1.wav
192,192,62481,1,0,0:0:0:50:drum1.wav
320,192,62903,1,0,0:0:0:50:kick.wav
448,192,63317,1,0,0:0:0:50:drum1.wav
64,192,63525,1,0,0:0:0:50:drum1.wav
320,192,63734,1,0,0:0:0:50:kick.wav
448,192,63734,1,0,0:0:0:50:cymbal3.wav
64,192,64175,1,0,0:0:0:50:drum1.wav
320,192,64607,1,0,0:0:0:50:cymbal1.wav
192,192,65028,1,0,0:0:0:50:drum1.wav
448,192,65460,1,0,0:0:0:50:kick.wav
64,192,65893,1,0,0:0:0:50:drum1.wav
192,192,66340,1,0,0:0:0:50:cymbal1.wav
320,192,66762,1,0,0:0:0:50:drum1.wav
64,192,67190,1,0,0:0:0:50:kick.wav
448,192,67606,1,0,0:0:0:50:drum1.wav
320,192,68029,1,0,0:0:0:50:cymbal1.wav
192,192,68468,1,0,0:0:0:50:drum1.wav
448,192,68883,1,0,0:0:0:50:kick.wav
320,192,69289,1,0,0:0:0:50:drum1.wav
448,192,69509,1,0,0:0:0:50:drum1.wav
192,192,69729,1,0,0:0:0:50:drum4.wav
64,192,70135,1,0,0:0:0:50:drum3.wav
192,192,70576,1,0,0:0:0:50:kick.wav
448,192,70576,1,0,0:0:0:50:cymbal3.wav
320,192,71003,1,0,0:0:0:50:drum1.wav
64,192,71432,1,0,0:0:0:50:cymbal2.wav
320,192,71847,1,0,0:0:0:50:drum1.wav
192,192,72272,1,0,0:0:0:50:kick.wav
320,192,72686,1,0,0:0:0:50:drum1.wav
64,192,73134,1,0,0:0:0:50:cymbal2.wav
320,192,73569,1,0,0:0:0:50:drum1.wav
192,192,74005,1,0,0:0:0:50:kick.wav
320,192,74409,1,0,0:0:0:50:drum1.wav
64,192,74867,1,0,0:0:0:50:cymbal2.wav
320,192,75297,1,0,0:0:0:50:drum1.wav
192,192,75733,1,0,0:0:0:50:kick.wav
320,192,76138,1,0,0:0:0:50:drum1.wav
448,192,76570,1,0,0:0:0:50:cymbal2.wav
64,192,76986,1,0,0:0:0:50:drum1.wav
192,192,76986,1,0,0:0:0:50:cymbal3.wav
320,192,77415,1,0,0:0:0:50:kick.wav
448,192,77839,1,0,0:0:0:50:drum1.wav
192,192,78289,1,0,0:0:0:50:cymbal2.wav
448,192,78710,1,0,0:0:0:50:drum1.wav
320,192,79131,1,0,0:0:0:50:kick.wav
448,192,79546,1,0,0:0:0:50:drum1.wav
192,192,79992,1,0,0:0:0:50:cymbal2.wav
448,192,80411,1,0,0:0:0:50:drum1.wav
320,192,80854,1,0,0:0:0:50:kick.wav
448,192,81256,1,0,0:0:0:50:drum1.wav
192,192,81709,1,0,0:0:0:50:cymbal2.wav
448,192,82131,1,0,0:0:0:50:drum1.wav
320,192,82577,1,0,0:0:0:50:kick.wav
448,192,82968,1,0,0:0:0:50:drum1.wav
64,192,83386,1,0,0:0:0:50:drum1.wav
192,192,84006,1,0,0:0:0:50:drum1.wav
320,192,84218,1,0,0:0:0:50:kick.wav
448,192,84218,1,0,0:0:0:50:cymbal3.wav
192,192,84664,1,0,0:0:0:50:drum1.wav
320,192,85111,1,0,0:0:0:50:cymbal2.wav
192,192,85525,1,0,0:0:0:50:drum1.wav
448,192,85954,1,0,0:0:0:50:kick.wav
192,192,86362,1,0,0:0:0:50:drum1.wav
320,192,86816,1,0,0:0:0:50:cymbal2.wav
192,192,87238,1,0,0:0:0:50:drum1.wav
64,192,87664,1,0,0:0:0:50:kick.wav
192,192,88080,1,0,0:0:0:50:drum1.wav
320,192,88527,1,0,0:0:0:50:cymbal2.wav
192,192,88959,1,0,0:0:0:50:drum1.wav
448,192,89397,1,0,0:0:0:50:kick.wav
192,192,89795,1,0,0:0:0:50:drum1.wav
320,192,90220,1,0,0:0:0:50:cymbal2.wav
192,192,90757,1,0,0:0:0:50:kick.wav
320,192,91079,1,0,0:0:0:50:kick.wav
64,192,91513,1,0,0:0:0:50:drum1.wav
448,192,91952,1,0,0:0:0:50:cymbal2.wav
64,192,92370,1,0,0:0:0:50:drum1.wav
320,192,92798,1,0,0:0:0:50:kick.wav
64,192,93215,1,0,0:0:0:50:drum1.wav
192,192,93663,1,0,0:0:0:50:cymbal2.wav
64,192,94090,1,0,0:0:0:50:drum1.wav
320,192,94521,1,0,0:0:0:50:kick.wav
64,192,94924,1,0,0:0:0:50:drum1.wav
448,192,95367,1,0,0:0:0:50:cymbal2.wav
64,192,95792,1,0,0:0:0:50:drum1.wav
320,192,96225,1,0,0:0:0:50:kick.wav
64,192,96619,1,0,0:0:0:50:drum1.wav
192,192,97042,1,0,0:0:0:50:cymbal2.wav
64,192,97446,1,0,0:0:0:50:drum1.wav
320,192,97671,1,0,0:0:0:50:drum1.wav
64,192,97898,1,0,0:0:0:50:kick.wav
192,192,97898,1,0,0:0:0:50:cymbal3.wav
192,192,98540,1,0,0:0:0:50:cymbal5.wav
192,192,98977,1,0,0:0:0:50:cymbal5.wav
320,192,99405,1,0,0:0:0:50:cymbal5.wav
192,192,99626,1,0,0:0:0:50:kick.wav
192,192,100277,1,0,0:0:0:50:kick.wav
192,192,100705,1,0,0:0:0:50:cymbal5.wav
448,192,101131,1,0,0:0:0:50:cymbal5.wav
320,192,101349,1,0,0:0:0:0:
320,192,101993,1,0,0:0:0:50:kick.wav
320,192,102420,1,0,0:0:0:50:cymbal5.wav
320,192,102840,1,0,0:0:0:50:cymbal5.wav
64,192,103051,1,0,0:0:0:50:drum1.wav
192,192,104762,1,0,0:0:0:50:kick.wav
320,192,104762,1,0,0:0:0:50:cymbal3.wav
320,192,105396,1,0,0:0:0:50:cymbal5.wav
320,192,105822,1,0,0:0:0:50:cymbal5.wav
192,192,106251,1,0,0:0:0:50:cymbal5.wav
320,192,106473,1,0,0:0:0:50:kick.wav
320,192,107109,1,0,0:0:0:50:kick.wav
320,192,107531,1,0,0:0:0:50:cymbal5.wav
64,192,107949,1,0,0:0:0:50:cymbal5.wav
192,192,108163,1,0,0:0:0:50:kick.wav
192,192,108808,1,0,0:0:0:50:kick.wav
192,192,109233,1,0,0:0:0:50:cymbal5.wav
192,192,109647,1,0,0:0:0:50:cymbal5.wav
448,192,109856,1,0,0:0:0:50:drum1.wav
64,192,111574,1,0,0:0:0:50:kick.wav
448,192,111574,1,0,0:0:0:50:cymbal3.wav
192,192,112028,1,0,0:0:0:50:drum1.wav
448,192,112456,1,0,0:0:0:50:kick.wav
320,192,112658,1,0,0:0:0:50:cymbal5.wav
192,192,112861,1,0,0:0:0:50:drum1.wav
64,192,113295,1,0,0:0:0:50:kick.wav
320,192,113717,1,0,0:0:0:50:drum1.wav
64,192,114152,1,0,0:0:0:0:
192,192,114360,1,0,0:0:0:50:cymbal5.wav
320,192,114568,1,0,0:0:0:50:drum1.wav
448,192,114989,1,0,0:0:0:50:kick.wav
64,192,115418,1,0,0:0:0:50:drum1.wav
320,192,115849,1,0,0:0:0:0:
192,192,116055,1,0,0:0:0:50:kick.wav
448,192,116262,1,0,0:0:0:50:drum1.wav
320,192,116682,1,0,0:0:0:50:kick.wav
64,192,118424,1,0,0:0:0:50:kick.wav
320,192,118424,1,0,0:0:0:50:cymbal3.wav
192,192,118636,1,0,0:0:0:50:cymbal5.wav
448,192,118848,1,0,0:0:0:50:drum1.wav
64,192,119275,1,0,0:0:0:50:kick.wav
192,192,119478,1,0,0:0:0:50:cymbal5.wav
448,192,119682,1,0,0:0:0:50:drum1.wav
64,192,120104,1,0,0:0:0:50:kick.wav
192,192,120314,1,0,0:0:0:50:cymbal5.wav
448,192,120525,1,0,0:0:0:50:drum1.wav
64,192,120959,1,0,0:0:0:0:
192,192,121165,1,0,0:0:0:50:kick.wav
448,192,121373,1,0,0:0:0:50:drum1.wav
64,192,121811,1,0,0:0:0:50:kick.wav
448,192,122022,1,0,0:0:0:50:cymbal5.wav
320,192,122233,1,0,0:0:0:50:drum1.wav
64,192,122672,1,0,0:0:0:0:
448,192,122881,1,0,0:0:0:50:kick.wav
320,192,123090,1,0,0:0:0:50:drum1.wav
192,192,123497,1,0,0:0:0:50:drum1.wav
64,192,125257,1,0,0:0:0:50:kick.wav
448,192,125257,128,0,125684:0:0:0:50:cymbal3.wav
192,192,126106,1,0,0:0:0:50:kick.wav
320,192,126524,1,0,0:0:0:50:drum1.wav
64,192,126957,128,0,127379:0:0:0:50:kick.wav
320,192,127816,1,0,0:0:0:0:
192,192,128235,1,0,0:0:0:50:drum1.wav
320,192,128666,128,0,129089:0:0:0:50:kick.wav
64,192,129528,1,0,0:0:0:0:
448,192,129943,1,0,0:0:0:50:drum1.wav
64,192,130369,1,0,0:0:0:50:drum1.wav
192,192,133764,1,0,0:0:0:50:kick.wav
448,192,133764,1,0,0:0:0:50:cymbal3.wav
320,192,134204,1,0,0:0:0:50:drum1.wav
192,192,134412,128,0,135031:0:0:0:50:cymbal5.wav
320,192,135031,1,0,0:0:0:50:drum1.wav
448,192,135461,1,0,0:0:0:50:kick.wav
64,192,135882,1,0,0:0:0:50:drum1.wav
448,192,136097,128,0,136728:0:0:0:50:kick.wav
192,192,136728,1,0,0:0:0:50:drum1.wav
64,192,137169,1,0,0:0:0:50:kick.wav
320,192,137593,1,0,0:0:0:50:drum1.wav
64,192,137810,128,0,138459:0:0:0:50:kick.wav
448,192,138868,1,0,0:0:0:50:drum6.wav
320,192,142286,1,0,0:0:0:50:kick.wav
448,192,142286,1,0,0:0:0:50:cymbal3.wav
192,192,142936,1,0,0:0:0:50:kick.wav
320,192,143572,1,0,0:0:0:50:drum1.wav
192,192,143782,1,0,0:0:0:50:cymbal2.wav
64,192,143993,1,0,0:0:0:50:kick.wav
320,192,144638,1,0,0:0:0:50:kick.wav
192,192,145297,1,0,0:0:0:50:drum1.wav
64,192,145515,1,0,0:0:0:50:cymbal2.wav
448,192,145733,1,0,0:0:0:50:kick.wav
192,192,146367,1,0,0:0:0:50:kick.wav
64,192,147016,1,0,0:0:0:50:drum1.wav
192,192,147228,1,0,0:0:0:50:cymbal2.wav
448,192,147441,1,0,0:0:0:50:kick.wav
320,192,147843,1,0,0:0:0:50:drum1.wav
192,192,148286,1,0,0:0:0:50:cymbal2.wav
448,192,148497,1,0,0:0:0:50:kick.wav
64,192,148710,1,0,0:0:0:50:drum1.wav
448,192,149126,1,0,0:0:0:50:kick.wav
64,192,149766,1,0,0:0:0:50:kick.wav
192,192,150429,1,0,0:0:0:50:drum1.wav
320,192,150634,1,0,0:0:0:50:cymbal2.wav
448,192,150839,1,0,0:0:0:50:kick.wav
320,192,151484,1,0,0:0:0:50:kick.wav
64,192,152121,1,0,0:0:0:50:drum1.wav
320,192,152336,1,0,0:0:0:50:cymbal2.wav
448,192,152553,1,0,0:0:0:50:kick.wav
192,192,153178,1,0,0:0:0:50:kick.wav
448,192,153830,1,0,0:0:0:50:drum1.wav
320,192,154036,1,0,0:0:0:50:cymbal2.wav
64,192,154243,1,0,0:0:0:50:kick.wav
192,192,154656,1,0,0:0:0:50:drum1.wav
320,192,155112,1,0,0:0:0:50:drum1.wav
448,192,155112,1,0,0:0:0:50:cymbal2.wav
448,192,155738,1,0,0:0:0:50:drum1.wav
64,192,155943,1,0,0:0:0:50:kick.wav
192,192,155943,1,0,0:0:0:50:cymbal3.wav
448,192,156599,1,0,0:0:0:50:kick.wav
64,192,157241,1,0,0:0:0:50:drum1.wav
320,192,157448,1,0,0:0:0:50:cymbal2.wav
192,192,157656,1,0,0:0:0:50:kick.wav
320,192,158292,1,0,0:0:0:50:kick.wav
192,192,158949,1,0,0:0:0:50:drum1.wav
64,192,159152,1,0,0:0:0:50:cymbal2.wav
320,192,159355,1,0,0:0:0:50:kick.wav
448,192,160000,1,0,0:0:0:50:kick.wav
192,192,160653,1,0,0:0:0:50:drum1.wav
320,192,160865,1,0,0:0:0:50:cymbal2.wav
448,192,161078,1,0,0:0:0:50:kick.wav
64,192,161500,1,0,0:0:0:50:drum1.wav
320,192,161955,1,0,0:0:0:50:cymbal2.wav
448,192,161955,1,0,0:0:0:0:
192,192,162368,1,0,0:0:0:50:drum1.wav
448,192,162784,1,0,0:0:0:50:kick.wav
64,192,163431,1,0,0:0:0:50:kick.wav
320,192,164090,1,0,0:0:0:50:drum1.wav
448,192,164298,1,0,0:0:0:50:cymbal2.wav
192,192,164507,1,0,0:0:0:50:kick.wav
448,192,165151,1,0,0:0:0:50:kick.wav
320,192,165790,1,0,0:0:0:50:drum1.wav
64,192,165999,1,0,0:0:0:50:cymbal2.wav
192,192,166208,1,0,0:0:0:50:kick.wav
320,192,166630,1,0,0:0:0:50:drum1.wav
64,192,167063,1,0,0:0:0:50:drum1.wav
192,192,167283,1,0,0:0:0:50:drum1.wav
448,192,167504,1,0,0:0:0:50:drum1.wav
320,192,167723,1,0,0:0:0:50:drum1.wav
64,192,167962,1,0,0:0:0:50:kick.wav
192,192,167962,1,0,0:0:0:50:cymbal4.wav
64,192,171346,1,0,0:0:0:50:kick.wav
320,192,171346,1,0,0:0:0:50:cymbal3.wav
64,192,172826,1,0,0:0:0:50:kick.wav
192,192,172826,1,0,0:0:0:50:cymbal4.wav
192,192,174752,1,0,0:0:0:50:kick.wav
448,192,174752,1,0,0:0:0:50:cymbal2.wav
320,192,176226,1,0,0:0:0:50:kick.wav
448,192,176226,1,0,0:0:0:50:cymbal3.wav
192,192,178178,1,0,0:0:0:50:kick.wav
320,192,178178,1,0,0:0:0:50:cymbal2.wav
64,192,179640,1,0,0:0:0:50:kick.wav
192,192,179640,1,0,0:0:0:50:cymbal3.wav
64,192,181578,1,0,0:0:0:50:kick.wav
448,192,181578,1,0,0:0:0:50:cymbal2.wav
320,192,183092,1,0,0:0:0:50:kick.wav
448,192,183092,1,0,0:0:0:50:cymbal3.wav
64,192,185000,128,0,186485:0:0:0:50:drum1.wav
192,192,186485,128,0,188409:0:0:0:50:drum1.wav
448,192,186485,1,0,0:0:0:50:cymbal3.wav
448,192,188409,128,0,189894:0:0:0:50:drum1.wav
320,192,189894,128,0,191799:0:0:0:50:cymbal3.wav
64,192,189894,1,0,0:0:0:50:kick.wav
192,192,191799,128,0,193270:0:0:0:50:kick.wav
64,192,193270,128,0,195223:0:0:0:50:kick.wav
448,192,193270,1,0,0:0:0:50:cymbal3.wav
320,192,195223,128,0,196733:0:0:0:50:drum1.wav
448,192,196733,128,0,199942:0:0:0:50:cymbal3.wav
64,192,196733,1,0,0:0:0:50:kick.wav
64,192,199942,1,0,0:0:0:50:kick.wav
64,192,200376,1,0,0:0:0:50:kick.wav
448,192,200376,1,0,0:0:0:50:cymbal3.wav
