osu file format v14

[General]
AudioFilename: Rurutia.mp3
AudioLeadIn: 0
PreviewTime: 24066
Countdown: 1
SampleSet: Soft
StackLeniency: 0.7
Mode: 2
LetterboxInBreaks: 0
WidescreenStoryboard: 0

[Editor]
DistanceSpacing: 1.4
BeatDivisor: 12
GridSize: 4
TimelineZoom: 1.6

[Metadata]
Title:Itoshigo yo
TitleUnicode:Itoshigo yo
Artist:Rurutia
ArtistUnicode:Rurutia
Creator:WujekGrzyb
Version:Relaxing
Source:
Tags:
BeatmapID:896101
BeatmapSetID:413197

[Difficulty]
HPDrainRate:6
CircleSize:5.5
OverallDifficulty:5
ApproachRate:5
SliderMultiplier:1.8
SliderTickRate:2

[Events]
//Background and Video events
0,0,"orz.jpg",0,0
//Break Periods
//Storyboard Layer 0 (Background)
//Storyboard Layer 1 (Fail)
//Storyboard Layer 2 (Pass)
//Storyboard Layer 3 (Foreground)
//Storyboard Sound Samples

[TimingPoints]
363,740.740740740741,4,2,1,60,1,0
62955,-100,4,2,1,30,0,0
63325,-100,4,2,1,40,0,0
63696,-100,4,2,1,50,0,0
64066,-100,4,2,1,60,0,0
64437,-100,4,2,1,70,0,0
64807,-100,4,2,1,80,0,0
65177,-100,4,2,1,90,0,0
65548,-66.6666666666667,4,2,1,100,0,1
77214,-100,4,2,1,100,0,0
77400,-66.6666666666667,4,2,1,100,0,1
89252,-100,4,2,1,60,0,0
139992,-100,4,2,1,30,0,0
140363,-100,4,2,1,40,0,0
140733,-100,4,2,1,50,0,0
141103,-100,4,2,1,60,0,0
141474,-100,4,2,1,70,0,0
141844,-100,4,2,1,80,0,0
142214,-100,4,2,1,90,0,0
142585,-66.6666666666667,4,2,1,100,0,1
166103,-100,4,2,1,100,0,0
166288,-66.6666666666667,4,2,1,100,0,1
189992,-100,4,2,1,60,0,0
210733,-100,4,2,1,50,0,0
211474,-100,4,2,1,45,0,0
212253,833.333333333333,4,2,1,35,1,0
213107,1111.11111111111,4,2,1,20,1,0
214218,-133.333333333333,4,2,1,17,0,0
214773,-133.333333333333,4,2,1,14,0,0
215329,-133.333333333333,4,2,1,11,0,0
215884,-133.333333333333,4,2,1,8,0,0
216440,-133.333333333333,4,2,1,5,0,0

[HitObjects]
272,180,363,5,0,0:0:0:0:
132,208,733,2,0,P|116:152|136:92,1,90
292,128,1474,2,0,L|312:192,1,45
208,160,1844,2,0,L|192:112,1,45
292,84,2214,1,0,0:0:0:0:
380,80,2585,2,0,P|404:136|372:240,1,135
260,180,3325,6,0,L|196:184,1,45
156,148,3696,1,0,0:0:0:0:
296,148,4066,1,0,0:0:0:0:
216,208,4437,2,0,L|204:160,1,45
296,112,4807,2,0,L|304:64,1,45
208,56,5177,1,0,0:0:0:0:
128,56,5363,1,0,0:0:0:0:
48,96,5548,2,0,P|20:160|56:236,1,135
168,248,6288,6,0,L|252:252,1,45
132,192,6659,2,0,L|80:188,2,45
296,244,7400,2,0,P|320:200|308:156,1,90
208,136,8140,1,0,0:0:0:0:
212,104,8325,1,0,0:0:0:0:
304,128,8511,1,0,0:0:0:0:
304,96,8696,1,0,0:0:0:0:
304,96,8881,1,0,0:0:0:0:
228,100,9066,1,0,0:0:0:0:
140,120,9251,6,0,L|48:160,1,90
44,196,9807,1,0,0:0:0:0:
180,216,9992,2,0,L|232:224,1,45
332,204,10363,2,0,L|384:212,1,45
228,164,10733,2,0,P|192:128|208:56,1,90
208,64,11288,1,0,0:0:0:0:
372,84,11474,2,0,P|376:144|360:192,1,90
332,204,12029,1,0,0:0:0:0:
152,200,12214,5,0,0:0:0:0:
124,168,12585,1,0,0:0:0:0:
216,152,12955,2,0,L|320:152,1,90
344,172,13511,1,0,0:0:0:0:
424,232,13696,2,0,P|432:288|424:312,1,45
312,308,14066,2,0,P|292:252|312:200,1,90
456,156,14807,1,0,0:0:0:0:
428,148,14992,1,0,0:0:0:0:
392,136,15177,5,0,0:0:0:0:
336,120,15548,1,0,0:0:0:0:
472,80,15918,2,0,P|496:136|476:212,1,135
356,224,16659,2,0,L|312:180,1,45
240,192,17029,2,0,L|180:204,1,45
100,164,17400,2,0,L|32:152,2,45
152,152,17955,1,0,0:0:0:0:
236,80,18140,6,0,P|264:120|260:192,1,90
248,192,18696,1,0,0:0:0:0:
344,200,18881,2,0,L|444:208,1,90
488,256,19437,1,0,0:0:0:0:
352,264,19622,2,0,L|296:268,1,45
180,304,19992,2,0,P|144:260|148:196,1,90
192,156,20548,1,0,0:0:0:0:
268,196,20733,2,0,L|268:252,1,45
356,120,21103,6,0,L|356:272,1,135
440,240,21844,2,0,L|440:168,1,45
508,244,22214,2,0,L|508:196,1,45
384,128,22585,2,0,L|236:124,1,135
292,184,23325,2,0,L|152:188,1,135
228,240,24066,6,0,P|240:296|228:344,1,90
140,236,24807,1,0,0:0:0:0:
272,216,25177,2,0,L|328:228,1,45
224,168,25548,2,0,L|208:116,2,45
368,112,26288,2,0,P|392:160|384:228,1,90
372,224,26844,1,0,0:0:0:0:
272,212,27029,6,0,P|216:192|184:208,1,90
180,252,27585,2,0,P|128:264|88:236,1,90
192,204,28140,2,0,P|228:204|248:228,1,45
328,268,28511,2,0,P|372:280|384:276,1,45
440,248,28881,1,0,0:0:0:0:
336,192,29251,2,0,P|296:132|316:84,1,90
332,72,29807,1,0,0:0:0:0:
440,72,29992,6,0,L|480:172,1,90
388,232,30548,2,0,L|328:224,2,45
480,268,31103,1,0,0:0:0:0:
440,292,31288,1,0,0:0:0:0:
336,316,31474,2,0,L|272:320,1,45
376,340,31844,2,0,L|428:348,1,45
272,296,32214,2,0,L|212:288,1,45
324,288,32585,2,0,L|372:280,1,45
468,268,32955,6,0,P|496:212|476:148,1,90
368,148,33696,2,0,L|312:136,1,45
436,96,34066,2,0,L|380:72,1,45
248,68,34437,2,0,P|212:136|224:188,1,90
252,212,34992,1,0,0:0:0:0:
152,64,35177,2,0,P|120:104|116:152,1,90
160,208,35733,1,0,0:0:0:0:
316,204,35918,6,0,P|332:264|312:324,1,90
404,168,36659,2,0,P|452:152|488:172,1,90
500,200,37214,1,0,0:0:0:0:
372,140,37400,2,0,L|316:136,2,45
236,116,38140,1,0,0:0:0:0:
216,56,38511,1,0,0:0:0:0:
312,68,38881,6,0,L|304:184,1,90
324,208,39437,1,0,0:0:0:0:
232,204,39622,1,0,0:0:0:0:
160,236,39807,2,0,L|152:168,1,45
184,128,40177,1,0,0:0:0:0:
88,96,40363,2,0,P|68:168|84:212,1,90
200,180,41103,1,0,0:0:0:0:
116,208,41474,1,0,0:0:0:0:
184,220,41659,1,0,0:0:0:0:
260,232,41844,6,0,P|276:184|264:128,1,90
336,72,42400,2,0,P|328:132|348:176,1,90
432,200,42955,2,0,P|440:156|432:136,1,45
324,232,43325,2,0,L|248:204,1,45
368,236,43696,2,0,L|416:220,1,45
280,252,44066,2,0,L|224:260,1,45
360,304,44437,2,0,L|292:304,1,45
184,332,44807,6,0,P|140:256|148:196,1,135
220,184,45548,1,0,0:0:0:0:
148,144,45918,1,0,0:0:0:0:
136,108,46103,1,0,0:0:0:0:
44,88,46288,2,0,L|32:204,1,90
60,224,46844,1,0,0:0:0:0:
172,184,47029,2,0,P|208:172|272:192,1,90
300,216,47585,1,0,0:0:0:0:
424,204,47770,5,0,0:0:0:0:
448,136,48140,1,0,0:0:0:0:
424,112,48325,1,0,0:0:0:0:
304,136,48696,1,0,0:0:0:0:
280,116,48881,1,0,0:0:0:0:
360,156,49066,1,0,0:0:0:0:
240,200,49251,2,0,L|228:156,1,45
140,160,49622,1,0,0:0:0:0:
192,96,49992,1,0,0:0:0:0:
84,80,50363,2,0,L|56:140,1,45
188,156,50733,6,0,L|272:156,1,45
304,208,51103,2,0,P|352:232|424:208,2,90
272,164,52029,1,0,0:0:0:0:
376,140,52214,2,0,L|432:116,2,45
244,104,52770,2,0,L|244:224,1,90
284,216,53325,2,0,L|284:280,1,45
168,256,53696,6,0,L|168:156,1,90
68,164,54251,2,0,L|68:220,1,45
140,120,54622,2,0,L|140:176,1,45
216,112,54992,1,0,0:0:0:0:
300,120,55177,2,0,L|300:240,1,90
392,208,55733,2,0,L|392:144,2,45
480,160,56288,2,0,L|480:112,1,45
304,96,56659,6,0,L|204:92,1,90
324,164,57400,1,0,0:0:0:0:
208,160,57770,1,0,0:0:0:0:
360,168,58140,2,0,L|460:164,1,90
344,112,58881,1,0,0:0:0:0:
452,108,59251,1,0,0:0:0:0:
380,108,59437,1,0,0:0:0:0:
264,104,59622,6,0,P|256:156|264:208,1,90
296,232,60177,1,0,0:0:0:0:
176,200,60363,2,0,P|124:196|100:212,1,45
268,288,60733,2,0,P|332:304|376:296,1,90
200,276,61474,2,0,P|152:276|140:280,1,45
288,288,61844,2,0,P|304:240|288:188,1,90
264,172,62400,1,0,0:0:0:0:
156,180,62585,6,0,P|92:192|64:176,1,90
192,148,63325,1,0,0:0:0:0:
76,144,63696,1,0,0:0:0:0:
216,136,64066,1,0,0:0:0:0:
88,140,64437,1,0,0:0:0:0:
240,124,64807,1,0,0:0:0:0:
160,128,64992,1,0,0:0:0:0:
76,128,65177,1,0,0:0:0:0:
272,180,65548,6,0,P|344:184|412:200,1,135.000005149842
296,248,66288,2,0,P|272:168|292:108,1,135.000005149842
376,84,66844,1,0,0:0:0:0:
328,56,67029,2,0,L|256:68,1,67.5000025749208
156,140,67400,2,0,L|4:124,1,135.000005149842
164,188,68140,1,0,0:0:0:0:
164,188,68325,1,0,0:0:0:0:
132,176,68511,6,0,P|116:248|136:320,1,135.000005149842
160,332,69066,1,0,0:0:0:0:
284,308,69251,2,0,L|272:212,1,67.5000025749208
304,96,69622,2,0,P|352:144|356:228,1,135.000005149842
364,248,70239,1,0,0:0:0:0:
344,248,70486,1,0,0:0:0:0:
364,248,70733,6,0,B|356:192|380:156|368:84,1,135.000005149842
232,108,71474,2,0,P|228:196|236:220,1,67.5000025749208
260,232,71844,1,0,0:0:0:0:
132,232,72214,2,0,L|276:232,1,135.000005149842
267,232,72770,1,0,0:0:0:0:
164,200,72955,2,0,L|88:204,1,67.5000025749208
8,220,73325,1,0,0:0:0:0:
176,260,73696,2,0,P|216:184|200:128,1,135.000005149842
180,100,74251,1,0,0:0:0:0:
112,40,74437,6,0,L|212:40,1,67.5000025749208
280,52,74807,2,0,L|200:52,2,67.5000025749208
448,104,75548,1,0,0:0:0:0:
468,140,75733,1,0,0:0:0:0:
368,132,75918,2,0,P|340:216|348:240,1,67.5000025749208
360,256,76288,1,0,0:0:0:0:
440,252,76474,1,0,0:0:0:0:
312,256,76659,2,0,L|168:256,1,135.000005149842
136,248,77214,1,0,0:0:0:0:
208,208,77400,6,0,L|288:208,1,67.5000025749208
356,208,77770,1,0,0:0:0:0:
460,272,78140,2,0,P|480:208|464:128,1,135.000005149842
432,88,78696,1,0,0:0:0:0:
312,160,78881,2,0,L|256:104,2,67.5000025749208
384,176,79622,2,0,P|400:264|368:332,1,135.000005149842
352,340,80177,1,0,0:0:0:0:
224,284,80363,6,0,P|164:272|140:276,1,67.5000025749208
256,304,80733,2,0,P|308:300|332:288,1,67.5000025749208
200,248,81103,2,0,P|164:180|188:132,1,135.000005149842
220,104,81659,1,0,0:0:0:0:
192,64,81844,1,0,0:0:0:0:
176,64,82091,1,0,0:0:0:0:
192,64,82338,1,0,0:0:0:0:
176,64,82585,2,0,B|192:108|152:176|180:228,1,135.000005149842
96,288,83325,6,0,P|48:216|44:156,1,135.000005149842
132,184,84066,2,0,L|272:188,1,135.000005149842
312,240,84622,1,0,0:0:0:0:
216,244,84807,2,0,L|148:256,1,67.5000025749208
288,300,85177,2,0,L|436:304,1,135.000005149842
328,252,85918,2,0,P|304:204|308:176,1,67.5000025749208
380,200,86288,6,0,P|396:120|380:52,1,135.000005149842
276,24,87029,2,0,L|410:27,1,135.000005149842
484,56,87585,1,0,0:0:0:0:
368,88,87770,6,0,L|268:84,1,67.5000025749208
464,128,88140,1,0,0:0:0:0:
452,248,88511,2,0,P|432:172|448:116,1,135.000005149842
256,192,89251,12,0,92214,0:0:0:0:
252,240,92585,5,0,0:0:0:0:
196,184,92955,2,0,L|196:72,1,90
208,64,93511,1,0,0:0:0:0:
296,80,93696,2,0,L|296:180,1,90
284,204,94251,1,0,0:0:0:0:
188,192,94437,2,0,L|188:80,1,90
312,104,95177,6,0,L|312:224,1,90
344,256,95918,1,0,0:0:0:0:
228,256,96288,2,0,L|212:192,2,45
332,252,97029,1,0,0:0:0:0:
204,252,97400,1,0,0:0:0:0:
300,248,97770,1,0,0:0:0:0:
224,252,97955,1,0,0:0:0:0:
148,248,98140,6,0,L|148:132,1,90
248,148,98881,2,0,L|248:248,1,90
264,288,99437,1,0,0:0:0:0:
364,268,99622,6,0,L|416:252,2,45
272,244,100177,1,0,0:0:0:0:
184,224,100363,2,0,L|116:216,2,45
244,180,100918,1,0,0:0:0:0:
356,208,101103,6,0,P|384:136|368:84,1,135
268,64,101844,2,0,L|200:68,1,45
316,128,102214,2,0,L|428:128,1,90
452,160,102770,1,0,0:0:0:0:
376,196,102955,1,0,0:0:0:0:
324,188,103325,2,0,P|312:120|324:88,1,90
336,72,103881,1,0,0:0:0:0:
412,120,104066,6,0,L|456:112,1,45
328,72,104437,1,0,0:0:0:0:
428,128,104622,2,0,L|492:116,1,45
364,84,104992,1,0,0:0:0:0:
304,72,105177,2,0,P|292:112|296:168,1,90
360,216,105918,1,0,0:0:0:0:
248,216,106288,2,0,L|168:208,1,45
104,200,106659,2,0,L|164:192,1,45
296,176,107029,6,0,L|408:172,1,90
284,128,107585,2,0,L|188:124,1,90
280,80,108140,2,0,L|336:72,1,45
216,80,108511,6,0,L|156:64,1,45
248,64,108881,2,0,L|292:48,1,45
168,60,109251,2,0,L|120:40,1,45
264,40,109622,2,0,L|224:16,1,45
116,16,109992,6,0,P|36:40|20:28,1,90
160,92,110733,2,0,P|186:121|196:216,1,135
104,240,111474,2,0,P|120:184|164:160,1,90
268,240,112029,1,0,0:0:0:0:
276,240,112214,2,0,P|252:180|208:152,1,90
308,164,112955,6,0,L|416:168,2,90
168,136,114066,2,0,L|220:132,1,45
308,164,114437,2,0,P|364:168|372:168,1,45
472,196,114807,2,0,P|476:128|452:84,2,90
328,232,115918,6,0,L|244:212,2,45
220,260,116474,2,0,L|88:256,1,90
56,236,117029,2,0,L|4:236,1,45
128,216,117400,2,0,L|188:212,1,45
44,180,117770,2,0,P|32:132|56:68,2,90
80,216,118696,1,0,0:0:0:0:
188,208,118881,6,0,P|212:156|196:112,1,90
116,92,119437,2,0,L|164:60,2,45
32,136,119992,2,0,L|4:180,1,45
128,184,120363,6,0,L|224:180,1,90
376,200,121103,2,0,L|232:208,1,135
332,128,121844,6,0,L|392:132,2,45
232,92,122585,2,0,P|224:164|248:216,1,90
256,212,123140,1,0,0:0:0:0:
256,212,123325,2,0,L|280:160,2,45
184,216,123881,1,0,0:0:0:0:
104,216,124066,2,0,L|84:152,2,45
184,216,124622,1,0,0:0:0:0:
260,216,124807,6,0,P|300:256|304:296,1,90
232,288,125363,2,0,P|204:352|208:384,1,90
252,368,125918,1,0,0:0:0:0:
360,368,126103,1,0,0:0:0:0:
416,368,126288,2,0,L|420:304,1,45
416,204,126659,2,0,L|408:76,1,90
400,64,127400,1,0,0:0:0:0:
264,72,127585,1,0,0:0:0:0:
172,88,127770,6,0,P|140:152|148:196,1,90
256,168,128511,2,0,P|284:228|280:276,1,90
264,288,129066,1,0,0:0:0:0:
152,304,129251,1,0,0:0:0:0:
264,320,129622,1,0,0:0:0:0:
124,304,129992,1,0,0:0:0:0:
288,304,130363,2,0,L|344:304,1,45
400,344,130733,6,0,P|460:316|460:284,1,90
388,268,131288,2,0,P|364:224|372:172,1,90
366,185,131844,1,0,0:0:0:0:
296,184,132029,1,0,0:0:0:0:
224,184,132214,2,0,P|208:252|220:304,1,90
136,272,132770,2,0,P|116:224|132:164,1,90
120,187,133325,2,0,L|64:191,1,45
0,132,133696,6,0,P|64:128|100:140,1,90
184,176,134251,1,0,0:0:0:0:
288,152,134437,2,0,L|232:144,1,45
168,80,134807,2,0,L|116:76,1,45
236,92,135177,6,0,L|284:88,2,45
360,144,135733,2,0,P|304:104|308:40,1,135
344,32,136474,1,0,0:0:0:0:
416,60,136659,6,0,L|420:112,2,45
292,136,137400,2,0,L|200:124,1,90
168,132,137955,1,0,0:0:0:0:
304,80,138140,2,0,L|384:96,1,45
240,76,138511,2,0,L|192:72,1,45
320,56,138881,2,0,L|364:48,1,45
236,96,139251,2,0,L|188:116,1,45
260,168,139622,6,0,L|320:184,2,45
164,168,140177,2,0,L|112:184,2,45
280,228,140733,1,0,0:0:0:0:
360,248,140918,2,0,L|468:248,1,90
388,212,141474,2,0,L|376:152,1,45
468,212,141844,2,0,L|488:148,1,45
360,148,142214,2,0,L|344:84,1,45
484,88,142585,6,0,P|500:160|484:244,1,135.000005149842
320,212,143325,2,0,P|312:132|336:76,1,135.000005149842
404,80,143881,1,0,0:0:0:0:
276,44,144066,2,0,L|204:56,1,67.5000025749208
120,96,144437,2,0,L|72:48,2,67.5000025749208
280,100,145177,1,0,0:0:0:0:
260,136,145363,1,0,0:0:0:0:
336,208,145548,6,0,L|252:192,2,67.5000025749208
444,208,146103,1,0,0:0:0:0:
472,208,146288,2,0,L|480:124,1,67.5000025749208
432,152,146659,2,0,L|424:60,1,67.5000025749208
400,64,147029,1,0,0:0:0:0:
368,44,147276,1,0,0:0:0:0:
392,36,147523,1,0,0:0:0:0:
368,44,147770,2,0,B|384:84|364:148|376:192,1,135.000005149842
388,224,148325,1,0,0:0:0:0:
296,224,148511,6,0,L|220:204,1,67.5000025749208
276,160,148881,2,0,L|288:88,2,67.5000025749208
216,252,149437,1,0,0:0:0:0:
92,232,149622,1,0,0:0:0:0:
140,220,149807,1,0,0:0:0:0:
36,224,149992,2,0,P|16:148|28:88,1,135.000005149842
182,167,150733,6,0,P|254:191|318:163,1,135.000005149842
340,116,151288,1,0,0:0:0:0:
308,172,151474,2,0,P|296:256|320:324,1,135.000005149842
400,272,152214,1,0,0:0:0:0:
480,248,152585,1,0,0:0:0:0:
328,236,152955,2,0,L|288:180,1,67.5000025749208
368,176,153325,2,0,L|388:104,1,67.5000025749208
248,96,153696,1,0,0:0:0:0:
212,104,153881,1,0,0:0:0:0:
192,136,154066,1,0,0:0:0:0:
212,172,154251,1,0,0:0:0:0:
248,192,154437,6,0,P|328:200|392:196,1,135.000005149842
256,264,155177,2,0,L|168:260,1,67.5000025749208
296,320,155548,2,0,P|328:252|320:168,1,135.000005149842
327,193,156288,2,0,L|336:88,1,67.5000025749208
332,92,156659,2,0,L|412:40,1,67.5000025749208
252,92,157029,2,0,L|180:32,1,67.5000025749208
88,56,157400,6,0,P|44:128|68:212,1,135.000005149842
140,208,157955,1,0,0:0:0:0:
140,208,158140,2,0,P|168:144|160:104,1,67.5000025749208
140,208,158511,1,0,0:0:0:0:
236,208,158696,2,0,L|260:144,1,67.5000025749208
228,120,159128,1,0,0:0:0:0:
239,120,159375,1,0,0:0:0:0:
232,24,159622,2,0,B|240:80|224:120|240:176,1,135.000005149842
236,160,160363,6,0,P|288:200|356:176,1,135.000005149842
408,272,161103,2,0,P|328:260|256:272,1,135.000005149842
212,296,161659,1,0,0:0:0:0:
120,296,161844,2,0,L|44:252,2,67.5000025749208
120,296,162585,2,0,P|160:200|136:136,1,135.000005149842
128,136,163140,1,0,0:0:0:0:
220,152,163325,6,0,L|372:136,1,135.000005149842
184,144,164066,1,0,0:0:0:0:
372,136,164437,1,0,0:0:0:0:
292,136,164622,1,0,0:0:0:0:
184,144,164807,6,0,L|152:80,1,67.5000025749208
244,56,165177,1,0,0:0:0:0:
264,92,165301,1,0,0:0:0:0:
256,136,165424,1,0,0:0:0:0:
228,168,165548,1,0,0:0:0:0:
124,172,165733,1,0,0:0:0:0:
100,204,165918,1,0,0:0:0:0:
120,244,166103,1,0,0:0:0:0:
248,260,166288,6,0,P|280:248|312:252,1,67.5000025749208
416,288,166659,1,0,0:0:0:0:
380,300,166844,1,0,0:0:0:0:
472,296,167029,2,0,P|488:216|456:92,1,202.500007724762
340,140,167770,2,0,L|280:104,2,67.5000025749208
340,140,168511,2,0,P|364:248|344:344,1,202.500007724762
216,184,169251,6,0,L|216:96,1,67.5000025749208
180,160,169622,2,0,L|180:92,1,67.5000025749208
272,208,169992,2,0,L|276:136,1,67.5000025749208
388,236,170363,2,0,L|376:164,1,67.5000025749208
424,152,170733,1,0,0:0:0:0:
448,152,170980,1,0,0:0:0:0:
424,152,171227,1,0,0:0:0:0:
448,224,171474,2,0,B|428:176|468:72|432:0,1,202.500007724762
456,68,172214,6,0,L|292:40,2,135.000005149842
416,100,173140,1,0,0:0:0:0:
320,108,173325,1,0,0:0:0:0:
284,124,173511,2,0,L|216:128,1,67.5000025749208
216,127,174066,2,0,P|204:204|224:292,1,135.000005149842
244,288,174622,1,0,0:0:0:0:
152,268,174807,2,0,P|100:264|64:272,1,67.5000025749208
212,220,175177,6,0,P|276:184|276:88,1,135.000005149842
152,124,175918,1,0,0:0:0:0:
296,112,176288,1,0,0:0:0:0:
248,92,176474,1,0,0:0:0:0:
360,72,176659,1,0,0:0:0:0:
360,72,177029,2,0,P|364:160|356:232,1,135.000005149842
256,116,177585,2,0,P|252:160|256:200,2,67.5000025749208
408,104,178140,6,0,P|416:188|404:276,1,135.000005149842
324,216,178881,2,0,P|256:200|188:208,1,135.000005149842
104,200,179437,1,0,0:0:0:0:
216,148,179622,2,0,L|236:68,2,67.5000025749208
104,192,180363,2,0,P|84:276|108:332,1,135.000005149842
196,340,180918,1,0,0:0:0:0:
220,336,181103,6,0,L|248:256,1,67.5000025749208
152,276,181474,2,0,L|144:184,1,67.5000025749208
276,240,181844,2,0,L|296:160,1,67.5000025749208
188,224,182214,2,0,L|176:144,1,67.5000025749208
288,104,182585,1,0,0:0:0:0:
268,80,182832,1,0,0:0:0:0:
292,56,183079,1,0,0:0:0:0:
268,36,183325,2,0,B|292:80|256:144|284:208,1,135.000005149842
276,204,183881,1,0,0:0:0:0:
184,224,184066,6,0,P|180:304|192:328,1,67.5000025749208
284,332,184437,2,0,P|340:348|372:340,1,67.5000025749208
240,288,184807,2,0,L|84:244,1,135.000005149842
110,251,185363,1,0,0:0:0:0:
176,208,185548,2,0,L|228:148,1,67.5000025749208
288,240,185918,2,0,L|324:312,1,67.5000025749208
428,260,186288,2,0,P|456:168|432:108,1,135.000005149842
360,108,186844,1,0,0:0:0:0:
336,120,187029,6,0,P|264:152|204:112,1,135.000005149842
276,92,187770,2,0,P|244:20|224:20,1,67.5000025749208
152,36,188140,2,0,P|136:84|148:104,1,67.5000025749208
240,156,188511,5,0,0:0:0:0:
304,184,188696,1,0,0:0:0:0:
336,224,188881,1,0,0:0:0:0:
308,284,189066,1,0,0:0:0:0:
288,304,189159,1,0,0:0:0:0:
240,312,189251,1,0,0:0:0:0:
120,324,189437,1,0,0:0:0:0:
84,312,189529,1,0,0:0:0:0:
68,276,189622,1,0,0:0:0:0:
180,272,189807,1,0,0:0:0:0:
264,276,189992,6,0,P|280:208|264:96,1,180
268,100,191103,2,0,P|256:132|264:176,1,45
352,184,191474,1,0,0:0:0:0:
352,184,191659,1,0,0:0:0:0:
352,184,191844,2,0,P|376:124|356:32,1,135
332,32,192585,1,0,0:0:0:0:
404,40,192770,1,0,0:0:0:0:
280,60,192955,6,0,P|220:124|232:196,1,135
288,224,193696,2,0,L|296:160,1,45
252,288,194066,2,0,L|248:224,1,45
284,340,194437,1,0,0:0:0:0:
268,340,194683,1,0,0:0:0:0:
284,340,194930,1,0,0:0:0:0:
268,340,195177,2,0,B|288:304|252:276|288:224,1,90
332,232,195733,1,0,0:0:0:0:
388,260,195918,6,0,P|432:276|456:272,1,45
368,204,196288,2,0,P|320:192|296:200,1,45
436,216,196659,2,0,P|488:208|496:196,2,45
400,176,197214,1,0,0:0:0:0:
308,124,197400,2,0,L|308:188,1,45
216,224,197770,2,0,P|204:164|220:108,1,90
264,96,198325,1,0,0:0:0:0:
336,120,198511,2,0,L|336:176,1,45
412,96,198881,6,0,P|444:176|428:252,1,135
344,272,199622,2,0,L|344:200,1,45
256,256,199992,2,0,L|256:204,1,45
168,272,200363,2,0,L|168:200,2,45
264,152,201103,2,0,L|428:160,1,135
340,212,201844,6,0,P|280:240|240:220,1,90
156,220,202400,1,0,0:0:0:0:
156,220,202585,2,0,L|156:104,1,90
248,92,203140,1,0,0:0:0:0:
248,92,203325,2,0,P|308:84|348:100,1,90
424,152,203881,1,0,0:0:0:0:
424,152,204066,2,0,L|424:276,1,90
340,240,204622,1,0,0:0:0:0:
340,240,204807,6,0,L|232:232,1,90
160,272,205363,1,0,0:0:0:0:
160,272,205548,2,0,L|56:260,1,90
70,261,206103,1,0,0:0:0:0:
44,252,206288,1,0,0:0:0:0:
24,244,206535,1,0,0:0:0:0:
44,236,206782,1,0,0:0:0:0:
28,224,207029,2,0,B|40:188|16:160|40:108,1,90
56,112,207585,1,0,0:0:0:0:
144,144,207770,6,0,P|200:148|232:140,1,90
204,220,208511,2,0,P|292:224|312:216,1,90
248,188,209066,1,0,0:0:0:0:
204,220,209251,2,0,P|292:224|312:216,1,90
416,280,209992,2,0,P|352:284|328:272,1,90
376,244,210548,1,0,0:0:0:0:
416,280,210733,5,0,0:0:0:0:
476,212,211103,1,0,0:0:0:0:
448,124,211474,1,0,0:0:0:0:
372,252,211844,5,0,0:0:0:0:
320,248,212029,1,0,0:0:0:0:
272,244,212253,1,0,0:0:0:0:
404,188,212669,5,0,0:0:0:0:
340,156,213107,1,0,0:0:0:0:
356,116,213662,1,0,0:0:0:0:
256,192,213940,12,0,216440,0:0:0:0:
