osu file format v14

[General]
AudioFilename: audio.mp3
AudioLeadIn: 0
PreviewTime: 99723
Countdown: 0
SampleSet: None
StackLeniency: 0.7
Mode: 3
LetterboxInBreaks: 0
SpecialStyle: 0
WidescreenStoryboard: 0

[Editor]
DistanceSpacing: 1.2
BeatDivisor: 4
GridSize: 4
TimelineZoom: 1.3

[Metadata]
Title:violet flow
TitleUnicode:violet flow
Artist:Ruppina
ArtistUnicode:Ruppina
Creator:Damaree
Version:Full LN Lv. 2
Source:よい子の味方 新米保育士物語
Tags:mad white album 2 full ln chart
BeatmapID:1875727
BeatmapSetID:897892

[Difficulty]
HPDrainRate:7
CircleSize:4
OverallDifficulty:7
ApproachRate:5
SliderMultiplier:1.4
SliderTickRate:1

[Events]
//Background and Video events
0,0,"wa_bg.png",0,0
//Break Periods
//Storyboard Layer 0 (Background)
//Storyboard Layer 1 (Fail)
//Storyboard Layer 2 (Pass)
//Storyboard Layer 3 (Foreground)
//Storyboard Sound Samples

[TimingPoints]
6137,652.173913043478,4,2,1,0,1,0
19180,-100,4,2,1,0,0,1
40050,-100,4,2,1,0,0,0
100702,652.173913043478,4,2,1,0,1,1
152875,-100,4,2,1,0,0,0
160783,652.173913043478,4,2,1,0,1,0
160783,-125,4,2,1,0,0,0
161516,652.173913043478,4,2,1,0,1,0
161516,-166.666666666667,4,2,1,0,0,0

[HitObjects]
64,192,8745,128,0,9153:0:0:0:0:
448,192,8745,128,0,9316:0:0:0:0:
192,192,8908,128,0,9479:0:0:0:0:
320,192,9071,128,0,9316:0:0:0:0:
64,192,9234,128,0,9642:0:0:0:0:
320,192,9397,128,0,9805:0:0:0:0:
448,192,9397,128,0,9968:0:0:0:0:
192,192,9560,128,0,9968:0:0:0:0:
64,192,9723,128,0,10294:0:0:0:0:
320,192,9886,128,0,10131:0:0:0:0:
192,192,10050,128,0,10457:0:0:0:0:
448,192,10050,128,0,10783:0:0:0:0:
320,192,10213,128,0,10620:0:0:0:0:
64,192,10376,128,0,11272:0:0:0:0:
192,192,10539,128,0,10946:0:0:0:0:
320,192,10702,128,0,11109:0:0:0:0:
448,192,10865,128,0,11272:0:0:0:0:
192,192,11028,128,0,11435:0:0:0:0:
320,192,11191,128,0,11761:0:0:0:0:
64,192,11354,128,0,11925:0:0:0:0:
448,192,11354,128,0,11598:0:0:0:0:
192,192,11517,128,0,12251:0:0:0:0:
448,192,11680,128,0,12088:0:0:0:0:
320,192,11843,128,0,12414:0:0:0:0:
64,192,12006,128,0,12577:0:0:0:0:
448,192,12169,128,0,12740:0:0:0:0:
192,192,12332,128,0,12577:0:0:0:0:
320,192,12495,128,0,13066:0:0:0:0:
64,192,12658,128,0,13392:0:0:0:0:
192,192,12658,128,0,12903:0:0:0:0:
448,192,12821,128,0,13229:0:0:0:0:
192,192,12984,128,0,13229:0:0:0:0:
320,192,13147,128,0,13555:0:0:0:0:
448,192,13310,128,0,14044:0:0:0:0:
192,192,13310,128,0,13718:0:0:0:0:
64,192,13473,128,0,13881:0:0:0:0:
320,192,13636,128,0,13881:0:0:0:0:
192,192,13800,128,0,14207:0:0:0:0:
320,192,13963,128,0,14533:0:0:0:0:
64,192,13963,128,0,14370:0:0:0:0:
448,192,14126,128,0,14859:0:0:0:0:
192,192,14289,128,0,14696:0:0:0:0:
64,192,14452,128,0,15022:0:0:0:0:
320,192,14615,128,0,15185:0:0:0:0:
192,192,14778,128,0,15185:0:0:0:0:
448,192,14941,128,0,15348:0:0:0:0:
64,192,15104,128,0,15675:0:0:0:0:
320,192,15267,128,0,15838:0:0:0:0:
192,192,15267,128,0,15511:0:0:0:0:
448,192,15430,128,0,16001:0:0:0:0:
192,192,15593,128,0,16164:0:0:0:0:
64,192,15756,128,0,16490:0:0:0:0:
320,192,15919,128,0,16327:0:0:0:0:
448,192,16082,128,0,16653:0:0:0:0:
192,192,16245,128,0,16490:0:0:0:0:
320,192,16408,128,0,16979:0:0:0:0:
64,192,16571,128,0,17957:0:0:0:0:
192,192,16571,128,0,16816:0:0:0:0:
448,192,16734,128,0,17142:0:0:0:0:
192,192,16897,128,0,17305:0:0:0:0:
320,192,17060,128,0,17794:0:0:0:0:
448,192,17223,128,0,17468:0:0:0:0:
192,192,17386,128,0,17631:0:0:0:0:
448,192,17550,128,0,17794:0:0:0:0:
192,192,17713,128,0,18120:0:0:0:0:
448,192,17876,128,0,19139:0:0:0:0:
320,192,17876,128,0,18283:0:0:0:0:
64,192,18039,128,0,18446:0:0:0:0:
192,192,18202,128,0,18772:0:0:0:0:
320,192,18365,128,0,18609:0:0:0:0:
64,192,18528,128,0,18935:0:0:0:0:
320,192,18691,128,0,19139:0:0:0:0:
192,192,18854,128,0,19139:0:0:0:0:
64,192,19017,128,0,19139:0:0:0:0:
64,192,19180,128,0,19751:0:0:0:0:
192,192,19180,128,0,19425:0:0:0:0:
320,192,19180,128,0,19751:0:0:0:0:
448,192,19180,128,0,19751:0:0:0:0:
192,192,19506,128,0,20077:0:0:0:0:
320,192,19832,128,0,20240:0:0:0:0:
448,192,19832,128,0,20240:0:0:0:0:
64,192,19832,128,0,20403:0:0:0:0:
192,192,20158,128,0,20403:0:0:0:0:
320,192,20321,128,0,20566:0:0:0:0:
448,192,20321,128,0,20566:0:0:0:0:
64,192,20484,128,0,20729:0:0:0:0:
192,192,20484,128,0,20892:0:0:0:0:
320,192,20647,128,0,21055:0:0:0:0:
448,192,20647,128,0,21055:0:0:0:0:
64,192,20810,128,0,21055:0:0:0:0:
192,192,20973,128,0,21381:0:0:0:0:
320,192,21136,128,0,21544:0:0:0:0:
448,192,21136,128,0,21707:0:0:0:0:
64,192,21136,128,0,21707:0:0:0:0:
192,192,21463,128,0,22033:0:0:0:0:
320,192,21626,128,0,22359:0:0:0:0:
448,192,21789,128,0,22359:0:0:0:0:
64,192,21789,128,0,22359:0:0:0:0:
192,192,22115,128,0,22685:0:0:0:0:
320,192,22441,128,0,22848:0:0:0:0:
448,192,22441,128,0,22848:0:0:0:0:
64,192,22441,128,0,23011:0:0:0:0:
192,192,22767,128,0,23011:0:0:0:0:
320,192,22930,128,0,23175:0:0:0:0:
448,192,22930,128,0,23175:0:0:0:0:
64,192,23093,128,0,23501:0:0:0:0:
192,192,23093,128,0,23338:0:0:0:0:
320,192,23256,128,0,23664:0:0:0:0:
448,192,23256,128,0,23664:0:0:0:0:
192,192,23419,128,0,23664:0:0:0:0:
64,192,23582,128,0,23990:0:0:0:0:
320,192,23745,128,0,23990:0:0:0:0:
448,192,23745,128,0,24357:0:0:0:0:
192,192,23745,128,0,24357:0:0:0:0:
64,192,24071,128,0,24357:0:0:0:0:
320,192,24071,128,0,24357:0:0:0:0:
192,192,24397,128,0,24968:0:0:0:0:
448,192,24397,128,0,24968:0:0:0:0:
64,192,24397,128,0,24968:0:0:0:0:
320,192,24397,128,0,24642:0:0:0:0:
320,192,24723,128,0,25294:0:0:0:0:
64,192,25050,128,0,25620:0:0:0:0:
192,192,25050,128,0,25457:0:0:0:0:
448,192,25050,128,0,25457:0:0:0:0:
320,192,25376,128,0,25620:0:0:0:0:
448,192,25539,128,0,25783:0:0:0:0:
192,192,25539,128,0,25783:0:0:0:0:
64,192,25702,128,0,26109:0:0:0:0:
320,192,25702,128,0,25946:0:0:0:0:
192,192,25865,128,0,26272:0:0:0:0:
448,192,25865,128,0,26272:0:0:0:0:
320,192,26028,128,0,26272:0:0:0:0:
64,192,26191,128,0,26598:0:0:0:0:
192,192,26354,128,0,26925:0:0:0:0:
320,192,26354,128,0,26925:0:0:0:0:
448,192,26354,128,0,27251:0:0:0:0:
64,192,26680,128,0,27577:0:0:0:0:
320,192,27006,128,0,27577:0:0:0:0:
192,192,27006,128,0,27414:0:0:0:0:
448,192,27332,128,0,27577:0:0:0:0:
192,192,27495,128,0,27903:0:0:0:0:
64,192,27658,128,0,27903:0:0:0:0:
320,192,27658,128,0,27903:0:0:0:0:
448,192,27658,128,0,28066:0:0:0:0:
192,192,27984,128,0,28229:0:0:0:0:
64,192,27984,128,0,28392:0:0:0:0:
320,192,27984,128,0,28229:0:0:0:0:
448,192,28147,128,0,28392:0:0:0:0:
192,192,28310,128,0,28555:0:0:0:0:
320,192,28310,128,0,28555:0:0:0:0:
448,192,28473,128,0,28718:0:0:0:0:
64,192,28473,128,0,28881:0:0:0:0:
192,192,28636,128,0,28881:0:0:0:0:
320,192,28636,128,0,29044:0:0:0:0:
448,192,28800,128,0,29044:0:0:0:0:
64,192,28963,128,0,29207:0:0:0:0:
192,192,28963,128,0,29207:0:0:0:0:
320,192,29126,128,0,29370:0:0:0:0:
448,192,29126,128,0,29574:0:0:0:0:
64,192,29289,128,0,29574:0:0:0:0:
192,192,29289,128,0,29574:0:0:0:0:
320,192,29452,128,0,29574:0:0:0:0:
64,192,29615,128,0,30185:0:0:0:0:
192,192,29615,128,0,29859:0:0:0:0:
320,192,29615,128,0,30022:0:0:0:0:
448,192,29615,128,0,30185:0:0:0:0:
192,192,29941,128,0,30185:0:0:0:0:
320,192,30104,128,0,30348:0:0:0:0:
448,192,30267,128,0,30838:0:0:0:0:
192,192,30267,128,0,30675:0:0:0:0:
64,192,30267,128,0,30511:0:0:0:0:
320,192,30430,128,0,30675:0:0:0:0:
64,192,30593,128,0,30838:0:0:0:0:
192,192,30756,128,0,31001:0:0:0:0:
320,192,30756,128,0,31001:0:0:0:0:
448,192,30919,128,0,31327:0:0:0:0:
64,192,30919,128,0,31164:0:0:0:0:
192,192,31082,128,0,31490:0:0:0:0:
320,192,31082,128,0,31490:0:0:0:0:
64,192,31245,128,0,31653:0:0:0:0:
448,192,31408,128,0,31653:0:0:0:0:
320,192,31571,128,0,31979:0:0:0:0:
192,192,31571,128,0,31816:0:0:0:0:
64,192,31734,128,0,32183:0:0:0:0:
448,192,31734,128,0,32183:0:0:0:0:
192,192,31897,128,0,32183:0:0:0:0:
320,192,32060,128,0,32183:0:0:0:0:
448,192,32223,128,0,32468:0:0:0:0:
192,192,32223,128,0,32631:0:0:0:0:
64,192,32223,128,0,32631:0:0:0:0:
320,192,32223,128,0,32468:0:0:0:0:
320,192,32550,128,0,32794:0:0:0:0:
448,192,32550,128,0,32957:0:0:0:0:
64,192,32713,128,0,33120:0:0:0:0:
192,192,32713,128,0,32957:0:0:0:0:
320,192,32876,128,0,33283:0:0:0:0:
448,192,33039,128,0,33446:0:0:0:0:
192,192,33039,128,0,33283:0:0:0:0:
64,192,33202,128,0,33609:0:0:0:0:
320,192,33365,128,0,33772:0:0:0:0:
192,192,33365,128,0,33609:0:0:0:0:
448,192,33528,128,0,34098:0:0:0:0:
64,192,33691,128,0,33935:0:0:0:0:
192,192,33691,128,0,34098:0:0:0:0:
320,192,33854,128,0,34261:0:0:0:0:
64,192,34017,128,0,34261:0:0:0:0:
448,192,34180,128,0,34425:0:0:0:0:
192,192,34180,128,0,34425:0:0:0:0:
320,192,34343,128,0,34588:0:0:0:0:
64,192,34343,128,0,34791:0:0:0:0:
448,192,34506,128,0,34791:0:0:0:0:
192,192,34506,128,0,34791:0:0:0:0:
320,192,34669,128,0,34791:0:0:0:0:
64,192,34832,128,0,35240:0:0:0:0:
192,192,34832,128,0,35077:0:0:0:0:
448,192,34832,128,0,35077:0:0:0:0:
320,192,34832,128,0,35077:0:0:0:0:
192,192,35158,128,0,35566:0:0:0:0:
320,192,35158,128,0,35403:0:0:0:0:
448,192,35158,128,0,35403:0:0:0:0:
64,192,35321,128,0,35566:0:0:0:0:
320,192,35484,128,0,36055:0:0:0:0:
448,192,35484,128,0,35729:0:0:0:0:
192,192,35647,128,0,35892:0:0:0:0:
64,192,35647,128,0,36218:0:0:0:0:
448,192,35810,128,0,36055:0:0:0:0:
192,192,35973,128,0,36218:0:0:0:0:
320,192,36136,128,0,36381:0:0:0:0:
448,192,36136,128,0,36544:0:0:0:0:
64,192,36300,128,0,36707:0:0:0:0:
192,192,36300,128,0,36544:0:0:0:0:
320,192,36463,128,0,36707:0:0:0:0:
448,192,36626,128,0,37074:0:0:0:0:
192,192,36626,128,0,37074:0:0:0:0:
64,192,36789,128,0,37074:0:0:0:0:
320,192,36789,128,0,37074:0:0:0:0:
64,192,37115,128,0,37685:0:0:0:0:
320,192,37115,128,0,37359:0:0:0:0:
448,192,37115,128,0,37522:0:0:0:0:
192,192,37115,128,0,37196:0:0:0:0:
192,192,37278,128,0,37848:0:0:0:0:
320,192,37441,128,0,38011:0:0:0:0:
448,192,37604,128,0,38338:0:0:0:0:
64,192,37767,128,0,38175:0:0:0:0:
192,192,37930,128,0,38175:0:0:0:0:
320,192,38093,128,0,38338:0:0:0:0:
64,192,38256,128,0,38501:0:0:0:0:
192,192,38256,128,0,38501:0:0:0:0:
448,192,38419,128,0,38664:0:0:0:0:
320,192,38419,128,0,38990:0:0:0:0:
64,192,38582,128,0,38990:0:0:0:0:
192,192,38582,128,0,38827:0:0:0:0:
448,192,38745,128,0,39153:0:0:0:0:
192,192,38908,128,0,39316:0:0:0:0:
320,192,39071,128,0,39316:0:0:0:0:
64,192,39071,128,0,39479:0:0:0:0:
448,192,39234,128,0,39642:0:0:0:0:
320,192,39397,128,0,39642:0:0:0:0:
192,192,39397,128,0,39805:0:0:0:0:
64,192,39560,128,0,39968:0:0:0:0:
320,192,39723,128,0,40050:0:0:0:0:
448,192,39723,128,0,40050:0:0:0:0:
192,192,39886,128,0,40050:0:0:0:0:
64,192,40050,128,0,42617:0:0:0:0:
192,192,40702,128,0,42617:0:0:0:0:
320,192,41354,128,0,42617:0:0:0:0:
448,192,42006,128,0,42617:0:0:0:0:
192,192,42658,128,0,43229:0:0:0:0:
448,192,42658,128,0,43555:0:0:0:0:
64,192,42658,128,0,42903:0:0:0:0:
320,192,42658,128,0,43229:0:0:0:0:
64,192,42984,128,0,43718:0:0:0:0:
320,192,43310,128,0,43881:0:0:0:0:
192,192,43310,128,0,43881:0:0:0:0:
448,192,43636,128,0,44248:0:0:0:0:
64,192,43800,128,0,44900:0:0:0:0:
192,192,43963,128,0,44574:0:0:0:0:
320,192,43963,128,0,44248:0:0:0:0:
320,192,44289,128,0,44574:0:0:0:0:
448,192,44289,128,0,46327:0:0:0:0:
320,192,44615,128,0,45226:0:0:0:0:
192,192,44615,128,0,44900:0:0:0:0:
192,192,44941,128,0,45838:0:0:0:0:
64,192,44941,128,0,45226:0:0:0:0:
320,192,45267,128,0,45511:0:0:0:0:
64,192,45267,128,0,45838:0:0:0:0:
320,192,45593,128,0,46164:0:0:0:0:
192,192,45919,128,0,46531:0:0:0:0:
64,192,45919,128,0,46531:0:0:0:0:
320,192,46245,128,0,47183:0:0:0:0:
448,192,46408,128,0,47835:0:0:0:0:
192,192,46571,128,0,47183:0:0:0:0:
64,192,46571,128,0,48120:0:0:0:0:
192,192,47223,128,0,48813:0:0:0:0:
320,192,47223,128,0,47835:0:0:0:0:
320,192,47876,128,0,48446:0:0:0:0:
448,192,47876,128,0,48446:0:0:0:0:
64,192,48202,128,0,48813:0:0:0:0:
448,192,48528,128,0,49425:0:0:0:0:
320,192,48528,128,0,49139:0:0:0:0:
64,192,48854,128,0,49791:0:0:0:0:
192,192,48854,128,0,49139:0:0:0:0:
320,192,49180,128,0,50117:0:0:0:0:
192,192,49180,128,0,49791:0:0:0:0:
448,192,49506,128,0,50117:0:0:0:0:
64,192,49832,128,0,50444:0:0:0:0:
192,192,49832,128,0,50444:0:0:0:0:
320,192,50158,128,0,50770:0:0:0:0:
448,192,50158,128,0,50933:0:0:0:0:
64,192,50484,128,0,51055:0:0:0:0:
192,192,50484,128,0,50933:0:0:0:0:
320,192,50810,128,0,51422:0:0:0:0:
192,192,50973,128,0,51055:0:0:0:0:
448,192,50973,128,0,51748:0:0:0:0:
192,192,51136,128,0,51748:0:0:0:0:
64,192,51136,128,0,51422:0:0:0:0:
64,192,51463,128,0,52400:0:0:0:0:
320,192,51463,128,0,52033:0:0:0:0:
192,192,51789,128,0,52522:0:0:0:0:
448,192,51789,128,0,52400:0:0:0:0:
320,192,52115,128,0,52685:0:0:0:0:
64,192,52441,128,0,53052:0:0:0:0:
448,192,52441,128,0,52848:0:0:0:0:
192,192,52604,128,0,53052:0:0:0:0:
320,192,52767,128,0,53338:0:0:0:0:
448,192,52930,128,0,53664:0:0:0:0:
64,192,53093,128,0,53990:0:0:0:0:
192,192,53093,128,0,53664:0:0:0:0:
320,192,53419,128,0,54316:0:0:0:0:
192,192,53745,128,0,54642:0:0:0:0:
448,192,53745,128,0,54316:0:0:0:0:
64,192,54071,128,0,54968:0:0:0:0:
320,192,54397,128,0,55294:0:0:0:0:
448,192,54397,128,0,54968:0:0:0:0:
192,192,54723,128,0,55620:0:0:0:0:
64,192,55050,128,0,55620:0:0:0:0:
448,192,55050,128,0,55946:0:0:0:0:
320,192,55376,128,0,56109:0:0:0:0:
64,192,55702,128,0,56272:0:0:0:0:
192,192,55702,128,0,56435:0:0:0:0:
448,192,56028,128,0,56272:0:0:0:0:
320,192,56191,128,0,56925:0:0:0:0:
64,192,56354,128,0,56761:0:0:0:0:
448,192,56354,128,0,56598:0:0:0:0:
192,192,56517,128,0,56925:0:0:0:0:
448,192,56680,128,0,57251:0:0:0:0:
64,192,56843,128,0,57577:0:0:0:0:
192,192,57006,128,0,57577:0:0:0:0:
320,192,57006,128,0,57577:0:0:0:0:
448,192,57332,128,0,57903:0:0:0:0:
64,192,57658,128,0,58555:0:0:0:0:
192,192,57658,128,0,58229:0:0:0:0:
320,192,57658,128,0,58229:0:0:0:0:
448,192,57984,128,0,58881:0:0:0:0:
192,192,58310,128,0,59207:0:0:0:0:
320,192,58310,128,0,58881:0:0:0:0:
64,192,58636,128,0,59533:0:0:0:0:
320,192,58963,128,0,59533:0:0:0:0:
448,192,58963,128,0,59859:0:0:0:0:
192,192,59289,128,0,59859:0:0:0:0:
64,192,59615,128,0,60185:0:0:0:0:
320,192,59615,128,0,60185:0:0:0:0:
448,192,59941,128,0,60511:0:0:0:0:
192,192,59941,128,0,60838:0:0:0:0:
320,192,60267,128,0,61164:0:0:0:0:
64,192,60267,128,0,60838:0:0:0:0:
448,192,60593,128,0,61490:0:0:0:0:
192,192,60919,128,0,61490:0:0:0:0:
64,192,60919,128,0,61816:0:0:0:0:
320,192,61245,128,0,61816:0:0:0:0:
448,192,61571,128,0,62142:0:0:0:0:
192,192,61571,128,0,62142:0:0:0:0:
64,192,61897,128,0,62468:0:0:0:0:
320,192,61897,128,0,62794:0:0:0:0:
192,192,62223,128,0,62794:0:0:0:0:
448,192,62223,128,0,62794:0:0:0:0:
64,192,62550,128,0,63120:0:0:0:0:
320,192,62876,128,0,63446:0:0:0:0:
448,192,62876,128,0,63772:0:0:0:0:
192,192,62876,128,0,63446:0:0:0:0:
64,192,63202,128,0,64098:0:0:0:0:
192,192,63528,128,0,64098:0:0:0:0:
320,192,63528,128,0,64425:0:0:0:0:
448,192,63854,128,0,64751:0:0:0:0:
64,192,64180,128,0,65077:0:0:0:0:
192,192,64180,128,0,64751:0:0:0:0:
320,192,64506,128,0,65403:0:0:0:0:
448,192,64832,128,0,65403:0:0:0:0:
192,192,64832,128,0,65729:0:0:0:0:
64,192,65158,128,0,66055:0:0:0:0:
320,192,65484,128,0,66055:0:0:0:0:
448,192,65484,128,0,66381:0:0:0:0:
192,192,65810,128,0,66707:0:0:0:0:
64,192,66136,128,0,67033:0:0:0:0:
320,192,66136,128,0,66707:0:0:0:0:
448,192,66463,128,0,67359:0:0:0:0:
192,192,66789,128,0,67685:0:0:0:0:
320,192,66789,128,0,67359:0:0:0:0:
64,192,67115,128,0,68011:0:0:0:0:
320,192,67441,128,0,68011:0:0:0:0:
448,192,67441,128,0,68011:0:0:0:0:
192,192,67767,128,0,68338:0:0:0:0:
64,192,68093,128,0,68990:0:0:0:0:
320,192,68093,128,0,68664:0:0:0:0:
448,192,68093,128,0,68664:0:0:0:0:
192,192,68419,128,0,69316:0:0:0:0:
320,192,68745,128,0,69316:0:0:0:0:
448,192,68745,128,0,69642:0:0:0:0:
64,192,69071,128,0,69968:0:0:0:0:
192,192,69397,128,0,69968:0:0:0:0:
320,192,69397,128,0,70294:0:0:0:0:
448,192,69723,128,0,70620:0:0:0:0:
64,192,70050,128,0,70620:0:0:0:0:
192,192,70050,128,0,70946:0:0:0:0:
320,192,70376,128,0,71272:0:0:0:0:
448,192,70702,128,0,71272:0:0:0:0:
64,192,70702,128,0,71598:0:0:0:0:
192,192,71028,128,0,71598:0:0:0:0:
448,192,71354,128,0,71761:0:0:0:0:
320,192,71354,128,0,71598:0:0:0:0:
64,192,71680,128,0,71925:0:0:0:0:
192,192,71680,128,0,71761:0:0:0:0:
320,192,71680,128,0,71761:0:0:0:0:
192,192,71843,128,0,72088:0:0:0:0:
320,192,71843,128,0,72088:0:0:0:0:
448,192,71843,128,0,72251:0:0:0:0:
64,192,72006,128,0,72088:0:0:0:0:
192,192,72169,128,0,72414:0:0:0:0:
320,192,72169,128,0,72577:0:0:0:0:
64,192,72169,128,0,72414:0:0:0:0:
448,192,72332,128,0,72903:0:0:0:0:
64,192,72495,128,0,72903:0:0:0:0:
192,192,72495,128,0,72903:0:0:0:0:
320,192,72658,128,0,73066:0:0:0:0:
192,192,72984,128,0,73066:0:0:0:0:
64,192,72984,128,0,73229:0:0:0:0:
448,192,72984,128,0,73229:0:0:0:0:
192,192,73147,128,0,73555:0:0:0:0:
320,192,73147,128,0,73392:0:0:0:0:
64,192,73310,128,0,73922:0:0:0:0:
448,192,73310,128,0,73922:0:0:0:0:
320,192,73473,128,0,73922:0:0:0:0:
192,192,73636,128,0,73922:0:0:0:0:
64,192,73963,128,0,74533:0:0:0:0:
192,192,73963,128,0,74533:0:0:0:0:
320,192,73963,128,0,74207:0:0:0:0:
448,192,73963,128,0,74533:0:0:0:0:
320,192,74289,128,0,74859:0:0:0:0:
64,192,74615,128,0,75185:0:0:0:0:
192,192,74615,128,0,75022:0:0:0:0:
448,192,74615,128,0,75348:0:0:0:0:
320,192,74941,128,0,75185:0:0:0:0:
192,192,75104,128,0,75511:0:0:0:0:
64,192,75267,128,0,75838:0:0:0:0:
320,192,75267,128,0,75675:0:0:0:0:
448,192,75430,128,0,75838:0:0:0:0:
192,192,75593,128,0,75838:0:0:0:0:
320,192,75756,128,0,76164:0:0:0:0:
448,192,75919,128,0,76490:0:0:0:0:
192,192,75919,128,0,76816:0:0:0:0:
64,192,75919,128,0,76490:0:0:0:0:
320,192,76245,128,0,77142:0:0:0:0:
64,192,76571,128,0,77142:0:0:0:0:
448,192,76571,128,0,77142:0:0:0:0:
192,192,76897,128,0,77468:0:0:0:0:
320,192,77223,128,0,77631:0:0:0:0:
448,192,77223,128,0,77794:0:0:0:0:
64,192,77223,128,0,77794:0:0:0:0:
192,192,77550,128,0,77957:0:0:0:0:
320,192,77713,128,0,77957:0:0:0:0:
448,192,77876,128,0,78283:0:0:0:0:
64,192,77876,128,0,78120:0:0:0:0:
192,192,78039,128,0,78446:0:0:0:0:
320,192,78039,128,0,78446:0:0:0:0:
64,192,78202,128,0,78446:0:0:0:0:
448,192,78365,128,0,78609:0:0:0:0:
320,192,78528,128,0,78935:0:0:0:0:
192,192,78528,128,0,78772:0:0:0:0:
64,192,78528,128,0,79139:0:0:0:0:
448,192,78691,128,0,79139:0:0:0:0:
192,192,78854,128,0,79139:0:0:0:0:
320,192,79017,128,0,79139:0:0:0:0:
64,192,79180,128,0,79751:0:0:0:0:
192,192,79180,128,0,79751:0:0:0:0:
448,192,79180,128,0,79751:0:0:0:0:
320,192,79180,128,0,79425:0:0:0:0:
320,192,79506,128,0,80077:0:0:0:0:
448,192,79832,128,0,80403:0:0:0:0:
64,192,79832,128,0,80240:0:0:0:0:
192,192,79832,128,0,80403:0:0:0:0:
320,192,80158,128,0,80566:0:0:0:0:
64,192,80321,128,0,80729:0:0:0:0:
192,192,80484,128,0,80892:0:0:0:0:
448,192,80484,128,0,81055:0:0:0:0:
320,192,80647,128,0,81055:0:0:0:0:
64,192,80810,128,0,81055:0:0:0:0:
192,192,80973,128,0,81381:0:0:0:0:
320,192,81136,128,0,81707:0:0:0:0:
448,192,81136,128,0,81707:0:0:0:0:
64,192,81136,128,0,82033:0:0:0:0:
192,192,81463,128,0,82359:0:0:0:0:
448,192,81789,128,0,82359:0:0:0:0:
320,192,81789,128,0,82359:0:0:0:0:
64,192,82115,128,0,82685:0:0:0:0:
320,192,82441,128,0,82848:0:0:0:0:
192,192,82441,128,0,83011:0:0:0:0:
448,192,82441,128,0,82848:0:0:0:0:
64,192,82767,128,0,83175:0:0:0:0:
320,192,82930,128,0,83175:0:0:0:0:
448,192,82930,128,0,83338:0:0:0:0:
192,192,83093,128,0,83501:0:0:0:0:
64,192,83256,128,0,83827:0:0:0:0:
320,192,83256,128,0,83664:0:0:0:0:
448,192,83419,128,0,83664:0:0:0:0:
192,192,83582,128,0,83990:0:0:0:0:
320,192,83745,128,0,83990:0:0:0:0:
448,192,83745,128,0,84357:0:0:0:0:
64,192,83908,128,0,84357:0:0:0:0:
192,192,84071,128,0,84357:0:0:0:0:
320,192,84071,128,0,84357:0:0:0:0:
192,192,84397,128,0,84968:0:0:0:0:
320,192,84397,128,0,84968:0:0:0:0:
448,192,84397,128,0,84968:0:0:0:0:
64,192,84397,128,0,84642:0:0:0:0:
64,192,84723,128,0,85294:0:0:0:0:
192,192,85050,128,0,85620:0:0:0:0:
320,192,85050,128,0,85457:0:0:0:0:
448,192,85050,128,0,85620:0:0:0:0:
64,192,85376,128,0,85946:0:0:0:0:
320,192,85539,128,0,86272:0:0:0:0:
192,192,85702,128,0,86272:0:0:0:0:
448,192,85702,128,0,86272:0:0:0:0:
64,192,86028,128,0,86598:0:0:0:0:
320,192,86354,128,0,86925:0:0:0:0:
448,192,86354,128,0,86925:0:0:0:0:
192,192,86354,128,0,87251:0:0:0:0:
64,192,86680,128,0,87577:0:0:0:0:
320,192,87006,128,0,87577:0:0:0:0:
448,192,87006,128,0,87577:0:0:0:0:
192,192,87332,128,0,87903:0:0:0:0:
64,192,87658,128,0,88229:0:0:0:0:
320,192,87658,128,0,88066:0:0:0:0:
448,192,87658,128,0,88066:0:0:0:0:
192,192,87984,128,0,88392:0:0:0:0:
320,192,88147,128,0,88392:0:0:0:0:
448,192,88147,128,0,88555:0:0:0:0:
64,192,88310,128,0,88718:0:0:0:0:
192,192,88473,128,0,88881:0:0:0:0:
320,192,88473,128,0,88881:0:0:0:0:
448,192,88636,128,0,88881:0:0:0:0:
64,192,88800,128,0,89207:0:0:0:0:
192,192,88963,128,0,89574:0:0:0:0:
320,192,88963,128,0,89574:0:0:0:0:
448,192,88963,128,0,89574:0:0:0:0:
64,192,89289,128,0,89574:0:0:0:0:
64,192,89615,128,0,90185:0:0:0:0:
192,192,89615,128,0,90185:0:0:0:0:
320,192,89615,128,0,89859:0:0:0:0:
448,192,89615,128,0,90185:0:0:0:0:
320,192,89941,128,0,90511:0:0:0:0:
192,192,90267,128,0,90675:0:0:0:0:
448,192,90267,128,0,91001:0:0:0:0:
64,192,90267,128,0,90838:0:0:0:0:
320,192,90593,128,0,90838:0:0:0:0:
192,192,90756,128,0,91001:0:0:0:0:
64,192,90919,128,0,91327:0:0:0:0:
320,192,90919,128,0,91164:0:0:0:0:
448,192,91082,128,0,91490:0:0:0:0:
192,192,91082,128,0,91490:0:0:0:0:
320,192,91245,128,0,91490:0:0:0:0:
64,192,91408,128,0,91816:0:0:0:0:
192,192,91571,128,0,92183:0:0:0:0:
320,192,91571,128,0,92183:0:0:0:0:
448,192,91571,128,0,92183:0:0:0:0:
64,192,91897,128,0,92183:0:0:0:0:
64,192,92223,128,0,92794:0:0:0:0:
192,192,92223,128,0,92794:0:0:0:0:
320,192,92223,128,0,92794:0:0:0:0:
448,192,92223,128,0,92468:0:0:0:0:
448,192,92550,128,0,93120:0:0:0:0:
192,192,92876,128,0,93283:0:0:0:0:
320,192,92876,128,0,93446:0:0:0:0:
64,192,92876,128,0,93446:0:0:0:0:
448,192,93202,128,0,93609:0:0:0:0:
192,192,93365,128,0,93609:0:0:0:0:
64,192,93528,128,0,93935:0:0:0:0:
320,192,93528,128,0,93772:0:0:0:0:
192,192,93691,128,0,94098:0:0:0:0:
448,192,93691,128,0,94098:0:0:0:0:
320,192,93854,128,0,94098:0:0:0:0:
64,192,94017,128,0,94791:0:0:0:0:
192,192,94180,128,0,94425:0:0:0:0:
320,192,94180,128,0,94791:0:0:0:0:
448,192,94180,128,0,94791:0:0:0:0:
192,192,94506,128,0,94791:0:0:0:0:
64,192,94832,128,0,95403:0:0:0:0:
448,192,94832,128,0,95077:0:0:0:0:
320,192,94832,128,0,95240:0:0:0:0:
192,192,94832,128,0,95077:0:0:0:0:
448,192,95158,128,0,95566:0:0:0:0:
192,192,95158,128,0,95403:0:0:0:0:
320,192,95321,128,0,95729:0:0:0:0:
192,192,95484,128,0,95729:0:0:0:0:
64,192,95484,128,0,95892:0:0:0:0:
448,192,95647,128,0,96055:0:0:0:0:
320,192,95810,128,0,96055:0:0:0:0:
192,192,95810,128,0,96218:0:0:0:0:
64,192,95973,128,0,96381:0:0:0:0:
320,192,96136,128,0,96381:0:0:0:0:
448,192,96136,128,0,96544:0:0:0:0:
192,192,96300,128,0,96544:0:0:0:0:
64,192,96463,128,0,96707:0:0:0:0:
320,192,96463,128,0,96870:0:0:0:0:
448,192,96626,128,0,96870:0:0:0:0:
192,192,96626,128,0,97033:0:0:0:0:
64,192,96789,128,0,97359:0:0:0:0:
320,192,96952,128,0,97196:0:0:0:0:
448,192,96952,128,0,97196:0:0:0:0:
192,192,97115,128,0,97522:0:0:0:0:
320,192,97278,128,0,97522:0:0:0:0:
448,192,97278,128,0,97685:0:0:0:0:
64,192,97441,128,0,97848:0:0:0:0:
192,192,97604,128,0,98011:0:0:0:0:
320,192,97604,128,0,98011:0:0:0:0:
448,192,97767,128,0,98011:0:0:0:0:
64,192,97930,128,0,98338:0:0:0:0:
192,192,98093,128,0,98175:0:0:0:0:
320,192,98093,128,0,98175:0:0:0:0:
448,192,98093,128,0,98175:0:0:0:0:
448,192,98256,128,0,98501:0:0:0:0:
320,192,98256,128,0,98664:0:0:0:0:
192,192,98256,128,0,98338:0:0:0:0:
64,192,98419,128,0,98827:0:0:0:0:
192,192,98419,128,0,98664:0:0:0:0:
448,192,98582,128,0,98990:0:0:0:0:
320,192,98745,128,0,98990:0:0:0:0:
192,192,98745,128,0,99153:0:0:0:0:
64,192,98908,128,0,99153:0:0:0:0:
448,192,99071,128,0,99316:0:0:0:0:
320,192,99071,128,0,99316:0:0:0:0:
192,192,99234,128,0,99479:0:0:0:0:
64,192,99234,128,0,99642:0:0:0:0:
320,192,99397,128,0,99642:0:0:0:0:
448,192,99397,128,0,99805:0:0:0:0:
192,192,99560,128,0,99968:0:0:0:0:
320,192,99723,128,0,99968:0:0:0:0:
64,192,99723,128,0,100131:0:0:0:0:
448,192,99886,128,0,100131:0:0:0:0:
192,192,100050,128,0,100294:0:0:0:0:
320,192,100050,128,0,100294:0:0:0:0:
64,192,100213,128,0,100661:0:0:0:0:
448,192,100213,128,0,100661:0:0:0:0:
192,192,100376,128,0,100661:0:0:0:0:
320,192,100376,128,0,100661:0:0:0:0:
64,192,100702,128,0,101272:0:0:0:0:
192,192,100702,128,0,101272:0:0:0:0:
320,192,100702,128,0,101272:0:0:0:0:
448,192,100702,128,0,100946:0:0:0:0:
448,192,101028,128,0,101598:0:0:0:0:
320,192,101354,128,0,101761:0:0:0:0:
64,192,101354,128,0,101924:0:0:0:0:
192,192,101354,128,0,101598:0:0:0:0:
448,192,101680,128,0,102087:0:0:0:0:
192,192,101680,128,0,101924:0:0:0:0:
320,192,101843,128,0,102087:0:0:0:0:
64,192,102006,128,0,102250:0:0:0:0:
192,192,102006,128,0,102250:0:0:0:0:
320,192,102169,128,0,102413:0:0:0:0:
448,192,102169,128,0,102577:0:0:0:0:
64,192,102332,128,0,102577:0:0:0:0:
192,192,102332,128,0,102577:0:0:0:0:
320,192,102495,128,0,102903:0:0:0:0:
448,192,102658,128,0,103555:0:0:0:0:
192,192,102658,128,0,103229:0:0:0:0:
64,192,102658,128,0,103229:0:0:0:0:
320,192,102984,128,0,103881:0:0:0:0:
192,192,103310,128,0,103881:0:0:0:0:
64,192,103310,128,0,103881:0:0:0:0:
448,192,103636,128,0,104207:0:0:0:0:
320,192,103962,128,0,104533:0:0:0:0:
64,192,103962,128,0,104207:0:0:0:0:
192,192,103962,128,0,104370:0:0:0:0:
448,192,104288,128,0,104533:0:0:0:0:
64,192,104288,128,0,104696:0:0:0:0:
192,192,104452,128,0,104696:0:0:0:0:
320,192,104615,128,0,104859:0:0:0:0:
448,192,104615,128,0,104859:0:0:0:0:
64,192,104778,128,0,105185:0:0:0:0:
192,192,104778,128,0,105022:0:0:0:0:
320,192,104941,128,0,105185:0:0:0:0:
448,192,104941,128,0,105185:0:0:0:0:
192,192,105104,128,0,105511:0:0:0:0:
64,192,105267,128,0,105878:0:0:0:0:
320,192,105267,128,0,105878:0:0:0:0:
448,192,105267,128,0,105878:0:0:0:0:
192,192,105593,128,0,105878:0:0:0:0:
64,192,105919,128,0,106490:0:0:0:0:
192,192,105919,128,0,106327:0:0:0:0:
320,192,105919,128,0,106163:0:0:0:0:
448,192,105919,128,0,106490:0:0:0:0:
320,192,106245,128,0,106490:0:0:0:0:
192,192,106408,128,0,106653:0:0:0:0:
448,192,106571,128,0,106979:0:0:0:0:
320,192,106571,128,0,106816:0:0:0:0:
64,192,106571,128,0,106816:0:0:0:0:
192,192,106734,128,0,107305:0:0:0:0:
320,192,106897,128,0,107142:0:0:0:0:
64,192,106897,128,0,107142:0:0:0:0:
448,192,107060,128,0,107305:0:0:0:0:
320,192,107223,128,0,107468:0:0:0:0:
64,192,107223,128,0,107468:0:0:0:0:
192,192,107386,128,0,107631:0:0:0:0:
448,192,107386,128,0,107794:0:0:0:0:
320,192,107549,128,0,107794:0:0:0:0:
64,192,107549,128,0,107794:0:0:0:0:
192,192,107712,128,0,108120:0:0:0:0:
320,192,107875,128,0,108446:0:0:0:0:
448,192,107875,128,0,108446:0:0:0:0:
64,192,107875,128,0,108772:0:0:0:0:
192,192,108202,128,0,109098:0:0:0:0:
320,192,108528,128,0,109098:0:0:0:0:
448,192,108528,128,0,109098:0:0:0:0:
64,192,108854,128,0,109424:0:0:0:0:
192,192,109180,128,0,109587:0:0:0:0:
320,192,109180,128,0,109587:0:0:0:0:
448,192,109180,128,0,109750:0:0:0:0:
64,192,109506,128,0,109750:0:0:0:0:
192,192,109669,128,0,109913:0:0:0:0:
320,192,109669,128,0,109913:0:0:0:0:
64,192,109832,128,0,110077:0:0:0:0:
448,192,109832,128,0,110077:0:0:0:0:
192,192,109995,128,0,110403:0:0:0:0:
320,192,109995,128,0,110240:0:0:0:0:
64,192,110158,128,0,110403:0:0:0:0:
448,192,110158,128,0,110566:0:0:0:0:
320,192,110321,128,0,110566:0:0:0:0:
192,192,110484,128,0,110729:0:0:0:0:
64,192,110484,128,0,110729:0:0:0:0:
320,192,110647,128,0,110892:0:0:0:0:
448,192,110647,128,0,110892:0:0:0:0:
64,192,110810,128,0,111096:0:0:0:0:
192,192,110810,128,0,111096:0:0:0:0:
320,192,110973,128,0,111096:0:0:0:0:
448,192,110973,128,0,111096:0:0:0:0:
448,192,111136,128,0,111707:0:0:0:0:
192,192,111136,128,0,111707:0:0:0:0:
64,192,111136,128,0,111381:0:0:0:0:
320,192,111136,128,0,111707:0:0:0:0:
64,192,111462,128,0,112033:0:0:0:0:
320,192,111788,128,0,112196:0:0:0:0:
448,192,111788,128,0,112359:0:0:0:0:
192,192,111788,128,0,112033:0:0:0:0:
64,192,112115,128,0,112522:0:0:0:0:
192,192,112115,128,0,112359:0:0:0:0:
320,192,112278,128,0,112522:0:0:0:0:
448,192,112441,128,0,112685:0:0:0:0:
192,192,112441,128,0,112685:0:0:0:0:
64,192,112604,128,0,113011:0:0:0:0:
320,192,112604,128,0,112848:0:0:0:0:
448,192,112767,128,0,113011:0:0:0:0:
192,192,112767,128,0,113011:0:0:0:0:
320,192,112930,128,0,113337:0:0:0:0:
64,192,113093,128,0,114316:0:0:0:0:
192,192,113093,128,0,113663:0:0:0:0:
448,192,113093,128,0,113663:0:0:0:0:
320,192,113419,128,0,113990:0:0:0:0:
192,192,113745,128,0,114316:0:0:0:0:
448,192,113745,128,0,114316:0:0:0:0:
320,192,114071,128,0,114479:0:0:0:0:
64,192,114397,128,0,114642:0:0:0:0:
192,192,114397,128,0,114642:0:0:0:0:
448,192,114397,128,0,114805:0:0:0:0:
320,192,114560,128,0,114968:0:0:0:0:
192,192,114723,128,0,114968:0:0:0:0:
64,192,114723,128,0,115131:0:0:0:0:
448,192,114886,128,0,115131:0:0:0:0:
320,192,115049,128,0,115294:0:0:0:0:
192,192,115049,128,0,115294:0:0:0:0:
64,192,115212,128,0,115661:0:0:0:0:
448,192,115212,128,0,115661:0:0:0:0:
192,192,115375,128,0,115661:0:0:0:0:
320,192,115375,128,0,115661:0:0:0:0:
448,192,115702,128,0,116313:0:0:0:0:
320,192,115702,128,0,115946:0:0:0:0:
192,192,115702,128,0,116313:0:0:0:0:
64,192,115702,128,0,115946:0:0:0:0:
64,192,116028,128,0,116313:0:0:0:0:
320,192,116028,128,0,116313:0:0:0:0:
192,192,116354,128,0,116598:0:0:0:0:
64,192,116354,128,0,116924:0:0:0:0:
320,192,116354,128,0,116761:0:0:0:0:
448,192,116354,128,0,116924:0:0:0:0:
192,192,116680,128,0,116924:0:0:0:0:
320,192,116843,128,0,117087:0:0:0:0:
448,192,117006,128,0,117413:0:0:0:0:
64,192,117006,128,0,117250:0:0:0:0:
192,192,117006,128,0,117250:0:0:0:0:
320,192,117169,128,0,117577:0:0:0:0:
192,192,117332,128,0,117577:0:0:0:0:
64,192,117332,128,0,117740:0:0:0:0:
448,192,117495,128,0,117740:0:0:0:0:
320,192,117658,128,0,117903:0:0:0:0:
192,192,117658,128,0,117903:0:0:0:0:
64,192,117821,128,0,118229:0:0:0:0:
448,192,117821,128,0,118066:0:0:0:0:
192,192,117984,128,0,118229:0:0:0:0:
320,192,117984,128,0,118229:0:0:0:0:
448,192,118147,128,0,118392:0:0:0:0:
64,192,118310,128,0,118555:0:0:0:0:
192,192,118310,128,0,118555:0:0:0:0:
320,192,118310,128,0,118718:0:0:0:0:
448,192,118473,128,0,118881:0:0:0:0:
192,192,118636,128,0,118881:0:0:0:0:
64,192,118636,128,0,119207:0:0:0:0:
320,192,118799,128,0,119533:0:0:0:0:
448,192,118962,128,0,119533:0:0:0:0:
192,192,118962,128,0,119533:0:0:0:0:
64,192,119288,128,0,119900:0:0:0:0:
192,192,119615,128,0,119900:0:0:0:0:
320,192,119615,128,0,119900:0:0:0:0:
448,192,119615,128,0,119900:0:0:0:0:
64,192,119941,128,0,120185:0:0:0:0:
192,192,119941,128,0,120185:0:0:0:0:
320,192,119941,128,0,120348:0:0:0:0:
448,192,119941,128,0,120022:0:0:0:0:
448,192,120104,128,0,120348:0:0:0:0:
192,192,120267,128,0,120511:0:0:0:0:
64,192,120267,128,0,120511:0:0:0:0:
320,192,120430,128,0,120674:0:0:0:0:
448,192,120430,128,0,120837:0:0:0:0:
64,192,120593,128,0,120837:0:0:0:0:
192,192,120593,128,0,120837:0:0:0:0:
320,192,120756,128,0,121000:0:0:0:0:
448,192,120919,128,0,121163:0:0:0:0:
64,192,120919,128,0,121163:0:0:0:0:
192,192,120919,128,0,121000:0:0:0:0:
320,192,121082,128,0,121327:0:0:0:0:
192,192,121082,128,0,121530:0:0:0:0:
64,192,121245,128,0,121530:0:0:0:0:
448,192,121245,128,0,121530:0:0:0:0:
320,192,121408,128,0,121530:0:0:0:0:
64,192,121571,128,0,122468:0:0:0:0:
192,192,121571,128,0,122142:0:0:0:0:
320,192,121571,128,0,122142:0:0:0:0:
448,192,121571,128,0,121816:0:0:0:0:
448,192,121897,128,0,122142:0:0:0:0:
192,192,122223,128,0,122468:0:0:0:0:
320,192,122223,128,0,122631:0:0:0:0:
448,192,122223,128,0,122794:0:0:0:0:
64,192,122549,128,0,122957:0:0:0:0:
192,192,122549,128,0,122794:0:0:0:0:
320,192,122712,128,0,122957:0:0:0:0:
448,192,122875,128,0,123120:0:0:0:0:
192,192,122875,128,0,123120:0:0:0:0:
64,192,123038,128,0,123283:0:0:0:0:
320,192,123038,128,0,123446:0:0:0:0:
192,192,123202,128,0,123446:0:0:0:0:
448,192,123202,128,0,123446:0:0:0:0:
64,192,123365,128,0,123772:0:0:0:0:
192,192,123528,128,0,124098:0:0:0:0:
320,192,123528,128,0,124098:0:0:0:0:
448,192,123528,128,0,124424:0:0:0:0:
64,192,123854,128,0,124750:0:0:0:0:
192,192,124180,128,0,124750:0:0:0:0:
320,192,124180,128,0,124750:0:0:0:0:
448,192,124506,128,0,125077:0:0:0:0:
320,192,124832,128,0,125077:0:0:0:0:
192,192,124832,128,0,125240:0:0:0:0:
64,192,124832,128,0,125403:0:0:0:0:
448,192,125158,128,0,125566:0:0:0:0:
320,192,125158,128,0,125403:0:0:0:0:
192,192,125321,128,0,125566:0:0:0:0:
64,192,125484,128,0,125729:0:0:0:0:
320,192,125484,128,0,125729:0:0:0:0:
448,192,125647,128,0,125892:0:0:0:0:
192,192,125647,128,0,126055:0:0:0:0:
320,192,125810,128,0,126055:0:0:0:0:
64,192,125810,128,0,126055:0:0:0:0:
448,192,125973,128,0,126381:0:0:0:0:
64,192,126136,128,0,126748:0:0:0:0:
192,192,126136,128,0,126748:0:0:0:0:
320,192,126136,128,0,126748:0:0:0:0:
448,192,126462,128,0,126748:0:0:0:0:
320,192,126788,128,0,127359:0:0:0:0:
192,192,126788,128,0,127359:0:0:0:0:
64,192,126788,128,0,127359:0:0:0:0:
448,192,126788,128,0,127033:0:0:0:0:
448,192,127115,128,0,127685:0:0:0:0:
192,192,127441,128,0,127848:0:0:0:0:
320,192,127441,128,0,128011:0:0:0:0:
64,192,127441,128,0,128174:0:0:0:0:
448,192,127767,128,0,128011:0:0:0:0:
192,192,127930,128,0,128174:0:0:0:0:
320,192,128093,128,0,128337:0:0:0:0:
448,192,128093,128,0,128337:0:0:0:0:
64,192,128256,128,0,128500:0:0:0:0:
192,192,128256,128,0,128663:0:0:0:0:
320,192,128419,128,0,128663:0:0:0:0:
448,192,128419,128,0,128663:0:0:0:0:
64,192,128582,128,0,128826:0:0:0:0:
192,192,128745,128,0,129153:0:0:0:0:
320,192,128745,128,0,128990:0:0:0:0:
448,192,128745,128,0,128990:0:0:0:0:
64,192,128908,128,0,129316:0:0:0:0:
320,192,129071,128,0,129316:0:0:0:0:
448,192,129071,128,0,129968:0:0:0:0:
192,192,129234,128,0,129642:0:0:0:0:
64,192,129397,128,0,129968:0:0:0:0:
320,192,129397,128,0,129968:0:0:0:0:
192,192,129723,128,0,130294:0:0:0:0:
320,192,130049,128,0,130457:0:0:0:0:
448,192,130049,128,0,130457:0:0:0:0:
64,192,130049,128,0,130620:0:0:0:0:
192,192,130375,128,0,130620:0:0:0:0:
448,192,130538,128,0,130783:0:0:0:0:
320,192,130538,128,0,130783:0:0:0:0:
64,192,130701,128,0,130946:0:0:0:0:
192,192,130701,128,0,130946:0:0:0:0:
448,192,130865,128,0,131272:0:0:0:0:
320,192,130865,128,0,131109:0:0:0:0:
64,192,131028,128,0,131435:0:0:0:0:
192,192,131028,128,0,131272:0:0:0:0:
320,192,131191,128,0,131435:0:0:0:0:
448,192,131354,128,0,131598:0:0:0:0:
192,192,131354,128,0,131598:0:0:0:0:
64,192,131517,128,0,131965:0:0:0:0:
320,192,131517,128,0,131761:0:0:0:0:
448,192,131680,128,0,131965:0:0:0:0:
192,192,131680,128,0,131965:0:0:0:0:
320,192,131843,128,0,131965:0:0:0:0:
64,192,132006,128,0,132903:0:0:0:0:
192,192,132006,128,0,132250:0:0:0:0:
448,192,132006,128,0,132577:0:0:0:0:
320,192,132006,128,0,132577:0:0:0:0:
192,192,132332,128,0,132577:0:0:0:0:
320,192,132658,128,0,133229:0:0:0:0:
448,192,132658,128,0,133229:0:0:0:0:
192,192,132658,128,0,133066:0:0:0:0:
64,192,132984,128,0,133392:0:0:0:0:
192,192,133147,128,0,133392:0:0:0:0:
320,192,133310,128,0,133555:0:0:0:0:
448,192,133310,128,0,133555:0:0:0:0:
64,192,133473,128,0,133881:0:0:0:0:
192,192,133473,128,0,133718:0:0:0:0:
320,192,133636,128,0,133881:0:0:0:0:
448,192,133636,128,0,133881:0:0:0:0:
192,192,133799,128,0,134044:0:0:0:0:
64,192,133962,128,0,134370:0:0:0:0:
320,192,133962,128,0,134207:0:0:0:0:
448,192,133962,128,0,134207:0:0:0:0:
192,192,134125,128,0,134533:0:0:0:0:
448,192,134288,128,0,134859:0:0:0:0:
320,192,134288,128,0,134533:0:0:0:0:
64,192,134452,128,0,135185:0:0:0:0:
192,192,134615,128,0,135185:0:0:0:0:
320,192,134615,128,0,135185:0:0:0:0:
448,192,134941,128,0,135511:0:0:0:0:
192,192,135267,128,0,135674:0:0:0:0:
320,192,135267,128,0,135837:0:0:0:0:
64,192,135267,128,0,135837:0:0:0:0:
448,192,135593,128,0,136000:0:0:0:0:
192,192,135756,128,0,136000:0:0:0:0:
64,192,135919,128,0,136163:0:0:0:0:
320,192,135919,128,0,136163:0:0:0:0:
448,192,136082,128,0,136530:0:0:0:0:
192,192,136082,128,0,136327:0:0:0:0:
320,192,136245,128,0,136530:0:0:0:0:
64,192,136245,128,0,136530:0:0:0:0:
192,192,136408,128,0,136530:0:0:0:0:
320,192,136571,128,0,136816:0:0:0:0:
448,192,136571,128,0,137182:0:0:0:0:
64,192,136571,128,0,137182:0:0:0:0:
192,192,136571,128,0,136816:0:0:0:0:
320,192,136897,128,0,137182:0:0:0:0:
192,192,136897,128,0,137182:0:0:0:0:
64,192,137223,128,0,137794:0:0:0:0:
192,192,137223,128,0,137794:0:0:0:0:
320,192,137223,128,0,137794:0:0:0:0:
448,192,137223,128,0,137468:0:0:0:0:
448,192,137549,128,0,138120:0:0:0:0:
192,192,137875,128,0,138446:0:0:0:0:
320,192,137875,128,0,138446:0:0:0:0:
64,192,137875,128,0,138283:0:0:0:0:
448,192,138202,128,0,138609:0:0:0:0:
64,192,138365,128,0,138609:0:0:0:0:
192,192,138528,128,0,138772:0:0:0:0:
320,192,138528,128,0,138772:0:0:0:0:
448,192,138691,128,0,138935:0:0:0:0:
64,192,138691,128,0,139098:0:0:0:0:
192,192,138854,128,0,139098:0:0:0:0:
320,192,138854,128,0,139098:0:0:0:0:
448,192,139017,128,0,139424:0:0:0:0:
64,192,139180,128,0,140077:0:0:0:0:
192,192,139180,128,0,139750:0:0:0:0:
320,192,139180,128,0,139750:0:0:0:0:
448,192,139506,128,0,140403:0:0:0:0:
192,192,139832,128,0,140403:0:0:0:0:
320,192,139832,128,0,140403:0:0:0:0:
64,192,140158,128,0,140729:0:0:0:0:
320,192,140484,128,0,140729:0:0:0:0:
448,192,140484,128,0,140892:0:0:0:0:
192,192,140484,128,0,140729:0:0:0:0:
64,192,140810,128,0,141055:0:0:0:0:
192,192,140810,128,0,141218:0:0:0:0:
320,192,140810,128,0,141055:0:0:0:0:
448,192,140973,128,0,141218:0:0:0:0:
64,192,141136,128,0,141707:0:0:0:0:
320,192,141136,128,0,141381:0:0:0:0:
192,192,141299,128,0,141707:0:0:0:0:
448,192,141299,128,0,141544:0:0:0:0:
320,192,141462,128,0,141707:0:0:0:0:
448,192,141625,128,0,141870:0:0:0:0:
64,192,141788,128,0,142033:0:0:0:0:
192,192,141788,128,0,142033:0:0:0:0:
320,192,141788,128,0,141870:0:0:0:0:
320,192,141952,128,0,142400:0:0:0:0:
448,192,141952,128,0,142400:0:0:0:0:
192,192,142115,128,0,142400:0:0:0:0:
64,192,142115,128,0,142400:0:0:0:0:
320,192,142441,128,0,142848:0:0:0:0:
192,192,142441,128,0,142685:0:0:0:0:
64,192,142441,128,0,143011:0:0:0:0:
448,192,142441,128,0,142685:0:0:0:0:
192,192,142767,128,0,143011:0:0:0:0:
448,192,142767,128,0,143011:0:0:0:0:
320,192,142930,128,0,143174:0:0:0:0:
64,192,143093,128,0,143337:0:0:0:0:
192,192,143093,128,0,143500:0:0:0:0:
448,192,143093,128,0,143337:0:0:0:0:
320,192,143256,128,0,143663:0:0:0:0:
448,192,143419,128,0,143827:0:0:0:0:
64,192,143419,128,0,143663:0:0:0:0:
192,192,143582,128,0,143827:0:0:0:0:
320,192,143745,128,0,144153:0:0:0:0:
64,192,143745,128,0,143990:0:0:0:0:
448,192,143908,128,0,144479:0:0:0:0:
192,192,143908,128,0,144316:0:0:0:0:
64,192,144071,128,0,144316:0:0:0:0:
320,192,144234,128,0,144479:0:0:0:0:
192,192,144397,128,0,144642:0:0:0:0:
64,192,144397,128,0,144642:0:0:0:0:
448,192,144560,128,0,145009:0:0:0:0:
320,192,144560,128,0,144805:0:0:0:0:
192,192,144723,128,0,145009:0:0:0:0:
64,192,144723,128,0,145009:0:0:0:0:
320,192,144886,128,0,145009:0:0:0:0:
448,192,145049,128,0,145457:0:0:0:0:
192,192,145049,128,0,145294:0:0:0:0:
64,192,145049,128,0,145457:0:0:0:0:
320,192,145049,128,0,145294:0:0:0:0:
320,192,145375,128,0,145783:0:0:0:0:
192,192,145375,128,0,145620:0:0:0:0:
448,192,145538,128,0,145783:0:0:0:0:
64,192,145538,128,0,145946:0:0:0:0:
192,192,145702,128,0,145946:0:0:0:0:
320,192,145865,128,0,146109:0:0:0:0:
448,192,145865,128,0,146272:0:0:0:0:
64,192,146028,128,0,146435:0:0:0:0:
192,192,146028,128,0,146435:0:0:0:0:
320,192,146191,128,0,146598:0:0:0:0:
448,192,146354,128,0,146598:0:0:0:0:
64,192,146517,128,0,146924:0:0:0:0:
192,192,146517,128,0,146761:0:0:0:0:
320,192,146680,128,0,146924:0:0:0:0:
448,192,146680,128,0,146924:0:0:0:0:
192,192,146843,128,0,147087:0:0:0:0:
64,192,147006,128,0,147250:0:0:0:0:
448,192,147006,128,0,147250:0:0:0:0:
320,192,147006,128,0,147087:0:0:0:0:
320,192,147169,128,0,147617:0:0:0:0:
192,192,147169,128,0,147413:0:0:0:0:
64,192,147332,128,0,147617:0:0:0:0:
448,192,147332,128,0,147617:0:0:0:0:
192,192,147495,128,0,147617:0:0:0:0:
320,192,147658,128,0,147903:0:0:0:0:
64,192,147658,128,0,148229:0:0:0:0:
448,192,147658,128,0,148066:0:0:0:0:
192,192,147658,128,0,147903:0:0:0:0:
192,192,147984,128,0,148229:0:0:0:0:
320,192,147984,128,0,148392:0:0:0:0:
448,192,148147,128,0,148392:0:0:0:0:
64,192,148310,128,0,148555:0:0:0:0:
192,192,148310,128,0,148555:0:0:0:0:
320,192,148473,128,0,148718:0:0:0:0:
448,192,148473,128,0,148881:0:0:0:0:
64,192,148636,128,0,149044:0:0:0:0:
192,192,148636,128,0,148881:0:0:0:0:
320,192,148799,128,0,149044:0:0:0:0:
448,192,148962,128,0,149370:0:0:0:0:
192,192,148962,128,0,149207:0:0:0:0:
64,192,149125,128,0,149533:0:0:0:0:
320,192,149125,128,0,149370:0:0:0:0:
192,192,149288,128,0,149533:0:0:0:0:
320,192,149452,128,0,149696:0:0:0:0:
448,192,149452,128,0,149900:0:0:0:0:
64,192,149615,128,0,149900:0:0:0:0:
192,192,149615,128,0,149900:0:0:0:0:
320,192,149778,128,0,149900:0:0:0:0:
64,192,149941,128,0,150511:0:0:0:0:
192,192,149941,128,0,150348:0:0:0:0:
320,192,149941,128,0,150185:0:0:0:0:
448,192,149941,128,0,150185:0:0:0:0:
320,192,150267,128,0,150511:0:0:0:0:
448,192,150267,128,0,150674:0:0:0:0:
192,192,150430,128,0,150837:0:0:0:0:
64,192,150593,128,0,151000:0:0:0:0:
320,192,150593,128,0,150837:0:0:0:0:
448,192,150756,128,0,151163:0:0:0:0:
192,192,150919,128,0,151326:0:0:0:0:
320,192,150919,128,0,151163:0:0:0:0:
64,192,151082,128,0,151326:0:0:0:0:
320,192,151245,128,0,151490:0:0:0:0:
448,192,151245,128,0,151490:0:0:0:0:
192,192,151408,128,0,151816:0:0:0:0:
64,192,151408,128,0,151653:0:0:0:0:
320,192,151571,128,0,151816:0:0:0:0:
448,192,151571,128,0,151979:0:0:0:0:
64,192,151734,128,0,152142:0:0:0:0:
192,192,151897,128,0,152305:0:0:0:0:
320,192,151897,128,0,152142:0:0:0:0:
448,192,152060,128,0,152305:0:0:0:0:
64,192,152223,128,0,152468:0:0:0:0:
320,192,152223,128,0,152468:0:0:0:0:
192,192,152386,128,0,152631:0:0:0:0:
448,192,152386,128,0,152835:0:0:0:0:
64,192,152549,128,0,152835:0:0:0:0:
320,192,152549,128,0,152835:0:0:0:0:
192,192,152712,128,0,152835:0:0:0:0:
448,192,152875,128,0,156381:0:0:0:0:
64,192,152875,128,0,153120:0:0:0:0:
192,192,152875,128,0,153446:0:0:0:0:
320,192,152875,128,0,153772:0:0:0:0:
64,192,153201,128,0,155403:0:0:0:0:
192,192,153528,128,0,156055:0:0:0:0:
320,192,153854,128,0,155729:0:0:0:0:
64,192,155484,128,0,158990:0:0:0:0:
320,192,155810,128,0,158663:0:0:0:0:
192,192,156136,128,0,158337:0:0:0:0:
448,192,156462,128,0,158011:0:0:0:0:
448,192,158093,128,0,160701:0:0:0:0:
192,192,158419,128,0,161027:0:0:0:0:
320,192,158745,128,0,161435:0:0:0:0:
64,192,159071,128,0,161923:0:0:0:0:
448,192,160783,128,0,164941:0:0:0:0:
192,192,161109,128,0,164941:0:0:0:0:
320,192,161517,128,0,164941:0:0:0:0:
64,192,162006,128,0,164941:0:0:0:0:
