osu file format v14

[General]
AudioFilename: audio.mp3
AudioLeadIn: 0
PreviewTime: 63047
Countdown: 0
SampleSet: Normal
StackLeniency: 0.7
Mode: 1
LetterboxInBreaks: 0
WidescreenStoryboard: 1

[Editor]
Bookmarks: 11047,43047,63047
DistanceSpacing: 1.3
BeatDivisor: 2
GridSize: 4
TimelineZoom: 1.300001

[Metadata]
Title:Share the light (TV Size)
TitleUnicode:Share the light (TV Size)
Artist:Run Girls, Run!
ArtistUnicode:Run Girls, Run!
Creator:realy0_
Version:Muzukashii
Source:アサシンズプライド
Tags:Assassin's Assassins Pride anime pop j-pop jpop opening op electronic future bass japanese Capu Cychloryn
BeatmapID:2357607
BeatmapSetID:1128443

[Difficulty]
HPDrainRate:6
CircleSize:5
OverallDifficulty:4.5
ApproachRate:5
SliderMultiplier:1.4
SliderTickRate:1

[Events]
//Background and Video events
0,0,"bg2.jpg",0,0
Video,-275,"realy0_.mp4"
//Break Periods
//Storyboard Layer 0 (Background)
//Storyboard Layer 1 (Fail)
//Storyboard Layer 2 (Pass)
//Storyboard Layer 3 (Foreground)
//Storyboard Layer 4 (Overlay)
//Storyboard Sound Samples

[TimingPoints]
381,333.333333333333,4,1,0,60,1,0
5714,-100,4,1,0,70,0,0
11047,-90.9090909090909,4,1,0,75,0,1
21714,-100,4,1,0,45,0,0
43047,-100,4,1,0,60,0,0
53714,-100,4,1,0,65,0,0
59047,-100,4,1,0,70,0,0
64380,-90.9090909090909,4,1,0,75,0,1
75047,-90.9090909090909,4,1,0,75,0,0
76214,-90.9090909090909,4,1,0,75,0,1
85714,-100,4,1,0,60,0,0
86047,-100,4,1,0,55,0,0
86380,-100,4,1,0,50,0,0
86714,-100,4,1,0,45,0,0
87047,-100,4,1,0,40,0,0
87380,-100,4,1,0,35,0,0
87714,-100,4,1,0,30,0,0

[HitObjects]
329,252,381,5,0,1:0:0:0:
181,185,1047,1,0,1:0:0:0:
327,252,1547,1,8,1:0:0:0:
291,111,2214,1,0,1:0:0:0:
291,111,2547,1,8,1:0:0:0:
327,252,3047,1,0,1:0:0:0:
325,228,3714,1,0,1:0:0:0:
325,228,4214,1,8,1:0:0:0:
216,256,4880,1,0,0:0:0:0:
312,231,5047,1,8,1:0:0:0:
312,231,5380,1,8,1:0:0:0:
210,25,5714,1,4,1:0:0:0:
196,175,6047,1,0,1:0:0:0:
155,83,6380,1,8,1:0:0:0:
155,83,6714,1,0,1:0:0:0:
155,83,7047,1,8,1:0:0:0:
155,83,7380,1,8,1:0:0:0:
339,76,7547,1,0,1:0:0:0:
238,10,7714,1,8,1:0:0:0:
324,60,8047,1,0,1:0:0:0:
324,60,8380,1,8,1:0:0:0:
239,11,8547,1,8,1:0:0:0:
239,11,8714,1,0,1:0:0:0:
333,145,8880,1,0,1:0:0:0:
303,8,9047,1,8,1:0:0:0:
333,145,9214,1,0,1:0:0:0:
333,145,9380,1,0,1:0:0:0:
303,8,9547,1,8,1:0:0:0:
301,78,10380,1,8,1:0:0:0:
301,78,10464,1,8,1:0:0:0:
301,78,10547,1,8,1:0:0:0:
301,77,10714,1,8,1:0:0:0:
202,153,11047,1,4,1:0:0:0:
332,119,11380,1,0,1:0:0:0:
332,119,11464,1,0,1:0:0:0:
332,119,11547,1,0,1:0:0:0:
271,143,11714,1,8,1:0:0:0:
271,143,11880,1,0,1:0:0:0:
271,143,12047,1,0,1:0:0:0:
271,143,12214,1,12,1:0:0:0:
244,58,12714,1,8,1:0:0:0:
244,58,12880,1,4,1:0:0:0:
271,143,13214,1,0,1:0:0:0:
243,57,13380,1,8,1:0:0:0:
212,62,13714,1,4,1:0:0:0:
212,62,14047,1,0,1:0:0:0:
298,103,14130,1,0,1:0:0:0:
333,83,14214,1,0,1:0:0:0:
333,83,14380,1,8,1:0:0:0:
212,62,14547,1,8,1:0:0:0:
333,83,14714,1,0,1:0:0:0:
333,83,14880,1,12,1:0:0:0:
243,54,15380,1,8,1:0:0:0:
243,54,15547,1,4,1:0:0:0:
333,83,15880,1,0,1:0:0:0:
235,73,16047,1,8,1:0:0:0:
235,73,16130,1,8,1:0:0:0:
235,73,16214,1,8,1:0:0:0:
202,153,16380,1,4,1:0:0:0:
296,108,16714,1,0,1:0:0:0:
296,108,16797,1,0,1:0:0:0:
296,108,16880,1,0,1:0:0:0:
271,143,17047,1,8,1:0:0:0:
271,143,17214,1,0,1:0:0:0:
271,143,17380,1,0,1:0:0:0:
271,143,17547,1,12,1:0:0:0:
244,58,18047,1,8,1:0:0:0:
244,58,18214,1,4,1:0:0:0:
271,143,18547,1,0,1:0:0:0:
243,57,18714,1,8,1:0:0:0:
212,62,19047,1,4,1:0:0:0:
212,62,19380,1,0,1:0:0:0:
260,117,19464,1,0,1:0:0:0:
279,36,19547,1,0,1:0:0:0:
333,83,19714,1,8,1:0:0:0:
212,62,19880,1,8,1:0:0:0:
333,83,20047,1,0,1:0:0:0:
333,83,20214,1,12,1:0:0:0:
333,83,20547,1,0,1:0:0:0:
243,54,20714,1,8,1:0:0:0:
243,54,20880,1,4,1:0:0:0:
178,131,21214,1,0,1:0:0:0:
200,92,21380,1,8,1:0:0:0:
200,92,21714,1,0,1:0:0:0:
268,147,22214,1,8,1:0:0:0:
268,146,22547,1,0,1:0:0:0:
252,83,22880,1,0,1:0:0:0:
131,232,24047,1,0,0:0:0:0:
251,84,24380,1,8,1:0:0:0:
251,84,24880,1,8,1:0:0:0:
265,148,25214,1,0,1:0:0:0:
265,148,25547,1,8,1:0:0:0:
251,84,25714,1,0,1:0:0:0:
119,110,26714,1,0,1:0:0:0:
189,118,27047,1,8,1:0:0:0:
267,110,27547,1,8,1:0:0:0:
190,149,27880,1,8,1:0:0:0:
363,165,28214,1,8,1:0:0:0:
267,110,28380,1,0,1:0:0:0:
236,8,29047,1,0,1:0:0:0:
267,110,29380,1,0,1:0:0:0:
267,110,29714,1,8,1:0:0:0:
183,226,30047,1,0,1:0:0:0:
183,226,30214,1,8,1:0:0:0:
198,14,30714,1,0,1:0:0:0:
267,110,30880,1,8,1:0:0:0:
267,110,30964,1,8,1:0:0:0:
267,110,31047,1,8,1:0:0:0:
198,14,32047,1,0,1:0:0:0:
198,14,32380,1,8,1:0:0:0:
259,54,32880,1,0,1:0:0:0:
198,14,33214,1,8,1:0:0:0:
198,14,33547,1,8,1:0:0:0:
198,14,33714,1,0,1:0:0:0:
198,14,34714,1,0,1:0:0:0:
198,14,35047,1,8,1:0:0:0:
290,81,35547,1,8,1:0:0:0:
205,44,35880,1,0,1:0:0:0:
205,44,36214,1,0,1:0:0:0:
205,44,36380,1,8,1:0:0:0:
232,138,37380,1,8,1:0:0:0:
232,138,37714,1,0,1:0:0:0:
341,176,38047,1,8,1:0:0:0:
341,176,38214,1,8,1:0:0:0:
339,174,38714,1,8,1:0:0:0:
339,174,39047,1,0,1:0:0:0:
339,174,39380,1,8,1:0:0:0:
339,174,39714,1,0,1:0:0:0:
339,174,40047,1,0,1:0:0:0:
339,174,40380,1,8,1:0:0:0:
339,174,41714,1,0,1:0:0:0:
339,174,42380,1,8,1:0:0:0:
339,174,43047,1,4,1:0:0:0:
183,247,43380,1,0,1:0:0:0:
183,247,43547,1,0,1:0:0:0:
217,191,43714,1,8,1:0:0:0:
204,86,44047,1,8,1:0:0:0:
220,64,44214,1,0,1:0:0:0:
211,200,44380,1,8,1:0:0:0:
293,135,44630,1,8,1:0:0:0:
293,135,44880,1,8,1:0:0:0:
211,200,45047,1,0,1:0:0:0:
293,136,45214,1,8,1:0:0:0:
235,156,45380,1,8,1:0:0:0:
235,156,45464,1,8,1:0:0:0:
235,156,45547,1,8,1:0:0:0:
235,156,45714,1,0,1:0:0:0:
183,247,46047,1,0,1:0:0:0:
217,191,46380,1,8,1:0:0:0:
204,86,46714,1,8,1:0:0:0:
220,64,46880,1,0,1:0:0:0:
220,64,46964,1,0,1:0:0:0:
211,200,47047,1,0,1:0:0:0:
293,135,47297,1,8,1:0:0:0:
293,135,47547,1,8,1:0:0:0:
211,200,47714,1,0,1:0:0:0:
235,156,48380,1,8,1:0:0:0:
183,247,48714,1,0,1:0:0:0:
217,191,49047,1,8,1:0:0:0:
220,64,49214,1,8,1:0:0:0:
204,86,49380,1,0,1:0:0:0:
160,218,49464,1,0,1:0:0:0:
160,218,49547,1,0,1:0:0:0:
211,200,49714,1,8,1:0:0:0:
293,135,49964,1,8,1:0:0:0:
293,135,50214,1,8,1:0:0:0:
211,200,50380,1,0,1:0:0:0:
293,136,50547,1,8,1:0:0:0:
235,156,50714,1,8,1:0:0:0:
235,156,51047,1,0,1:0:0:0:
217,191,51714,1,8,1:0:0:0:
204,86,52047,1,0,1:0:0:0:
220,64,52214,1,8,1:0:0:0:
220,64,52297,1,8,1:0:0:0:
211,200,52380,1,8,1:0:0:0:
293,135,52630,1,8,1:0:0:0:
293,135,52880,1,8,1:0:0:0:
211,200,53047,1,0,1:0:0:0:
204,86,53380,1,0,1:0:0:0:
235,156,53714,1,12,1:0:0:0:
217,191,54380,1,8,1:0:0:0:
204,86,54714,1,8,1:0:0:0:
220,64,54880,1,0,1:0:0:0:
211,200,55047,1,8,1:0:0:0:
293,135,55297,1,8,1:0:0:0:
293,135,55547,1,8,1:0:0:0:
211,200,55714,1,0,1:0:0:0:
293,136,55880,1,8,1:0:0:0:
235,156,56047,1,8,1:0:0:0:
235,156,56130,1,8,1:0:0:0:
235,156,56214,1,8,1:0:0:0:
235,156,56380,1,0,1:0:0:0:
183,247,56714,1,0,1:0:0:0:
217,191,57047,1,8,1:0:0:0:
204,86,57380,1,8,1:0:0:0:
220,64,57547,1,0,1:0:0:0:
220,64,57630,1,0,1:0:0:0:
211,200,57714,1,0,1:0:0:0:
293,135,57964,1,8,1:0:0:0:
293,135,58214,1,8,1:0:0:0:
211,200,58380,1,0,1:0:0:0:
235,156,59047,1,8,1:0:0:0:
226,31,59380,1,0,1:0:0:0:
226,29,59547,1,0,1:0:0:0:
226,29,59714,1,8,1:0:0:0:
254,75,60047,1,8,1:0:0:0:
262,94,60380,1,0,1:0:0:0:
283,64,60547,1,0,1:0:0:0:
262,94,60714,1,8,1:0:0:0:
262,94,60880,1,8,1:0:0:0:
262,94,61047,1,0,1:0:0:0:
311,84,61380,1,0,1:0:0:0:
302,145,61714,1,8,1:0:0:0:
287,64,61880,1,8,1:0:0:0:
260,133,61964,1,8,1:0:0:0:
287,64,62047,1,8,1:0:0:0:
260,125,62214,1,0,1:0:0:0:
260,125,62380,1,8,1:0:0:0:
260,125,62547,1,0,1:0:0:0:
260,125,62630,1,0,1:0:0:0:
260,125,62714,1,0,1:0:0:0:
260,125,62880,1,8,1:0:0:0:
260,125,63047,1,0,1:0:0:0:
253,114,64047,1,8,1:0:0:0:
244,111,64380,1,4,1:0:0:0:
332,119,64714,1,0,1:0:0:0:
332,119,64797,1,0,1:0:0:0:
332,119,64880,1,0,1:0:0:0:
271,143,65047,1,8,1:0:0:0:
271,143,65214,1,0,1:0:0:0:
271,143,65380,1,0,1:0:0:0:
271,143,65547,1,12,1:0:0:0:
271,143,65880,1,0,1:0:0:0:
244,58,66047,1,8,1:0:0:0:
244,58,66214,1,4,1:0:0:0:
243,57,66714,1,8,1:0:0:0:
212,62,67047,1,4,1:0:0:0:
212,62,67380,1,0,1:0:0:0:
298,103,67464,1,0,1:0:0:0:
333,83,67547,1,0,1:0:0:0:
333,83,67714,1,8,1:0:0:0:
212,62,67880,1,8,1:0:0:0:
333,83,68047,1,0,1:0:0:0:
333,83,68214,1,12,1:0:0:0:
271,143,68547,1,0,1:0:0:0:
243,54,68714,1,8,1:0:0:0:
243,54,68880,1,0,1:0:0:0:
333,83,69047,1,8,1:0:0:0:
235,73,69380,1,8,1:0:0:0:
202,153,69714,1,4,1:0:0:0:
296,108,70047,1,0,1:0:0:0:
296,108,70130,1,0,1:0:0:0:
296,108,70214,1,0,1:0:0:0:
271,143,70380,1,8,1:0:0:0:
271,143,70547,1,0,1:0:0:0:
271,143,70714,1,0,1:0:0:0:
271,143,70880,1,12,1:0:0:0:
271,143,71214,1,0,1:0:0:0:
244,58,71380,1,8,1:0:0:0:
244,58,71547,1,4,1:0:0:0:
243,57,72047,1,8,1:0:0:0:
212,62,72380,1,4,1:0:0:0:
212,62,72714,1,0,1:0:0:0:
260,117,72797,1,0,1:0:0:0:
279,36,72880,1,0,1:0:0:0:
333,83,73047,1,8,1:0:0:0:
212,62,73214,1,8,1:0:0:0:
333,83,73380,1,0,1:0:0:0:
333,83,73547,1,12,1:0:0:0:
333,83,73880,1,0,1:0:0:0:
243,54,74047,1,8,1:0:0:0:
243,54,74214,1,4,1:0:0:0:
245,131,74547,1,8,1:0:0:0:
245,131,74630,1,8,1:0:0:0:
200,92,74714,1,8,1:0:0:0:
200,92,75047,1,0,1:0:0:0:
245,131,75714,1,8,1:0:0:0:
206,25,75880,1,0,1:0:0:0:
209,159,76047,1,0,1:0:0:0:
245,131,76214,1,12,1:0:0:0:
271,143,76547,1,0,1:0:0:0:
244,58,76714,1,8,1:0:0:0:
244,58,76880,1,4,1:0:0:0:
243,57,77380,1,8,1:0:0:0:
212,62,77714,1,4,1:0:0:0:
212,62,78047,1,0,1:0:0:0:
298,103,78130,1,0,1:0:0:0:
333,83,78214,1,0,1:0:0:0:
333,83,78380,1,8,1:0:0:0:
212,62,78547,1,8,1:0:0:0:
333,83,78714,1,0,1:0:0:0:
333,83,78880,1,12,1:0:0:0:
271,143,79214,1,0,1:0:0:0:
243,54,79380,1,8,1:0:0:0:
243,54,79547,1,0,1:0:0:0:
333,83,79714,1,8,1:0:0:0:
235,73,80047,1,8,1:0:0:0:
202,153,80380,1,4,1:0:0:0:
296,108,80714,1,0,1:0:0:0:
296,108,80797,1,0,1:0:0:0:
296,108,80880,1,0,1:0:0:0:
271,143,81047,1,8,1:0:0:0:
271,143,81214,1,0,1:0:0:0:
271,143,81380,1,0,1:0:0:0:
271,143,81547,1,12,1:0:0:0:
271,143,81880,1,0,1:0:0:0:
244,58,82047,1,8,1:0:0:0:
244,58,82214,1,4,1:0:0:0:
243,57,82714,1,8,1:0:0:0:
212,62,83047,1,4,1:0:0:0:
260,117,83214,1,8,1:0:0:0:
260,117,83297,1,8,1:0:0:0:
260,117,83380,1,8,1:0:0:0:
279,36,83547,1,0,1:0:0:0:
333,83,83714,1,8,1:0:0:0:
212,62,83880,1,0,1:0:0:0:
333,83,84047,1,0,1:0:0:0:
333,83,84214,1,12,1:0:0:0:
333,83,84547,1,8,1:0:0:0:
243,54,84714,1,0,1:0:0:0:
243,54,84880,1,12,1:0:0:0:
245,131,85214,1,8,1:0:0:0:
245,131,85297,1,8,1:0:0:0:
200,92,85380,1,8,1:0:0:0:
213,147,85714,1,4,1:0:0:0:
256,192,85880,12,0,88214,1:0:0:0:
122,165,88380,5,8,1:0:0:0:
