osu file format v14

[General]
AudioFilename: audio.mp3
AudioLeadIn: 0
PreviewTime: 63047
Countdown: 0
SampleSet: Normal
StackLeniency: 0.7
Mode: 1
LetterboxInBreaks: 0
WidescreenStoryboard: 1

[Editor]
Bookmarks: 11047,43047,63047
DistanceSpacing: 1.3
BeatDivisor: 2
GridSize: 4
TimelineZoom: 1.300001

[Metadata]
Title:Share the light (TV Size)
TitleUnicode:Share the light (TV Size)
Artist:Run Girls, Run!
ArtistUnicode:Run Girls, Run!
Creator:realy0_
Version:Futsuu
Source:アサシンズプライド
Tags:Assassin's Assassins Pride anime pop j-pop jpop opening op electronic future bass japanese Capu Cychloryn
BeatmapID:2357604
BeatmapSetID:1128443

[Difficulty]
HPDrainRate:7
CircleSize:5
OverallDifficulty:3.5
ApproachRate:5
SliderMultiplier:1.4
SliderTickRate:1

[Events]
//Background and Video events
0,0,"bg2.jpg",0,0
Video,-275,"realy0_.mp4"
//Break Periods
//Storyboard Layer 0 (Background)
//Storyboard Layer 1 (Fail)
//Storyboard Layer 2 (Pass)
//Storyboard Layer 3 (Foreground)
//Storyboard Layer 4 (Overlay)
//Storyboard Sound Samples

[TimingPoints]
381,333.333333333333,4,1,0,60,1,0
381,-111.111111111111,4,1,0,60,0,0
5714,-111.111111111111,4,1,0,70,0,0
11047,-111.111111111111,4,1,0,75,0,1
21714,-111.111111111111,4,1,0,45,0,0
43047,-111.111111111111,4,1,0,60,0,0
53714,-111.111111111111,4,1,0,65,0,0
59047,-111.111111111111,4,1,0,70,0,0
64380,-111.111111111111,4,1,0,75,0,1
75047,-111.111111111111,4,1,0,75,0,0
76214,-111.111111111111,4,1,0,75,0,1
85714,-111.111111111111,4,1,0,60,0,0
86047,-111.111111111111,4,1,0,55,0,0
86380,-111.111111111111,4,1,0,50,0,0
86714,-111.111111111111,4,1,0,45,0,0
87047,-111.111111111111,4,1,0,40,0,0
87380,-111.111111111111,4,1,0,35,0,0
87714,-111.111111111111,4,1,0,30,0,0

[HitObjects]
280,176,381,5,0,1:0:0:0:
208,284,1547,1,8,1:0:0:0:
280,173,2714,1,0,1:0:0:0:
280,173,3047,1,0,1:0:0:0:
208,288,4214,1,0,1:0:0:0:
280,173,5047,1,8,1:0:0:0:
280,173,5380,1,8,1:0:0:0:
280,173,5714,1,4,1:0:0:0:
281,172,6380,1,0,1:0:0:0:
294,60,7047,1,8,1:0:0:0:
281,172,7380,1,0,1:0:0:0:
293,60,7714,1,8,1:0:0:0:
281,172,8047,1,0,1:0:0:0:
294,60,8380,1,8,1:0:0:0:
294,60,8547,1,0,1:0:0:0:
294,60,8714,1,8,1:0:0:0:
294,60,9047,1,0,1:0:0:0:
294,60,9213,1,0,1:0:0:0:
294,60,9380,1,8,1:0:0:0:
294,60,9547,1,8,1:0:0:0:
260,44,10380,1,8,1:0:0:0:
130,167,10547,1,0,1:0:0:0:
256,43,10714,1,8,1:0:0:0:
270,47,11047,1,4,1:0:0:0:
212,78,11714,1,8,1:0:0:0:
212,78,12214,1,0,1:0:0:0:
321,48,12714,1,8,1:0:0:0:
321,48,12880,1,0,1:0:0:0:
317,136,13380,1,8,1:0:0:0:
317,136,13714,1,0,1:0:0:0:
220,178,13880,1,8,1:0:0:0:
317,136,14047,1,0,1:0:0:0:
219,181,14214,1,0,1:0:0:0:
317,136,14380,1,8,1:0:0:0:
317,135,14880,1,0,1:0:0:0:
316,132,15380,1,8,1:0:0:0:
316,132,15547,1,0,1:0:0:0:
258,23,16047,1,0,1:0:0:0:
258,23,16214,1,8,1:0:0:0:
258,23,16380,1,4,1:0:0:0:
256,193,17047,1,8,1:0:0:0:
256,191,17547,1,0,1:0:0:0:
256,191,18047,1,8,1:0:0:0:
256,191,18214,1,0,1:0:0:0:
367,170,18714,1,8,1:0:0:0:
269,86,19047,1,0,1:0:0:0:
220,178,19214,1,8,1:0:0:0:
269,86,19380,1,0,1:0:0:0:
218,181,19547,1,0,1:0:0:0:
269,86,19714,1,8,1:0:0:0:
269,86,20214,1,0,1:0:0:0:
276,178,20547,1,0,0:0:0:0:
270,87,20714,1,8,1:0:0:0:
270,87,20880,1,0,1:0:0:0:
270,87,21380,1,8,1:0:0:0:
270,87,21714,1,0,1:0:0:0:
239,112,22880,1,8,1:0:0:0:
271,87,24047,1,8,1:0:0:0:
271,87,24380,1,0,1:0:0:0:
270,223,25714,1,0,0:0:0:0:
394,98,26714,1,0,1:0:0:0:
394,98,27047,1,8,1:0:0:0:
262,217,28380,1,8,0:0:0:0:
361,94,29380,1,8,1:0:0:0:
361,94,29714,1,0,1:0:0:0:
225,0,31047,1,0,1:0:0:0:
257,49,32380,1,8,1:0:0:0:
265,42,33214,1,8,1:0:0:0:
262,46,33714,1,0,1:0:0:0:
264,44,34714,1,0,1:0:0:0:
264,44,35047,1,8,1:0:0:0:
265,42,35880,1,0,1:0:0:0:
264,44,36380,1,8,1:0:0:0:
265,42,37380,1,8,1:0:0:0:
265,42,37714,1,0,1:0:0:0:
265,41,38714,1,0,1:0:0:0:
265,41,39047,1,8,1:0:0:0:
265,41,39380,1,8,1:0:0:0:
265,41,39714,1,0,1:0:0:0:
265,41,40380,1,8,1:0:0:0:
265,41,41714,1,0,1:0:0:0:
265,41,42380,1,8,1:0:0:0:
262,37,43047,1,4,1:0:0:0:
264,51,43380,1,0,1:0:0:0:
264,51,43547,1,0,1:0:0:0:
364,140,43714,1,8,1:0:0:0:
363,136,44047,1,0,1:0:0:0:
264,51,44380,1,8,1:0:0:0:
264,51,44714,1,8,1:0:0:0:
264,51,44880,1,0,1:0:0:0:
264,51,45047,1,8,1:0:0:0:
264,51,45380,1,8,1:0:0:0:
262,51,45714,1,0,1:0:0:0:
262,51,46380,1,8,1:0:0:0:
363,136,46714,1,0,1:0:0:0:
363,136,46880,1,0,1:0:0:0:
235,46,47047,1,8,1:0:0:0:
235,46,47547,1,8,1:0:0:0:
235,46,48047,1,0,1:0:0:0:
363,135,48380,1,8,1:0:0:0:
235,45,48714,1,8,1:0:0:0:
235,45,48880,1,0,1:0:0:0:
363,135,49047,1,8,1:0:0:0:
235,45,49380,1,8,1:0:0:0:
363,135,49714,1,0,1:0:0:0:
272,103,50047,1,0,1:0:0:0:
235,45,50380,1,8,1:0:0:0:
235,45,50714,1,0,1:0:0:0:
268,171,50880,1,8,1:0:0:0:
268,171,51047,1,0,1:0:0:0:
269,171,51714,1,8,1:0:0:0:
269,171,52047,1,0,1:0:0:0:
269,171,52380,1,8,1:0:0:0:
270,170,52880,1,8,1:0:0:0:
236,45,53380,1,0,1:0:0:0:
236,43,53714,1,12,1:0:0:0:
264,51,54047,1,0,1:0:0:0:
264,51,54214,1,0,1:0:0:0:
364,140,54380,1,8,1:0:0:0:
363,136,54714,1,0,1:0:0:0:
264,51,55047,1,8,1:0:0:0:
264,51,55380,1,8,1:0:0:0:
264,51,55547,1,0,1:0:0:0:
264,51,55714,1,8,1:0:0:0:
264,51,56047,1,8,1:0:0:0:
262,51,56380,1,0,1:0:0:0:
262,51,57047,1,8,1:0:0:0:
363,136,57380,1,8,1:0:0:0:
235,46,57547,1,8,1:0:0:0:
363,136,57714,1,0,1:0:0:0:
230,96,58047,1,8,1:0:0:0:
235,46,58214,1,0,1:0:0:0:
230,96,58547,1,0,1:0:0:0:
230,96,58714,1,8,1:0:0:0:
226,75,59047,1,0,1:0:0:0:
363,135,59714,1,8,1:0:0:0:
363,135,60047,1,8,1:0:0:0:
235,45,60380,1,0,1:0:0:0:
222,69,61047,1,0,1:0:0:0:
235,45,61380,1,0,1:0:0:0:
283,125,61714,1,8,1:0:0:0:
250,193,61880,1,8,0:0:0:0:
250,193,62047,1,0,0:0:0:0:
250,193,62214,1,0,0:0:0:0:
269,171,62380,1,8,1:0:0:0:
253,194,62714,1,8,0:0:0:0:
253,194,62880,1,8,0:0:0:0:
244,96,63047,1,0,1:0:0:0:
236,45,64047,1,8,1:0:0:0:
270,47,64380,1,4,1:0:0:0:
212,78,65047,1,8,1:0:0:0:
212,78,65547,1,0,1:0:0:0:
321,48,66047,1,8,1:0:0:0:
321,48,66214,1,0,1:0:0:0:
289,190,66547,1,0,1:0:0:0:
317,136,66714,1,8,1:0:0:0:
317,136,67047,1,4,1:0:0:0:
317,136,67380,1,0,1:0:0:0:
219,181,67547,1,0,1:0:0:0:
317,136,67714,1,8,1:0:0:0:
317,135,68214,1,0,1:0:0:0:
193,105,68547,1,8,0:0:0:0:
316,132,68714,1,0,1:0:0:0:
316,132,68880,1,0,1:0:0:0:
258,23,69047,1,8,1:0:0:0:
258,23,69380,1,8,1:0:0:0:
258,23,69714,1,4,1:0:0:0:
212,78,70380,1,8,1:0:0:0:
212,78,70880,1,0,1:0:0:0:
321,48,71380,1,8,1:0:0:0:
321,48,71547,1,0,1:0:0:0:
318,114,71880,1,0,1:0:0:0:
317,136,72047,1,8,1:0:0:0:
317,136,72380,1,4,1:0:0:0:
317,136,72714,1,8,1:0:0:0:
219,181,72880,1,0,1:0:0:0:
317,136,73047,1,8,1:0:0:0:
317,135,73547,1,0,1:0:0:0:
219,181,73880,1,8,1:0:0:0:
316,132,74047,1,8,1:0:0:0:
316,132,74214,1,0,1:0:0:0:
316,132,74547,1,0,1:0:0:0:
258,23,74714,1,8,1:0:0:0:
258,23,75047,1,0,1:0:0:0:
212,78,76214,1,4,1:0:0:0:
321,48,76714,1,8,1:0:0:0:
321,48,76880,1,0,1:0:0:0:
289,190,77214,1,0,1:0:0:0:
317,136,77380,1,8,1:0:0:0:
317,136,77714,1,4,1:0:0:0:
317,136,78047,1,0,1:0:0:0:
219,181,78214,1,0,1:0:0:0:
317,136,78380,1,8,1:0:0:0:
317,135,78880,1,0,1:0:0:0:
192,93,79214,1,0,0:0:0:0:
316,132,79380,1,8,1:0:0:0:
316,132,79547,1,0,1:0:0:0:
258,23,79714,1,8,1:0:0:0:
258,23,80047,1,8,1:0:0:0:
258,23,80380,1,4,1:0:0:0:
212,78,81047,1,8,1:0:0:0:
212,78,81547,1,0,1:0:0:0:
321,48,82047,1,8,1:0:0:0:
321,48,82214,1,0,1:0:0:0:
318,114,82547,1,0,1:0:0:0:
317,136,82714,1,8,1:0:0:0:
317,136,83047,1,0,1:0:0:0:
317,136,83214,1,0,1:0:0:0:
317,136,83380,1,8,1:0:0:0:
219,181,83547,1,0,1:0:0:0:
317,136,83714,1,8,1:0:0:0:
317,135,84214,1,4,1:0:0:0:
219,181,84547,1,8,1:0:0:0:
316,132,84714,1,0,1:0:0:0:
316,132,84880,1,12,1:0:0:0:
316,132,85214,1,0,1:0:0:0:
258,23,85380,1,8,1:0:0:0:
258,23,85714,1,4,1:0:0:0:
256,192,85880,12,0,88214,1:0:0:0:
145,213,88380,5,8,1:0:0:0:
