osu file format v14

[General]
AudioFilename: audio.mp3
AudioLeadIn: 0
PreviewTime: 63047
Countdown: 0
SampleSet: Normal
StackLeniency: 0.7
Mode: 1
LetterboxInBreaks: 0
WidescreenStoryboard: 1

[Editor]
Bookmarks: 11047,43047,63047
DistanceSpacing: 1.3
BeatDivisor: 4
GridSize: 32
TimelineZoom: 3.299999

[Metadata]
Title:Share the light (TV Size)
TitleUnicode:Share the light (TV Size)
Artist:Run Girls, Run!
ArtistUnicode:Run Girls, Run!
Creator:realy0_
Version:Capu's Oni
Source:アサシンズプライド
Tags:Assassin's Assassins Pride anime pop j-pop jpop opening op electronic future bass japanese Capu Cychloryn
BeatmapID:2362586
BeatmapSetID:1128443

[Difficulty]
HPDrainRate:5
CircleSize:2
OverallDifficulty:5.5
ApproachRate:10
SliderMultiplier:1.4
SliderTickRate:1

[Events]
//Background and Video events
0,0,"bg3.jpg",0,50
Video,-275,"realy0_.mp4"
//Break Periods
//Storyboard Layer 0 (Background)
//Storyboard Layer 1 (Fail)
//Storyboard Layer 2 (Pass)
//Storyboard Layer 3 (Foreground)
//Storyboard Layer 4 (Overlay)
//Storyboard Sound Samples

[TimingPoints]
381,333.333333333333,4,1,0,60,1,0
11047,-100,4,1,0,60,0,1
21714,-100,4,1,0,40,0,0
43047,-100,4,1,0,65,0,0
64380,-100,4,1,0,75,0,1
75047,-100,4,1,0,75,0,0
76214,-100,4,1,0,75,0,1
85714,-100,4,1,0,75,0,0
88380,-100,4,1,0,60,0,0

[HitObjects]
256,192,381,5,8,1:0:0:0:
256,192,714,1,0,1:0:0:0:
256,192,1047,1,0,1:0:0:0:
256,192,1380,1,0,1:0:0:0:
256,192,1714,1,0,1:0:0:0:
256,192,2047,1,0,1:0:0:0:
256,192,2380,1,0,1:0:0:0:
256,192,2714,1,0,1:0:0:0:
256,192,2880,1,0,1:0:0:0:
256,192,3047,1,8,1:0:0:0:
256,192,3380,1,0,1:0:0:0:
256,192,3714,1,0,1:0:0:0:
256,192,4047,1,0,1:0:0:0:
256,192,4380,1,0,1:0:0:0:
256,192,4714,1,0,1:0:0:0:
256,192,5047,1,0,1:0:0:0:
256,192,5380,1,0,1:0:0:0:
256,192,5547,1,0,1:0:0:0:
384,96,5714,1,12,1:0:0:0:
256,192,6047,1,8,1:0:0:0:
256,192,6380,1,8,1:0:0:0:
256,192,6714,1,8,1:0:0:0:
256,192,7047,1,8,1:0:0:0:
256,192,7214,1,8,1:0:0:0:
256,192,7380,1,8,1:0:0:0:
256,192,7547,1,8,1:0:0:0:
256,192,7714,1,8,1:0:0:0:
256,192,7880,1,8,1:0:0:0:
256,192,8047,1,8,1:0:0:0:
256,192,8214,1,8,1:0:0:0:
256,192,8380,1,8,1:0:0:0:
256,192,8464,1,8,1:0:0:0:
256,192,8547,1,0,1:0:0:0:
256,192,8630,1,0,1:0:0:0:
256,192,8714,1,8,1:0:0:0:
256,192,8880,1,0,1:0:0:0:
256,192,9047,1,8,1:0:0:0:
256,192,9214,1,0,1:0:0:0:
256,192,9297,1,8,1:0:0:0:
256,192,9380,1,8,1:0:0:0:
256,192,9547,1,8,1:0:0:0:
256,192,10380,1,8,1:0:0:0:
256,192,10464,1,0,1:0:0:0:
256,192,10547,1,8,1:0:0:0:
256,192,10630,1,0,1:0:0:0:
256,192,10714,1,8,1:0:0:0:
128,96,11047,1,4,1:0:0:0:
256,192,11214,1,0,1:0:0:0:
256,192,11297,1,8,1:0:0:0:
256,192,11380,1,0,1:0:0:0:
256,192,11547,1,0,1:0:0:0:
256,192,11714,1,8,1:0:0:0:
256,192,11880,1,8,1:0:0:0:
256,192,11964,1,0,1:0:0:0:
256,192,12047,1,8,1:0:0:0:
128,96,12214,1,4,1:0:0:0:
256,192,12380,1,0,1:0:0:0:
256,192,12464,1,0,1:0:0:0:
256,192,12547,1,0,1:0:0:0:
256,192,12714,1,8,1:0:0:0:
384,96,12880,1,12,1:0:0:0:
256,192,13047,1,8,1:0:0:0:
256,192,13130,1,8,1:0:0:0:
256,192,13214,1,8,1:0:0:0:
256,192,13380,1,0,1:0:0:0:
384,96,13714,1,12,1:0:0:0:
256,192,13880,1,0,1:0:0:0:
384,96,14047,1,12,1:0:0:0:
256,192,14214,1,0,1:0:0:0:
256,192,14297,1,0,1:0:0:0:
256,192,14380,1,8,1:0:0:0:
256,192,14547,1,0,1:0:0:0:
256,192,14714,1,8,1:0:0:0:
384,96,14880,1,12,1:0:0:0:
256,192,15297,1,0,1:0:0:0:
256,192,15380,1,8,1:0:0:0:
128,96,15547,1,4,1:0:0:0:
256,192,15797,1,0,1:0:0:0:
256,192,15880,1,8,1:0:0:0:
256,192,15964,1,0,1:0:0:0:
256,192,16047,1,8,1:0:0:0:
256,192,16214,1,0,1:0:0:0:
352,96,16380,1,12,1:0:0:0:
256,192,16714,1,0,1:0:0:0:
256,192,16797,1,8,1:0:0:0:
256,192,16880,1,0,1:0:0:0:
256,192,17047,1,8,1:0:0:0:
256,192,17214,1,0,1:0:0:0:
256,192,17380,1,8,1:0:0:0:
128,96,17547,1,4,1:0:0:0:
256,192,17880,1,0,1:0:0:0:
256,192,18047,1,8,1:0:0:0:
128,96,18214,1,4,1:0:0:0:
256,192,18464,1,0,1:0:0:0:
256,192,18630,1,0,1:0:0:0:
256,192,18714,1,8,1:0:0:0:
352,96,19047,1,12,1:0:0:0:
256,192,19214,1,0,1:0:0:0:
352,96,19380,1,12,1:0:0:0:
256,192,19547,1,0,1:0:0:0:
256,192,19630,1,0,1:0:0:0:
256,192,19714,1,8,1:0:0:0:
256,192,19880,1,0,1:0:0:0:
256,192,20047,1,8,1:0:0:0:
352,96,20214,1,12,1:0:0:0:
256,192,20547,1,8,1:0:0:0:
256,192,20714,1,0,1:0:0:0:
352,96,20880,1,12,1:0:0:0:
256,192,21214,1,0,1:0:0:0:
256,192,21714,1,0,1:0:0:0:
256,192,22214,1,8,1:0:0:0:
256,192,22547,1,8,1:0:0:0:
256,192,22880,1,0,1:0:0:0:
256,192,24380,1,8,1:0:0:0:
256,192,24714,1,0,1:0:0:0:
256,192,24880,1,8,1:0:0:0:
256,192,25214,1,0,1:0:0:0:
256,192,25714,1,8,1:0:0:0:
256,192,26047,1,0,1:0:0:0:
256,192,26214,1,8,1:0:0:0:
256,192,26547,1,0,1:0:0:0:
256,192,27047,1,8,1:0:0:0:
256,192,27380,1,0,1:0:0:0:
256,192,27547,1,8,1:0:0:0:
256,192,27880,1,8,1:0:0:0:
256,192,28380,1,0,1:0:0:0:
256,192,28714,1,0,1:0:0:0:
256,192,28880,1,8,1:0:0:0:
256,192,29214,1,0,1:0:0:0:
256,192,29714,1,0,1:0:0:0:
256,192,30047,1,8,1:0:0:0:
256,192,30214,1,0,1:0:0:0:
256,192,30547,1,8,1:0:0:0:
256,192,30880,1,0,1:0:0:0:
256,192,30964,1,0,1:0:0:0:
256,192,31047,1,8,1:0:0:0:
256,192,32380,1,8,1:0:0:0:
256,192,32714,1,0,1:0:0:0:
256,192,32880,1,8,1:0:0:0:
256,192,33214,1,8,1:0:0:0:
256,192,33714,1,0,1:0:0:0:
256,192,34047,1,8,1:0:0:0:
256,192,34214,1,0,1:0:0:0:
256,192,34547,1,8,1:0:0:0:
256,192,35047,1,8,1:0:0:0:
256,192,35380,1,0,1:0:0:0:
256,192,35547,1,0,1:0:0:0:
256,192,35880,1,8,1:0:0:0:
256,192,36380,1,0,1:0:0:0:
256,192,36714,1,0,1:0:0:0:
256,192,36880,1,8,1:0:0:0:
256,192,37214,1,0,1:0:0:0:
256,192,37714,1,8,1:0:0:0:
256,192,38047,1,0,1:0:0:0:
256,192,38214,1,8,1:0:0:0:
256,192,38547,1,0,1:0:0:0:
256,192,39047,1,8,1:0:0:0:
256,192,39380,1,0,1:0:0:0:
256,192,39547,1,8,1:0:0:0:
256,192,39880,1,8,1:0:0:0:
256,192,40380,1,8,1:0:0:0:
256,192,40714,1,0,1:0:0:0:
256,192,40880,1,8,1:0:0:0:
256,192,41214,1,0,1:0:0:0:
256,192,41714,1,8,1:0:0:0:
352,96,42380,1,8,1:0:0:0:
352,96,43047,1,12,1:0:0:0:
256,192,43214,1,0,1:0:0:0:
256,192,43380,1,8,1:0:0:0:
256,192,43547,1,0,1:0:0:0:
256,192,43630,1,0,1:0:0:0:
256,192,43714,1,8,1:0:0:0:
256,192,43880,1,0,1:0:0:0:
256,192,44047,1,8,1:0:0:0:
256,192,44214,1,0,1:0:0:0:
256,192,44380,1,8,1:0:0:0:
256,192,44547,1,8,1:0:0:0:
256,192,44714,1,0,1:0:0:0:
256,192,44880,1,8,1:0:0:0:
256,192,44964,1,0,1:0:0:0:
256,192,45047,1,8,1:0:0:0:
256,192,45214,1,0,1:0:0:0:
256,192,45297,1,8,1:0:0:0:
256,192,45380,1,0,1:0:0:0:
128,96,45714,1,4,1:0:0:0:
256,192,45880,1,8,1:0:0:0:
256,192,46047,1,8,1:0:0:0:
256,192,46214,1,0,1:0:0:0:
256,192,46297,1,0,1:0:0:0:
256,192,46380,1,8,1:0:0:0:
256,192,46547,1,0,1:0:0:0:
256,192,46714,1,8,1:0:0:0:
256,192,46880,1,8,1:0:0:0:
256,192,46964,1,8,1:0:0:0:
256,192,47047,1,0,1:0:0:0:
256,192,47214,1,0,1:0:0:0:
256,192,47380,1,8,1:0:0:0:
256,192,47547,1,0,1:0:0:0:
256,192,47714,1,8,1:0:0:0:
256,192,47880,1,8,1:0:0:0:
256,192,48047,1,0,1:0:0:0:
352,96,48380,1,12,1:0:0:0:
256,192,48547,1,0,1:0:0:0:
256,192,48714,1,8,1:0:0:0:
256,192,48880,1,0,1:0:0:0:
256,192,48964,1,0,1:0:0:0:
256,192,49047,1,8,1:0:0:0:
256,192,49130,1,8,1:0:0:0:
256,192,49214,1,0,1:0:0:0:
256,192,49380,1,8,1:0:0:0:
256,192,49547,1,0,1:0:0:0:
256,192,49630,1,8,1:0:0:0:
256,192,49714,1,0,1:0:0:0:
256,192,49880,1,0,1:0:0:0:
256,192,50047,1,8,1:0:0:0:
256,192,50214,1,0,1:0:0:0:
256,192,50380,1,8,1:0:0:0:
256,192,50464,1,8,1:0:0:0:
256,192,50547,1,0,1:0:0:0:
256,192,50714,1,8,1:0:0:0:
352,96,51047,1,4,1:0:0:0:
256,192,51214,1,0,1:0:0:0:
256,192,51380,1,8,1:0:0:0:
256,192,51547,1,0,1:0:0:0:
256,192,51630,1,0,1:0:0:0:
256,192,51714,1,8,1:0:0:0:
256,192,51880,1,0,1:0:0:0:
256,192,52047,1,8,1:0:0:0:
256,192,52214,1,8,1:0:0:0:
256,192,52380,1,0,1:0:0:0:
256,192,52547,1,0,1:0:0:0:
256,192,52714,1,8,1:0:0:0:
256,192,52880,1,0,1:0:0:0:
256,192,52964,1,0,1:0:0:0:
256,192,53047,1,8,1:0:0:0:
256,192,53214,1,8,1:0:0:0:
256,192,53380,1,0,1:0:0:0:
256,192,53547,1,0,1:0:0:0:
352,96,53714,1,12,1:0:0:0:
352,96,54047,1,8,1:0:0:0:
256,192,54214,1,0,1:0:0:0:
256,192,54380,1,8,1:0:0:0:
256,192,54547,1,0,1:0:0:0:
256,192,54630,1,0,1:0:0:0:
256,192,54714,1,8,1:0:0:0:
256,192,54880,1,0,1:0:0:0:
256,192,55047,1,8,1:0:0:0:
256,192,55130,1,8,1:0:0:0:
256,192,55214,1,0,1:0:0:0:
256,192,55380,1,8,1:0:0:0:
256,192,55547,1,0,1:0:0:0:
256,192,55630,1,8,1:0:0:0:
256,192,55714,1,0,1:0:0:0:
256,192,55880,1,8,1:0:0:0:
256,192,55964,1,0,1:0:0:0:
256,192,56047,1,8,1:0:0:0:
352,96,56380,1,12,1:0:0:0:
256,192,56547,1,0,1:0:0:0:
256,192,56714,1,0,1:0:0:0:
256,192,56880,1,8,1:0:0:0:
256,192,57047,1,8,1:0:0:0:
256,192,57214,1,0,1:0:0:0:
256,192,57297,1,0,1:0:0:0:
256,192,57380,1,8,1:0:0:0:
256,192,57464,1,8,1:0:0:0:
256,192,57547,1,0,1:0:0:0:
256,192,57714,1,8,1:0:0:0:
256,192,57880,1,0,1:0:0:0:
256,192,57964,1,8,1:0:0:0:
256,192,58047,1,0,1:0:0:0:
256,192,58214,1,8,1:0:0:0:
256,192,58380,1,8,1:0:0:0:
256,192,58547,1,0,1:0:0:0:
256,192,58630,1,0,1:0:0:0:
256,192,58714,1,8,1:0:0:0:
256,192,58880,1,8,1:0:0:0:
128,96,59047,1,4,1:0:0:0:
256,192,59380,1,8,1:0:0:0:
256,192,59547,1,0,1:0:0:0:
256,192,59714,1,8,1:0:0:0:
256,192,59797,1,8,1:0:0:0:
256,192,59880,1,0,1:0:0:0:
256,192,59964,1,0,1:0:0:0:
256,192,60047,1,8,1:0:0:0:
256,192,60214,1,0,1:0:0:0:
352,96,60380,1,12,1:0:0:0:
256,192,60714,1,0,1:0:0:0:
256,192,60797,1,8,1:0:0:0:
256,192,60880,1,0,1:0:0:0:
256,192,61047,1,8,1:0:0:0:
256,192,61214,1,8,1:0:0:0:
256,192,61297,1,0,1:0:0:0:
256,192,61380,1,8,1:0:0:0:
256,192,61547,1,0,1:0:0:0:
352,96,61714,1,12,1:0:0:0:
256,192,61880,1,0,1:0:0:0:
256,192,61964,1,0,1:0:0:0:
256,192,62047,1,8,1:0:0:0:
256,192,62214,1,0,1:0:0:0:
256,192,62380,1,8,1:0:0:0:
256,192,62464,1,8,1:0:0:0:
256,192,62547,1,0,1:0:0:0:
256,192,62714,1,8,1:0:0:0:
256,192,62880,1,0,1:0:0:0:
256,192,62964,1,0,1:0:0:0:
256,192,63047,1,8,1:0:0:0:
256,192,63714,1,8,1:0:0:0:
256,192,63797,1,8,1:0:0:0:
256,192,63880,1,0,1:0:0:0:
256,192,63964,1,0,1:0:0:0:
256,192,64047,1,8,1:0:0:0:
128,96,64380,1,4,1:0:0:0:
256,192,64547,1,0,1:0:0:0:
256,192,64630,1,8,1:0:0:0:
256,192,64714,1,0,1:0:0:0:
256,192,64880,1,0,1:0:0:0:
256,192,65047,1,8,1:0:0:0:
256,192,65214,1,8,1:0:0:0:
256,192,65297,1,0,1:0:0:0:
256,192,65380,1,8,1:0:0:0:
128,96,65547,1,4,1:0:0:0:
256,192,65714,1,0,1:0:0:0:
256,192,65797,1,0,1:0:0:0:
256,192,65880,1,0,1:0:0:0:
256,192,66047,1,8,1:0:0:0:
384,96,66214,1,12,1:0:0:0:
256,192,66380,1,8,1:0:0:0:
256,192,66464,1,8,1:0:0:0:
256,192,66547,1,8,1:0:0:0:
256,192,66714,1,0,1:0:0:0:
384,96,67047,1,12,1:0:0:0:
256,192,67214,1,0,1:0:0:0:
384,96,67380,1,12,1:0:0:0:
256,192,67547,1,0,1:0:0:0:
256,192,67630,1,0,1:0:0:0:
256,192,67714,1,8,1:0:0:0:
256,192,67880,1,0,1:0:0:0:
256,192,68047,1,8,1:0:0:0:
384,96,68214,1,12,1:0:0:0:
256,192,68630,1,0,1:0:0:0:
256,192,68714,1,8,1:0:0:0:
128,96,68880,1,4,1:0:0:0:
256,192,69130,1,0,1:0:0:0:
256,192,69214,1,8,1:0:0:0:
256,192,69297,1,0,1:0:0:0:
256,192,69380,1,8,1:0:0:0:
256,192,69547,1,0,1:0:0:0:
352,96,69714,1,12,1:0:0:0:
256,192,70047,1,0,1:0:0:0:
256,192,70130,1,8,1:0:0:0:
256,192,70214,1,0,1:0:0:0:
256,192,70380,1,8,1:0:0:0:
256,192,70547,1,0,1:0:0:0:
256,192,70714,1,8,1:0:0:0:
128,96,70880,1,4,1:0:0:0:
256,192,71214,1,0,1:0:0:0:
256,192,71380,1,8,1:0:0:0:
128,96,71547,1,4,1:0:0:0:
256,192,71797,1,0,1:0:0:0:
256,192,71964,1,0,1:0:0:0:
256,192,72047,1,8,1:0:0:0:
352,96,72380,1,12,1:0:0:0:
256,192,72547,1,0,1:0:0:0:
352,96,72714,1,12,1:0:0:0:
256,192,72880,1,0,1:0:0:0:
256,192,72964,1,0,1:0:0:0:
256,192,73047,1,8,1:0:0:0:
256,192,73214,1,0,1:0:0:0:
256,192,73380,1,8,1:0:0:0:
352,96,73547,1,12,1:0:0:0:
256,192,73880,1,8,1:0:0:0:
256,192,74047,1,0,1:0:0:0:
96,96,74214,1,4,1:0:0:0:
256,192,74380,1,8,1:0:0:0:
256,192,74547,1,0,1:0:0:0:
256,192,74630,1,0,1:0:0:0:
256,192,74714,1,8,1:0:0:0:
256,192,75047,1,8,1:0:0:0:
191,241,75130,1,0,0:0:0:0:
256,192,75214,1,0,1:0:0:0:
256,192,75297,1,0,1:0:0:0:
256,192,75380,1,0,1:0:0:0:
256,192,75547,1,8,1:0:0:0:
256,192,75714,1,0,1:0:0:0:
128,96,76214,1,4,1:0:0:0:
256,192,76380,1,0,1:0:0:0:
256,192,76464,1,0,1:0:0:0:
256,192,76547,1,0,1:0:0:0:
256,192,76714,1,8,1:0:0:0:
384,96,76880,1,12,1:0:0:0:
256,192,77047,1,8,1:0:0:0:
256,192,77130,1,8,1:0:0:0:
256,192,77214,1,8,1:0:0:0:
256,192,77380,1,0,1:0:0:0:
384,96,77714,1,12,1:0:0:0:
256,192,77880,1,0,1:0:0:0:
384,96,78047,1,12,1:0:0:0:
256,192,78214,1,0,1:0:0:0:
256,192,78297,1,0,1:0:0:0:
256,192,78380,1,8,1:0:0:0:
256,192,78547,1,0,1:0:0:0:
256,192,78714,1,8,1:0:0:0:
384,96,78880,1,12,1:0:0:0:
256,192,79297,1,0,1:0:0:0:
256,192,79380,1,8,1:0:0:0:
128,96,79547,1,4,1:0:0:0:
256,192,79797,1,0,1:0:0:0:
256,192,79880,1,8,1:0:0:0:
256,192,79964,1,0,1:0:0:0:
256,192,80047,1,8,1:0:0:0:
256,192,80214,1,0,1:0:0:0:
352,96,80380,1,12,1:0:0:0:
256,192,80714,1,0,1:0:0:0:
256,192,80797,1,8,1:0:0:0:
256,192,80880,1,0,1:0:0:0:
256,192,81047,1,8,1:0:0:0:
256,192,81214,1,0,1:0:0:0:
256,192,81380,1,8,1:0:0:0:
128,96,81547,1,4,1:0:0:0:
256,192,81880,1,0,1:0:0:0:
256,192,82047,1,8,1:0:0:0:
128,96,82214,1,4,1:0:0:0:
256,192,82464,1,0,1:0:0:0:
256,192,82630,1,0,1:0:0:0:
256,192,82714,1,8,1:0:0:0:
352,96,83047,1,12,1:0:0:0:
256,192,83214,1,0,1:0:0:0:
352,96,83380,1,12,1:0:0:0:
256,192,83547,1,8,1:0:0:0:
256,192,83630,1,0,1:0:0:0:
256,192,83714,1,8,1:0:0:0:
256,192,83797,1,8,1:0:0:0:
256,192,83880,1,0,1:0:0:0:
256,192,84047,1,8,1:0:0:0:
352,96,84214,1,12,1:0:0:0:
256,192,84547,1,8,1:0:0:0:
256,192,84714,1,0,1:0:0:0:
352,96,84880,1,12,1:0:0:0:
256,192,85047,1,8,1:0:0:0:
256,192,85214,1,0,1:0:0:0:
256,192,85297,1,0,1:0:0:0:
256,192,85380,1,8,1:0:0:0:
256,192,85714,12,0,88380,1:0:0:0:
