osu file format v14

[General]
AudioFilename: audio.mp3
AudioLeadIn: 0
PreviewTime: 62964
Countdown: 0
SampleSet: Soft
StackLeniency: 0.4
Mode: 0
LetterboxInBreaks: 0
WidescreenStoryboard: 0

[Editor]
DistanceSpacing: 1
BeatDivisor: 4
GridSize: 8
TimelineZoom: 2.2

[Metadata]
Title:Share the light (TV Size)
TitleUnicode:Share the light (TV Size)
Artist:Run Girls, Run!
ArtistUnicode:Run Girls, Run!
Creator:Smoke
Version:Riku's Hard
Source:アサシンズプライド
Tags:pop jpop j-pop japanese anime opening op 1 assassins pride asasinzu puraido Kufa Vampir Kūfa Vanpīru クーファ=ヴァンピール Melida Angel Merida Anjeru メリダ=アンジェル [Kurose Riku] [Mad] bellicose attendant
BeatmapID:2209965
BeatmapSetID:1056891

[Difficulty]
HPDrainRate:4.5
CircleSize:3.6
OverallDifficulty:6.5
ApproachRate:7.5
SliderMultiplier:1.3
SliderTickRate:1

[Events]
//Background and Video events
0,0,"bg.jpg",0,0
Video,-512,"video.mp4"
//Break Periods
//Storyboard Layer 0 (Background)
//Storyboard Layer 1 (Fail)
//Storyboard Layer 2 (Pass)
//Storyboard Layer 3 (Foreground)
//Storyboard Layer 4 (Overlay)
//Storyboard Sound Samples

[TimingPoints]
381,333.333333333333,4,2,4,45,1,0
381,-100,4,2,4,45,0,0
5714,-100,4,2,4,55,0,0
7047,-100,4,2,4,65,0,0
10380,-90.9090909090909,4,2,1,75,0,0
10964,-90.9090909090909,4,2,11,5,0,0
11047,-100,4,2,14,75,0,1
11130,-100,4,2,1,75,0,1
13380,-100,4,2,1,45,0,1
13630,-100,4,2,11,5,0,1
13714,-100,4,2,1,75,0,1
16047,-100,4,2,1,55,0,1
16380,-100,4,2,1,75,0,1
18714,-100,4,2,1,45,0,1
18964,-100,4,2,11,5,0,1
19047,-100,4,2,1,75,0,1
21380,-100,4,2,1,55,0,1
21714,-125,4,2,1,35,0,0
43047,-83.3333333333333,4,2,1,55,0,0
53714,-83.3333333333333,4,2,1,65,0,0
61714,-83.3333333333333,4,2,1,70,0,0
63047,-83.3333333333333,4,2,1,75,0,0
64380,-100,4,2,14,85,0,1
64422,-100,4,2,1,85,0,1
66714,-100,4,2,1,45,0,1
66964,-100,4,2,11,5,0,1
67047,-100,4,2,1,85,0,1
72047,-100,4,2,1,55,0,1
72297,-100,4,2,11,5,0,1
72380,-100,4,2,1,85,0,1
75047,-100,4,2,4,85,0,1
75130,-100,4,2,1,85,0,1
75380,-100,4,2,4,85,0,1
75464,-100,4,2,1,85,0,1
76214,-100,4,2,14,85,0,1
76297,-100,4,2,1,85,0,1
77380,-100,4,2,1,45,0,1
77630,-100,4,2,11,5,0,1
77714,-100,4,2,1,85,0,1
82714,-100,4,2,1,45,0,1
83047,-100,4,2,1,85,0,1
85714,-100,4,2,1,25,0,0
87380,-100,4,2,1,35,0,0
87714,-100,4,2,1,45,0,0
88047,-100,4,2,1,55,0,0
88380,-100,4,2,1,65,0,0

[Colours]
Combo1 : 221,81,81
Combo2 : 124,85,215
Combo3 : 105,131,231
Combo4 : 233,228,58

[HitObjects]
0,71,381,6,0,L|86:63,1,65,14|0,0:0|0:0,0:0:0:0:
139,1,714,1,10,0:0:0:0:
214,61,880,2,0,P|237:128|201:192,1,130,2|2,0:0|0:0,0:0:0:0:
115,344,1547,6,0,P|182:321|246:356,1,130,2|2,0:0|0:0,0:0:0:0:
321,383,2047,1,8,0:0:0:0:
392,318,2214,2,0,L|398:243,1,65,2|8,0:0|0:0,0:0:0:0:
397,156,2547,2,0,L|332:150,1,65,2|8,0:0|0:0,0:0:0:0:
229,229,2880,5,0,3:2:0:0:
229,229,3047,2,0,L|155:222,1,65,10|0,0:0|0:0,0:0:0:0:
85,280,3380,1,10,0:0:0:0:
13,213,3547,2,0,P|-3:150|38:87,1,130,2|2,0:0|0:0,0:0:0:0:
216,70,4214,6,0,P|274:94|334:73,1,130,2|2,0:0|0:0,0:0:0:0:
405,6,4713,1,8,0:0:0:0:
480,68,4880,1,2,0:0:0:0:
419,144,5047,2,0,P|413:180|425:218,1,65,8|0,0:0|0:0,0:0:0:0:
487,277,5380,2,0,P|492:315|480:346,1,65,8|0,0:0|3:2,0:0:0:0:
354,363,5714,6,0,P|299:330|237:343,1,130,6|10,3:2|3:2,0:0:0:0:
141,358,6213,2,0,L|129:223,1,130,2|2,0:0|0:0,0:0:0:0:
117,130,6714,1,8,3:2:0:0:
165,45,6880,6,0,L|248:41,1,65,2|8,0:0|3:2,0:0:0:0:
328,37,7214,1,2,3:2:0:0:
328,37,7380,1,8,3:2:0:0:
396,106,7547,2,0,L|390:171,1,65,2|8,3:2|3:2,0:0:0:0:
375,267,7880,1,2,3:2:0:0:
375,267,8047,2,0,L|300:260,1,65,8|0,3:2|3:2,0:0:0:0:
215,284,8380,5,14,3:2:0:0:
215,284,8547,2,0,P|211:245|232:206,2,65,10|14|10,3:2|3:2|3:2,0:0:0:0:
252,374,9047,1,14,3:2:0:0:
252,374,9214,2,0,P|218:380|176:369,1,65,14|14,3:2|3:2,0:0:0:0:
310,260,9547,1,14,3:2:0:0:
247,23,10380,5,10,3:2:0:0:
247,23,10464,1,2,3:3:0:0:
247,23,10547,1,8,3:3:0:0:
321,116,10714,2,0,P|355:102|411:108,1,71.5000021820069,10|0,3:2|0:0,0:0:0:0:
479,237,11047,6,0,L|341:224,1,130,4|8,3:2|1:1,0:0:0:0:
236,250,11547,1,8,1:1:0:0:
236,250,11630,1,0,1:2:0:0:
236,250,11714,2,0,L|242:172,1,65,8|2,3:2|3:0,0:0:0:0:
185,93,12047,1,2,3:0:0:0:
66,166,12214,6,0,P|40:239|62:293,1,130,6|8,3:2|1:1,0:0:0:0:
117,363,12714,1,10,1:1:0:0:
215,281,12880,2,0,L|299:281,2,65,6|0|0,3:2|1:1|0:0,0:0:0:0:
185,241,13297,1,0,1:1:0:0:
185,241,13380,2,0,B|200:192|200:192|181:138,1,97.5,8|0,1:1|0:0,0:0:0:0:
178,99,13714,6,0,L|250:92,1,65,6|2,3:2|1:2,0:0:0:0:
299,12,14047,2,0,L|371:19,1,65,6|8,3:2|1:1,0:0:0:0:
416,29,14297,1,10,1:1:0:0:
416,29,14380,1,10,3:2:0:0:
478,103,14547,2,0,P|467:135|483:178,1,65,2|2,3:2|3:2,0:0:0:0:
364,216,14880,6,0,P|379:283|332:344,1,130,6|8,3:2|1:1,0:0:0:0:
269,384,15380,1,8,3:2:0:0:
177,310,15547,2,0,L|100:303,2,65,6|8|8,3:2|1:1|1:1,0:0:0:0:
253,241,16047,2,0,P|246:201|261:170,1,65,14|2,1:1|1:2,0:0:0:0:
257,130,16297,5,2,1:2:0:0:
257,130,16380,2,0,L|105:117,1,130,6|8,3:2|1:1,0:0:0:0:
0,103,16880,1,0,1:2:0:0:
0,103,16964,1,0,1:2:0:0:
0,103,17047,2,0,L|5:167,1,65,10|2,3:2|3:2,0:0:0:0:
13,280,17380,1,2,3:2:0:0:
113,363,17547,6,0,P|187:379|234:346,1,130,6|8,3:2|1:1,0:0:0:0:
288,270,18047,1,8,3:2:0:0:
395,322,18213,2,0,B|386:354|386:354|399:399,2,65,6|0|0,3:2|1:1|0:0,0:0:0:0:
424,284,18630,1,0,1:1:0:0:
424,284,18714,2,0,P|439:231|407:176,1,97.5,8|0,1:1|0:0,0:0:0:0:
416,144,19047,6,0,L|344:137,1,65,6|2,3:2|1:2,0:0:0:0:
289,62,19380,2,0,L|224:55,1,65,6|8,3:2|1:1,0:0:0:0:
187,30,19630,1,0,1:2:0:0:
187,30,19713,1,10,3:2:0:0:
84,57,19880,2,0,P|67:88|70:119,1,65,2|2,3:2|3:2,0:0:0:0:
10,222,20214,6,0,P|70:205|138:254,1,130,6|6,3:2|3:2,0:0:0:0:
193,311,20714,1,8,3:2:0:0:
273,248,20880,2,0,L|370:239,1,97.5,2|10,3:2|1:1,0:0:0:0:
397,197,21214,1,2,3:2:0:0:
415,152,21297,2,0,P|400:90|432:35,1,130,8|2,1:1|0:0,0:0:0:0:
455,13,21714,6,0,L|336:5,1,104,2|2,0:0|0:0,0:0:0:0:
282,76,22214,2,0,L|178:66,2,104,2|2|2,0:0|0:0|0:0,0:0:0:0:
471,335,24047,1,2,0:0:0:0:
471,335,24380,6,0,P|418:352|359:317,1,104,2|2,0:0|0:0,0:0:0:0:
282,364,24880,2,0,P|272:313|297:269,1,104,2|2,0:0|0:0,0:0:0:0:
482,37,25714,6,0,P|433:19|385:36,1,104,2|2,0:0|0:0,0:0:0:0:
307,100,26214,2,0,P|254:117|195:82,1,104,2|2,0:0|0:0,0:0:0:0:
126,57,26714,1,2,0:0:0:0:
20,256,27047,6,0,P|71:234|133:264,1,104,2|2,0:0|0:0,0:0:0:0:
217,307,27547,2,0,P|204:252|244:196,1,104,2|2,0:0|0:0,0:0:0:0:
454,62,28380,6,0,P|466:116|426:172,1,104,2|2,0:0|0:0,0:0:0:0:
352,129,28880,2,0,P|303:111|255:128,1,104,2|0,0:0|0:0,0:0:0:0:
55,340,29714,6,0,P|107:357|165:332,1,104,2|2,0:0|0:0,0:0:0:0:
222,282,30214,2,0,P|276:269|331:299,2,104,2|2|2,0:0|0:0|0:0,0:0:0:0:
265,365,31047,1,2,0:0:0:0:
438,156,32047,1,2,0:0:0:0:
438,156,32380,6,0,P|451:102|422:46,1,104,2|2,0:0|0:0,0:0:0:0:
341,28,32880,2,0,P|291:39|243:20,1,104,2|2,0:0|0:0,0:0:0:0:
18,206,33714,6,0,P|1:258|26:316,1,104,2|2,0:0|0:0,0:0:0:0:
97,357,34214,2,0,P|114:305|89:247,1,104,2|2,0:0|0:0,0:0:0:0:
18,206,34714,1,2,0:0:0:0:
175,60,35047,6,0,P|227:43|285:68,1,104,2|2,0:0|0:0,0:0:0:0:
326,139,35547,2,0,P|274:156|216:131,1,104,2|2,0:0|0:0,0:0:0:0:
65,296,36380,6,0,P|113:279|162:294,1,104,2|2,0:0|0:0,0:0:0:0:
252,336,36880,2,0,P|304:351|361:323,1,104,2|2,0:0|0:0,0:0:0:0:
422,277,37380,1,2,0:0:0:0:
445,76,37714,6,0,P|395:55|329:76,1,104,2|2,0:0|0:0,0:0:0:0:
273,130,38214,2,0,P|223:143|175:125,1,104,2|2,0:0|0:0,0:0:0:0:
97,71,38714,1,2,0:0:0:0:
6,270,39047,6,0,P|55:256|103:274,1,104,2|2,0:0|0:0,0:0:0:0:
192,340,39547,2,0,L|202:223,1,104,2|2,0:0|0:0,0:0:0:0:
432,57,40380,6,0,L|422:160,1,104,2|2,0:0|0:0,0:0:0:0:
345,219,40880,2,0,B|295:204|295:204|241:217,1,104,2|2,0:0|0:0,0:0:0:0:
7,45,41714,5,2,0:0:0:0:
155,318,42380,1,2,0:0:0:0:
329,62,43047,6,0,P|292:140|335:216,1,155.999995239258,0|8,3:2|3:2,0:0:0:0:
380,278,43547,1,0,1:1:0:0:
303,345,43714,2,0,P|265:330|214:345,1,77.999997619629,2|10,3:2|1:1,0:0:0:0:
140,384,44047,1,8,3:2:0:0:
74,306,44214,6,0,L|30:306,2,38.9999988098145,10|0|2,1:1|1:1|3:2,0:0:0:0:
125,218,44547,1,10,1:1:0:0:
125,218,44630,1,10,1:1:0:0:
125,218,44714,2,0,B|134:178|134:178|121:136,1,77.999997619629,8|10,3:2|1:1,0:0:0:0:
70,55,45047,2,0,L|170:46,1,77.999997619629,2|10,3:2|1:1,0:0:0:0:
233,101,45380,2,0,P|222:138|236:179,1,77.999997619629,8|10,3:2|1:1,0:0:0:0:
347,263,45714,6,0,P|377:193|346:124,1,155.999995239258,2|8,3:2|3:2,0:0:0:0:
259,69,46214,1,8,1:1:0:0:
186,140,46381,2,0,P|145:148|98:124,1,77.999997619629,0|10,3:2|1:1,0:0:0:0:
16,171,46714,1,10,3:2:0:0:
64,259,46880,6,0,B|85:251|85:251|107:221,2,38.9999988098145,10|8|0,1:1|1:1|3:2,0:0:0:0:
21,351,47214,1,10,1:1:0:0:
21,351,47297,1,10,1:1:0:0:
21,351,47381,2,0,B|61:360|61:360|103:347,1,77.999997619629,8|10,3:2|1:1,0:0:0:0:
167,276,47714,2,0,L|267:267,1,77.999997619629,0|10,3:2|1:1,0:0:0:0:
321,344,48047,1,2,1:2:0:0:
321,344,48214,1,2,1:2:0:0:
443,285,48380,6,0,L|434:192,1,77.999997619629,2|8,3:2|1:1,0:0:0:0:
341,168,48714,2,0,L|349:67,1,77.999997619629,8|10,3:2|1:1,0:0:0:0:
274,20,49047,1,2,3:2:0:0:
204,93,49214,1,10,1:1:0:0:
134,20,49380,1,8,3:2:0:0:
64,93,49547,6,0,L|17:93,2,38.9999988098145,8|0|2,1:1|1:1|3:2,0:0:0:0:
114,180,49880,1,10,1:1:0:0:
114,180,49964,1,10,1:1:0:0:
114,180,50047,2,0,L|208:188,1,77.999997619629,8|10,3:2|1:1,0:0:0:0:
227,281,50380,2,0,L|331:271,1,77.999997619629,2|10,3:2|1:1,0:0:0:0:
389,330,50714,2,0,L|396:245,1,77.999997619629,8|8,3:2|1:1,0:0:0:0:
505,164,51047,6,0,L|490:326,1,155.999995239258,0|8,3:2|3:2,0:0:0:0:
396,371,51547,1,10,1:1:0:0:
315,300,51714,2,0,L|232:292,1,77.999997619629,0|10,3:2|1:1,0:0:0:0:
183,207,52047,1,8,3:2:0:0:
251,132,52214,6,0,L|305:132,2,38.9999988098145,10|8|2,1:1|1:1|3:2,0:0:0:0:
163,79,52547,1,10,1:1:0:0:
163,79,52630,1,10,1:1:0:0:
163,79,52714,2,0,P|123:89|77:65,1,77.999997619629,8|10,3:2|1:1,0:0:0:0:
0,125,53047,2,0,L|7:215,1,77.999997619629,0|10,3:2|1:1,0:0:0:0:
94,252,53380,2,0,L|100:174,1,77.999997619629,8|10,3:2|1:1,0:0:0:0:
231,120,53714,6,0,L|244:274,1,155.999995239258,4|8,3:2|3:2,0:0:0:0:
310,352,54214,1,0,1:1:0:0:
376,275,54380,2,0,P|412:288|461:268,1,77.999997619629,2|10,3:2|1:1,0:0:0:0:
502,190,54714,1,8,3:2:0:0:
421,128,54880,6,0,L|360:128,2,38.9999988098145,0|2|2,0:0|1:2|3:2,0:0:0:0:
474,40,55214,1,10,1:1:0:0:
474,40,55297,1,10,1:1:0:0:
474,40,55380,2,0,B|392:40,1,77.999997619629,8|10,3:2|1:1,0:0:0:0:
298,9,55714,2,0,P|255:31|244:79,1,77.999997619629,2|10,3:2|1:1,0:0:0:0:
225,152,56047,1,8,3:2:0:0:
225,152,56214,1,10,1:1:0:0:
171,257,56380,6,0,L|79:266,1,77.999997619629,6|8,3:2|1:1,0:0:0:0:
204,359,56714,2,0,L|302:368,1,77.999997619629,8|0,3:2|1:1,0:0:0:0:
370,302,57047,1,0,3:2:0:0:
297,232,57214,1,10,1:1:0:0:
370,162,57380,1,10,3:2:0:0:
297,92,57547,6,0,L|297:48,2,38.9999988098145,0|2|0,0:0|1:2|3:2,0:0:0:0:
219,157,57880,1,10,1:1:0:0:
219,157,57964,1,10,1:1:0:0:
219,157,58047,2,0,L|119:157,1,77.999997619629,8|10,3:2|1:1,0:0:0:0:
45,122,58380,2,0,P|33:163|48:207,2,77.999997619629,0|10|2,3:2|1:1|3:2,0:0:0:0:
221,20,59047,6,0,L|306:12,1,77.999997619629,6|8,3:2|1:1,0:0:0:0:
319,112,59380,2,0,L|404:119,1,77.999997619629,8|10,3:2|1:1,0:0:0:0:
493,90,59714,2,0,P|499:132|478:173,1,77.999997619629,0|10,3:2|1:1,0:0:0:0:
441,257,60047,1,8,3:2:0:0:
441,257,60214,6,0,L|479:260,2,38.9999988098145,8|0|2,1:1|0:0|3:2,0:0:0:0:
387,343,60547,1,10,1:1:0:0:
293,302,60714,2,0,L|285:212,1,77.999997619629,8|10,3:2|1:1,0:0:0:0:
196,175,61047,2,0,L|203:85,1,77.999997619629,0|10,3:2|1:1,0:0:0:0:
125,39,61380,1,8,3:2:0:0:
125,39,61547,1,10,1:1:0:0:
256,192,61714,12,10,63047,1:1:0:0:
296,143,63380,6,0,L|351:127,2,51.999998413086,2|2|2,1:1|1:1|1:1,0:0:0:0:
223,86,63714,1,8,1:2:0:0:
226,70,63797,1,2,3:3:0:0:
230,55,63880,1,8,3:3:0:0:
234,39,63964,1,4,3:3:0:0:
237,23,64047,1,10,3:2:0:0:
49,4,64380,6,0,L|60:156,1,130,4|0,3:2|1:1,0:0:0:0:
14,235,64880,1,0,1:1:0:0:
91,307,65047,1,10,3:2:0:0:
91,307,65214,2,0,L|164:307,1,65,2|8,0:0|1:1,0:0:0:0:
281,278,65547,6,0,B|302:216|302:216|275:152,1,130,6|2,3:2|0:0,0:0:0:0:
199,92,66047,1,8,3:2:0:0:
300,13,66214,2,0,B|362:34|362:34|426:7,1,130,2|2,3:2|0:0,0:0:0:0:
476,89,66714,2,0,P|450:129|496:157,1,97.5,2|0,0:0|0:0,0:0:0:0:
503,181,67047,6,0,L|434:187,1,65,6|0,3:2|0:0,0:0:0:0:
368,255,67380,2,0,L|286:247,1,65,2|10,3:2|1:1,0:0:0:0:
262,285,67630,1,0,1:1:0:0:
262,285,67714,1,8,3:2:0:0:
167,225,67880,2,0,L|167:142,1,65,2|8,3:2|1:1,0:0:0:0:
48,97,68214,6,0,L|48:232,1,130,6|2,3:2|1:2,0:0:0:0:
0,310,68714,1,10,1:1:0:0:
60,384,68880,1,2,3:2:0:0:
134,320,69047,2,0,P|167:314|206:326,1,65,2|0,1:2|0:0,0:0:0:0:
240,345,69297,1,0,1:1:0:0:
280,372,69380,2,0,P|313:378|352:366,1,65,14|0,1:1|1:1,0:0:0:0:
434,285,69714,6,0,L|434:128,1,130,6|2,3:2|1:2,0:0:0:0:
497,80,70214,1,2,1:2:0:0:
425,12,70380,1,8,3:2:0:0:
337,55,70547,2,0,B|306:61|306:61|251:46,1,65,2|0,3:2|1:1,0:0:0:0:
189,160,70880,6,0,B|250:137|250:137|319:156,1,130,6|2,3:2|0:0,0:0:0:0:
405,188,71380,1,8,3:2:0:0:
331,296,71547,2,0,L|192:283,1,130,6|2,3:2|0:0,0:0:0:0:
119,339,72047,2,0,P|147:301|91:290,1,97.5,2|0,0:0|0:0,0:0:0:0:
79,273,72380,6,0,L|79:192,1,65,6|0,3:2|0:0,0:0:0:0:
79,112,72714,1,6,3:2:0:0:
79,112,72797,1,0,1:1:0:0:
79,112,72880,1,8,1:1:0:0:
153,33,73047,2,0,L|238:33,1,65,10|2,1:1|1:2,0:0:0:0:
273,113,73380,1,2,3:2:0:0:
372,52,73547,6,0,P|393:112|360:184,1,130,6|2,3:2|1:2,0:0:0:0:
308,246,74047,1,8,3:2:0:0:
236,147,74214,2,0,L|98:147,1,130,6|0,3:2|3:2,0:0:0:0:
57,242,74714,2,0,L|122:242,1,65,8|0,3:2|0:0,0:0:0:0:
157,332,75047,6,0,L|190:332,3,32.5,4|8|8|8,1:1|1:1|1:1|1:1,0:0:0:0:
219,353,75380,2,0,L|275:352,3,32.5,8|10|10|8,1:1|1:1|1:1|1:1,0:0:0:0:
276,331,75714,2,0,L|353:330,1,65,10|2,0:0|1:2,0:0:0:0:
438,328,76047,1,2,1:2:0:0:
505,216,76214,6,0,L|505:68,1,130,6|2,3:2|1:2,0:0:0:0:
427,27,76714,1,10,1:1:0:0:
315,92,76880,2,0,B|254:112|254:112|180:88,1,130,6|2,3:2|0:0,0:0:0:0:
103,133,77380,2,0,P|72:162|120:190,1,97.5,2|0,0:0|0:0,0:0:0:0:
121,222,77714,6,0,L|198:223,1,65,6|8,3:2|1:1,0:0:0:0:
284,228,78047,2,0,B|290:260|290:260|281:294,1,65,2|2,3:2|1:2,0:0:0:0:
237,378,78380,1,10,1:1:0:0:
333,364,78547,1,2,1:2:0:0:
429,350,78714,1,2,1:2:0:0:
389,257,78880,6,0,L|401:110,1,130,6|2,3:2|1:2,0:0:0:0:
481,72,79380,1,10,1:1:0:0:
404,11,79547,1,6,3:2:0:0:
324,68,79714,2,0,P|288:76|245:53,1,65,2|0,1:2|1:2,0:0:0:0:
221,39,79964,1,0,1:1:0:0:
179,14,80047,2,0,B|143:6|100:29,1,65,14|10,1:1|1:1,0:0:0:0:
33,115,80380,6,0,B|56:178|56:178|29:257,1,130,6|2,3:2|1:2,0:0:0:0:
4,327,80880,1,2,1:2:0:0:
93,384,81047,1,8,3:2:0:0:
93,384,81214,2,0,L|174:376,1,65,2|2,1:2|1:2,0:0:0:0:
203,255,81547,6,0,P|262:279|333:250,1,130,6|2,3:2|1:2,0:0:0:0:
394,193,82047,1,10,1:1:0:0:
473,136,82214,2,0,B|442:201|442:201|460:275,1,130,2|2,3:2|1:2,0:0:0:0:
498,344,82714,2,0,P|472:373|438:318,1,97.5,2|0,0:0|0:0,0:0:0:0:
411,318,83047,6,0,B|378:309|378:309|342:318,1,65,2|10,3:2|3:2,0:0:0:0:
241,367,83380,2,0,L|246:299,1,65,2|10,3:2|3:2,0:0:0:0:
320,220,83714,1,10,1:1:0:0:
320,220,83880,2,0,L|313:145,1,65,2|10,1:2|1:1,0:0:0:0:
217,76,84214,6,0,L|205:209,1,130,6|2,3:2|1:2,0:0:0:0:
138,283,84714,1,10,1:1:0:0:
62,196,84880,2,0,P|70:163|57:118,1,65,2|0,3:2|1:2,0:0:0:0:
0,58,85214,2,0,P|61:33|141:73,1,130,2|0,0:0|0:0,0:0:0:0:
241,44,85714,5,2,0:0:0:0:
256,192,85797,12,0,88380,0:0:0:0:
