osu file format v14

[General]
AudioFilename: audio.mp3
AudioLeadIn: 0
PreviewTime: 62964
Countdown: 0
SampleSet: Soft
StackLeniency: 0.4
Mode: 0
LetterboxInBreaks: 0
WidescreenStoryboard: 0

[Editor]
Bookmarks: 21728,43061
DistanceSpacing: 0.6
BeatDivisor: 8
GridSize: 8
TimelineZoom: 2.000001

[Metadata]
Title:Share the light (TV Size)
TitleUnicode:Share the light (TV Size)
Artist:Run Girls, Run!
ArtistUnicode:Run Girls, Run!
Creator:Smoke
Version:Pitch Dark
Source:アサシンズプライド
Tags:pop jpop j-pop japanese anime opening op 1 assassins pride asasinzu puraido Kufa Vampir Kūfa Vanpīru クーファ=ヴァンピール Melida Angel Merida Anjeru メリダ=アンジェル [Kurose Riku] [Mad] bellicose attendant
BeatmapID:2209138
BeatmapSetID:1056891

[Difficulty]
HPDrainRate:5.8
CircleSize:4
OverallDifficulty:8.8
ApproachRate:9.3
SliderMultiplier:2
SliderTickRate:1

[Events]
//Background and Video events
0,0,"bg.jpg",0,0
Video,-512,"video.mp4"
//Break Periods
//Storyboard Layer 0 (Background)
//Storyboard Layer 1 (Fail)
//Storyboard Layer 2 (Pass)
//Storyboard Layer 3 (Foreground)
//Storyboard Layer 4 (Overlay)
//Storyboard Sound Samples

[TimingPoints]
381,333.333333333333,4,2,4,45,1,0
381,-125,4,2,4,45,0,0
5714,-111.111111111111,4,2,4,55,0,0
7047,-111.111111111111,4,2,4,65,0,0
8380,-111.111111111111,4,2,4,50,0,0
8714,-111.111111111111,4,2,4,55,0,0
9047,-111.111111111111,4,2,4,60,0,0
9380,-111.111111111111,4,2,4,65,0,0
9714,-166.666666666666,4,2,4,35,0,0
10380,-83.3333333333333,4,2,1,75,0,0
10714,-333.333333333333,4,2,1,75,0,0
10964,-333.333333333333,4,2,11,5,0,0
11047,-62.5,4,2,14,75,0,1
11130,-62.5,4,2,1,75,0,1
11380,-83.3333333333333,4,2,1,75,0,1
11714,-83.3333333333333,4,2,1,75,0,0
12214,-62.5,4,2,1,75,0,1
12630,-62.5,4,2,1,75,0,1
12714,-83.3333333333333,4,2,1,75,0,0
12880,-62.5,4,2,1,75,0,1
13380,-333.333333333334,4,2,1,45,0,0
13630,-333.333333333334,4,2,11,5,0,0
13714,-62.5,4,2,1,75,0,1
14380,-83.3333333333333,4,2,1,75,0,0
14880,-62.5,4,2,1,75,0,1
15297,-62.5,4,2,1,75,0,1
15380,-83.3333333333333,4,2,1,75,0,0
15547,-62.5,4,2,1,75,0,1
16047,-166.666666666667,4,2,1,55,0,0
16380,-62.5,4,2,1,75,0,1
17047,-83.3333333333333,4,2,1,75,0,0
17547,-62.5,4,2,1,75,0,1
17964,-62.5,4,2,1,75,0,1
18047,-83.3333333333333,4,2,1,75,0,0
18214,-62.5,4,2,1,75,0,1
18714,-333.333333333333,4,2,1,45,0,0
18964,-333.333333333333,4,2,11,5,0,0
19047,-62.5,4,2,1,75,0,1
19714,-83.3333333333333,4,2,1,75,0,0
20214,-62.5,4,2,1,75,0,1
20714,-83.3333333333333,4,2,1,75,0,0
20880,-62.5,4,2,1,75,0,1
21214,-333.333333333333,4,2,1,75,0,0
21380,-333.333333333333,4,2,1,55,0,0
21630,-333.333333333333,4,2,1,55,0,0
21714,-200.000000000001,4,2,1,35,0,0
30714,-200.000000000001,4,2,1,5,0,0
30797,-200.000000000001,4,2,1,35,0,0
41630,-200.000000000001,4,2,1,5,0,0
41714,-200.000000000001,4,2,1,35,0,0
42380,-500.000000000005,4,2,1,35,0,0
43047,-125,4,2,1,55,0,0
53714,-117.647058823529,4,2,1,65,0,0
59047,-117.647058823529,4,2,1,65,0,0
61714,-111.111111111111,4,2,1,70,0,0
63047,-125,4,2,1,75,0,0
64047,-333.333333333333,4,2,1,75,0,0
64297,-333.333333333333,4,2,1,75,0,0
64380,-62.5,4,2,14,85,0,1
64422,-62.5,4,2,1,85,0,1
65047,-83.3333333333333,4,2,1,85,0,0
65547,-62.5,4,2,1,85,0,1
66047,-83.3333333333333,4,2,1,85,0,0
66214,-62.5,4,2,1,85,0,1
66714,-333.333333333333,4,2,1,45,0,0
66964,-333.333333333333,4,2,11,5,0,0
67047,-62.5,4,2,1,85,0,1
67714,-83.3333333333333,4,2,1,85,0,0
68214,-62.5,4,2,1,85,0,1
68714,-83.3333333333333,4,2,1,85,0,0
68880,-62.5,4,2,1,85,0,1
69380,-166.666666666667,4,2,1,85,0,0
69714,-62.5,4,2,1,85,0,1
70214,-62.5,4,2,1,85,0,0
70880,-62.5,4,2,1,85,0,1
71380,-83.3333333333333,4,2,1,85,0,0
71547,-62.5,4,2,1,85,0,1
72047,-333.333333333333,4,2,1,55,0,0
72297,-333.333333333333,4,2,11,5,0,0
72380,-62.5,4,2,1,85,0,1
73047,-83.3333333333333,4,2,1,85,0,0
73547,-62.5,4,2,1,85,0,1
74047,-83.3333333333333,4,2,1,85,0,0
74214,-62.5,4,2,1,85,0,1
74714,-250,4,2,1,85,0,0
74964,-250,4,2,1,85,0,0
75047,-83.3333333333333,4,2,4,85,0,0
75130,-83.3333333333333,4,2,1,85,0,0
75380,-83.3333333333333,4,2,4,85,0,0
75464,-83.3333333333333,4,2,1,85,0,0
76214,-62.5,4,2,14,85,0,1
76297,-62.5,4,2,1,85,0,1
76714,-83.3333333333333,4,2,1,85,0,0
76880,-62.5,4,2,1,85,0,1
77380,-333.333333333333,4,2,1,45,0,0
77630,-333.333333333333,4,2,11,5,0,0
77714,-62.5,4,2,1,85,0,1
78380,-83.3333333333333,4,2,1,85,0,0
78880,-62.5,4,2,1,85,0,1
79380,-83.3333333333333,4,2,1,85,0,0
79547,-62.5,4,2,1,85,0,1
80047,-166.666666666667,4,2,1,85,0,0
80380,-62.5,4,2,1,85,0,1
81047,-83.3333333333333,4,2,1,85,0,0
81547,-62.5,4,2,1,85,0,1
82047,-83.3333333333333,4,2,1,85,0,0
82214,-62.5,4,2,1,85,0,1
82714,-333.333333333333,4,2,1,45,0,0
83047,-62.5,4,2,1,85,0,1
83714,-83.3333333333333,4,2,1,85,0,0
84214,-58.8235294117647,4,2,1,85,0,1
84714,-83.3333333333333,4,2,1,85,0,0
84880,-55.5555555555556,4,2,1,85,0,1
85214,-333.333333333333,4,2,1,85,0,0
85630,-333.333333333333,4,2,1,85,0,0
85714,-333.333333333334,4,2,1,25,0,0
87380,-333.333333333334,4,2,1,35,0,0
87714,-333.333333333334,4,2,1,45,0,0
88047,-333.333333333334,4,2,1,55,0,0
88380,-333.333333333334,4,2,1,65,0,0

[Colours]
Combo1 : 221,81,81
Combo2 : 124,85,215
Combo3 : 105,131,231
Combo4 : 233,228,58

[HitObjects]
44,111,381,6,0,L|52:207,1,80,14|0,0:0|0:0,0:0:0:0:
138,86,714,1,10,0:0:0:0:
138,86,880,2,0,L|146:182,1,80,2|8,0:0|0:0,0:0:0:0:
231,60,1214,2,0,L|239:156,1,80,2|8,0:0|0:0,0:0:0:0:
50,190,1547,2,0,L|44:111,1,80,2|8,0:0|0:0,0:0:0:0:
151,245,1880,2,0,L|144:165,1,80,2|8,0:0|0:0,0:0:0:0:
252,300,2214,2,0,L|245:220,1,80,2|8,0:0|0:0,0:0:0:0:
353,355,2547,2,0,L|346:275,1,80,2|8,0:0|0:0,0:0:0:0:
430,60,2880,5,0,3:2:0:0:
430,60,3047,2,0,P|472:76|495:132,1,80,10|0,0:0|0:0,0:0:0:0:
408,218,3380,1,10,0:0:0:0:
408,218,3547,2,0,P|400:173|437:125,1,80,2|8,0:0|0:0,0:0:0:0:
273,113,3881,2,0,P|307:84|367:92,1,80,2|8,0:0|0:0,0:0:0:0:
159,16,4214,2,0,P|188:50|180:110,1,80,2|8,0:0|0:0,0:0:0:0:
37,83,4547,2,0,P|42:44|69:16,1,80,2|8,0:0|0:0,0:0:0:0:
151,160,4880,1,2,0:0:0:0:
39,260,5047,6,0,P|33:221|28:175,1,80,8|0,0:0|0:0,0:0:0:0:
48,269,5380,2,0,L|58:348,1,80,8|0,0:0|3:2,0:0:0:0:
299,149,5714,6,0,L|291:248,1,89.9999972534181,6|0,3:2|0:0,0:0:0:0:
216,309,6047,1,10,3:2:0:0:
309,146,6214,2,0,L|301:245,1,89.9999972534181,2|8,0:0|3:2,0:0:0:0:
463,287,6547,2,0,L|469:197,1,89.9999972534181,2|8,0:0|3:2,0:0:0:0:
478,50,6880,1,2,0:0:0:0:
285,114,7047,5,8,3:2:0:0:
329,199,7214,1,2,3:2:0:0:
373,307,7380,5,8,3:2:0:0:
321,206,7547,1,2,3:2:0:0:
273,108,7714,5,8,3:2:0:0:
237,227,7880,1,2,3:2:0:0:
203,374,8047,5,8,3:2:0:0:
244,236,8213,1,0,3:2:0:0:
19,113,8380,5,14,3:2:0:0:
1,153,8463,1,0,3:2:0:0:
9,197,8546,1,10,3:2:0:0:
39,230,8630,1,0,3:2:0:0:
80,246,8714,5,14,3:2:0:0:
109,205,8797,1,0,3:2:0:0:
156,188,8880,1,10,3:2:0:0:
204,199,8964,1,0,3:2:0:0:
242,230,9047,5,14,3:2:0:0:
248,241,9130,1,0,3:2:0:0:
254,252,9214,2,0,L|284:312,1,44.999998626709,14|0,3:2|3:2,0:0:0:0:
349,167,9380,2,0,L|369:126,1,44.999998626709,14|0,3:2|3:2,0:0:0:0:
201,10,9547,1,14,3:2:0:0:
512,120,10380,5,10,3:2:0:0:
512,120,10464,1,2,3:3:0:0:
512,120,10547,2,0,L|441:121,1,59.9999981689454,8|4,3:3|3:3,0:0:0:0:
199,0,10714,6,0,L|203:52,1,44.999998626709,10|0,3:2|0:0,0:0:0:0:
0,266,11047,6,0,B|35:205|94:190|183:191|118:311|224:317|284:289|324:268,1,320,4|8,3:2|1:1,0:0:0:0:
376,243,11464,1,0,1:2:0:0:
386,237,11547,1,8,1:1:0:0:
180,140,11714,1,8,3:2:0:0:
282,82,11880,1,2,3:0:0:0:
417,135,12047,1,2,3:0:0:0:
426,363,12214,6,0,B|430:298|430:298|425:289|425:289|430:195|430:195|436:190|436:190|440:80|440:80|511:178,1,400,6|0,3:2|1:2,0:0:0:0:
506,171,12714,1,10,1:1:0:0:
313,316,12880,2,0,L|321:157,1,160,6|0,3:2|1:1,0:0:0:0:
324,68,13130,2,0,P|366:80|399:123,1,80,8|0,1:1|0:0,0:0:0:0:
230,249,13297,1,8,1:1:0:0:
230,241,13380,6,0,L|233:185,1,44.999998626709,2|0,2:2|0:0,0:0:0:0:
45,0,13714,6,0,B|49:50|49:50|56:58|56:58|61:111|61:111|56:121|56:121|60:166,1,160,6|2,3:2|1:2,0:0:0:0:
318,231,14047,2,0,B|321:181|321:181|315:172|315:172|319:118|319:118|325:110|325:110|327:75,1,160,6|8,3:2|1:1,0:0:0:0:
225,4,14297,1,10,1:1:0:0:
239,14,14380,1,10,3:2:0:0:
164,84,14547,1,2,3:2:0:0:
256,201,14714,1,2,3:2:0:0:
56,312,14880,6,0,B|47:213|170:135|247:203|231:270|279:278|305:264|338:229|305:180|272:174|249:211,1,400,6|0,3:2|1:1,0:0:0:0:
256,201,15380,1,8,3:2:0:0:
417,349,15547,6,0,L|398:183,1,160,6|8,3:2|1:1,0:0:0:0:
445,24,15797,1,0,1:1:0:0:
503,89,15881,1,8,1:1:0:0:
486,174,15964,1,0,1:1:0:0:
480,180,16047,6,0,L|489:249,1,59.9999981689454,14|2,1:1|1:2,0:0:0:0:
424,348,16297,1,2,1:2:0:0:
419,337,16380,2,0,B|411:294|322:243|252:336|352:359|274:388|219:393|189:385|164:375|143:324,1,320,6|8,3:2|1:1,0:0:0:0:
124,303,16797,1,0,1:2:0:0:
138,248,16880,1,0,1:2:0:0:
194,241,16964,1,0,1:2:0:0:
221,292,17047,5,10,3:2:0:0:
317,354,17214,1,2,3:2:0:0:
475,260,17380,1,2,3:2:0:0:
253,78,17547,6,0,B|194:30|194:30|298:36|298:36|316:27|316:27|406:33|406:33|419:44|419:44|527:51,1,400,6|0,3:2|1:2,0:0:0:0:
511,49,18047,1,8,3:2:0:0:
228,213,18214,6,0,L|60:226,1,160,6|0,3:2|1:1,0:0:0:0:
0,146,18464,2,0,L|80:139,1,80,8|0,1:1|0:0,0:0:0:0:
192,302,18630,1,8,1:1:0:0:
184,303,18714,6,0,L|127:308,1,44.999998626709,2|0,0:0|0:0,0:0:0:0:
161,0,19047,6,0,B|165:62|165:62|152:81|152:81|167:96|167:96|171:158,1,160,6|2,3:2|1:2,0:0:0:0:
28,375,19380,2,0,B|31:316|31:316|46:298|46:298|33:281|33:281|37:225,1,160,6|8,3:2|1:1,0:0:0:0:
0,104,19630,1,10,1:1:0:0:
12,117,19714,1,10,3:2:0:0:
117,67,19880,1,2,3:2:0:0:
263,131,20047,1,2,3:2:0:0:
444,5,20214,6,0,B|384:31|366:114|400:166|504:161|442:296,1,320,6|6,3:2|3:2,0:0:0:0:
512,371,20714,1,8,3:2:0:0:
321,267,20880,6,0,L|133:244,1,160,2|0,3:2|1:1,0:0:0:0:
73,247,21130,1,10,1:1:0:0:
83,249,21214,6,0,L|163:260,1,74.9999977111817,2|2,3:2|0:0,0:0:0:0:
157,259,21714,5,2,0:0:0:0:
241,321,22047,1,2,0:0:0:0:
241,321,22214,2,0,P|278:296|340:300,1,100,2|2,0:0|0:0,0:0:0:0:
440,336,22880,2,0,P|515:235|466:117,1,250,2|0,0:0|0:0,0:0:0:0:
477,126,24047,1,2,0:0:0:0:
385,166,24380,6,0,P|337:155|275:147,1,100,2|2,0:0|0:0,0:0:0:0:
254,109,24880,2,0,P|205:117|134:122,1,100,2|2,0:0|0:0,0:0:0:0:
50,68,25547,2,0,B|87:135|65:184|27:197|-34:214|-31:309|19:354,1,299.999990844727,2|2,0:0|0:0,0:0:0:0:
44,370,26714,1,2,0:0:0:0:
145,318,27047,6,0,P|145:265|136:204,1,100,2|2,0:0|0:0,0:0:0:0:
183,195,27547,2,0,P|222:219|290:203,1,100,2|2,0:0|0:0,0:0:0:0:
383,177,28214,2,0,L|394:299,1,100,2|0,0:0|0:0,0:0:0:0:
431,307,28714,1,2,0:0:0:0:
494,222,29047,1,2,0:0:0:0:
457,128,29380,1,2,0:0:0:0:
490,7,29714,6,0,P|433:24|391:11,1,100,2|2,0:0|0:0,0:0:0:0:
354,1,30214,2,0,P|366:84|320:134,1,150,2|0,0:0|0:0,0:0:0:0:
301,132,30797,6,0,L|273:126,3,16.6666666666667,2|2|2|2,0:0|0:0|0:0|0:0,0:0:0:0:
300,132,32047,1,2,0:0:0:0:
153,30,32380,6,0,P|103:24|56:55,1,100,2|2,0:0|0:0,0:0:0:0:
36,85,32880,2,0,P|62:129|56:197,1,100,2|2,0:0|0:0,0:0:0:0:
0,301,33547,2,0,B|39:285|96:305|91:350|120:404|176:408|250:376|254:322,1,299.999990844727,2|0,0:0|0:0,0:0:0:0:
218,252,34714,1,2,0:0:0:0:
444,341,35047,6,0,P|426:275|439:235,1,100,2|2,0:0|0:0,0:0:0:0:
452,196,35547,2,0,P|396:205|355:184,1,100,2|2,0:0|0:0,0:0:0:0:
286,97,36214,2,0,P|168:76|36:63,1,250,2|0,0:0|0:0,0:0:0:0:
135,30,37380,1,2,0:0:0:0:
29,243,37714,6,0,P|48:282|67:341,1,100,2|2,0:0|0:0,0:0:0:0:
99,365,38214,2,0,P|114:317|135:272,1,100,2|0,0:0|0:0,0:0:0:0:
173,198,38714,1,2,0:0:0:0:
292,330,39047,2,0,P|329:303|390:310,1,100,2|2,0:0|0:0,0:0:0:0:
483,204,39714,2,0,P|434:207|393:179,1,100,2|2,0:0|0:0,0:0:0:0:
498,33,40380,6,0,B|467:84|406:81|368:57|345:-12|270:0|211:30|201:127,1,375,2|0,0:0|0:0,0:0:0:0:
136,180,41714,1,2,0:0:0:0:
136,180,42380,6,0,P|98:174|69:192,1,70
12,372,43047,6,0,P|22:327|29:276,1,80,0|0,3:2|0:0,0:0:0:0:
191,341,43380,2,0,P|150:358|103:344,1,80,8|0,3:2|1:1,0:0:0:0:
211,249,43714,1,2,3:2:0:0:
377,327,43880,1,10,1:1:0:0:
335,241,44047,1,8,3:2:0:0:
335,241,44130,1,10,1:1:0:0:
335,241,44214,1,10,1:1:0:0:
471,62,44380,5,2,3:2:0:0:
282,150,44547,1,10,1:1:0:0:
282,150,44630,2,0,L|288:114,2,20,10|10|8,1:1|1:1|3:2,0:0:0:0:
180,94,44880,1,10,1:1:0:0:
4,165,45047,1,2,3:2:0:0:
72,75,45214,1,10,1:1:0:0:
207,223,45380,1,8,3:2:0:0:
185,203,45463,1,10,1:1:0:0:
157,192,45546,1,10,1:1:0:0:
127,191,45630,1,0,1:1:0:0:
98,198,45714,6,0,P|108:247|115:288,1,80,2|10,3:2|1:1,0:0:0:0:
315,375,46047,2,0,P|322:335|330:296,1,80,8|8,3:2|1:1,0:0:0:0:
510,192,46380,2,0,P|474:210|420:203,1,80,0|10,3:2|1:1,0:0:0:0:
229,117,46714,1,10,3:2:0:0:
369,58,46880,1,10,1:1:0:0:
362,76,46963,1,8,1:1:0:0:
355,94,47047,6,0,P|341:135|325:192,1,80,0|10,3:2|1:1,0:0:0:0:
324,217,47297,1,10,1:1:0:0:
324,217,47380,1,8,3:2:0:0:
404,367,47547,1,10,1:1:0:0:
291,304,47714,1,0,3:2:0:0:
112,373,47880,1,10,1:1:0:0:
192,283,48047,6,0,L|185:237,1,40,2|0,1:2|0:0,0:0:0:0:
173,161,48214,2,0,L|166:115,1,40,2|0,1:2|0:0,0:0:0:0:
81,19,48380,6,0,P|155:40|219:-4,1,160,2|8,3:2|3:2,0:0:0:0:
431,91,48880,1,10,1:1:0:0:
298,157,49047,2,0,P|322:80|354:7,1,160,2|8,3:2|3:2,0:0:0:0:
206,176,49547,2,0,P|218:203|227:233,1,40,8|0,1:1|1:1,0:0:0:0:
305,299,49714,6,0,P|260:259|160:289,1,160,2|8,3:2|3:2,0:0:0:0:
15,372,50214,1,10,1:1:0:0:
61,223,50380,2,0,P|86:300|104:376,1,160,2|8,3:2|3:2,0:0:0:0:
244,267,50880,1,8,1:1:0:0:
244,267,50964,1,0,1:1:0:0:
244,267,51047,6,0,P|202:262|157:290,1,80,0|10,3:2|1:1,0:0:0:0:
307,364,51380,1,8,3:2:0:0:
512,296,51547,1,10,1:1:0:0:
445,376,51714,1,0,3:2:0:0:
379,176,51880,1,10,1:1:0:0:
439,80,52047,1,8,3:2:0:0:
439,80,52130,1,0,1:1:0:0:
439,80,52214,2,0,L|433:32,1,40,10|8,1:1|1:1,0:0:0:0:
231,156,52380,6,0,P|194:146|149:139,1,80,2|10,3:2|1:1,0:0:0:0:
112,137,52630,1,10,1:1:0:0:
112,137,52714,1,8,3:2:0:0:
196,51,52880,1,10,1:1:0:0:
379,176,53047,1,0,3:2:0:0:
390,170,53130,1,10,1:1:0:0:
402,165,53214,1,10,1:1:0:0:
175,252,53380,1,8,3:2:0:0:
164,246,53463,1,10,1:1:0:0:
152,241,53547,1,10,1:1:0:0:
333,343,53714,6,0,P|343:298|362:235,1,85.0000016212464,4|8,3:2|1:1,0:0:0:0:
512,327,54047,2,0,P|470:336|421:315,1,85.0000016212464,8|0,3:2|1:1,0:0:0:0:
277,201,54380,1,2,3:2:0:0:
77,266,54547,1,10,1:1:0:0:
184,167,54714,1,8,3:2:0:0:
27,37,54880,2,0,L|-8:42,2,28.3333338737488,2|2|2,0:0|0:0|0:0,0:0:0:0:
110,24,55047,5,2,3:2:0:0:
244,99,55214,1,10,1:1:0:0:
244,99,55297,1,10,1:1:0:0:
244,99,55380,1,8,3:2:0:0:
337,51,55547,1,10,1:1:0:0:
503,131,55714,1,2,3:2:0:0:
456,42,55880,1,10,1:1:0:0:
296,176,56047,1,8,3:2:0:0:
316,196,56130,1,10,1:1:0:0:
326,223,56213,1,10,1:1:0:0:
324,252,56297,1,10,1:1:0:0:
308,279,56380,6,0,P|268:268|216:261,1,85.0000016212464,6|8,3:2|1:1,0:0:0:0:
426,380,56714,2,0,P|433:332|414:288,1,85.0000016212464,8|0,3:2|1:1,0:0:0:0:
503,131,57047,2,0,P|490:171|498:212,1,85.0000016212464,0|10,3:2|1:1,0:0:0:0:
345,344,57380,1,10,3:2:0:0:
391,143,57547,2,0,L|397:111,2,28.3333338737488,2|2|2,0:0|0:0|0:0,0:0:0:0:
372,230,57714,5,0,3:2:0:0:
264,139,57880,1,10,1:1:0:0:
264,139,57964,1,10,1:1:0:0:
264,139,58047,1,8,3:2:0:0:
50,220,58214,1,10,1:1:0:0:
138,123,58380,1,0,3:2:0:0:
22,0,58547,1,10,1:1:0:0:
222,111,58714,6,0,L|268:103,1,42.5000008106232,2|8,3:2|1:1,0:0:0:0:
350,91,58881,2,0,L|398:83,1,42.5000008106232,2|8,1:2|1:1,0:0:0:0:
485,166,59047,6,0,P|476:209|469:255,2,85.0000016212464,6|10|8,3:2|1:1|3:2,0:0:0:0:
252,256,59547,1,10,1:1:0:0:
151,203,59714,2,0,P|105:188|65:194,1,85.0000016212464,0|10,3:2|1:1,0:0:0:0:
317,383,60047,2,0,P|324:344|336:284,1,85.0000016212464,8|8,3:2|1:1,0:0:0:0:
221,87,60380,6,0,P|233:139|244:198,1,85.0000016212464,2|10,3:2|1:1,0:0:0:0:
252,256,60630,1,10,1:0:0:0:
252,256,60714,1,8,3:2:0:0:
367,77,60880,1,10,1:1:0:0:
268,8,61047,2,0,P|230:-7|187:-1,1,85.0000016212464,0|10,3:2|1:1,0:0:0:0:
70,118,61380,1,8,3:2:0:0:
184,342,61547,1,10,1:1:0:0:
0,289,61714,5,2,3:2:0:0:
21,261,61797,1,0,3:2:0:0:
60,240,61880,1,0,3:2:0:0:
108,240,61964,1,0,3:2:0:0:
157,258,62047,5,0,3:2:0:0:
171,204,62131,1,0,3:2:0:0:
188,144,62214,1,0,3:2:0:0:
211,75,62298,1,0,3:2:0:0:
240,0,62380,6,0,P|261:5|288:15,1,44.999998626709,0|0,3:2|3:2,0:0:0:0:
398,116,62547,2,0,P|377:121|350:131,1,44.999998626709,0|0,3:2|3:2,0:0:0:0:
270,283,62714,5,0,3:2:0:0:
348,313,62797,1,0,3:2:0:0:
428,289,62880,1,0,3:2:0:0:
485,220,62964,1,0,3:2:0:0:
489,127,63047,1,10,1:1:0:0:
170,317,63214,2,0,L|174:355,3,20,10|10|10|10,1:1|1:1|1:1|1:1,0:0:0:0:
105,258,63380,5,2,1:1:0:0:
170,317,63492,5,2,1:1:0:0:
84,344,63603,5,2,1:1:0:0:
18,284,63714,5,8,1:2:0:0:
20,268,63797,1,2,3:3:0:0:
22,252,63880,1,8,3:3:0:0:
24,236,63964,1,4,3:3:0:0:
55,161,64047,6,0,L|51:106,1,44.999998626709,10|0,3:2|0:0,0:0:0:0:
299,0,64380,6,0,B|295:72|295:72|302:78|302:78|299:147|299:147|290:157|290:157|286:226|286:226|240:142,1,320,4|0,3:2|1:1,0:0:0:0:
196,118,64797,1,0,1:1:0:0:
140,119,64880,1,0,1:1:0:0:
100,159,64964,1,0,1:1:0:0:
94,216,65047,5,10,3:2:0:0:
136,326,65214,1,2,0:0:0:0:
291,354,65380,1,8,1:1:0:0:
479,226,65547,6,0,B|446:211|354:193|392:316|313:323|234:324|188:246,1,320,6|2,3:2|0:0,0:0:0:0:
105,146,66047,1,8,3:2:0:0:
335,53,66214,6,0,P|308:127|282:213,1,160,2|8,3:2|1:1,0:0:0:0:
200,263,66464,2,0,P|189:226|181:172,1,80,8|2,1:1|0:0,0:0:0:0:
238,13,66630,1,8,1:1:0:0:
241,21,66714,6,0,P|237:47|232:74,1,44.999998626709,2|0,0:0|0:0,0:0:0:0:
15,196,67047,6,0,B|22:149|22:149|21:141|21:141|28:89|28:89|33:84|33:84|40:20|40:20|76:83,1,240,6|0,3:2|0:0,0:0:0:0:
137,191,67380,1,2,3:2:0:0:
179,119,67464,1,8,1:1:0:0:
260,105,67547,1,10,1:1:0:0:
275,109,67630,1,10,1:1:0:0:
286,112,67714,1,8,3:2:0:0:
403,164,67880,1,2,3:2:0:0:
512,109,68047,1,8,1:1:0:0:
240,34,68214,6,0,B|249:111|249:111|244:120|244:120|255:201|255:201|263:213|263:213|272:274|272:274|342:228,1,320,6|2,3:2|1:2,0:0:0:0:
414,175,68630,1,0,1:1:0:0:
424,167,68714,1,10,1:1:0:0:
158,177,68880,5,2,3:2:0:0:
311,356,69047,1,2,1:2:0:0:
358,348,69130,1,8,1:1:0:0:
405,340,69214,1,0,1:1:0:0:
452,334,69297,1,8,1:1:0:0:
499,328,69380,5,14,1:1:0:0:
480,326,69464,1,8,1:1:0:0:
462,324,69547,1,0,1:1:0:0:
444,322,69630,1,8,1:1:0:0:
387,250,69714,6,0,B|338:209|352:159|377:141|459:163|447:59|417:26|381:-1|342:7|301:25,1,320,6|2,3:2|1:2,0:0:0:0:
297,59,70130,1,0,1:1:0:0:
241,50,70214,1,2,1:2:0:0:
185,41,70297,1,0,1:1:0:0:
129,32,70380,5,8,3:2:0:0:
26,77,70547,1,2,3:2:0:0:
0,212,70714,1,0,1:1:0:0:
203,377,70880,6,0,B|165:326|165:326|163:275|163:275|168:268|168:268|168:206|168:206|164:195|164:195|164:133|164:133|206:192,1,320,6|2,3:2|0:0,0:0:0:0:
280,228,71297,1,0,1:1:0:0:
292,234,71380,1,8,3:2:0:0:
77,312,71547,2,0,L|74:140,1,160,6|8,3:2|1:1,0:0:0:0:
28,57,71797,2,0,P|68:46|117:61,1,80,8|2,1:1|0:0,0:0:0:0:
199,182,71964,1,8,1:1:0:0:
190,189,72047,6,0,L|188:134,1,44.999998626709,2|0,0:0|0:0,0:0:0:0:
459,288,72380,6,0,B|484:246|484:246|367:262,1,160,6|0,3:2|0:0,0:0:0:0:
132,345,72714,2,0,B|107:303|107:303|224:319,1,160,6|8,3:2|1:1,0:0:0:0:
353,370,72964,1,0,1:1:0:0:
364,372,73047,1,10,1:1:0:0:
283,245,73214,1,2,1:2:0:0:
433,159,73380,1,2,3:2:0:0:
251,49,73547,6,0,B|310:3|310:3|302:87|302:87|305:94|305:94|295:177|295:177|290:183|290:183|280:265,1,320,6|2,3:2|1:2,0:0:0:0:
272,356,73964,1,0,1:1:0:0:
270,369,74047,1,8,3:2:0:0:
441,227,74214,6,0,L|270:245,1,160,6|8,3:2|1:1,0:0:0:0:
201,253,74464,1,0,1:2:0:0:
119,219,74547,1,0,3:2:0:0:
61,142,74630,1,10,1:1:0:0:
69,39,74714,6,0,P|104:35|136:35,1,60,8|0,3:2|0:0,0:0:0:0:
208,87,75047,1,4,1:1:0:0:
296,101,75130,1,8,1:1:0:0:
371,63,75214,1,8,1:1:0:0:
448,63,75297,1,8,1:1:0:0:
493,102,75380,1,8,1:1:0:0:
500,149,75464,1,10,1:1:0:0:
486,182,75547,1,10,1:1:0:0:
470,199,75630,1,10,1:1:0:0:
459,205,75714,1,10,0:0:0:0:
357,174,75880,1,2,1:2:0:0:
237,227,76047,1,2,1:2:0:0:
26,85,76214,6,0,B|61:23|173:-2|188:83|220:142|279:117|350:59,1,320,6|2,3:2|1:2,0:0:0:0:
425,7,76714,1,10,1:1:0:0:
237,227,76880,6,0,P|157:210|41:195,1,160,6|0,3:2|1:2,0:0:0:0:
8,151,77130,2,0,P|37:121|87:109,1,80,10|2,1:1|0:0,0:0:0:0:
158,249,77297,1,10,1:1:0:0:
153,256,77380,6,0,L|151:311,1,44.999998626709,2|0,0:0|0:0,0:0:0:0:
370,365,77714,6,0,P|387:303|298:258,1,160,6|8,3:2|1:1,0:0:0:0:
114,330,78047,1,2,3:2:0:0:
181,384,78130,1,0,1:1:0:0:
265,377,78214,1,2,1:2:0:0:
279,376,78297,1,10,1:1:0:0:
291,375,78380,1,10,1:1:0:0:
394,278,78547,1,2,1:2:0:0:
246,160,78714,1,2,1:2:0:0:
491,67,78880,6,0,B|546:84|553:125|542:191|484:198|417:173|439:102|302:137,1,320,6|2,3:2|1:2,0:0:0:0:
156,183,79297,1,0,1:2:0:0:
145,187,79380,1,10,1:1:0:0:
325,131,79547,5,6,3:2:0:0:
121,274,79714,1,2,1:2:0:0:
78,252,79797,1,10,1:1:0:0:
55,209,79880,1,0,1:2:0:0:
56,160,79964,1,10,1:1:0:0:
82,126,80047,5,14,1:1:0:0:
64,123,80130,1,8,1:1:0:0:
51,109,80214,1,10,1:1:0:0:
44,92,80297,1,8,1:1:0:0:
24,2,80380,6,0,L|33:331,1,320,6|2,3:2|1:2,0:0:0:0:
74,360,80797,1,0,1:2:0:0:
115,322,80880,1,2,1:2:0:0:
171,319,80964,1,0,1:2:0:0:
218,346,81047,5,8,3:2:0:0:
337,384,81214,1,2,1:2:0:0:
460,259,81380,1,2,1:2:0:0:
216,90,81547,6,0,B|165:129|165:129|249:135|249:135|254:140|254:140|341:145|341:145|347:142|347:142|432:147,1,320,6|2,3:2|1:2,0:0:0:0:
504,79,81964,1,0,1:1:0:0:
512,73,82047,1,10,1:1:0:0:
369,245,82214,6,0,L|203:234,1,160,2|0,3:2|1:2,0:0:0:0:
258,151,82464,2,0,L|338:156,1,80,0|2,1:2|1:2,0:0:0:0:
208,322,82631,1,0,1:2:0:0:
196,320,82714,6,0,L|170:316,1,14.9999995422363,2|0,0:0|0:0,0:0:0:0:
86,305,82880,2,0,L|100:307,1,14.9999995422363,2|0,0:0|0:0,0:0:0:0:
28,64,83047,6,0,L|124:46,1,80,2|8,3:2|1:1,0:0:0:0:
258,20,83214,2,0,L|276:120,1,80,10|8,3:2|1:1,0:0:0:0:
302,250,83380,2,0,L|213:268,1,80,2|8,3:2|1:1,0:0:0:0:
72,294,83547,2,0,L|53:196,1,80,10|8,3:2|1:1,0:0:0:0:
28,64,83714,1,10,1:1:0:0:
221,153,83880,1,2,1:2:0:0:
318,110,84047,1,10,1:1:0:0:
508,166,84214,6,0,B|489:104|432:78|378:79|338:107|340:158|279:194|209:146,1,340.000006484985,6|2,3:2|1:2,0:0:0:0:
122,100,84630,1,0,1:2:0:0:
111,94,84714,1,10,1:1:0:0:
245,292,84880,6,0,L|432:276,1,179.999994506836,2|0,3:2|1:2,0:0:0:0:
512,278,85130,1,0,1:2:0:0:
501,279,85214,6,0,L|414:287,1,74.9999977111817,2|0,0:0|0:0,0:0:0:0:
416,288,85714,5,2,0:0:0:0:
256,192,85797,12,0,88380,0:0:0:0:
