osu file format v14

[General]
AudioFilename: audio.mp3
AudioLeadIn: 0
PreviewTime: 62964
Countdown: 0
SampleSet: Soft
StackLeniency: 0.7
Mode: 0
LetterboxInBreaks: 0
WidescreenStoryboard: 1

[Editor]
Bookmarks: 21728,43061
DistanceSpacing: 1
BeatDivisor: 4
GridSize: 8
TimelineZoom: 2.5

[Metadata]
Title:Share the light (TV Size)
TitleUnicode:Share the light (TV Size)
Artist:Run Girls, Run!
ArtistUnicode:Run Girls, Run!
Creator:Smoke
Version:Normal
Source:アサシンズプライド
Tags:pop jpop j-pop japanese anime opening op 1 assassins pride asasinzu puraido Kufa Vampir Kūfa Vanpīru クーファ=ヴァンピール Melida Angel Merida Anjeru メリダ=アンジェル [Kurose Riku] [Mad] bellicose attendant
BeatmapID:2209335
BeatmapSetID:1056891

[Difficulty]
HPDrainRate:4
CircleSize:3.2
OverallDifficulty:4.4
ApproachRate:5.2
SliderMultiplier:1
SliderTickRate:1

[Events]
//Background and Video events
0,0,"bg.jpg",0,0
Video,-512,"video.mp4"
//Break Periods
2,21914,28544
//Storyboard Layer 0 (Background)
//Storyboard Layer 1 (Fail)
//Storyboard Layer 2 (Pass)
//Storyboard Layer 3 (Foreground)
//Storyboard Layer 4 (Overlay)
//Storyboard Sound Samples

[TimingPoints]
381,333.333333333333,4,2,4,45,1,0
381,-100,4,2,4,45,0,0
5714,-100,4,2,4,55,0,0
7047,-100,4,2,4,65,0,0
8380,-100,4,2,4,50,0,0
8714,-100,4,2,4,55,0,0
9047,-100,4,2,4,60,0,0
9380,-100,4,2,4,65,0,0
9714,-100,4,2,4,35,0,0
10380,-100,4,2,1,75,0,0
10714,-100,4,2,1,75,0,0
10964,-100,4,2,11,5,0,0
11047,-100,4,2,14,75,0,1
11130,-100,4,2,1,75,0,1
11380,-100,4,2,1,75,0,0
12214,-100,4,2,1,75,0,1
12630,-100,4,2,1,75,0,1
12714,-100,4,2,1,75,0,0
12880,-100,4,2,1,75,0,1
13380,-100,4,2,1,45,0,0
13630,-100,4,2,11,5,0,0
13714,-100,4,2,1,75,0,1
14380,-100,4,2,1,75,0,0
14880,-100,4,2,1,75,0,1
15297,-100,4,2,1,75,0,1
15380,-100,4,2,1,75,0,0
15547,-100,4,2,1,75,0,1
16047,-100,4,2,1,55,0,0
16380,-100,4,2,1,75,0,1
17047,-100,4,2,1,75,0,0
17547,-100,4,2,1,75,0,1
17964,-100,4,2,1,75,0,1
18047,-100,4,2,1,75,0,0
18214,-100,4,2,1,75,0,1
18714,-100,4,2,1,45,0,0
18964,-100,4,2,11,5,0,0
19047,-100,4,2,1,75,0,1
19714,-100,4,2,1,75,0,0
20214,-100,4,2,1,75,0,1
20714,-100,4,2,1,75,0,0
20880,-100,4,2,1,75,0,1
21380,-100,4,2,1,55,0,0
21630,-100,4,2,1,55,0,0
21714,-100,4,2,1,35,0,0
43047,-100,4,2,1,55,0,0
53714,-100,4,2,1,65,0,0
59047,-100,4,2,1,65,0,0
61714,-100,4,2,1,70,0,0
63047,-100,4,2,1,75,0,0
64047,-100,4,2,1,75,0,0
64297,-100,4,2,1,75,0,0
64380,-90.9090909090909,4,2,14,85,0,1
64422,-90.9090909090909,4,2,1,85,0,1
65047,-90.9090909090909,4,2,1,85,0,0
65547,-90.9090909090909,4,2,1,85,0,1
66047,-90.9090909090909,4,2,1,85,0,0
66214,-90.9090909090909,4,2,1,85,0,1
66714,-90.9090909090909,4,2,1,45,0,0
66964,-90.9090909090909,4,2,11,5,0,0
67047,-90.9090909090909,4,2,1,85,0,1
67714,-90.9090909090909,4,2,1,85,0,0
68214,-90.9090909090909,4,2,1,85,0,1
68714,-90.9090909090909,4,2,1,85,0,0
68880,-90.9090909090909,4,2,1,85,0,1
69380,-90.9090909090909,4,2,1,85,0,0
69714,-90.9090909090909,4,2,1,85,0,1
70214,-90.9090909090909,4,2,1,85,0,0
70880,-90.9090909090909,4,2,1,85,0,1
71380,-90.9090909090909,4,2,1,85,0,0
71547,-90.9090909090909,4,2,1,85,0,1
72047,-90.9090909090909,4,2,1,55,0,0
72297,-90.9090909090909,4,2,11,5,0,0
72380,-90.9090909090909,4,2,1,85,0,1
73047,-90.9090909090909,4,2,1,85,0,0
73547,-90.9090909090909,4,2,1,85,0,1
74047,-90.9090909090909,4,2,1,85,0,0
74214,-90.9090909090909,4,2,1,85,0,1
74714,-90.9090909090909,4,2,1,85,0,0
74964,-90.9090909090909,4,2,1,85,0,0
75047,-90.9090909090909,4,2,4,85,0,0
75130,-90.9090909090909,4,2,1,85,0,0
75380,-90.9090909090909,4,2,4,85,0,0
75464,-90.9090909090909,4,2,1,85,0,0
76214,-90.9090909090909,4,2,14,85,0,1
76297,-90.9090909090909,4,2,1,85,0,1
76714,-90.9090909090909,4,2,1,85,0,0
76880,-90.9090909090909,4,2,1,85,0,1
77380,-90.9090909090909,4,2,1,45,0,0
77630,-90.9090909090909,4,2,11,5,0,0
77714,-90.9090909090909,4,2,1,85,0,1
78380,-90.9090909090909,4,2,1,85,0,0
78880,-90.9090909090909,4,2,1,85,0,1
79380,-90.9090909090909,4,2,1,85,0,0
79547,-90.9090909090909,4,2,1,85,0,1
80047,-90.9090909090909,4,2,1,85,0,0
80380,-90.9090909090909,4,2,1,85,0,1
81047,-90.9090909090909,4,2,1,85,0,0
81547,-90.9090909090909,4,2,1,85,0,1
82047,-90.9090909090909,4,2,1,85,0,0
82214,-90.9090909090909,4,2,1,85,0,1
82714,-90.9090909090909,4,2,1,45,0,0
83047,-90.9090909090909,4,2,1,85,0,1
83714,-90.9090909090909,4,2,1,85,0,0
84214,-90.9090909090909,4,2,1,85,0,1
84714,-90.9090909090909,4,2,1,85,0,0
84880,-90.9090909090909,4,2,1,85,0,1
85380,-100,4,2,1,85,0,0
85714,-100,4,2,1,25,0,0
87380,-100,4,2,1,35,0,0
87714,-100,4,2,1,45,0,0
88047,-100,4,2,1,55,0,0
88380,-100,4,2,1,65,0,0

[Colours]
Combo1 : 221,81,81
Combo2 : 124,85,215
Combo3 : 105,131,231
Combo4 : 233,228,58

[HitObjects]
44,258,381,6,0,L|162:250,1,100,14|10,0:0|0:0,0:0:0:0:
188,229,880,1,2,0:0:0:0:
278,272,1214,1,2,0:0:0:0:
365,223,1547,1,2,0:0:0:0:
366,123,1880,2,0,L|471:132,2,100,2|2|2,0:0|0:0|0:0,0:0:0:0:
319,104,2714,2,0,L|253:109,1,50,8|0,0:0|3:2,0:0:0:0:
228,137,3047,6,0,P|169:141|128:111,1,100,10|10,0:0|0:0,0:0:0:0:
106,80,3547,1,2,0:0:0:0:
46,160,3880,1,2,0:0:0:0:
72,256,4214,2,0,L|64:364,2,100,2|2|2,0:0|0:0|0:0,0:0:0:0:
113,228,5047,1,8,0:0:0:0:
186,295,5380,1,8,0:0:0:0:
267,236,5714,6,0,L|386:232,1,100,6|10,3:2|3:2,0:0:0:0:
422,231,6214,1,2,0:0:0:0:
484,140,6547,1,2,0:0:0:0:
411,57,6880,6,0,L|292:61,1,100,2|2,0:0|3:2,0:0:0:0:
265,91,7380,1,8,3:2:0:0:
265,91,7547,2,0,L|146:87,1,100,2|2,3:2|3:2,0:0:0:0:
116,61,8047,1,8,3:2:0:0:
33,133,8380,2,0,B|18:184|18:184|28:233,1,100,14|14,3:2|3:2,0:0:0:0:
51,337,9047,2,0,L|119:328,1,50,14|14,3:2|3:2,0:0:0:0:
155,327,9380,1,14,3:2:0:0:
155,327,9547,1,14,3:2:0:0:
407,220,10380,6,0,L|403:281,1,50,10|8,3:2|3:3,0:0:0:0:
401,325,10714,1,10,3:2:0:0:
281,338,11047,6,0,L|295:179,1,150,4|8,3:2|1:1,0:0:0:0:
302,129,11714,1,8,3:2:0:0:
222,39,12047,1,2,3:0:0:0:
222,39,12214,2,0,P|171:32|117:65,1,100,6|8,3:2|1:1,0:0:0:0:
91,100,12714,1,10,1:1:0:0:
91,100,12880,2,0,P|106:157|116:215,1,100,6|0,3:2|0:0,0:0:0:0:
125,256,13380,1,2,2:2:0:0:
63,359,13714,6,0,L|129:367,1,50,6|2,3:2|1:2,0:0:0:0:
171,379,14047,2,0,L|240:371,1,50,6|8,3:2|1:1,0:0:0:0:
270,339,14380,1,10,3:2:0:0:
383,379,14714,1,2,3:2:0:0:
383,379,14880,2,0,L|373:253,1,100,6|8,3:2|1:1,0:0:0:0:
353,223,15380,1,8,3:2:0:0:
353,223,15547,2,0,P|382:169|433:167,1,100,6|8,3:2|1:1,0:0:0:0:
475,171,16047,1,14,1:1:0:0:
506,55,16380,6,0,L|334:63,1,150,6|0,3:2|1:2,0:0:0:0:
296,66,17047,1,10,3:2:0:0:
189,11,17380,1,2,3:2:0:0:
189,11,17547,2,0,L|196:117,1,100,6|8,3:2|1:1,0:0:0:0:
158,158,18047,1,8,3:2:0:0:
158,158,18214,2,0,P|111:131|46:136,1,100,6|0,3:2|0:0,0:0:0:0:
7,142,18714,1,2,0:0:0:0:
33,259,19047,6,0,L|100:254,1,50,6|2,3:2|1:2,0:0:0:0:
132,289,19380,2,0,L|199:284,1,50,6|8,3:2|1:1,0:0:0:0:
236,310,19714,1,10,3:2:0:0:
339,248,20047,1,2,3:2:0:0:
339,248,20214,2,0,P|391:247|432:280,1,100,6|6,3:2|3:2,0:0:0:0:
464,322,20714,1,8,3:2:0:0:
464,322,20880,1,2,3:2:0:0:
505,209,21214,2,0,L|491:38,1,150,2|2,3:2|0:0,0:0:0:0:
256,192,29714,12,0,31047,0:0:0:0:
402,78,32380,5,2,0:0:0:0:
288,37,33714,1,2,0:0:0:0:
177,83,35047,1,2,0:0:0:0:
63,42,36380,1,2,0:0:0:0:
85,162,37714,5,2,0:0:0:0:
44,274,39047,1,2,0:0:0:0:
155,317,40380,1,2,0:0:0:0:
271,289,41714,5,2,0:0:0:0:
155,317,42380,1,2,0:0:0:0:
222,217,43047,6,0,P|255:201|320:215,1,100,0|8,3:2|3:2,0:0:0:0:
381,287,43714,2,0,P|436:291|485:264,1,100,2|8,3:2|3:2,0:0:0:0:
509,178,44380,2,0,L|498:78,1,100,2|8,3:2|3:2,0:0:0:0:
406,38,45047,2,0,P|359:49|306:51,1,100,2|8,3:2|3:2,0:0:0:0:
215,11,45714,2,0,P|114:4|60:90,1,200,2|0,3:2|3:2,0:0:0:0:
107,166,46714,1,10,3:2:0:0:
107,166,46880,2,0,P|207:137|272:215,1,200,10|10,1:1|1:1,0:0:0:0:
280,246,47714,1,0,3:2:0:0:
243,339,48047,1,2,1:2:0:0:
332,384,48380,6,0,L|446:372,1,100,2|8,3:2|3:2,0:0:0:0:
499,300,49047,2,0,L|487:186,1,100,2|8,3:2|3:2,0:0:0:0:
409,139,49714,2,0,L|295:151,1,100,2|8,3:2|3:2,0:0:0:0:
222,100,50380,2,0,L|210:-14,1,100,2|8,3:2|3:2,0:0:0:0:
111,9,51047,6,0,L|133:215,1,200,0|0,3:2|3:2,0:0:0:0:
142,307,52047,1,8,3:2:0:0:
235,341,52380,2,0,B|307:325|307:325|367:342|367:342|437:328,1,200,2|0,3:2|3:2,0:0:0:0:
499,257,53380,1,8,3:2:0:0:
426,187,53714,6,0,P|417:137|447:83,1,100,4|8,3:2|3:2,0:0:0:0:
364,24,54380,2,0,L|261:38,1,100,2|8,3:2|3:2,0:0:0:0:
221,127,55047,2,0,P|245:171|235:230,1,100,2|8,3:2|3:2,0:0:0:0:
175,295,55714,2,0,L|74:273,1,100,2|8,3:2|3:2,0:0:0:0:
19,192,56380,2,0,B|60:148|50:105|22:80|-16:60|14:-5,1,200,6|0,3:2|3:2,0:0:0:0:
112,25,57380,1,10,3:2:0:0:
112,25,57547,2,0,P|201:8|254:108,1,200,0|10,0:0|1:1,0:0:0:0:
257,139,58380,1,0,3:2:0:0:
344,90,58714,1,2,3:2:0:0:
414,161,59047,6,0,L|400:284,1,100,6|8,3:2|3:2,0:0:0:0:
392,360,59714,1,0,3:2:0:0:
301,317,60047,1,8,3:2:0:0:
210,359,60380,6,0,L|111:370,1,100,2|8,3:2|3:2,0:0:0:0:
59,283,61047,1,0,3:2:0:0:
102,193,61380,1,8,3:2:0:0:
256,192,61714,12,10,63047,1:1:0:0:
306,145,64047,5,10,3:2:0:0:
211,220,64380,6,0,P|143:224|103:197,1,110.000003356934,4|0,3:2|1:1,0:0:0:0:
76,152,64880,1,0,1:1:0:0:
137,47,65214,1,2,0:0:0:0:
245,101,65547,2,0,P|303:92|377:86,1,110.000003356934,6|2,3:2|0:0,0:0:0:0:
407,116,66047,1,8,3:2:0:0:
407,116,66214,2,0,P|375:166|382:231,1,110.000003356934,2|2,3:2|0:0,0:0:0:0:
397,271,66714,1,2,0:0:0:0:
310,355,67047,6,0,L|199:341,1,110.000003356934,6|2,3:2|3:2,0:0:0:0:
145,365,67547,1,10,1:1:0:0:
65,274,67880,1,2,3:2:0:0:
159,197,68214,2,0,P|161:135|146:82,1,110.000003356934,6|2,3:2|1:2,0:0:0:0:
138,34,68714,1,10,1:1:0:0:
138,34,68880,2,0,P|213:-9|295:22,1,165.000005035401,2|14,3:2|1:1,0:0:0:0:
350,116,69714,6,0,P|418:117|463:83,1,110.000003356934,6|2,3:2|1:2,0:0:0:0:
495,52,70214,1,2,1:2:0:0:
380,13,70547,1,2,3:2:0:0:
338,126,70880,2,0,L|352:251,1,110.000003356934,6|2,3:2|0:0,0:0:0:0:
383,286,71380,1,8,3:2:0:0:
383,286,71547,2,0,B|334:267|334:267|277:283,1,110.000003356934,6|2,3:2|0:0,0:0:0:0:
221,302,72047,1,2,0:0:0:0:
106,261,72380,6,0,L|97:129,1,110.000003356934,6|6,3:2|3:2,0:0:0:0:
55,37,73047,2,0,P|89:32|123:31,1,55.0000016784668,10|2,1:1|1:2,0:0:0:0:
173,23,73380,1,2,3:2:0:0:
173,23,73547,2,0,P|224:63|283:54,1,110.000003356934,6|2,3:2|1:2,0:0:0:0:
329,50,74047,1,8,3:2:0:0:
329,50,74214,2,0,B|387:32|387:32|446:44,1,110.000003356934,6|0,3:2|3:2,0:0:0:0:
481,81,74714,1,8,3:2:0:0:
503,199,75047,6,0,P|474:291|358:288,1,220.000006713867,4|10,1:1|0:0,0:0:0:0:
318,253,75880,2,0,P|287:253|255:257,1,55.0000016784668,2|2,1:2|1:2,0:0:0:0:
218,213,76214,6,0,B|226:159|226:159|208:103,1,110.000003356934,6|2,3:2|1:2,0:0:0:0:
173,64,76714,1,10,1:1:0:0:
173,64,76880,2,0,P|110:71|58:56,1,110.000003356934,6|2,3:2|0:0,0:0:0:0:
7,41,77380,1,2,0:0:0:0:
13,165,77714,6,0,L|21:277,1,110.000003356934,6|2,3:2|3:2,0:0:0:0:
23,334,78214,1,2,1:2:0:0:
131,281,78547,1,2,1:2:0:0:
239,327,78880,2,0,B|287:304|287:304|347:328,1,110.000003356934,6|2,3:2|1:2,0:0:0:0:
400,349,79380,1,10,1:1:0:0:
400,349,79547,2,0,P|386:275|453:210,1,165.000005035401,6|14,3:2|1:1,0:0:0:0:
509,112,80380,6,0,P|446:96|388:68,1,110.000003356934,6|2,3:2|1:2,0:0:0:0:
354,44,80880,1,2,1:2:0:0:
263,124,81214,1,2,1:2:0:0:
176,37,81547,2,0,P|117:20|65:35,1,110.000003356934,6|2,3:2|1:2,0:0:0:0:
44,87,82047,1,10,1:1:0:0:
44,87,82214,2,0,P|80:127|90:180,1,110.000003356934,2|2,3:2|1:2,0:0:0:0:
66,236,82714,1,2,0:0:0:0:
184,214,83047,6,0,L|258:224,1,55.0000016784668,2|10,3:2|3:2,0:0:0:0:
279,177,83380,2,0,L|353:167,1,55.0000016784668,2|10,3:2|3:2,0:0:0:0:
384,203,83714,1,10,1:1:0:0:
463,301,84047,1,10,1:1:0:0:
463,301,84214,2,0,P|402:301|364:337,1,110.000003356934,6|2,3:2|1:2,0:0:0:0:
323,373,84714,1,10,1:1:0:0:
323,373,84880,2,0,L|191:358,1,110.000003356934,2|2,3:2|0:0,0:0:0:0:
256,200,85714,1,2,0:0:0:0:
256,192,85797,12,0,88380,0:0:0:0:
