osu file format v14

[General]
AudioFilename: audio.mp3
AudioLeadIn: 0
PreviewTime: 62964
Countdown: 0
SampleSet: Soft
StackLeniency: 0.4
Mode: 0
LetterboxInBreaks: 0
WidescreenStoryboard: 1

[Editor]
Bookmarks: 21728,43061
DistanceSpacing: 0.1
BeatDivisor: 4
GridSize: 8
TimelineZoom: 2.5

[Metadata]
Title:Share the light (TV Size)
TitleUnicode:Share the light (TV Size)
Artist:Run Girls, Run!
ArtistUnicode:Run Girls, Run!
Creator:Smoke
Version:Mad's Expert
Source:アサシンズプライド
Tags:pop jpop j-pop japanese anime opening op 1 assassins pride asasinzu puraido Kufa Vampir Kūfa Vanpīru クーファ=ヴァンピール Melida Angel Merida Anjeru メリダ=アンジェル [Kurose Riku] [Mad] bellicose attendant
BeatmapID:2247626
BeatmapSetID:1056891

[Difficulty]
HPDrainRate:5.5
CircleSize:4.2
OverallDifficulty:8.6
ApproachRate:9.2
SliderMultiplier:1.8
SliderTickRate:1

[Events]
//Background and Video events
0,0,"bg.jpg",0,0
Video,-512,"video.mp4"
//Break Periods
2,21913,29144
//Storyboard Layer 0 (Background)
//Storyboard Layer 1 (Fail)
//Storyboard Layer 2 (Pass)
//Storyboard Layer 3 (Foreground)
//Storyboard Layer 4 (Overlay)
//Storyboard Sound Samples

[TimingPoints]
381,333.333333333333,4,2,4,45,1,0
381,-133.333333333333,4,2,4,45,0,0
1547,-117.647058823529,4,2,4,45,0,0
3047,-133.333333333333,4,2,4,45,0,0
4214,-117.647058823529,4,2,4,45,0,0
5047,-100,4,2,4,45,0,0
5714,-133.333333333333,4,2,4,55,0,0
7047,-133.333333333333,4,2,4,65,0,0
8380,-100,4,2,4,50,0,0
8714,-80,4,2,4,55,0,0
9047,-80,4,2,4,60,0,0
9380,-80,4,2,4,65,0,0
9714,-80,4,2,4,35,0,0
10380,-80,4,2,1,75,0,0
10714,-50,4,2,1,75,0,0
10964,-50,4,2,11,5,0,0
11047,-1000,4,2,14,75,0,1
11130,-1000,4,2,1,75,0,1
11380,-100,4,2,1,75,0,0
11714,-74.0740740740741,4,2,1,75,0,0
11880,-68.9655172413793,4,2,1,75,0,0
12047,-64.5161290322581,4,2,1,75,0,0
12214,-1000,4,2,1,75,0,1
12714,-100,4,2,1,75,0,0
12880,-500,4,2,1,75,0,1
13130,-100,4,2,1,75,0,1
13380,-100,4,2,1,45,0,0
13630,-100,4,2,11,5,0,0
13714,-500,4,2,1,75,0,1
14380,-74.0740740740741,4,2,1,75,0,0
14547,-68.9655172413793,4,2,1,75,0,0
14714,-64.5161290322581,4,2,1,75,0,0
14880,-1000,4,2,1,75,0,1
15380,-100,4,2,1,75,0,0
15547,-1000,4,2,1,75,0,1
16047,-57.1428571428571,4,2,1,55,0,0
16380,-1000,4,2,1,75,0,1
17047,-74.0740740740741,4,2,1,75,0,0
17214,-68.9655172413793,4,2,1,75,0,0
17380,-64.5161290322581,4,2,1,75,0,0
17547,-1000,4,2,1,75,0,1
18047,-100,4,2,1,75,0,0
18214,-1000,4,2,1,75,0,1
18714,-80,4,2,1,45,0,0
18964,-100,4,2,11,5,0,0
19047,-500,4,2,1,75,0,1
19714,-74.0740740740741,4,2,1,75,0,0
19880,-68.9655172413793,4,2,1,75,0,0
20047,-64.5161290322581,4,2,1,75,0,0
20214,-1000,4,2,1,75,0,1
20547,-500,4,2,1,75,0,1
20714,-100,4,2,1,75,0,0
20880,-1000,4,2,1,75,0,1
21380,-66.6666666666667,4,2,1,55,0,0
21714,-66.6666666666667,4,2,1,35,0,0
32380,-181.818181818181,4,2,1,35,0,0
43047,-100,4,2,1,55,0,0
53714,-83.3333333333333,4,2,1,65,0,0
61714,-83.3333333333333,4,2,1,70,0,0
62047,-50,4,2,1,65,0,0
63047,-100,4,2,1,75,0,0
64047,-50,4,2,1,75,0,0
64380,-1000,4,2,14,85,0,1
64422,-1000,4,2,1,85,0,1
65047,-71.4285714285714,4,2,1,85,0,0
65214,-66.6666666666667,4,2,1,85,0,0
65380,-62.5,4,2,1,85,0,0
65547,-1000,4,2,1,85,0,1
66047,-100,4,2,1,85,0,0
66214,-1000,4,2,1,85,0,1
66714,-100,4,2,1,45,0,0
66964,-100,4,2,11,5,0,0
67047,-500,4,2,1,85,0,1
67714,-71.4285714285714,4,2,1,85,0,0
67880,-66.6666666666667,4,2,1,85,0,0
68047,-62.5,4,2,1,85,0,0
68214,-1000,4,2,1,85,0,1
68714,-100,4,2,1,85,0,0
68880,-500,4,2,1,85,0,1
69103,-50,4,2,1,85,0,1
69380,-50,4,2,1,85,0,0
69714,-1000,4,2,1,85,0,1
70380,-71.4285714285714,4,2,1,85,0,0
70546,-66.6666666666667,4,2,1,85,0,0
70713,-62.5,4,2,1,85,0,0
70880,-1000,4,2,1,85,0,1
71380,-100,4,2,1,85,0,0
71547,-1000,4,2,1,85,0,1
72047,-80,4,2,1,55,0,0
72297,-80,4,2,11,5,0,0
72380,-500,4,2,1,85,0,1
73047,-71.4285714285714,4,2,1,85,0,0
73214,-66.6666666666667,4,2,1,85,0,0
73380,-62.5,4,2,1,85,0,0
73547,-1000,4,2,1,85,0,1
73880,-500,4,2,1,85,0,1
74047,-100,4,2,1,85,0,0
74214,-1000,4,2,1,85,0,1
74714,-66.6666666666667,4,2,1,85,0,0
75047,-66.6666666666667,4,2,4,85,0,0
75130,-66.6666666666667,4,2,1,85,0,0
75380,-66.6666666666667,4,2,4,85,0,0
75464,-66.6666666666667,4,2,1,85,0,0
75714,-66.6666666666667,4,2,1,85,0,0
76214,-1000,4,2,14,85,0,1
76297,-1000,4,2,1,85,0,1
76714,-100,4,2,1,85,0,0
76880,-1000,4,2,1,85,0,1
77380,-100,4,2,1,45,0,0
77630,-100,4,2,11,5,0,0
77714,-500,4,2,1,85,0,1
78380,-71.4285714285714,4,2,1,85,0,0
78547,-66.6666666666667,4,2,1,85,0,0
78714,-62.5,4,2,1,85,0,0
78880,-1000,4,2,1,85,0,1
79380,-100,4,2,1,85,0,0
79547,-500,4,2,1,85,0,1
80047,-50,4,2,1,85,0,0
80380,-1000,4,2,1,85,0,1
81047,-71.4285714285714,4,2,1,85,0,0
81214,-66.6666666666667,4,2,1,85,0,0
81380,-62.5,4,2,1,85,0,0
81547,-1000,4,2,1,85,0,1
82047,-100,4,2,1,85,0,0
82214,-1000,4,2,1,85,0,1
82714,-100,4,2,1,45,0,0
83047,-500,4,2,1,85,0,1
83714,-62.5,4,2,1,85,0,0
84214,-1000,4,2,1,85,0,1
84547,-500,4,2,1,85,0,1
84714,-100,4,2,1,85,0,0
84880,-1000,4,2,1,85,0,1
85380,-100,4,2,1,85,0,0
85714,-200,4,2,1,25,0,0
87380,-200,4,2,1,35,0,0
87714,-200,4,2,1,45,0,0
88047,-200,4,2,1,55,0,0
88380,-200,4,2,1,65,0,0

[Colours]
Combo1 : 221,81,81
Combo2 : 124,85,215
Combo3 : 105,131,231
Combo4 : 233,228,58

[HitObjects]
92,154,381,6,0,L|104:80,1,67.5000025749208,14|0,0:0|0:0,0:0:0:0:
37,229,714,2,0,P|15:198|15:160,1,67.5000025749208,10|2,0:0|0:0,0:0:0:0:
114,246,1047,2,0,P|143:229|161:202,1,67.5000025749208,8|2,0:0|0:0,0:0:0:0:
89,172,1380,1,8,0:0:0:0:
138,323,1547,6,0,B|174:338|211:317|211:317|249:297|285:318,1,153.000002918243,2|2,0:0|0:0,0:0:0:0:
353,359,2047,1,8,0:0:0:0:
433,227,2214,2,0,B|397:212|360:233|360:233|322:253|286:232,1,153.000002918243,2|2,0:0|0:0,0:0:0:0:
224,102,2714,5,8,0:0:0:0:
316,149,2880,1,0,3:2:0:0:
409,8,3047,6,0,L|395:86,1,67.5000025749208,10|0,0:0|0:0,0:0:0:0:
503,147,3380,2,0,P|496:114|475:87,1,67.5000025749207,10|2,0:0|0:0,0:0:0:0:
320,78,3714,2,0,P|326:110|347:137,1,67.5000025749207,8|2,0:0|0:0,0:0:0:0:
426,145,4047,1,8,0:0:0:0:
240,133,4214,6,0,P|306:153|373:221,1,153.000002918243,2|2,0:0|0:0,0:0:0:0:
362,348,4714,1,8,0:0:0:0:
448,242,4880,1,2,0:0:0:0:
170,286,5047,5,8,0:0:0:0:
157,304,5130,2,0,B|164:330|164:330|221:269,1,90,2|0,0:0|0:0,0:0:0:0:
342,286,5380,5,8,0:0:0:0:
355,304,5464,2,0,B|347:330|347:330|290:269,1,90,2|0,0:0|0:0,0:0:0:0:
84,142,5714,6,0,L|155:155,1,67.5000025749207,6|0,3:2|0:0,0:0:0:0:
201,215,6047,2,0,L|272:228,1,67.5000025749207,10|2,3:2|0:0,0:0:0:0:
168,82,6380,6,0,L|239:95,1,67.5000025749207,8|2,3:2|0:0,0:0:0:0:
329,181,6713,2,0,L|400:194,1,67.5000025749207,8|2,3:2|0:0,0:0:0:0:
310,29,7047,5,8,3:2:0:0:
389,14,7214,1,2,3:2:0:0:
414,120,7380,5,8,3:2:0:0:
488,144,7547,1,2,3:2:0:0:
352,279,7714,5,8,3:2:0:0:
392,348,7880,1,2,3:2:0:0:
481,258,8047,1,8,3:2:0:0:
251,380,8214,1,0,3:2:0:0:
270,189,8380,6,0,P|281:214|281:243,1,45,14|0,3:2|3:2,0:0:0:0:
203,230,8547,2,0,P|186:252|161:266,1,45,10|0,3:2|3:2,0:0:0:0:
37,256,8714,6,0,P|26:281|26:310,1,56.25,14|0,3:2|3:2,0:0:0:0:
103,299,8881,2,0,P|119:321|144:335,1,56.25,10|0,3:2|3:2,0:0:0:0:
350,150,9047,5,14,3:2:0:0:
304,117,9130,1,0,3:2:0:0:
249,109,9213,1,14,3:2:0:0:
196,126,9297,1,0,3:2:0:0:
134,169,9380,1,14,3:2:0:0:
63,140,9464,1,0,3:2:0:0:
0,184,9547,1,14,3:2:0:0:
0,0,10380,5,10,3:2:0:0:
52,55,10464,1,2,3:3:0:0:
64,59,10547,1,8,3:3:0:0:
76,63,10630,1,4,3:3:0:0:
139,26,10714,6,0,B|121:44|114:67|114:67|121:101|121:101|138:110|148:123|148:123|155:153|155:153|141:167|136:188|136:188|140:219|140:219|163:227|179:251,1,270,10|0,3:2|0:0,0:0:0:0:
157,330,11047,6,0,L|183:334,1,27,4|8,3:2|1:1,0:0:0:0:
259,340,11630,5,0,1:2:0:0:
283,353,11714,2,0,P|308:353|341:331,1,60.7500002317429,8|0,3:2|0:0,0:0:0:0:
485,205,11880,2,0,P|470:181|434:164,1,65.250001991272,2|0,3:0|0:0,0:0:0:0:
423,345,12047,2,0,P|440:313|437:272,1,69.7500005321503,2|0,3:0|0:0,0:0:0:0:
222,242,12214,6,0,L|227:271,1,27,6|10,3:2|1:1,0:0:0:0:
35,35,12880,6,0,L|40:5,1,27,6|8,3:2|1:1,0:0:0:0:
146,129,13214,1,0,0:0:0:0:
156,148,13297,1,8,1:1:0:0:
24,188,13380,6,0,B|-7:178|5:131|5:131|40:95|64:118,1,135,2|0,2:2|0:0,0:0:0:0:
104,269,13714,6,0,L|112:265,1,9,6|0,3:2|1:1,0:0:0:0:
224,327,13880,2,0,L|234:322,1,9,2|0,1:2|1:1,0:0:0:0:
331,141,14047,5,6,3:2:0:0:
293,153,14131,1,0,1:1:0:0:
255,165,14214,1,8,1:1:0:0:
217,177,14297,1,10,1:1:0:0:
149,207,14380,6,0,P|177:201|206:186,1,60.7500002317429,10|0,3:2|0:0,0:0:0:0:
302,205,14547,2,0,P|315:171|313:135,1,65.250001991272,2|0,3:2|0:0,0:0:0:0:
364,59,14714,2,0,P|342:31|311:13,1,69.7500005321503,2|0,3:2|0:0,0:0:0:0:
274,277,14880,6,0,L|279:305,1,27,6|8,3:2|3:2,0:0:0:0:
418,74,15547,6,0,L|420:60,1,13.5,6|0,3:2|1:1,0:0:0:0:
453,141,15880,1,8,1:1:0:0:
442,155,15964,1,0,1:1:0:0:
292,200,16047,6,0,B|316:211|334:207|334:207|343:225|343:225|360:225|382:211|382:211|408:235|443:228,1,157.500001502037,14|2,1:1|1:2,0:0:0:0:
497,209,16297,1,2,1:2:0:0:
367,135,16380,6,0,L|349:131,1,18,6|8,3:2|1:1,0:0:0:0:
278,116,16797,1,0,1:2:0:0:
269,114,16880,1,0,1:2:0:0:
260,112,16963,1,0,1:2:0:0:
260,28,17047,6,0,P|282:29|321:44,1,60.7500002317429,10|0,3:2|0:0,0:0:0:0:
228,250,17214,2,0,P|214:218|214:186,1,65.250001991272,2|0,3:2|0:0,0:0:0:0:
132,134,17380,2,0,P|151:108|186:88,1,69.7500005321503,2|0,3:2|0:0,0:0:0:0:
134,304,17547,6,0,L|129:331,1,27,6|8,3:2|3:2,0:0:0:0:
379,174,18214,6,0,L|381:162,1,13.5,6|8,3:2|1:1,0:0:0:0:
415,309,18547,1,0,0:0:0:0:
420,326,18630,1,8,1:1:0:0:
337,243,18714,6,0,B|297:227|260:254|260:254|221:283|176:260,1,168.75,2|0,0:0|0:0,0:0:0:0:
114,127,19047,6,0,L|100:124,1,9,6|0,3:2|1:1,0:0:0:0:
7,222,19214,2,0,L|-2:220,1,9,2|0,1:2|1:1,0:0:0:0:
229,340,19380,5,6,3:2:0:0:
217,302,19464,1,0,1:1:0:0:
205,264,19547,1,8,1:1:0:0:
193,226,19630,1,10,1:1:0:0:
138,175,19714,6,0,P|164:191|219:200,1,60.7500002317429,10|0,3:2|0:0,0:0:0:0:
285,195,19880,2,0,P|312:183|339:161,1,65.250001991272,2|0,3:2|0:0,0:0:0:0:
400,91,20047,2,0,P|401:52|394:23,1,69.7500005321503,2|0,3:2|0:0,0:0:0:0:
394,227,20214,6,0,L|397:241,1,13.5,6|0,3:2|0:0,0:0:0:0:
195,121,20547,6,0,L|196:112,1,9,6|0,3:2|0:0,0:0:0:0:
205,39,20713,1,8,3:2:0:0:
480,114,20880,6,0,L|477:100,1,13.5,2|10,3:2|1:1,0:0:0:0:
472,200,21214,1,2,3:2:0:0:
474,213,21297,1,8,1:1:0:0:
400,91,21380,6,0,B|331:31|237:50|237:50|222:106|261:142,1,270.000010299683,2|2,0:0|0:0,0:0:0:0:
256,192,29714,12,2,31047,0:0:0:0:
98,169,32380,6,0,B|74:152|50:154|50:154|76:106|150:111|150:111|199:118|257:3|27:42|174:161|234:158,1,396.000012084961,2|2,0:0|0:0,0:0:0:0:
414,215,35047,6,0,B|438:232|462:230|462:230|436:278|362:273|362:273|313:266|255:381|485:342|338:223|278:226,1,396.000012084961,2|2,0:0|0:0,0:0:0:0:
126,327,37714,6,0,B|163:311|167:267|151:235|151:235|127:195|136:152|215:119|241:239|164:219,1,297.000009063721,2|2,0:0|0:0,0:0:0:0:
385,56,39047,6,0,B|349:73|345:117|361:149|361:149|385:189|376:232|297:265|271:145|347:164,1,297.000009063721,2|2,0:0|0:0,0:0:0:0:
123,368,40380,6,0,B|158:322|214:324|252:368|252:368|283:342|294:282|294:282|328:301|365:289|365:289|401:277|441:298,1,396.000012084961,2|2,0:0|0:0,0:0:0:0:
256,192,41797,12,0,42964,0:0:0:0:
37,315,43047,6,0,B|77:290|121:312|121:312|169:333|210:313,1,180,0|8,3:2|3:2,0:0:0:0:
271,248,43547,1,0,1:1:0:0:
149,198,43714,5,2,3:2:0:0:
197,133,43880,1,10,1:1:0:0:
26,110,44047,1,8,3:2:0:0:
48,114,44130,1,10,1:1:0:0:
70,117,44213,1,10,1:1:0:0:
92,120,44297,1,0,1:1:0:0:
115,124,44380,5,2,3:2:0:0:
191,52,44547,1,10,1:1:0:0:
191,52,44630,2,0,L|185:22,2,22.5,10|10|8,1:1|1:1|3:2,0:0:0:0:
287,111,44880,1,10,1:1:0:0:
273,29,45047,5,2,3:2:0:0:
362,73,45214,1,10,1:1:0:0:
289,195,45380,1,8,3:2:0:0:
311,191,45463,1,10,1:1:0:0:
333,188,45546,1,10,1:1:0:0:
355,185,45630,1,0,1:1:0:0:
378,181,45714,6,0,P|329:235|353:337,1,180,2|8,3:2|3:2,0:0:0:0:
421,377,46214,1,8,1:1:0:0:
246,340,46380,5,0,3:2:0:0:
207,260,46547,1,10,1:1:0:0:
157,374,46714,2,0,L|112:366,1,45,10|8,3:2|1:1,0:0:0:0:
85,258,46880,1,10,1:1:0:0:
92,259,46936,1,2,0:0:0:0:
100,261,46992,1,2,0:0:0:0:
108,263,47047,5,0,3:2:0:0:
43,118,47214,1,10,1:1:0:0:
43,118,47297,2,0,L|74:122,2,22.5,10|10|8,1:1|1:1|3:2,0:0:0:0:
9,199,47547,1,10,1:1:0:0:
152,122,47714,5,0,3:2:0:0:
78,27,47880,1,10,1:1:0:0:
170,113,48047,2,0,B|192:122|192:122|183:97,1,45,2|0,1:2|0:0,0:0:0:0:
60,29,48214,2,0,B|38:20|38:20|47:45,1,45,2|0,1:2|0:0,0:0:0:0:
222,29,48380,6,0,P|271:25|318:55,1,90,2|8,3:2|1:1,0:0:0:0:
455,143,48714,1,8,3:2:0:0:
417,73,48880,1,10,1:1:0:0:
296,160,49047,5,2,3:2:0:0:
433,215,49214,1,10,1:1:0:0:
326,311,49380,1,8,3:2:0:0:
322,288,49463,1,0,1:1:0:0:
325,266,49546,1,10,1:1:0:0:
334,264,49603,1,2,0:0:0:0:
343,262,49658,1,2,0:0:0:0:
353,260,49714,5,2,3:2:0:0:
454,339,49880,1,10,1:1:0:0:
454,339,49964,2,0,L|491:345,2,22.5,10|0|8,1:1|0:0|3:2,0:0:0:0:
326,311,50214,1,10,1:1:0:0:
197,375,50380,5,2,3:2:0:0:
245,310,50547,1,10,1:1:0:0:
126,202,50714,2,0,P|123:226|135:257,1,45,8|0,3:2|1:1,0:0:0:0:
77,302,50880,2,0,P|96:316|129:321,1,45,8|0,1:1|1:1,0:0:0:0:
139,200,51047,6,0,P|189:154|148:56,1,180,0|8,3:2|3:2,0:0:0:0:
66,47,51547,1,10,1:1:0:0:
236,20,51714,5,0,3:2:0:0:
115,126,51880,1,10,1:1:0:0:
263,187,52047,2,0,L|255:231,1,45,8|0,3:2|1:1,0:0:0:0:
278,112,52214,2,0,L|282:90,2,22.5,10|8|8,1:1|1:1|1:1,0:0:0:0:
235,301,52380,6,0,P|280:278|334:286,1,90,2|10,3:2|1:1,0:0:0:0:
324,285,52630,2,0,L|354:290,1,22.5,10|0,1:1|1:1,0:0:0:0:
328,289,52714,2,0,P|323:314|329:346,1,45,8|0,3:2|0:0,0:0:0:0:
507,384,52880,1,10,1:1:0:0:
423,280,53047,1,0,3:2:0:0:
432,293,53130,2,0,L|476:300,1,45,10|10,1:1|1:1,0:0:0:0:
357,197,53380,1,8,3:2:0:0:
369,206,53463,2,0,L|413:198,1,45,10|10,1:1|1:1,0:0:0:0:
493,61,53714,6,0,B|446:41|395:79|395:79|343:117|285:86,1,215.999993408203,4|8,3:2|3:2,0:0:0:0:
220,30,54214,1,0,1:1:0:0:
109,111,54380,6,0,P|134:156|127:211,1,107.999996704102,2|10,3:2|1:1,0:0:0:0:
32,311,54714,1,8,3:2:0:0:
55,301,54797,1,0,1:1:0:0:
80,294,54880,1,2,0:0:0:0:
81,306,54936,1,2,0:0:0:0:
83,319,54992,1,2,0:0:0:0:
85,331,55047,5,2,3:2:0:0:
0,233,55214,1,10,1:1:0:0:
0,233,55297,2,0,L|7:187,2,26.9999991760254,10|0|8,1:1|0:0|3:2,0:0:0:0:
5,384,55547,1,10,1:1:0:0:
183,295,55714,5,2,3:2:0:0:
164,371,55880,1,10,1:1:0:0:
345,301,56047,1,8,3:2:0:0:
318,297,56130,1,10,1:1:0:0:
291,301,56213,1,10,1:1:0:0:
268,315,56297,1,10,1:1:0:0:
251,335,56380,5,6,3:2:0:0:
320,376,56547,1,8,1:1:0:0:
250,233,56714,1,8,3:2:0:0:
333,196,56880,1,0,1:1:0:0:
167,128,57047,5,0,3:2:0:0:
119,221,57214,1,10,1:1:0:0:
247,108,57380,1,10,3:2:0:0:
258,110,57436,1,2,0:0:0:0:
270,112,57492,1,2,0:0:0:0:
282,114,57547,2,0,L|319:120,2,35.9999989013672,2|2|2,0:0|0:0|1:2,0:0:0:0:
173,142,57714,5,0,3:2:0:0:
369,49,57880,1,10,1:1:0:0:
369,49,57964,1,10,1:1:0:0:
369,49,58047,2,0,P|385:68|397:95,1,53.9999983520508,8|0,3:2|0:0,0:0:0:0:
375,180,58214,1,10,1:1:0:0:
235,222,58380,5,0,3:2:0:0:
384,285,58547,1,10,1:1:0:0:
219,230,58714,2,0,B|194:222|194:222|214:251,1,53.9999983520508,2|8,3:2|1:1,0:0:0:0:
400,279,58880,2,0,B|425:287|425:287|405:258,1,53.9999983520508,2|8,1:2|1:1,0:0:0:0:
268,310,59047,5,6,3:2:0:0:
196,340,59214,1,8,1:1:0:0:
118,329,59380,1,8,3:2:0:0:
55,280,59547,1,10,1:1:0:0:
165,135,59714,5,0,3:2:0:0:
143,242,59880,1,10,1:1:0:0:
180,125,60047,1,8,3:2:0:0:
129,254,60214,2,0,L|119:197,1,53.9999983520508,8|0,1:1|0:0,0:0:0:0:
106,34,60380,5,2,3:2:0:0:
211,54,60547,1,10,1:1:0:0:
311,18,60714,1,8,3:2:0:0:
415,36,60880,1,10,1:1:0:0:
441,142,61047,5,0,3:2:0:0:
339,100,61214,1,10,1:1:0:0:
464,232,61380,1,8,3:2:0:0:
264,165,61547,1,10,1:1:0:0:
348,253,61714,6,0,P|357:233|340:245,3,53.9999983520508,2|0|0|0,3:2|3:2|3:2|3:2,0:0:0:0:
415,36,62047,6,0,P|396:10|423:28,3,90,0|0|0|0,3:2|3:2|3:2|3:2,0:0:0:0:
402,129,62380,5,0,3:2:0:0:
379,126,62463,1,0,3:2:0:0:
357,123,62546,1,0,3:2:0:0:
334,120,62630,1,0,3:2:0:0:
264,87,62714,5,0,3:2:0:0:
338,96,62798,1,0,3:2:0:0:
409,106,62881,1,0,3:2:0:0:
483,116,62964,1,0,3:2:0:0:
494,136,63047,6,0,P|506:157|505:193,1,45,10|0,1:1|0:0,0:0:0:0:
443,221,63214,2,0,P|440:232|442:244,3,22.5,10|10|10|10,1:1|1:1|1:1|1:1,0:0:0:0:
417,319,63380,5,2,1:1:0:0:
364,266,63492,1,2,1:1:0:0:
373,190,63603,1,2,1:1:0:0:
302,220,63714,5,8,1:2:0:0:
232,251,63797,1,2,3:3:0:0:
216,247,63880,1,8,3:3:0:0:
201,244,63964,1,4,3:3:0:0:
240,172,64047,6,0,B|209:137|209:137|216:134|216:134|182:148|182:148|158:143|132:148|132:148|93:134|93:134|53:147|53:147|34:137|8:133,1,270,10|0,3:2|0:0,0:0:0:0:
6,1,64380,6,0,L|24:3,1,18,4|0,3:2|1:1,0:0:0:0:
95,63,64797,1,0,1:1:0:0:
134,68,64880,1,0,1:1:0:0:
173,73,64964,1,0,1:1:0:0:
189,89,65047,6,0,P|222:82|265:53,1,62.9999980773926,10|0,3:2|0:0,0:0:0:0:
323,181,65214,2,8,P|334:149|331:97,1,67.5000025749208,2|0,0:0|0:0,0:0:0:0:
471,101,65380,2,8,P|448:75|402:52,1,72,8|0,1:1|0:0,0:0:0:0:
156,164,65547,6,0,L|129:168,1,27,6|8,3:2|3:2,0:0:0:0:
462,366,66214,6,0,L|475:368,1,13.5,2|8,3:2|1:1,0:0:0:0:
484,257,66547,1,2,0:0:0:0:
475,244,66630,1,8,1:1:0:0:
452,353,66714,6,0,B|416:348|396:319|396:319|371:340|330:332,1,135,2|0,0:0|0:0,0:0:0:0:
228,368,67047,6,0,L|229:358,1,9,6|0,3:2|0:0,0:0:0:0:
328,226,67214,2,0,L|329:216,1,9,8|0,1:1|0:0,0:0:0:0:
72,183,67380,5,2,3:2:0:0:
119,193,67464,1,8,1:1:0:0:
167,204,67547,1,10,1:1:0:0:
215,214,67630,1,10,1:1:0:0:
240,283,67714,6,0,P|242:247|253:206,1,62.9999980773926,8|0,3:2|0:0,0:0:0:0:
269,37,67880,2,0,P|300:54|326:79,1,67.5000025749208,2|0,3:2|0:0,0:0:0:0:
181,154,68047,2,0,P|210:136|252:128,1,72,8|0,1:1|0:0,0:0:0:0:
449,187,68214,6,0,L|453:213,1,27,6|10,3:2|1:1,0:0:0:0:
90,189,68880,6,0,L|87:200,1,9,2|0,3:2|0:0,0:0:0:0:
197,301,69047,5,2,1:2:0:0:
201,275,69130,1,8,1:1:0:0:
166,202,69214,5,0,0:0:0:0:
170,176,69297,1,8,1:1:0:0:
121,110,69380,6,0,P|80:88|25:86,1,90,14|8,1:1|1:1,0:0:0:0:
285,207,69547,2,0,P|275:161|241:118,1,90,0|8,1:1|1:1,0:0:0:0:
24,338,69714,6,0,L|42:336,1,18,6|2,3:2|1:2,0:0:0:0:
123,325,70131,1,0,1:1:0:0:
162,320,70214,1,2,1:2:0:0:
201,315,70298,1,0,1:1:0:0:
223,301,70380,6,0,P|256:308|299:337,1,62.9999980773926,10|0,3:2|0:0,0:0:0:0:
365,230,70547,2,8,P|376:262|373:314,1,67.5000025749208,2|0,0:0|0:0,0:0:0:0:
497,317,70714,2,8,P|474:342|428:365,1,72,2|0,0:0|0:0,0:0:0:0:
410,127,70880,6,0,L|414:100,1,27,6|8,3:2|3:2,0:0:0:0:
81,52,71547,6,0,L|83:65,1,13.5,6|8,3:2|1:1,0:0:0:0:
248,31,71880,1,2,0:0:0:0:
252,12,71964,1,8,1:1:0:0:
164,61,72047,6,0,B|119:65|93:27|93:27|38:7|4:27,1,168.75,2|0,0:0|0:0,0:0:0:0:
44,229,72380,6,0,L|55:228,1,9,6|0,3:2|0:0,0:0:0:0:
14,117,72547,2,0,L|25:116,1,9,8|0,1:1|0:0,0:0:0:0:
248,31,72714,5,6,3:2:0:0:
230,100,72797,1,0,1:1:0:0:
213,170,72880,1,8,1:1:0:0:
195,239,72964,1,0,1:1:0:0:
135,296,73047,6,0,P|160:273|214:254,1,62.9999980773926,10|0,1:1|0:0,0:0:0:0:
227,174,73214,2,0,P|259:184|302:221,1,67.5000025749208,2|0,1:2|0:0,0:0:0:0:
381,195,73380,2,0,P|387:228|377:284,1,72,2|0,3:2|0:0,0:0:0:0:
213,170,73547,6,0,L|200:168,1,13.5,6|0,3:2|1:1,0:0:0:0:
73,21,73880,6,0,L|64:22,1,9,2|0,1:2|1:1,0:0:0:0:
49,96,74047,1,8,3:2:0:0:
276,17,74214,6,0,L|289:14,1,13.5,6|0,3:2|1:2,0:0:0:0:
227,174,74547,1,0,3:2:0:0:
220,190,74630,1,10,1:1:0:0:
275,98,74714,6,0,B|325:124|378:190|364:241|289:248|289:207|323:195,1,202.500007724762,8|0,3:2|0:0,0:0:0:0:
415,144,75047,5,4,1:1:0:0:
474,193,75130,1,8,1:1:0:0:
508,257,75214,1,8,1:1:0:0:
506,300,75297,1,8,1:1:0:0:
492,321,75380,1,8,1:1:0:0:
472,324,75464,1,10,1:1:0:0:
463,318,75547,1,10,1:1:0:0:
463,310,75630,1,10,1:1:0:0:
467,305,75714,6,0,P|403:319|323:349,2,135.000005149842,10|2|2,0:0|1:2|1:2,0:0:0:0:
348,96,76214,6,0,L|343:66,1,27,6|10,3:2|1:1,0:0:0:0:
138,326,76880,6,0,L|136:340,1,13.5,6|10,3:2|1:1,0:0:0:0:
211,192,77214,1,2,0:0:0:0:
219,172,77297,1,10,1:1:0:0:
144,246,77380,6,0,B|124:251|107:232|107:232|84:245|84:245|67:230|67:230|46:246|14:232,1,135,2|0,0:0|0:0,0:0:0:0:
43,36,77714,6,0,L|54:38,1,9,6|0,3:2|1:1,0:0:0:0:
118,126,77880,2,0,L|128:127,1,9,8|0,1:1|1:1,0:0:0:0:
339,36,78047,5,2,3:2:0:0:
293,34,78130,1,0,1:1:0:0:
251,50,78213,1,2,1:2:0:0:
217,79,78296,1,10,1:1:0:0:
199,153,78380,6,0,P|244:125|278:123,1,62.9999980773926,10|0,1:1|1:2,0:0:0:0:
411,287,78547,2,0,P|364:262|345:233,1,67.5000025749208,2|0,1:2|1:2,0:0:0:0:
269,277,78714,2,0,P|267:224|282:193,1,72,2|0,1:2|1:2,0:0:0:0:
408,85,78880,6,0,L|412:110,1,27,6|10,3:2|1:1,0:0:0:0:
185,318,79547,6,0,L|186:308,1,9,6|10,3:2|1:1,0:0:0:0:
56,176,79714,5,2,1:2:0:0:
76,181,79797,1,10,1:1:0:0:
138,126,79880,5,0,1:2:0:0:
157,120,79963,1,10,1:1:0:0:
199,46,80047,6,0,P|160:23|87:18,1,90,14|8,1:1|1:1,0:0:0:0:
279,220,80214,2,0,P|279:174|247:109,1,90,10|8,1:1|1:1,0:0:0:0:
78,300,80380,6,0,L|98:296,1,18,6|2,3:2|1:2,0:0:0:0:
165,337,80797,1,0,1:2:0:0:
204,342,80880,1,2,1:2:0:0:
243,347,80964,1,0,1:2:0:0:
259,363,81047,6,0,P|292:356|335:327,1,62.9999980773926,8|0,3:2|1:2,0:0:0:0:
405,359,81214,2,0,P|415:326|411:278,1,67.5000025749208,2|0,1:2|1:2,0:0:0:0:
482,235,81380,2,0,P|459:209|412:187,1,72,2|0,1:2|1:2,0:0:0:0:
196,232,81547,6,0,L|201:260,1,27,6|10,3:2|1:1,0:0:0:0:
439,76,82214,6,0,L|441:61,1,13.5,2|0,3:2|1:2,0:0:0:0:
300,165,82547,1,2,1:2:0:0:
284,172,82630,1,0,1:2:0:0:
372,133,82714,6,0,B|334:127|312:100|312:100|280:118|236:105,1,135,2|0,0:0|0:0,0:0:0:0:
53,85,83047,6,0,L|56:100,1,9,2|8,3:2|1:1,0:0:0:0:
289,268,83214,2,0,L|291:282,1,9,10|8,3:2|1:1,0:0:0:0:
181,64,83380,6,0,L|183:79,1,9,2|8,3:2|1:1,0:0:0:0:
21,316,83547,2,0,L|23:329,1,9,10|8,3:2|1:1,0:0:0:0:
262,182,83714,5,10,1:1:0:0:
187,168,83797,1,0,1:2:0:0:
128,217,83880,6,0,P|137:261|167:297,1,72,2|0,1:2|1:2,0:0:0:0:
350,206,84047,2,0,P|392:220|438:212,1,72,10|0,1:1|1:2,0:0:0:0:
472,16,84214,6,0,L|457:18,1,13.5,6|0,3:2|1:2,0:0:0:0:
249,108,84547,6,0,L|258:109,1,9,2|0,1:2|1:2,0:0:0:0:
334,125,84714,1,10,1:1:0:0:
283,348,84880,6,0,L|280:362,1,13.5,2|0,3:2|1:2,0:0:0:0:
350,206,85214,1,0,1:2:0:0:
365,192,85297,1,2,0:0:0:0:
299,274,85380,6,0,P|254:233|202:174,1,135,2|0,0:0|0:0,0:0:0:0:
42,100,85714,6,0,B|96:51|161:98|164:100|168:102|202:129|251:115|251:115|339:91|308:-24|134:-14|196:120|170:285|354:292|438:237|445:134|361:125|350:199,1,720,2|0,0:0|0:0,0:0:0:0:
