osu file format v14

[General]
AudioFilename: audio.mp3
AudioLeadIn: 0
PreviewTime: 62964
Countdown: 0
SampleSet: Soft
StackLeniency: 0.6
Mode: 0
LetterboxInBreaks: 0
WidescreenStoryboard: 0

[Editor]
Bookmarks: 21728,43061
DistanceSpacing: 1.1
BeatDivisor: 4
GridSize: 8
TimelineZoom: 2.899999

[Metadata]
Title:Share the light (TV Size)
TitleUnicode:Share the light (TV Size)
Artist:Run Girls, Run!
ArtistUnicode:Run Girls, Run!
Creator:Smoke
Version:Bellicose's Insane
Source:アサシンズプライド
Tags:pop jpop j-pop japanese anime opening op 1 assassins pride asasinzu puraido Kufa Vampir Kūfa Vanpīru クーファ=ヴァンピール Melida Angel Merida Anjeru メリダ=アンジェル [Kurose Riku] [Mad] bellicose attendant
BeatmapID:2276450
BeatmapSetID:1056891

[Difficulty]
HPDrainRate:5
CircleSize:4
OverallDifficulty:8
ApproachRate:9
SliderMultiplier:1.7
SliderTickRate:1

[Events]
//Background and Video events
0,0,"bg2.jpg",0,0
Video,-512,"video.mp4"
//Break Periods
2,21914,29114
//Storyboard Layer 0 (Background)
//Storyboard Layer 1 (Fail)
//Storyboard Layer 2 (Pass)
//Storyboard Layer 3 (Foreground)
//Storyboard Layer 4 (Overlay)
//Storyboard Sound Samples

[TimingPoints]
381,333.333333333333,4,2,4,45,1,0
381,-100,4,2,4,45,0,0
5714,-100,4,2,4,55,0,0
7047,-100,4,2,4,65,0,0
7547,-83.3333333333333,4,2,4,55,0,0
8380,-83.3333333333333,4,2,4,50,0,0
8714,-83.3333333333333,4,2,4,55,0,0
9047,-83.3333333333333,4,2,4,60,0,0
9380,-83.3333333333333,4,2,4,65,0,0
9714,-83.3333333333333,4,2,4,35,0,0
10380,-100,4,2,1,75,0,0
10714,-142.857142857143,4,2,1,75,0,0
10964,-100,4,2,11,5,0,0
11047,-66.6666666666667,4,2,14,75,0,1
11130,-100,4,2,1,75,0,1
11380,-100,4,2,1,75,0,1
11714,-100,4,2,1,75,0,0
12214,-100,4,2,1,75,0,1
12630,-100,4,2,1,75,0,1
12714,-100,4,2,1,75,0,0
12880,-66.6666666666667,4,2,1,75,0,1
13380,-100,4,2,1,45,0,0
13630,-100,4,2,11,5,0,0
13714,-66.6666666666667,4,2,1,75,0,1
14380,-100,4,2,1,75,0,0
14880,-100,4,2,1,75,0,1
15297,-100,4,2,1,75,0,1
15380,-100,4,2,1,75,0,0
15547,-66.6666666666667,4,2,1,75,0,1
16047,-100,4,2,1,55,0,0
16380,-66.6666666666667,4,2,1,75,0,1
16714,-100,4,2,1,75,0,1
17047,-100,4,2,1,75,0,0
17547,-100,4,2,1,75,0,1
17964,-100,4,2,1,75,0,1
18047,-100,4,2,1,75,0,0
18214,-66.6666666666667,4,2,1,75,0,1
18714,-100,4,2,1,45,0,0
18964,-100,4,2,11,5,0,0
19047,-66.6666666666667,4,2,1,75,0,1
19714,-100,4,2,1,75,0,0
20214,-76.9230769230769,4,2,1,75,0,1
20714,-100,4,2,1,75,0,0
20880,-66.6666666666667,4,2,1,75,0,1
21214,-125,4,2,1,75,0,0
21380,-100,4,2,1,55,0,0
21630,-100,4,2,1,55,0,0
21714,-100,4,2,1,35,0,0
30714,-100,4,2,1,35,0,0
30797,-100,4,2,1,35,0,0
32380,-133.333333333333,4,2,1,35,0,0
41630,-100,4,2,1,35,0,0
41714,-100,4,2,1,35,0,0
42380,-181.818181818181,4,2,1,35,0,0
43047,-100,4,2,1,55,0,0
53714,-90.9090909090909,4,2,1,65,0,0
59047,-90.9090909090909,4,2,1,65,0,0
61714,-90.9090909090909,4,2,1,70,0,0
63047,-100,4,2,1,75,0,0
64047,-100,4,2,1,75,0,0
64297,-100,4,2,1,75,0,0
64380,-66.6666666666667,4,2,14,85,0,1
64422,-66.6666666666667,4,2,1,85,0,1
65047,-100,4,2,1,85,0,0
65464,-100,4,2,1,5,0,0
65547,-66.6666666666667,4,2,1,85,0,1
66047,-100,4,2,1,85,0,0
66214,-66.6666666666667,4,2,1,85,0,1
66714,-100,4,2,1,45,0,0
66964,-100,4,2,11,5,0,0
67047,-66.6666666666667,4,2,1,85,0,1
67714,-100,4,2,1,85,0,0
68130,-100,4,2,1,5,0,0
68214,-66.6666666666667,4,2,1,85,0,1
68714,-100,4,2,1,85,0,0
68880,-100,4,2,1,85,0,1
69380,-100,4,2,1,85,0,0
69714,-66.6666666666667,4,2,1,85,0,1
70214,-66.6666666666667,4,2,1,85,0,0
70547,-100,4,2,1,85,0,0
70797,-100,4,2,1,5,0,0
70880,-66.6666666666667,4,2,1,85,0,1
71380,-100,4,2,1,85,0,0
71547,-66.6666666666667,4,2,1,85,0,1
72047,-100,4,2,1,55,0,0
72297,-100,4,2,11,5,0,0
72380,-66.6666666666667,4,2,1,85,0,1
73047,-100,4,2,1,85,0,0
73547,-66.6666666666667,4,2,1,85,0,1
74047,-66.6666666666667,4,2,1,85,0,0
74214,-66.6666666666667,4,2,1,85,0,1
74714,-100,4,2,1,85,0,0
74964,-100,4,2,1,85,0,0
75047,-100,4,2,4,85,0,0
75130,-100,4,2,1,85,0,0
75380,-100,4,2,4,85,0,0
75464,-100,4,2,1,85,0,0
75714,-333.333333333333,4,2,1,85,0,0
76214,-66.6666666666667,4,2,14,85,0,1
76297,-100,4,2,1,85,0,1
76714,-100,4,2,1,85,0,0
76880,-66.6666666666667,4,2,1,85,0,1
77380,-100,4,2,1,45,0,0
77630,-100,4,2,11,5,0,0
77714,-66.6666666666667,4,2,1,85,0,1
78380,-100,4,2,1,85,0,0
78797,-100,4,2,1,5,0,0
78880,-66.6666666666667,4,2,1,85,0,1
79380,-66.6666666666667,4,2,1,85,0,0
79547,-100,4,2,1,85,0,1
80047,-100,4,2,1,85,0,0
80380,-66.6666666666667,4,2,1,85,0,1
81047,-100,4,2,1,85,0,0
81464,-100,4,2,1,5,0,0
81547,-66.6666666666667,4,2,1,85,0,1
82047,-100,4,2,1,85,0,0
82214,-66.6666666666667,4,2,1,85,0,1
82714,-100,4,2,1,45,0,0
83047,-66.6666666666667,4,2,1,85,0,1
83714,-66.6666666666667,4,2,1,85,0,0
84214,-66.6666666666667,4,2,1,85,0,1
84714,-100,4,2,1,85,0,0
84880,-66.6666666666667,4,2,1,85,0,1
85130,-100,4,2,1,5,0,0
85214,-100,4,2,1,85,0,0
85630,-100,4,2,1,85,0,0
85714,-100,4,2,1,25,0,0
87380,-100,4,2,1,35,0,0
87714,-100,4,2,1,45,0,0
88047,-100,4,2,1,55,0,0
88380,-100,4,2,1,65,0,0

[Colours]
Combo1 : 221,81,81
Combo2 : 124,85,215
Combo3 : 105,131,231
Combo4 : 233,228,58

[HitObjects]
83,53,381,6,0,L|105:151,1,85,14|0,0:0|0:0,0:0:0:0:
18,207,714,1,10,0:0:0:0:
75,293,880,2,0,B|178:284|139:349|237:330,1,170,2|2,0:0|0:0,0:0:0:0:
342,376,1380,1,8,0:0:0:0:
432,286,1547,6,0,P|413:213|314:212,1,170,2|2,0:0|0:0,0:0:0:0:
220,252,2047,1,8,0:0:0:0:
141,163,2214,2,0,B|156:101|156:101|199:76|199:76|214:14,1,170,2|2,0:0|0:0,0:0:0:0:
87,69,2714,1,8,0:0:0:0:
235,160,2880,1,0,3:2:0:0:
220,252,3047,6,0,B|119:237|171:311|42:287,1,170,10|10,0:0|0:0,0:0:0:0:
176,372,3547,2,0,L|350:347,1,170,2|2,0:0|0:0,0:0:0:0:
462,362,4047,1,8,0:0:0:0:
507,247,4214,6,0,L|333:222,1,170,2|2,0:0|0:0,0:0:0:0:
255,98,4880,1,2,0:0:0:0:
364,120,5047,5,8,0:0:0:0:
364,120,5130,2,0,L|369:47,1,42.5,2|0,0:0|0:0,0:0:0:0:
232,200,5380,5,8,0:0:0:0:
232,200,5463,2,0,L|227:273,1,42.5,2|0,0:0|3:2,0:0:0:0:
89,61,5714,6,0,L|274:102,1,170,6|10,3:2|3:2,0:0:0:0:
147,205,6214,2,0,L|233:199,1,85,2|8,0:0|3:2,0:0:0:0:
90,343,6547,2,0,L|203:320,1,85,2|8,0:0|3:2,0:0:0:0:
48,188,6880,6,0,B|2:196|2:196|54:207,1,85,2|8,0:0|3:2,0:0:0:0:
231,223,7214,1,2,3:2:0:0:
81,317,7380,1,8,3:2:0:0:
212,105,7547,6,0,P|257:107|318:97,1,101.999996887207,2|8,3:2|3:2,0:0:0:0:
308,343,7880,2,0,P|263:341|202:351,1,101.999996887207,2|8,3:2|3:2,0:0:0:0:
399,236,8214,1,0,3:2:0:0:
231,223,8380,6,0,L|321:230,1,50.9999984436036,14|0,3:2|3:2,0:0:0:0:
425,154,8547,2,0,L|335:161,1,50.9999984436036,10|0,3:2|3:2,0:0:0:0:
168,225,8714,6,0,L|258:232,1,50.9999984436036,14|0,3:2|3:2,0:0:0:0:
488,155,8880,2,0,L|398:162,1,50.9999984436036,10|0,3:2|3:2,0:0:0:0:
293,147,9047,6,0,L|297:97,1,50.9999984436036,14|0,3:2|3:2,0:0:0:0:
362,240,9214,2,0,L|366:291,1,50.9999984436036,14|0,3:2|3:2,0:0:0:0:
291,84,9381,6,0,L|295:34,1,50.9999984436036,14|0,3:2|3:2,0:0:0:0:
361,303,9547,2,0,L|365:354,1,50.9999984436036,14|0,3:2|3:2,0:0:0:0:
150,83,10380,5,10,3:2:0:0:
150,83,10464,1,2,3:3:0:0:
150,83,10547,1,8,3:3:0:0:
150,83,10630,1,4,3:3:0:0:
150,83,10714,2,0,P|112:123|70:108,1,89.2499972763062,10|0,3:2|0:0,0:0:0:0:
68,107,11047,6,0,P|158:91|225:259,1,255.000009727478,4|8,3:2|1:1,0:0:0:0:
79,329,11547,1,8,1:1:0:0:
79,329,11630,1,0,1:2:0:0:
79,329,11714,6,0,L|59:224,1,85,8|2,3:2|3:0,0:0:0:0:
233,308,12047,1,2,3:0:0:0:
217,113,12214,6,0,P|147:139|257:183,1,255,6|10,3:2|1:1,0:0:0:0:
368,374,12880,6,0,P|428:309|342:281,1,191.250007295609,6|8,3:2|1:1,0:0:0:0:
219,337,13297,1,8,1:1:0:0:
219,337,13380,2,0,L|242:203,1,127.5,2|0,0:0|0:0,0:0:0:0:
460,100,13714,6,0,L|450:208,1,63.7500024318696,6|0,3:2|1:1,0:0:0:0:
360,270,13880,2,0,L|354:206,1,63.7500024318696,2|0,1:2|1:1,0:0:0:0:
445,77,14047,6,0,L|435:185,1,63.7500024318696,6|0,3:2|1:1,0:0:0:0:
345,247,14213,2,0,L|339:183,1,63.7500024318696,8|10,1:1|1:1,0:0:0:0:
465,307,14380,1,10,3:2:0:0:
210,260,14547,5,2,3:2:0:0:
336,142,14714,1,2,3:2:0:0:
239,347,14880,6,0,B|165:368|126:303|126:303|63:278|-10:329,1,255,6|8,3:2|3:2,0:0:0:0:
110,101,15547,6,0,P|150:166|63:180,1,191.250007295609,6|0,3:2|1:1,0:0:0:0:
218,251,15964,2,0,L|292:234,1,63.7500024318696,0|14,1:1|1:1,0:0:0:0:
414,297,16130,1,0,1:1:0:0:
427,298,16213,1,2,1:2:0:0:
440,299,16297,1,2,1:2:0:0:
478,333,16380,6,0,P|393:261|506:241,1,255.000009727478,6|8,3:2|1:1,0:0:0:0:
461,228,16797,1,0,1:2:0:0:
424,215,16880,1,0,1:2:0:0:
398,180,16964,1,0,1:2:0:0:
406,129,17047,1,10,3:2:0:0:
264,102,17214,5,2,3:2:0:0:
465,70,17380,1,2,3:2:0:0:
171,68,17547,6,0,B|190:159|190:159|229:180|229:180|258:296,1,255,6|8,3:2|3:2,0:0:0:0:
47,312,18214,6,0,P|-3:266|84:237,1,191.250007295609,6|8,3:2|1:1,0:0:0:0:
189,178,18630,1,8,1:1:0:0:
189,178,18714,2,0,L|163:315,1,127.5,2|0,0:0|0:0,0:0:0:0:
67,62,19047,6,0,L|-28:54,1,63.7500024318696,6|0,3:2|1:1,0:0:0:0:
189,178,19214,2,0,L|284:170,1,63.7500024318696,2|0,1:2|1:1,0:0:0:0:
82,87,19380,6,0,L|-13:79,1,63.7500024318696,6|0,3:2|1:1,0:0:0:0:
204,203,19547,2,0,L|299:195,1,63.7500024318696,8|10,1:1|1:1,0:0:0:0:
53,250,19714,1,10,3:2:0:0:
218,298,19880,5,2,3:2:0:0:
167,94,20047,1,2,3:2:0:0:
228,329,20214,6,0,P|345:323|301:253,1,220.999989883423,6|6,3:2|3:2,0:0:0:0:
56,264,20714,1,8,3:2:0:0:
56,264,20880,6,0,P|11:226|87:142,1,191.250007295609,2|10,3:2|1:1,0:0:0:0:
141,210,21214,6,0,B|270:201|183:286|347:265,1,204,2|2,3:2|0:0,0:0:0:0:
256,192,29714,12,2,31047,0:0:0:0:
53,221,32380,6,0,B|52:123|144:80|144:80|203:175|150:252|150:252|175:333|263:330,1,510.000019454957,2|2,0:0|0:0,0:0:0:0:
411,37,35047,6,0,B|392:107|454:163|454:163|415:232|413:304|413:304|379:240|311:205|311:205|324:164|304:125,1,510.000019454957,2|2,0:0|0:0,0:0:0:0:
43,281,37714,6,0,B|171:283|107:366|249:345|249:345|195:281|275:153|420:262|339:353,1,510.000019454957,2|2,0:0|0:0,0:0:0:0:
102,44,40380,6,0,B|137:94|121:133|121:133|147:169|192:175|192:175|100:204|59:271|88:375|229:381|248:298,1,510.000019454957,2|2,0:0|0:0,0:0:0:0:
401,335,42380,6,0,L|219:318,1,163.625004993439,2|0,0:0|0:0,0:0:0:0:
213,274,43047,6,0,P|184:328|68:319,2,170,0|8|2,3:2|3:2|3:2,0:0:0:0:
151,192,43880,1,10,1:1:0:0:
151,192,44047,2,0,P|133:132|147:106,1,85,8|10,3:2|1:1,0:0:0:0:
342,132,44380,6,0,L|233:145,1,85,2|10,3:2|1:1,0:0:0:0:
220,147,44630,1,10,1:1:0:0:
220,147,44714,1,8,3:2:0:0:
382,261,44880,1,10,1:1:0:0:
382,261,45047,2,0,P|338:323|425:352,1,170,2|8,3:2|3:2,0:0:0:0:
510,181,45547,1,10,1:1:0:0:
510,181,45630,1,0,1:1:0:0:
510,181,45714,6,0,L|387:165,1,85,2|10,3:2|1:1,0:0:0:0:
265,91,46047,2,0,P|351:99|376:17,2,170,8|0|10,3:2|3:2|3:2,0:0:0:0:
172,60,46880,1,10,1:1:0:0:
172,60,47047,6,0,B|181:130|181:130|193:141|193:141|207:238,1,170,0|8,3:2|3:2,0:0:0:0:
73,351,47547,1,10,1:1:0:0:
73,351,47714,2,0,P|42:323|71:286,1,85,0|10,3:2|1:1,0:0:0:0:
204,223,48047,2,0,P|220:186|189:161,1,85,2|2,1:2|1:2,0:0:0:0:
188,327,48380,6,0,B|296:326|247:263|380:269,1,170,2|8,3:2|3:2,0:0:0:0:
443,344,48880,1,10,1:1:0:0:
443,344,49047,2,0,P|395:302|445:215,1,170,2|8,3:2|3:2,0:0:0:0:
342,113,49547,1,8,1:1:0:0:
475,81,49714,5,2,3:2:0:0:
309,125,49880,1,10,1:1:0:0:
309,125,49964,1,10,1:1:0:0:
309,125,50047,2,0,P|320:199|322:241,1,85,8|10,3:2|1:1,0:0:0:0:
184,323,50380,2,0,P|188:280|195:238,1,85,2|10,3:2|1:1,0:0:0:0:
346,334,50714,1,8,3:2:0:0:
358,335,50797,1,0,1:1:0:0:
370,336,50880,1,8,1:1:0:0:
382,338,50964,1,0,1:1:0:0:
397,342,51047,6,0,L|286:362,1,85,0|10,3:2|1:1,0:0:0:0:
100,307,51380,2,0,L|211:327,1,85,8|10,3:2|1:1,0:0:0:0:
348,220,51714,5,0,3:2:0:0:
277,248,51880,1,10,1:1:0:0:
222,193,52047,1,8,3:2:0:0:
292,162,52214,1,10,1:1:0:0:
292,162,52297,1,8,1:1:0:0:
292,162,52380,6,0,L|400:170,1,85,2|10,3:2|1:1,0:0:0:0:
454,180,52630,1,10,1:1:0:0:
454,180,52714,2,0,L|447:300,1,85,8|10,3:2|1:1,0:0:0:0:
417,105,53047,5,0,3:2:0:0:
418,92,53130,1,10,1:1:0:0:
420,79,53214,1,10,1:1:0:0:
277,248,53380,5,8,3:2:0:0:
276,261,53463,1,10,1:1:0:0:
274,274,53547,1,10,1:1:0:0:
220,62,53714,6,0,P|169:90|97:79,1,93.5000028533936,4|8,3:2|1:1,0:0:0:0:
24,69,54047,2,0,P|108:106|58:210,1,187.000005706787,8|2,3:2|3:2,0:0:0:0:
18,311,54547,1,10,1:1:0:0:
18,311,54714,2,0,L|149:321,1,93.5000028533936,8|0,3:2|0:0,0:0:0:0:
339,251,55047,6,0,L|208:261,1,93.5000028533936,2|10,3:2|1:1,0:0:0:0:
172,265,55297,1,10,1:1:0:0:
172,265,55380,1,8,3:2:0:0:
313,151,55547,1,10,1:1:0:0:
313,151,55714,2,0,P|325:103|296:61,1,93.5000028533936,2|10,3:2|1:1,0:0:0:0:
129,17,56047,2,0,P|172:-4|220:14,1,93.5000028533936,8|10,3:2|1:1,0:0:0:0:
63,241,56380,6,0,P|28:205|32:155,1,93.5000028533936,6|8,3:2|1:1,0:0:0:0:
172,93,56714,2,0,P|200:146|144:287,1,187.000005706787,8|0,3:2|3:0,0:0:0:0:
63,241,57214,1,10,1:1:0:0:
250,337,57380,5,10,3:2:0:0:
148,379,57547,1,0,0:0:0:0:
368,292,57714,5,0,3:2:0:0:
259,241,57880,2,0,L|208:217,2,46.7500014266968,10|10|8,1:1|1:1|3:2,0:0:0:0:
396,305,58214,1,10,1:1:0:0:
399,214,58380,5,0,3:2:0:0:
331,366,58547,1,10,1:1:0:0:
415,176,58714,5,2,3:2:0:0:
483,328,58881,1,2,1:2:0:0:
165,246,59047,6,0,L|296:238,1,93.5000028533936,6|8,3:2|1:1,0:0:0:0:
55,341,59380,2,0,L|186:333,1,93.5000028533936,8|10,3:2|1:1,0:0:0:0:
139,220,59714,5,0,3:2:0:0:
173,353,59880,1,10,1:1:0:0:
153,196,60047,5,8,3:2:0:0:
187,329,60213,1,8,1:1:0:0:
359,104,60380,6,0,L|228:96,1,93.5000028533936,2|10,3:2|1:1,0:0:0:0:
469,199,60713,2,0,L|338:191,1,93.5000028533936,8|10,3:2|1:1,0:0:0:0:
385,78,61047,5,0,3:2:0:0:
351,211,61213,1,10,1:1:0:0:
371,54,61380,5,8,3:2:0:0:
337,187,61546,1,10,1:1:0:0:
129,90,61714,6,0,P|180:105|192:127,3,46.7500014266968,2|0|0|0,3:2|3:2|3:2|3:2,0:0:0:0:
205,145,62047,2,0,P|190:196|168:208,3,46.7500014266968,0|0|0|0,3:2|3:2|3:2|3:2,0:0:0:0:
150,223,62380,1,0,3:2:0:0:
126,208,62463,1,0,3:2:0:0:
98,204,62546,1,0,3:2:0:0:
72,213,62630,1,0,3:2:0:0:
52,232,62713,1,0,3:2:0:0:
42,258,62796,1,0,3:2:0:0:
45,286,62880,1,0,3:2:0:0:
59,310,62963,1,0,3:2:0:0:
82,326,63046,5,10,1:1:0:0:
198,301,63214,6,0,L|238:300,4,21.25,10|10|10|10|2,1:1|1:1|1:1|1:1|1:1,0:0:0:0:
298,284,63492,6,0,L|287:378,1,56.6666666666667,2|2,1:1|1:1,0:0:0:0:
322,376,63714,1,8,1:2:0:0:
368,372,63797,1,2,3:3:0:0:
414,369,63880,1,8,3:3:0:0:
461,367,63964,1,4,3:3:0:0:
507,362,64047,1,10,3:2:0:0:
389,73,64380,6,0,P|373:143|225:104,1,255.000009727478,4|0,3:2|1:1,0:0:0:0:
227,116,64797,1,0,1:0:0:0:
227,116,64880,2,0,P|277:166|269:217,1,127.500004863739,0|10,1:1|3:2,0:0:0:0:
92,383,65214,6,0,P|45:344|65:264,1,127.5,2|0,0:0|0:0,0:0:0:0:
102,227,65547,6,0,B|193:245|193:245|216:288|216:288|346:314,1,255.000009727478,6|2,3:2|0:0,0:0:0:0:
354,131,66047,1,8,3:2:0:0:
354,131,66214,2,0,P|291:111|312:203,1,191.250007295609,2|8,3:2|1:1,0:0:0:0:
393,222,66547,1,2,0:0:0:0:
393,222,66630,1,8,1:1:0:0:
393,222,66714,6,0,P|328:239|319:304,1,127.5,2|0,0:0|0:0,0:0:0:0:
122,312,67047,6,0,P|174:239|62:140,1,255.000009727478,6|2,3:2|3:2,0:0:0:0:
75,137,67464,1,0,1:0:0:0:
75,137,67547,2,0,P|146:165|194:128,1,127.500004863739,10|8,1:1|3:2,0:0:0:0:
410,198,67880,6,0,P|339:170|291:207,1,127.500004863739,2|0,3:2|0:0,0:0:0:0:
323,269,68214,6,0,P|444:219|384:155,1,255.000009727478,6|2,3:2|1:2,0:0:0:0:
242,306,68714,1,10,1:1:0:0:
242,306,68880,1,2,3:2:0:0:
296,174,69047,5,2,1:2:0:0:
296,174,69130,2,0,L|302:111,1,42.5,8|0,1:1|0:0,0:0:0:0:
139,278,69380,5,14,1:1:0:0:
139,278,69463,2,0,L|145:341,1,42.5,8|0,1:1|1:1,0:0:0:0:
183,105,69714,6,0,P|129:146|41:26,1,255.000009727478,6|2,3:2|1:2,0:0:0:0:
39,28,70130,1,0,1:0:0:0:
39,28,70214,2,0,P|61:84|18:152,1,127.500004863739,2|8,1:2|3:2,0:0:0:0:
108,375,70547,6,0,P|80:319|101:261,1,127.500004863739,2|0,3:2|0:0,0:0:0:0:
171,314,70880,6,0,B|244:328|290:282|284:270|276:259|341:218|425:246,1,255.000009727478,6|2,3:2|0:0,0:0:0:0:
201,222,71380,1,8,3:2:0:0:
201,222,71547,2,0,L|5:196,1,191.250007295609,6|8,3:2|1:1,0:0:0:0:
0,100,71880,1,2,0:0:0:0:
0,100,71964,1,8,1:1:0:0:
0,100,72047,6,0,P|44:69|124:93,1,127.5,2|0,0:0|0:0,0:0:0:0:
309,48,72380,6,0,P|277:109|301:171,1,127.500004863739,6|0,3:2|0:0,0:0:0:0:
459,185,72714,2,0,P|491:124|467:62,1,127.500004863739,6|8,3:2|1:1,0:0:0:0:
304,187,73047,5,10,1:1:0:0:
461,50,73214,1,2,1:2:0:0:
279,211,73380,1,2,3:2:0:0:
481,358,73547,6,0,B|368:338|368:338|362:329|362:329|230:304,1,255.000009727478,6|2,3:2|1:2,0:0:0:0:
509,206,74047,1,8,3:2:0:0:
509,206,74214,2,0,P|478:259|431:144,1,255.000009727478,6|0,3:2|3:2,0:0:0:0:
466,108,74630,1,10,1:1:0:0:
466,108,74714,1,8,3:2:0:0:
178,30,75047,5,4,1:1:0:0:
214,64,75130,1,8,1:1:0:0:
234,101,75214,1,8,1:1:0:0:
238,138,75297,1,8,1:1:0:0:
225,169,75380,1,8,1:1:0:0:
198,183,75464,1,10,1:1:0:0:
172,180,75547,1,10,1:1:0:0:
155,166,75630,1,10,1:1:0:0:
148,149,75714,6,0,P|156:128|158:126,2,25.4999992218018,10|2|2,0:0|1:2|1:2,0:0:0:0:
210,309,76214,6,0,B|45:264|45:264|10:315|59:359,1,255.000009727478,6|2,3:2|1:2,0:0:0:0:
301,256,76714,1,10,1:1:0:0:
301,256,76880,2,0,B|362:282|408:248|407:220|407:220|381:233|389:281,1,191.250007295609,6|10,3:2|1:1,0:0:0:0:
438,346,77214,1,2,0:0:0:0:
438,346,77297,1,10,1:1:0:0:
438,346,77380,6,0,P|492:307|484:225,1,127.5,2|0,0:0|0:0,0:0:0:0:
282,79,77714,6,0,P|379:125|472:10,1,255.000009727478,6|2,3:2|3:2,0:0:0:0:
472,32,78130,1,0,1:0:0:0:
472,32,78214,2,0,P|438:86|462:145,1,127.500004863739,2|10,1:2|1:1,0:0:0:0:
407,357,78547,6,0,P|440:302|416:243,1,127.500004863739,2|0,1:2|0:0,0:0:0:0:
345,291,78880,6,0,B|279:314|236:268|236:268|216:278|216:278|172:229|98:250,1,255.000009727478,6|2,3:2|1:2,0:0:0:0:
306,213,79380,1,10,1:1:0:0:
306,213,79547,1,6,3:2:0:0:
207,102,79714,5,2,1:2:0:0:
207,102,79797,2,0,L|218:32,1,42.5,10|0,1:1|1:2,0:0:0:0:
106,205,80047,5,14,1:1:0:0:
106,205,80130,2,0,L|117:275,1,42.5,8|10,1:1|1:1,0:0:0:0:
390,138,80380,6,0,P|298:169|381:278,1,255.000009727478,6|2,3:2|1:2,0:0:0:0:
362,288,80797,1,0,1:0:0:0:
362,288,80880,2,0,P|298:230|253:236,1,127.500004863739,2|8,1:2|3:2,0:0:0:0:
23,308,81214,6,0,P|87:366|132:360,1,127.500004863739,2|0,1:2|0:0,0:0:0:0:
184,303,81547,6,0,B|169:209|169:209|190:169|190:169|173:52,1,255.000009727478,6|2,3:2|1:2,0:0:0:0:
10,183,82047,1,10,1:1:0:0:
10,183,82214,2,0,B|-27:138|-27:138|120:155,1,191.250007295609,2|0,3:2|1:2,0:0:0:0:
188,169,82547,1,2,1:2:0:0:
188,169,82630,1,0,1:2:0:0:
188,169,82714,2,0,L|202:259,1,85,2|2,0:0|0:0,0:0:0:0:
306,154,83047,6,0,L|310:90,1,63.7500024318696,2|8,3:2|1:1,0:0:0:0:
374,220,83214,2,0,L|378:283,1,63.7500024318696,10|8,3:2|1:1,0:0:0:0:
302,90,83381,6,0,L|307:26,1,63.7500024318696,2|0,3:2|0:0,0:0:0:0:
373,283,83547,2,0,L|377:346,1,63.7500024318696,10|8,3:2|1:1,0:0:0:0:
386,139,83714,6,0,L|452:143,1,63.7500024318696,10|0,1:1|1:2,0:0:0:0:
293,221,83881,2,0,L|227:226,1,63.7500024318696,2|0,1:2|1:2,0:0:0:0:
449,137,84048,6,0,L|514:141,1,63.7500024318696,10|0,1:1|0:0,0:0:0:0:
230,220,84214,2,0,P|183:154|308:94,1,255.000009727478,6|2,3:2|1:2,0:0:0:0:
170,346,84714,1,10,1:1:0:0:
170,346,84880,2,0,P|144:282|18:324,1,191.250007295609,2|0,3:2|0:0,0:0:0:0:
0,361,85214,2,0,P|44:255|32:145,1,212.5,2|0,0:0|0:0,0:0:0:0:
8,78,85714,5,2,0:0:0:0:
256,192,85797,12,0,88380,0:0:0:0:
