osu file format v14

[General]
AudioFilename: audio.mp3
AudioLeadIn: 0
PreviewTime: 208115
Countdown: 0
SampleSet: Soft
StackLeniency: 0.7
Mode: 0
LetterboxInBreaks: 0
WidescreenStoryboard: 1

[Editor]
Bookmarks: 642,9484,34589,39326,51642,52273,85747,91589,91668,91747,91826,91905,91984,92063,92142,92220,92299,92378,92457,92536,92615,92694,92773,92852,92931,93010,93089,93168,93247,93326,93405,93484,93563,93642,93720,93799,93878,93957,94036,94115,94194,94273,94352,94431,94510,94589,94668,94747,94826,94905,94984,95063,95142,95220,95299,95378,95457,95536,95615,95694,95773,95852,95931,96010,96089,96168,96247,96326,96405,96484,96563,96642,96720,96799,96878,96957,97036,97115,97194,97273,97352,97431,97510,97589,97668,97747,97826,97905,97984,98063,98142,98220,98299,98378,98457,98536,98615,98694,98773,98852,98931,99010,99089,99168,99247,99326,99405,99484,99563,99642,99720,99799,99878,99957,100036,100115,100194,100273,100352,100431,100510,100589,100668,100747,100826,100905,100984,101063,101142,101220,101299,101378,101457,101536,114010,116063,121431,129326,133747,135247,158063,167378,167457,167536,167615,167694,167773,167852,167931,168010,168089,168168,168247,168326,168405,168484,168563,168642,168720,168799,168878,168957,169036,169115,169194,169273,169352,169431,169510,169589,169668,169747,169826,169905,169984,170063,170142,170220,170299,170378,170457,170536,170615,170694,170773,170852,170931,171010,171089,171168,171247,171326,171405,171484,171563,171642,171720,171799,171878,171957,172036,172115,172194,172273,172352,172431,172510,172589,172668,172747,172826,172905,172984,173063,173142,173220,173299,173378,173457,173536,173615,173694,173773,173852,173931,174010,174089,174168,174247,174326,174405,174484,174563,174642,174720,174799,174878,174957,175036,175115,175194,175273,175352,175431,175510,175589,175668,175747,175826,175905,175984,176063,176142,176220,176299,176378,176457,176536,176615,176694,176773,176852,176931,177010,177089,177168,177247,177326,177405,177484,177563,177642,177720,177799,177878,177957,178036,178115,178194,178273,178352,178431,178510,178589,178668,178747,178826,178905,178984,179063,179142,179220,179299,179378,179457,179536,179615,179694,179773,179852,179931,180010,180089,180168,180247,180326,180405,180484,180563,180642,180720,180799,180878,180957,181036,181115,181194,181273,181352,181431,181510,181589,181668,181747,181826,181905,181984,182063,182142,182220,182299,182378,182457,182536,213799,234010,239220
DistanceSpacing: 1.1
BeatDivisor: 4
GridSize: 4
TimelineZoom: 2.4

[Metadata]
Title:Diamond Smile
TitleUnicode:ダイヤモンドスマイル
Artist:Run Girls, Run!
ArtistUnicode:Run Girls, Run!
Creator:Sekai
Version:Fly High!
Source:キラッとプリ☆チャン
Tags:Sekaii Sekai-nyan Astromi Mrgglock leomine leominexd NakaRoniX pop jpop j-pop japanese Coco Hayashi 林鼓子 Nanami Atsugi 厚木那奈美 Yuuka Morishima 森嶋 優花 Kiratto Puri☆Chan Pri☆Chan Pri Chan PriPara Prism Paradise プリパラ Anime idols female vocalists vocals
BeatmapID:4470232
BeatmapSetID:1856102

[Difficulty]
HPDrainRate:6
CircleSize:4
OverallDifficulty:8.8
ApproachRate:9.3
SliderMultiplier:1.6
SliderTickRate:1

[Events]
//Background and Video events
Video,-3500,"Video (3).mp4"
0,0,"Sekaibg.jpg",0,0
//Break Periods
2,91589,100982
2,169905,179456
//Storyboard Layer 0 (Background)
//Storyboard Layer 1 (Fail)
//Storyboard Layer 2 (Pass)
//Storyboard Layer 3 (Foreground)
//Storyboard Layer 4 (Overlay)
//Storyboard Sound Samples

[TimingPoints]
642,315.789473684211,4,2,1,80,1,0
1905,-100,4,2,1,80,0,0
2220,-100,4,2,1,80,0,0
3799,-100,4,2,1,80,0,0
5852,-100,4,2,1,80,0,0
8378,-100,4,2,1,80,0,0
9484,-100,4,2,1,75,0,0
12326,-100,4,2,1,75,0,0
13273,-100,4,2,1,75,0,0
13589,-100,4,2,1,75,0,0
15799,-100,4,2,1,75,0,0
17378,-100,4,2,1,75,0,0
18326,-100,4,2,1,75,0,0
20378,-100,4,2,1,75,0,0
21010,-100,4,2,1,75,0,0
22115,-100,4,2,1,75,0,0
22905,-100,4,2,1,75,0,0
24010,-100,4,2,1,75,0,0
25273,-100,4,2,1,75,0,0
26220,-100,4,2,1,75,0,0
27168,-100,4,2,1,75,0,0
27484,-100,4,2,1,75,0,0
28273,-100,4,2,1,78,0,0
28589,-100,4,2,1,78,0,0
29694,-111.111111111111,4,2,1,70,0,0
30957,-111.111111111111,4,2,1,70,0,0
32220,-111.111111111111,4,2,1,70,0,0
32536,-111.111111111111,4,2,1,70,0,0
34430,-111.111111111111,4,2,1,70,0,0
34747,-100,4,2,1,75,0,0
35536,-100,4,2,1,75,0,0
36799,-100,4,2,1,75,0,0
37589,-100,4,2,1,75,0,0
38693,-100,4,2,1,75,0,0
38852,-100,4,2,1,75,0,0
39799,-100,4,2,1,78,0,0
40115,-100,4,2,1,78,0,0
40431,-100,4,2,1,78,0,0
41063,-133.333333333333,4,2,1,78,0,0
42326,-90.9090909090909,4,2,1,85,0,1
43747,-90.9090909090909,4,2,1,85,0,1
45168,-90.9090909090909,4,2,1,85,0,1
46273,-90.9090909090909,4,2,1,85,0,1
47220,-90.9090909090909,4,2,1,85,0,1
47378,-90.9090909090909,4,2,1,85,0,1
48957,-90.9090909090909,4,2,1,85,0,1
51957,-90.9090909090909,4,2,1,85,0,1
52115,-90.9090909090909,4,2,1,85,0,1
53852,-90.9090909090909,4,2,1,85,0,1
55273,-90.9090909090909,4,2,1,85,0,1
57484,-90.9090909090909,4,2,1,85,0,1
58747,-90.9090909090909,4,2,1,85,0,1
61273,-100,4,2,1,70,0,0
62536,-100,4,2,1,78,0,0
65378,-100,4,2,1,70,0,0
66326,-90.9090909090909,4,2,1,85,0,1
66642,-90.9090909090909,4,2,1,85,0,1
69168,-90.9090909090909,4,2,1,85,0,1
71694,-90.9090909090909,4,2,1,85,0,1
72957,-90.9090909090909,4,2,1,85,0,1
73905,-90.9090909090909,4,2,1,85,0,1
76747,-90.9090909090909,4,2,1,85,0,1
79273,-90.9090909090909,4,2,1,85,0,1
82905,-90.9090909090909,4,2,1,85,0,1
83535,-90.9090909090909,4,2,1,85,0,1
83693,-90.9090909090909,4,2,1,85,0,1
84326,-90.9090909090909,4,2,1,85,0,1
84799,-90.9090909090909,4,2,1,85,0,1
85431,-90.9090909090909,4,2,1,85,0,1
85905,-100,4,2,1,80,0,0
86852,-100,4,2,1,80,0,0
88431,-100,4,2,1,80,0,0
91114,-100,4,2,1,65,0,0
101694,-111.111111111111,4,2,1,65,0,0
103905,-111.111111111111,4,2,1,65,0,0
104220,-111.111111111111,4,2,1,65,0,0
106747,-100,4,2,1,75,0,0
107378,-100,4,2,1,75,0,0
109273,-100,4,2,1,75,0,0
110694,-100,4,2,1,75,0,0
111326,-100,4,2,1,75,0,0
111799,-100,4,2,1,70,0,0
116378,-100,4,2,1,70,0,0
116536,-100,4,2,1,70,0,0
116852,-100,4,2,1,75,0,0
117642,-100,4,2,1,75,0,0
118905,-100,4,2,1,75,0,0
121905,-100,4,2,1,78,0,0
124431,-90.9090909090909,4,2,1,85,0,1
125852,-90.9090909090909,4,2,1,85,0,1
127273,-90.9090909090909,4,2,1,85,0,1
129484,-90.9090909090909,4,2,1,85,0,1
129799,-90.9090909090909,4,2,1,85,0,1
131063,-90.9090909090909,4,2,1,85,0,1
134063,-90.9090909090909,4,2,1,85,0,1
134220,-90.9090909090909,4,2,1,85,0,1
135957,-90.9090909090909,4,2,1,85,0,1
137378,-90.9090909090909,4,2,1,85,0,1
140852,-90.9090909090909,4,2,1,85,0,1
143220,-90.9090909090909,4,2,1,85,0,1
143378,-100,4,2,1,80,0,0
146694,-100,4,2,1,80,0,0
153642,-100,4,2,1,80,0,0
154273,-100,4,2,1,80,0,0
155063,-100,4,2,1,80,0,0
156168,-100,4,2,1,80,0,0
156484,-100,4,2,1,80,0,0
156799,-100,4,2,1,80,0,0
157115,-100,4,2,1,80,0,0
159799,-100,4,2,1,70,0,0
160115,-100,4,2,1,70,0,0
161220,-100,4,2,1,70,0,0
163747,-100,4,2,1,70,0,0
164378,-100,4,2,1,70,0,0
164852,-100,4,2,1,78,0,0
166115,-100,4,2,1,78,0,0
167378,-125,4,2,1,78,0,0
182536,-100,4,2,1,78,0,0
184431,-100,4,2,1,78,0,0
185063,-90.9090909090909,4,2,1,85,0,1
186484,-90.9090909090909,4,2,1,85,0,1
187905,-90.9090909090909,4,2,1,85,0,1
189010,-90.9090909090909,4,2,1,85,0,1
190115,-90.9090909090909,4,2,1,85,0,1
191694,-90.9090909090909,4,2,1,85,0,1
194694,-90.9090909090909,4,2,1,85,0,1
194852,-90.9090909090909,4,2,1,85,0,1
195484,-90.9090909090909,4,2,1,85,0,1
196589,-90.9090909090909,4,2,1,85,0,1
198010,-90.9090909090909,4,2,1,85,0,1
200220,-90.9090909090909,4,2,1,85,0,1
201484,-90.9090909090909,4,2,1,85,0,1
203063,-90.9090909090909,4,2,1,85,0,1
203851,-90.9090909090909,4,2,1,85,0,1
204010,-100,4,2,1,70,0,0
205273,-100,4,2,1,78,0,0
208115,-100,4,2,1,70,0,0
209063,-90.9090909090909,4,2,1,85,0,1
209378,-90.9090909090909,4,2,1,85,0,1
211905,-90.9090909090909,4,2,1,85,0,1
214431,-90.9090909090909,4,2,1,85,0,1
215694,-90.9090909090909,4,2,1,85,0,1
216642,-90.9090909090909,4,2,1,85,0,1
219484,-90.9090909090909,4,2,1,85,0,1
222010,-90.9090909090909,4,2,1,85,0,1
225642,-90.9090909090909,4,2,1,85,0,1
226271,-90.9090909090909,4,2,1,85,0,1
226429,-90.9090909090909,4,2,1,85,0,1
227063,-90.9090909090909,4,2,1,85,0,1
227536,-90.9090909090909,4,2,1,85,0,1
228168,-90.9090909090909,4,2,1,85,0,1
228642,-100,4,2,1,80,0,0
229589,-100,4,2,1,80,0,0
231168,-100,4,2,1,80,0,0
232115,-100,4,2,1,80,0,0
233220,-100,4,2,1,80,0,0
236063,-100,4,2,1,80,0,0
236536,-100,4,2,1,80,0,0
237010,-100,4,2,1,75,0,0
238115,-100,4,2,1,78,0,0
239063,-100,4,2,1,75,0,0
239536,-100,4,2,1,5,0,0

[Colours]
Combo1 : 199,145,249
Combo2 : 0,113,225
Combo3 : 81,199,255
Combo4 : 198,96,4
Combo5 : 254,179,1
Combo6 : 255,0,0
Combo7 : 255,128,128
Combo8 : 154,55,244

[HitObjects]
438,49,642,5,8,2:2:0:0:
438,49,720,1,0,3:3:0:0:
438,49,799,1,0,3:3:0:0:
438,49,878,1,0,3:3:0:0:
438,49,957,2,0,L|430:102,1,40,0|0,3:3|3:3,0:0:0:0:
335,129,1116,5,8,2:2:0:0:
335,129,1194,1,0,3:3:0:0:
335,129,1273,1,0,3:3:0:0:
335,129,1352,1,0,3:3:0:0:
335,129,1431,2,0,L|343:182,1,40,0|0,3:3|3:3,0:0:0:0:
397,260,1589,5,8,2:2:0:0:
397,260,1668,1,0,3:3:0:0:
397,260,1747,1,0,3:3:0:0:
397,260,1826,1,0,3:3:0:0:
397,260,1905,2,0,B|309:260|328:299|242:293,1,160,4|10,1:2|2:2,0:0:0:0:
89,206,2378,2,0,L|172:191,1,80,2|0,2:2|1:1,0:0:0:0:
242,293,2694,1,2,1:2:0:0:
210,123,2852,1,8,2:2:0:0:
134,284,3010,6,0,P|99:305|-4:252,1,160,4|2,1:2|1:2,0:0:0:0:
167,191,3484,2,0,L|89:206,1,80,10|0,2:2|0:0,0:0:0:0:
0,92,3799,1,2,1:2:0:0:
0,261,3957,1,0,1:1:0:0:
85,111,4115,2,0,P|128:99|168:114,1,80,10|0,2:2|3:3,0:0:0:0:
324,163,4431,6,1,L|167:190,1,160,4|10,1:2|2:2,0:0:0:0:
296,324,4905,2,0,L|311:238,1,80,2|0,2:2|1:1,0:0:0:0:
402,132,5220,1,2,1:2:0:0:
395,280,5378,1,8,2:2:0:0:
327,79,5536,6,0,P|383:50|472:74,1,160,4|2,1:2|1:2,0:0:0:0:
512,217,6010,1,10,2:2:0:0:
381,318,6168,1,2,2:2:0:0:
402,132,6326,1,2,1:2:0:0:
492,305,6484,1,2,1:2:0:0:
328,205,6642,5,10,2:2:0:0:
289,196,6720,1,8,2:2:0:0:
250,205,6799,1,2,3:2:0:0:
220,230,6878,1,0,3:3:0:0:
204,265,6957,5,12,2:2:0:0:
90,132,7115,1,2,1:2:0:0:
81,314,7273,1,8,2:2:0:0:
168,118,7431,2,0,L|89:131,1,80,2|8,1:2|2:2,0:0:0:0:
2,300,7747,2,0,L|80:313,1,80,2|8,1:2|2:2,0:0:0:0:
309,362,8063,6,0,P|326:309|292:244,1,120,4|0,1:2|0:0,0:0:0:0:
246,311,8378,1,2,1:2:0:0:
412,190,8536,1,2,1:2:0:0:
141,120,8852,1,10,2:2:0:0:
141,120,9484,6,0,L|168:277,1,160,4|10,1:2|2:2,0:0:0:0:
256,368,9957,2,0,P|298:366|332:324,1,80,2|0,2:2|1:1,0:0:0:0:
435,255,10273,2,0,L|356:240,1,80,2|8,1:2|2:2,0:0:0:0:
435,357,10589,1,2,2:2:0:0:
512,246,10747,2,0,L|484:87,1,160,2|10,1:2|2:2,0:0:0:0:
434,254,11220,1,2,2:2:0:0:
434,254,11378,2,0,L|356:240,1,80,2|0,1:2|1:1,0:0:0:0:
434,357,11694,2,0,L|513:343,1,80,10|2,2:2|2:2,0:0:0:0:
375,161,12010,6,0,B|299:152|323:191|247:188,1,120,0|0,1:1|0:0,0:0:0:0:
177,230,12326,2,0,L|191:148,1,80,10|2,2:2|2:2,0:0:0:0:
298,54,12642,2,0,P|258:68|208:54,1,80,2|0,1:2|1:1,0:0:0:0:
93,24,12957,2,0,L|106:102,1,80,10|0,2:2|0:0,0:0:0:0:
177,230,13273,6,0,B|282:217|282:217|300:248|273:268,1,160,2|10,1:2|2:2,0:0:0:0:
353,347,13747,1,2,2:2:0:0:
353,347,13905,2,0,L|437:331,1,80,2|0,1:2|1:1,0:0:0:0:
452,170,14220,1,10,2:2:0:0:
512,327,14378,1,0,1:1:0:0:
383,214,14536,6,0,P|375:146|439:90,1,160,4|10,1:2|2:2,0:0:0:0:
309,52,15010,2,0,L|225:36,1,80,2|0,2:2|1:1,0:0:0:0:
136,116,15326,1,0,1:1:0:0:
230,197,15484,2,0,L|246:113,1,80,10|2,2:2|0:0,0:0:0:0:
364,261,15799,6,0,B|277:248|293:296|208:284,1,160,2|10,1:2|2:2,0:0:0:0:
230,197,16273,1,2,2:2:0:0:
339,335,16431,2,0,L|417:349,1,80,2|0,1:2|1:1,0:0:0:0:
500,236,16747,2,0,P|508:207|492:160,1,80,10|2,2:2|2:2,0:0:0:0:
501,50,17063,2,0,L|376:72,1,120,0|0,1:1|0:0,0:0:0:0:
372,144,17378,6,0,L|293:130,1,80,10|2,2:2|2:2,0:0:0:0:
230,197,17694,2,0,L|243:275,1,80,2|0,1:2|1:1,0:0:0:0:
154,118,18010,2,0,P|149:78|168:43,1,80,10|0,2:2|0:0,0:0:0:0:
2,244,18326,6,0,L|158:271,1,160,2|10,1:2|2:2,0:0:0:0:
13,323,18799,1,2,2:2:0:0:
155,195,18957,1,0,1:1:0:0:
145,355,19115,1,2,1:2:0:0:
30,172,19273,1,10,2:2:0:0:
30,172,19352,1,8,2:2:0:0:
30,172,19431,1,2,3:2:0:0:
145,355,19589,6,0,P|193:353|247:250,1,160,0|2,1:1|1:2,0:0:0:0:
333,139,20063,2,0,L|254:125,1,80,10|0,2:2|0:0,0:0:0:0:
170,40,20378,2,0,L|249:26,1,80,2|0,1:2|3:3,0:0:0:0:
475,65,20694,6,0,B|419:94|419:94|453:192,1,160,4|0,1:2|1:1,0:0:0:0:
406,354,21168,1,8,2:2:0:0:
308,223,21326,1,2,2:2:0:0:
449,185,21484,2,0,L|436:264,1,80,2|0,1:2|1:1,0:0:0:0:
236,241,21799,2,0,P|271:218|317:228,1,80,10|0,2:2|0:0,0:0:0:0:
147,363,22115,6,0,L|117:196,1,160,2|2,1:2|1:2,0:0:0:0:
41,99,22589,2,0,P|76:76|122:86,1,80,10|0,2:2|0:0,0:0:0:0:
230,38,22905,2,0,L|217:117,1,80,2|0,1:2|3:3,0:0:0:0:
334,209,23220,6,0,B|424:198|402:250|497:232,1,160,4|0,1:2|1:1,0:0:0:0:
345,372,23694,2,0,L|359:284,1,80,8|0,2:2|0:0,0:0:0:0:
465,156,24010,1,2,1:2:0:0:
478,312,24168,1,0,1:1:0:0:
371,134,24326,1,8,2:2:0:0:
371,134,24405,1,8,2:2:0:0:
371,134,24484,1,2,3:2:0:0:
258,297,24642,6,0,P|209:320|121:269,1,160,4|8,1:2|2:2,0:0:0:0:
34,153,25115,1,0,0:0:0:0:
152,91,25273,1,2,1:2:0:0:
99,244,25431,1,2,1:2:0:0:
86,48,25589,2,0,P|124:19|173:18,1,80,8|2,2:2|2:2,0:0:0:0:
346,131,25905,6,1,L|202:106,1,120,2|0,1:2|0:0,0:0:0:0:
152,91,26220,2,0,L|165:168,1,80,10|2,2:2|2:2,0:0:0:0:
256,281,26536,2,0,L|269:202,1,80,2|0,1:2|1:1,0:0:0:0:
362,58,26852,2,0,L|268:41,1,80,10|0,2:2|0:0,0:0:0:0:
359,227,27168,6,0,B|409:204|409:204|448:209|448:209|515:182,1,160,4|10,1:2|2:2,0:0:0:0:
414,301,27642,1,2,1:2:0:0:
456,120,27799,5,8,2:2:0:0:
456,120,27878,1,8,2:2:0:0:
456,120,27957,2,0,L|465:65,1,40,0|0,3:3|3:3,0:0:0:0:
355,18,28115,2,0,L|361:57,1,40,0|0,3:3|3:3,0:0:0:0:
281,158,28273,6,0,P|230:178|166:149,1,120,14|0,2:2|0:0,0:0:0:0:
231,92,28589,1,2,1:2:0:0:
277,264,28747,2,0,L|192:249,1,80,10|0,2:2|1:1,0:0:0:0:
97,113,29063,1,14,2:2:0:0:
281,158,29220,1,0,1:1:0:0:
102,284,29378,2,0,L|117:198,1,80,14|0,2:2|0:0,0:0:0:0:
256,50,29694,6,0,B|306:35|306:35|340:45|340:45|410:26,1,143.999995605469,4|2,1:2|1:2,0:0:0:0:
511,4,30168,1,2,2:2:0:0:
511,4,30326,2,0,L|497:82,1,71.9999978027344,2|2,1:2|2:2,0:0:0:0:
462,210,30642,1,0,1:1:0:0:
423,100,30799,1,2,2:2:0:0:
336,229,30957,6,0,P|289:282|216:284,1,143.999995605469,2|2,1:2|1:2,0:0:0:0:
243,138,31431,2,0,L|255:208,1,71.9999978027344,2|0,3:2|1:1,0:0:0:0:
136,160,31747,1,2,3:2:0:0:
194,277,31905,1,8,2:2:0:0:
243,138,32063,1,0,0:0:0:0:
114,246,32220,6,0,P|63:258|29:242,1,71.9999978027344,0|0,1:1|0:0,0:0:0:0:
123,89,32536,2,0,L|135:159,1,71.9999978027344,2|2,1:2|3:2,0:0:0:0:
33,100,32852,2,0,L|45:30,1,71.9999978027344,2|2,1:2|3:2,0:0:0:0:
192,24,33168,1,0,1:1:0:0:
135,159,33326,1,2,3:2:0:0:
340,73,33484,6,0,P|418:67|469:118,1,143.999995605469,2|2,1:2|1:2,0:0:0:0:
361,194,33957,1,2,3:2:0:0:
361,194,34036,1,0,3:3:0:0:
361,194,34115,1,0,1:1:0:0:
467,293,34273,1,2,3:2:0:0:
467,293,34352,1,0,3:2:0:0:
467,293,34431,2,0,L|474:244,1,35.9999989013672,8|8,2:2|2:2,0:0:0:0:
347,313,34589,2,0,L|352:348,1,35.9999989013672,0|0,3:3|3:0,0:0:0:0:
361,194,34747,6,0,B|300:208|300:208|283:231|283:231|206:250,1,160,4|10,1:2|2:2,0:0:0:0:
45,339,35220,2,0,B|93:347|93:347|37:228,1,160,6|2,1:2|1:2,0:0:0:0:
52,100,35694,1,8,2:2:0:0:
143,215,35852,1,0,1:1:0:0:
222,55,36010,6,0,B|305:52|286:102|376:89,1,160,4|10,1:2|2:2,0:0:0:0:
478,19,36484,2,0,B|504:13|523:43|523:43|482:140,1,160,6|2,1:2|1:2,0:0:0:0:
428,302,36957,1,8,2:2:0:0:
340,171,37115,1,2,1:2:0:0:
512,210,37273,6,0,L|433:223,1,80,4|0,1:2|0:0,0:0:0:0:
333,95,37589,2,0,P|325:134|340:171,1,80,0|10,1:1|2:2,0:0:0:0:
428,302,37905,1,2,1:2:0:0:
407,133,38063,1,0,3:3:0:0:
255,256,38220,2,0,L|334:269,1,80,8|0,2:2|3:3,0:0:0:0:
160,80,38536,5,2,1:2:0:0:
113,236,38694,1,0,1:1:0:0:
53,98,38852,1,10,2:2:0:0:
203,174,39010,1,2,3:2:0:0:
26,261,39168,1,2,1:2:0:0:
160,80,39326,5,8,2:2:0:0:
197,68,39404,1,8,2:2:0:0:
237,72,39483,1,2,3:2:0:0:
271,92,39562,1,0,3:3:0:0:
294,125,39641,1,0,3:3:0:0:
338,338,39799,5,12,2:2:0:0:
438,104,40115,1,12,2:2:0:0:
202,316,40431,5,12,2:2:0:0:
457,193,40642,5,12,2:2:0:0:
173,94,40852,5,12,2:2:0:0:
458,294,41063,5,12,2:2:0:0:
66,188,41852,5,2,3:2:0:0:
66,188,41931,1,0,3:3:0:0:
66,188,42010,2,0,P|119:194|150:170,1,90.0000034332277,8|0,2:2|0:0,0:0:0:0:
173,94,42326,6,1,B|243:77|243:77|263:46|263:46|328:32,1,176.000005371094,4|10,1:2|2:2,0:0:0:0:
476,120,42799,1,2,2:2:0:0:
321,187,42957,1,2,1:2:0:0:
473,309,43115,2,0,L|456:214,1,88.000002685547,0|8,1:1|2:2,0:0:0:0:
258,309,43431,6,1,P|206:336|128:298,1,132.00000402832,4|0,1:2|0:0,0:0:0:0:
197,258,43747,1,2,1:2:0:0:
44,193,43905,1,10,2:2:0:0:
193,115,44063,1,2,2:2:0:0:
84,266,44220,1,0,1:1:0:0:
117,64,44378,1,2,1:2:0:0:
256,200,44536,1,10,2:2:0:0:
40,119,44694,1,2,2:2:0:0:
286,26,44852,6,0,L|254:203,1,176.000005371094,4|10,1:2|2:2,0:0:0:0:
436,143,45326,1,2,2:2:0:0:
368,308,45484,2,0,L|351:215,1,88.000002685547,0|0,1:1|1:1,0:0:0:0:
485,255,45799,1,8,2:2:0:0:
256,325,45957,6,0,B|153:303|176:360|82:335,1,176.000005371094,4|0,1:2|1:1,0:0:0:0:
144,172,46431,2,0,L|128:258,1,88.000002685547,10|2,2:2|2:2,0:0:0:0:
19,162,46747,1,2,1:2:0:0:
186,93,46905,1,0,1:1:0:0:
32,27,47063,1,10,2:2:0:0:
223,190,47220,5,0,3:3:0:0:
223,190,47299,1,0,3:0:0:0:
223,190,47378,2,0,P|291:186|333:93,1,176.000005371094,4|10,1:2|2:2,0:0:0:0:
169,6,47852,2,0,L|185:92,1,88.000002685547,2|0,2:2|1:1,0:0:0:0:
19,162,48168,1,0,1:1:0:0:
127,258,48326,2,0,L|143:172,1,88.000002685547,8|2,2:2|2:2,0:0:0:0:
287,33,48642,6,0,B|350:41|350:41|378:64|378:64|461:73,1,176.000005371094,2|10,1:2|2:2,0:0:0:0:
325,209,49115,2,0,L|309:123,1,88.000002685547,2|0,2:2|1:1,0:0:0:0:
502,207,49431,1,2,1:2:0:0:
360,333,49589,1,10,2:2:0:0:
454,73,49747,5,2,2:2:0:0:
454,73,49826,1,2,0:0:0:0:
454,73,49905,2,0,L|438:159,1,88.000002685547,4|0,1:2|3:3,0:0:0:0:
360,333,50220,1,8,2:2:0:0:
168,194,50378,2,0,P|214:170|325:210,1,176.000005371094,6|8,1:2|2:2,0:0:0:0:
112,90,50852,1,6,1:2:0:0:
243,254,51010,1,0,3:3:0:0:
289,66,51168,1,8,2:2:0:0:
152,280,51327,6,0,L|167:193,1,88.000002685547,4|2,1:2|2:2,0:0:0:0:
0,60,51642,1,10,2:2:0:0:
0,60,51720,1,8,2:2:0:0:
0,60,51799,1,2,3:2:0:0:
168,193,51957,1,2,1:2:0:0:
18,292,52115,2,0,L|27:343,1,44.0000013427735,10|8,2:2|2:2,0:0:0:0:
104,133,52273,2,0,L|111:89,1,44.0000013427735,2|0,3:2|3:3,0:0:0:0:
255,264,52431,6,0,B|319:274|319:274|349:300|349:300|425:311,1,176.000005371094,4|10,1:2|2:2,0:0:0:0:
273,345,52905,1,2,2:2:0:0:
402,227,53063,2,0,L|417:140,1,88.000002685547,2|0,1:2|1:1,0:0:0:0:
512,274,53378,1,8,2:2:0:0:
299,139,53536,6,0,P|241:103|171:117,1,132.00000402832,4|0,1:2|0:0,0:0:0:0:
140,180,53852,1,2,1:2:0:0:
48,82,54010,1,10,2:2:0:0:
13,238,54168,1,2,2:2:0:0:
180,111,54326,1,0,1:1:0:0:
93,253,54484,1,2,1:2:0:0:
122,54,54642,1,10,2:2:0:0:
229,232,54799,1,2,2:2:0:0:
318,29,54957,6,0,L|504:61,1,176.000005371094,4|10,1:2|2:2,0:0:0:0:
336,234,55431,2,0,P|325:192|342:152,1,88.000002685547,2|0,2:2|1:1,0:0:0:0:
499,253,55747,1,2,1:2:0:0:
358,362,55905,1,8,2:2:0:0:
258,133,56063,6,1,B|196:153|196:153|178:181|178:181|95:207,1,176.000005371094,4|0,1:2|1:1,0:0:0:0:
256,248,56536,1,10,2:2:0:0:
119,111,56694,1,0,1:1:0:0:
102,308,56852,1,10,2:2:0:0:
0,165,57010,1,2,1:2:0:0:
182,281,57168,1,10,2:2:0:0:
181,45,57326,5,0,1:1:0:0:
181,45,57405,1,0,1:0:0:0:
181,45,57484,2,0,P|253:30|336:93,1,176.000005371094,4|10,1:2|2:2,0:0:0:0:
281,277,57957,2,0,L|264:184,1,88.000002685547,2|0,2:2|1:1,0:0:0:0:
435,70,58273,2,0,L|419:156,1,88.000002685547,2|8,1:2|2:2,0:0:0:0:
389,347,58589,5,0,1:0:0:0:
389,347,58668,1,0,1:0:0:0:
389,347,58747,1,2,1:2:0:0:
281,277,58905,1,2,2:2:0:0:
402,243,59063,1,10,2:2:0:0:
249,103,59220,2,0,L|264:189,1,88.000002685547,2|0,2:2|1:1,0:0:0:0:
402,243,59536,2,0,L|418:157,1,88.000002685547,2|8,1:2|2:2,0:0:0:0:
189,206,59852,5,2,2:2:0:0:
295,30,60010,2,0,P|239:20|201:47,1,88.000002685547,4|8,1:2|2:2,0:0:0:0:
8,37,60326,1,0,3:3:0:0:
8,37,60405,1,0,3:3:0:0:
8,37,60484,1,6,1:2:0:0:
98,231,60642,1,8,2:2:0:0:
98,231,60721,1,8,2:2:0:0:
98,231,60800,1,0,3:3:0:0:
213,33,60957,5,14,2:2:0:0:
0,163,61115,1,0,1:1:0:0:
215,256,61273,1,4,1:2:0:0:
215,256,62063,5,0,3:3:0:0:
369,129,62220,6,0,L|377:81,1,40,10|0,2:2|3:3,0:0:0:0:
467,243,62378,2,0,L|473:282,1,40,0|0,3:3|3:3,0:0:0:0:
471,119,62536,5,4,1:2:0:0:
331,245,62694,1,10,2:2:0:0:
311,51,62852,1,0,1:1:0:0:
467,243,63010,5,2,1:2:0:0:
244,160,63168,1,10,2:2:0:0:
440,42,63326,1,0,1:1:0:0:
234,248,63484,5,2,1:2:0:0:
471,119,63642,1,10,2:2:0:0:
224,33,63799,1,0,1:1:0:0:
255,345,63957,5,10,2:2:0:0:
315,106,64115,1,10,2:2:0:0:
436,330,64273,1,8,2:2:0:0:
184,168,64431,1,10,2:2:0:0:
440,42,64589,5,10,2:2:0:0:
340,317,64747,1,10,2:2:0:0:
224,33,64905,1,10,2:2:0:0:
133,321,65063,1,12,2:2:0:0:
97,115,65378,5,2,3:2:0:0:
133,100,65456,1,0,3:3:0:0:
173,101,65535,1,2,3:2:0:0:
209,117,65614,1,0,3:3:0:0:
236,147,65694,2,0,L|244:99,1,40,2|0,3:2|3:3,0:0:0:0:
371,31,65852,2,0,L|377:70,1,40,0|0,3:3|3:3,0:0:0:0:
499,173,66010,6,0,L|483:259,1,80,10|0,2:2|1:0,0:0:0:0:
300,280,66326,5,12,2:2:0:0:
113,81,66484,1,0,1:0:0:0:
169,295,66642,5,10,2:2:0:0:
270,54,66799,1,2,1:2:0:0:
66,261,66957,5,8,2:2:0:0:
182,27,67114,1,2,1:2:0:0:
300,280,67273,5,10,2:2:0:0:
51,133,67431,1,0,1:1:0:0:
270,54,67589,6,0,L|253:148,1,88.000002685547,12|2,2:2|2:2,0:0:0:0:
434,353,67905,5,8,2:2:0:0:
361,95,68063,1,2,1:2:0:0:
325,369,68220,5,10,2:2:0:0:
460,120,68378,1,2,1:2:0:0:
235,342,68536,5,10,2:2:0:0:
503,203,68694,1,2,1:2:0:0:
179,135,68852,6,0,L|195:229,1,88.000002685547,12|0,2:2|1:0,0:0:0:0:
361,95,69168,6,0,L|377:1,1,88.000002685547,10|2,2:2|1:2,0:0:0:0:
321,244,69484,5,8,2:2:0:0:
119,51,69642,1,2,1:2:0:0:
77,306,69799,5,8,2:2:0:0:
254,80,69957,1,2,1:2:0:0:
221,347,70115,6,0,L|206:260,1,88.000002685547,12|0,2:2|1:1,0:0:0:0:
20,64,70431,5,10,2:2:0:0:
77,306,70589,1,2,1:2:0:0:
149,18,70747,5,10,2:2:0:0:
7,236,70905,1,0,1:1:0:0:
254,80,71063,1,10,2:2:0:0:
254,80,71142,1,8,2:2:0:0:
254,80,71220,1,0,3:3:0:0:
221,347,71378,6,0,P|271:360|364:280,1,176.000005371094,4|10,1:2|2:2,0:0:0:0:
497,133,71852,2,0,L|404:116,1,88.000002685547,2|0,2:2|1:1,0:0:0:0:
260,0,72168,2,0,P|241:49|259:85,1,88.000002685547,2|8,1:2|2:2,0:0:0:0:
275,271,72484,6,1,L|101:211,1,176.000005371094,2|0,2:2|0:0,0:0:0:0:
260,0,72957,2,0,P|241:49|259:85,1,88.000002685547,10|2,2:2|2:2,0:0:0:0:
497,133,73273,2,0,L|410:117,1,88.000002685547,2|0,1:2|1:1,0:0:0:0:
275,271,73589,2,0,L|361:255,1,88.000002685547,10|0,2:2|0:0,0:0:0:0:
114,61,73905,6,1,B|167:47|167:47|117:160,1,176.000005371094,4|8,1:2|2:2,0:0:0:0:
68,340,74378,2,0,P|119:359|169:331,1,88.000002685547,2|0,2:2|1:1,0:0:0:0:
258,152,74694,1,2,1:2:0:0:
359,348,74852,1,10,2:2:0:0:
461,135,75010,6,0,B|407:162|407:162|397:202|397:202|325:240,1,176.000005371094,4|2,1:2|1:2,0:0:0:0:
485,221,75484,1,10,2:2:0:0:
258,152,75642,1,0,1:1:0:0:
405,31,75799,6,0,L|396:81,1,44.0000013427735,8|8,2:2|2:2,0:0:0:0:
331,236,75957,2,0,L|322:185,1,44.0000013427735,2|0,3:2|3:3,0:0:0:0:
205,45,76115,1,2,3:2:0:0:
95,235,76273,5,2,3:2:0:0:
95,235,76352,1,0,3:3:0:0:
95,235,76431,2,0,L|183:250,1,88.000002685547,12|0,2:2|1:0,0:0:0:0:
362,368,76747,5,10,2:2:0:0:
262,108,76905,1,2,1:2:0:0:
434,319,77063,5,8,2:2:0:0:
206,178,77221,1,2,1:2:0:0:
502,272,77378,5,10,2:2:0:0:
320,44,77536,1,0,1:1:0:0:
288,316,77694,6,0,L|201:331,1,88.000002685547,12|2,2:2|1:2,0:0:0:0:
69,140,78010,5,8,2:2:0:0:
308,232,78168,1,2,1:2:0:0:
51,308,78326,5,10,2:2:0:0:
126,41,78484,1,2,1:2:0:0:
201,330,78642,5,10,2:2:0:0:
0,104,78799,1,2,1:2:0:0:
311,143,78957,6,0,L|326:56,1,88.000002685547,12|0,2:2|1:0,0:0:0:0:
156,244,79273,2,0,L|171:330,1,88.000002685547,10|2,2:2|1:2,0:0:0:0:
391,258,79589,5,8,2:2:0:0:
178,90,79747,1,2,1:2:0:0:
255,328,79905,5,8,2:2:0:0:
387,77,80063,1,2,1:2:0:0:
506,346,80220,6,0,L|408:328,1,88.000002685547,12|0,2:2|1:1,0:0:0:0:
224,158,80536,2,0,L|310:142,1,88.000002685547,10|0,2:2|1:2,0:0:0:0:
118,348,80852,5,10,2:2:0:0:
164,45,81010,1,8,2:2:0:0:
255,328,81168,1,10,2:2:0:0:
356,47,81326,1,8,2:2:0:0:
48,220,81484,6,1,L|232:252,1,176.000005371094,4|10,1:2|2:2,0:0:0:0:
356,47,81957,2,1,B|407:32|407:32|358:153,1,176.000005371094,6|2,1:2|1:2,0:0:0:0:
319,337,82431,1,8,2:2:0:0:
512,243,82589,6,0,L|421:211,1,88.000002685547,6|0,1:2|0:0,0:0:0:0:
356,47,82905,1,2,1:2:0:0:
243,226,83063,5,8,2:2:0:0:
207,250,83141,1,8,2:2:0:0:
163,255,83220,1,2,3:2:0:0:
123,240,83299,1,0,3:3:0:0:
94,207,83378,2,0,L|111:99,1,88.000002685547,2|0,1:2|1:1,0:0:0:0:
243,226,83694,1,10,2:2:0:0:
72,313,83852,1,2,2:2:0:0:
44,68,84010,6,0,P|120:47|189:106,1,176.000005371094,4|10,1:2|2:2,0:0:0:0:
256,321,84484,1,2,1:2:0:0:
256,321,84799,5,2,1:2:0:0:
359,105,84957,1,10,2:2:0:0:
462,289,85115,2,0,L|360:271,1,88.000002685547,4|0,1:2|0:0,0:0:0:0:
144,184,85431,1,10,2:2:0:0:
359,105,85589,1,10,2:2:0:0:
141,4,85747,1,0,1:1:0:0:
141,4,85826,1,0,1:1:0:0:
141,4,85905,1,10,2:2:0:0:
410,227,86536,6,0,B|322:211|345:270|256:253,1,160,4|10,1:2|2:2,0:0:0:0:
263,106,87010,2,0,L|278:194,1,80,2|0,2:2|1:1,0:0:0:0:
371,378,87326,2,0,L|384:299,1,80,2|8,1:2|2:2,0:0:0:0:
188,307,87642,6,0,P|131:316|61:237,1,160,4|2,1:2|1:2,0:0:0:0:
127,103,88115,1,10,2:2:0:0:
148,243,88273,1,0,0:0:0:0:
13,160,88431,2,0,L|105:176,1,80,2|0,1:2|1:1,0:0:0:0:
207,33,88747,1,10,2:2:0:0:
244,18,88825,1,8,2:2:0:0:
283,20,88904,1,0,3:3:0:0:
319,38,88983,1,0,3:3:0:0:
344,68,89062,5,12,2:2:0:0:
499,160,89220,2,0,L|407:176,1,80,2|8,1:2|2:2,0:0:0:0:
325,308,89536,2,0,P|312:261|329:223,1,80,6|8,1:2|2:2,0:0:0:0:
426,67,89852,1,6,1:2:0:0:
462,261,90010,1,8,2:2:0:0:
272,145,90168,6,0,L|126:170,1,120,4|0,1:2|0:0,0:0:0:0:
70,182,90484,1,2,1:2:0:0:
217,302,90642,1,2,1:2:0:0:
119,48,90957,1,10,2:2:0:0:
61,79,101536,5,2,1:2:0:0:
61,79,101615,1,0,1:1:0:0:
61,79,101694,2,1,B|148:67|132:108|218:83,1,143.999995605469,4|2,1:2|1:2,0:0:0:0:
306,105,102168,2,0,P|322:144|311:176,1,71.9999978027344,2|0,2:2|1:1,0:0:0:0:
329,261,102484,2,0,L|252:247,1,71.9999978027344,2|0,2:2|1:1,0:0:0:0:
314,171,102799,1,2,2:2:0:0:
183,204,102957,6,0,P|154:267|203:337,1,143.999995605469,2|0,1:2|1:1,0:0:0:0:
258,248,103431,1,2,2:2:0:0:
357,340,103589,2,0,L|287:353,1,71.9999978027344,2|0,1:2|0:0,0:0:0:0:
258,248,103905,2,0,L|329:261,1,71.9999978027344,2|0,3:2|0:0,0:0:0:0:
358,65,104220,6,0,B|278:84|292:37|218:58,1,143.999995605469,2|2,1:2|1:2,0:0:0:0:
124,49,104694,2,0,L|137:125,1,71.9999978027344,2|0,2:2|1:1,0:0:0:0:
226,204,105010,2,0,L|238:133,1,71.9999978027344,2|0,2:2|1:1,0:0:0:0:
132,221,105326,1,2,2:2:0:0:
251,303,105484,6,0,P|299:314|370:247,1,143.999995605469,2|0,1:2|1:1,0:0:0:0:
412,119,105957,1,0,3:3:0:0:
467,237,106115,1,2,1:2:0:0:
336,179,106273,1,2,3:2:0:0:
492,112,106431,1,0,1:1:0:0:
303,24,106589,5,10,2:2:0:0:
303,24,106668,1,8,2:2:0:0:
303,24,106747,2,0,B|190:14|190:14|173:35|192:60,1,160,4|8,1:2|2:2,0:0:0:0:
115,187,107220,1,0,0:0:0:0:
189,56,107378,1,2,1:2:0:0:
276,213,107536,2,0,L|193:198,1,80,2|8,1:2|2:2,0:0:0:0:
108,80,107852,1,2,2:2:0:0:
35,192,108010,6,0,P|13:239|63:330,1,160,2|10,1:2|2:2,0:0:0:0:
198,200,108484,1,2,2:2:0:0:
224,324,108642,2,0,L|145:309,1,80,2|0,1:2|1:1,0:0:0:0:
35,192,108957,2,0,L|113:177,1,80,10|0,2:2|0:0,0:0:0:0:
319,70,109273,6,1,L|289:234,1,160,4|10,1:2|2:2,0:0:0:0:
409,125,109747,1,2,1:2:0:0:
211,61,109905,5,8,2:2:0:0:
173,46,109983,1,8,2:2:0:0:
134,50,110062,1,0,3:3:0:0:
100,70,110141,1,0,3:3:0:0:
79,104,110220,1,0,1:1:0:0:
290,227,110378,6,0,P|347:235|394:177,1,120,12|0,2:2|0:0,0:0:0:0:
409,125,110694,1,2,1:2:0:0:
455,328,110852,2,0,L|362:311,1,80,10|0,2:2|1:1,0:0:0:0:
488,155,111168,1,14,2:2:0:0:
319,153,111326,1,0,1:1:0:0:
423,46,111484,2,0,L|408:124,1,80,14|0,2:2|0:0,0:0:0:0:
211,61,111799,6,0,P|174:48|126:68,1,80,4|2,1:2|2:2,0:0:0:0:
31,147,112115,2,0,L|125:163,1,80,0|2,1:1|2:2,0:0:0:0:
207,244,112431,1,2,1:2:0:0:
207,244,112589,1,2,2:2:0:0:
87,320,112747,2,0,L|101:235,1,80,0|2,1:1|2:2,0:0:0:0:
258,130,113063,6,1,P|330:111|403:160,1,160,2|2,1:2|1:2,0:0:0:0:
339,309,113536,2,0,L|325:224,1,80,2|0,3:2|1:1,0:0:0:0:
399,153,113852,1,2,3:2:0:0:
493,248,114010,2,0,L|399:264,1,80,8|2,2:2|2:2,0:0:0:0:
224,289,114326,6,0,B|137:273|150:320|68:308,1,160,0|0,1:1|1:1,0:0:0:0:
4,198,114799,1,2,3:2:0:0:
152,150,114957,1,2,1:2:0:0:
68,308,115115,1,2,3:2:0:0:
64,141,115273,1,0,1:1:0:0:
198,243,115431,1,2,3:2:0:0:
230,136,115589,6,0,L|139:151,2,80,2|0|2,1:2|0:0|1:2,0:0:0:0:
427,81,116063,1,2,3:2:0:0:
427,81,116142,1,0,3:3:0:0:
427,81,116220,1,0,1:1:0:0:
321,15,116378,5,2,3:2:0:0:
304,51,116456,1,0,3:0:0:0:
303,91,116535,1,8,2:2:0:0:
316,128,116614,1,8,2:2:0:0:
341,158,116693,1,0,3:3:0:0:
185,319,116852,6,0,P|112:338|46:283,1,160,4|10,1:2|2:2,0:0:0:0:
124,147,117326,2,0,B|172:132|172:132|137:235,1,160,6|2,1:2|1:2,0:0:0:0:
21,153,117799,1,8,2:2:0:0:
133,16,117957,1,0,3:3:0:0:
233,191,118115,6,0,L|406:160,1,160,4|10,1:2|2:2,0:0:0:0:
512,304,118589,2,0,L|424:288,1,80,6|0,1:2|0:0,0:0:0:0:
305,332,118905,1,2,1:2:0:0:
414,378,119063,1,8,2:2:0:0:
346,243,119220,1,0,3:3:0:0:
201,340,119378,6,0,P|157:353|89:311,1,120,4|2,1:2|2:2,0:0:0:0:
161,272,119694,2,0,L|174:193,1,80,2|10,1:2|2:2,0:0:0:0:
303,44,120010,6,0,P|316:88|274:156,1,120,2|2,1:2|2:2,0:0:0:0:
235,84,120326,1,10,2:2:0:0:
356,202,120484,1,2,3:2:0:0:
459,28,120642,6,0,L|374:41,1,80,4|0,1:2|1:1,0:0:0:0:
235,84,120957,1,10,2:2:0:0:
356,202,121115,1,2,1:2:0:0:
307,12,121273,1,2,1:2:0:0:
239,190,121431,5,8,2:2:0:0:
202,206,121509,1,8,2:2:0:0:
162,206,121588,1,2,3:2:0:0:
126,191,121667,1,0,3:3:0:0:
98,162,121746,1,0,3:3:0:0:
254,355,121905,5,8,2:2:0:0:
167,54,122220,5,8,2:2:0:0:
69,264,122378,1,8,2:2:0:0:
355,119,122694,5,8,2:2:0:0:
63,40,123010,1,12,2:2:0:0:
383,323,123957,5,2,3:2:0:0:
383,323,124036,1,0,3:3:0:0:
383,323,124115,2,0,B|413:284|413:284|413:257|413:257|447:216,1,120,8|0,2:2|0:0,0:0:0:0:
468,124,124431,6,1,B|372:110|390:158|295:144,1,176.000005371094,4|10,1:2|2:2,0:0:0:0:
95,40,124905,1,2,2:2:0:0:
143,212,125063,1,2,1:2:0:0:
273,54,125220,2,0,L|185:69,1,88.000002685547,0|8,1:1|2:2,0:0:0:0:
51,308,125536,6,0,P|115:324|187:271,1,132.00000402832,4|0,1:2|0:0,0:0:0:0:
143,212,125852,1,2,1:2:0:0:
298,313,126010,1,10,2:2:0:0:
256,157,126168,1,2,2:2:0:0:
215,365,126326,1,0,1:1:0:0:
360,238,126484,1,2,1:2:0:0:
174,143,126642,1,10,2:2:0:0:
298,313,126799,1,2,2:2:0:0:
401,76,126957,6,0,B|344:97|344:97|328:132|328:132|249:159,1,176.000005371094,4|10,1:2|2:2,0:0:0:0:
315,3,127431,1,2,2:2:0:0:
407,155,127589,2,0,L|495:171,1,88.000002685547,0|0,1:1|1:1,0:0:0:0:
412,0,127905,1,8,2:2:0:0:
255,156,128063,6,0,P|195:181|110:122,1,176.000005371094,4|0,1:2|1:1,0:0:0:0:
0,241,128536,2,0,L|88:257,1,88.000002685547,10|2,2:2|2:2,0:0:0:0:
191,96,128852,1,2,1:2:0:0:
209,269,129010,1,0,1:1:0:0:
50,178,129168,1,10,2:2:0:0:
199,356,129326,5,0,3:3:0:0:
199,356,129405,1,0,3:0:0:0:
199,356,129484,2,0,B|265:329|265:329|283:291|283:291|341:266,1,176.000005371094,4|10,1:2|2:2,0:0:0:0:
487,179,129957,2,0,P|495:225|475:262,1,88.000002685547,2|0,2:2|1:1,0:0:0:0:
306,183,130273,1,0,1:1:0:0:
424,63,130431,2,0,L|407:158,1,88.000002685547,8|2,2:2|2:2,0:0:0:0:
256,369,130747,6,0,L|222:179,1,176.000005371094,2|10,1:2|2:2,0:0:0:0:
424,63,131220,2,0,L|407:158,1,88.000002685547,2|0,2:2|1:1,0:0:0:0:
306,183,131536,1,2,1:2:0:0:
476,260,131694,2,0,P|495:221|487:179,1,88.000002685547,10|2,2:2|2:2,0:0:0:0:
486,178,131931,1,2,0:0:0:0:
486,178,132010,1,4,1:2:0:0:
331,279,132168,1,0,3:3:0:0:
286,80,132326,1,8,2:2:0:0:
132,214,132484,6,0,L|333:177,1,176.000005371094,6|8,1:2|2:2,0:0:0:0:
200,339,132957,1,6,1:2:0:0:
138,121,133115,1,0,3:3:0:0:
254,204,133273,1,8,2:2:0:0:
86,292,133432,2,0,L|0:277,1,88.000002685547,4|2,1:2|2:2,0:0:0:0:
145,77,133747,6,0,L|137:120,1,44.0000013427735,10|8,2:2|2:2,0:0:0:0:
261,247,133905,2,0,L|253:203,1,44.0000013427735,2|0,3:2|1:0,0:0:0:0:
367,77,134063,1,2,1:2:0:0:
446,240,134220,1,10,2:2:0:0:
446,240,134299,1,8,2:2:0:0:
446,240,134378,1,2,3:2:0:0:
285,44,134536,6,0,P|348:3|451:46,1,176.000005371094,4|10,1:2|2:2,0:0:0:0:
512,196,135010,1,2,2:2:0:0:
351,163,135168,2,0,L|366:76,1,88.000002685547,2|0,1:2|1:1,0:0:0:0:
149,157,135484,1,8,2:2:0:0:
291,327,135642,6,0,L|264:174,1,132.00000402832,4|0,1:2|0:0,0:0:0:0:
351,163,135957,1,2,1:2:0:0:
193,241,136115,1,10,2:2:0:0:
228,83,136273,1,2,2:2:0:0:
58,186,136431,1,0,1:1:0:0:
258,166,136589,1,2,1:2:0:0:
95,39,136747,1,10,2:2:0:0:
193,241,136905,1,2,2:2:0:0:
330,34,137063,6,0,P|397:20|472:106,1,176.000005371094,4|10,1:2|2:2,0:0:0:0:
392,277,137536,2,0,L|376:186,1,88.000002685547,2|0,2:2|1:1,0:0:0:0:
193,241,137852,2,0,L|177:327,1,88.000002685547,2|8,1:2|2:2,0:0:0:0:
13,144,138168,6,0,B|109:114|96:169|187:139,1,176.000005371094,4|0,1:2|1:1,0:0:0:0:
333,33,138642,2,0,P|357:73|345:120,1,88.000002685547,10|0,2:2|1:1,0:0:0:0:
256,248,138957,1,10,2:2:0:0:
140,64,139115,1,2,1:2:0:0:
87,265,139273,1,10,2:2:0:0:
256,97,139431,1,0,1:1:0:0:
40,120,139589,5,4,1:2:0:0:
284,172,139747,2,1,L|198:188,1,88.000002685547,2|10,0:0|2:2,0:0:0:0:
0,249,140063,2,0,L|86:264,1,88.000002685547,2|0,2:2|1:1,0:0:0:0:
229,362,140378,2,0,L|197:181,1,176.000005371094,2|0,1:2|0:0,0:0:0:0:
346,64,140852,5,2,1:2:0:0:
316,234,141010,1,2,2:2:0:0:
448,116,141168,1,10,2:2:0:0:
208,126,141326,2,0,P|258:112|299:142,1,88.000002685547,2|0,2:2|1:1,0:0:0:0:
415,289,141642,2,0,L|433:186,1,88.000002685547,2|8,1:2|2:2,0:0:0:0:
346,64,141957,1,2,2:2:0:0:
258,252,142115,5,4,1:2:0:0:
448,116,142273,1,8,2:2:0:0:
360,356,142431,1,0,3:3:0:0:
360,356,142510,1,0,3:3:0:0:
360,356,142589,1,6,1:2:0:0:
208,126,142747,1,8,2:2:0:0:
208,126,142826,1,8,2:2:0:0:
208,126,142905,1,0,3:3:0:0:
135,363,143063,5,14,2:2:0:0:
300,232,143221,1,0,1:1:0:0:
80,160,143378,1,4,1:2:0:0:
40,49,144642,6,0,B|139:33|106:87|218:66,1,160,4|8,1:2|2:2,0:0:0:0:
312,179,145115,1,2,2:2:0:0:
182,231,145273,1,2,1:2:0:0:
293,80,145431,1,2,1:2:0:0:
324,256,145589,1,10,2:2:0:0:
434,92,145747,6,0,B|379:114|379:114|364:154|364:154|291:188,1,160,2|0,2:2|0:0,0:0:0:0:
191,241,146220,1,10,2:2:0:0:
317,350,146378,2,0,P|394:338|425:254,1,160,2|2,1:2|1:2,0:0:0:0:
311,178,146852,2,0,L|328:279,1,80,10|2,2:2|2:2,0:0:0:0:
132,325,147168,6,0,L|163:144,1,160,4|10,1:2|2:2,0:0:0:0:
32,167,147642,2,0,L|49:268,1,80,2|0,2:2|1:1,0:0:0:0:
219,267,147957,1,2,1:2:0:0:
59,353,148115,1,8,2:2:0:0:
108,122,148273,5,2,2:2:0:0:
108,122,148352,1,2,0:0:0:0:
108,122,148431,1,0,1:1:0:0:
219,267,148589,2,0,P|264:272|297:246,1,80,2|10,2:2|2:2,0:0:0:0:
443,137,148905,2,0,L|266:104,1,160,2|0,1:2|1:1,0:0:0:0:
142,219,149378,1,8,2:2:0:0:
350,298,149536,5,2,2:2:0:0:
350,298,149615,1,2,2:2:0:0:
350,298,149694,2,1,P|400:309|470:229,1,160,4|10,1:2|2:2,0:0:0:0:
420,72,150168,2,0,L|390:229,1,160,2|2,2:2|1:2,0:0:0:0:
256,112,150642,1,8,2:2:0:0:
232,279,150800,6,0,L|246:358,1,80,2|0,2:2|1:1,0:0:0:0:
161,183,151115,1,2,2:2:0:0:
116,361,151273,1,10,2:2:0:0:
0,262,151431,2,0,L|162:290,1,160,2|2,1:2|1:2,0:0:0:0:
95,82,151905,2,0,L|79:164,1,80,8|2,2:2|2:2,0:0:0:0:
79,160,152142,1,2,0:0:0:0:
79,160,152220,1,4,1:2:0:0:
250,82,152378,5,2,0:0:0:0:
250,82,152457,1,2,0:0:0:0:
250,82,152536,1,8,2:2:0:0:
214,251,152694,1,2,2:2:0:0:
172,72,152852,1,2,1:2:0:0:
320,191,153010,1,2,1:2:0:0:
126,222,153168,1,8,2:2:0:0:
344,108,153326,6,0,P|425:96|470:137,1,120,4|0,1:2|0:0,0:0:0:0:
489,191,153642,1,2,1:2:0:0:
320,191,153799,1,10,2:2:0:0:
427,350,153957,2,0,L|396:177,1,160,6|2,1:2|1:2,0:0:0:0:
323,328,154431,5,8,2:2:0:0:
288,347,154509,1,8,2:2:0:0:
248,349,154588,1,8,2:2:0:0:
212,334,154667,1,8,2:2:0:0:
184,304,154747,6,0,L|199:226,1,80,4|0,1:2|0:0,0:0:0:0:
45,184,155063,1,8,2:2:0:0:
136,61,155220,2,0,L|150:139,1,80,2|0,2:2|1:1,0:0:0:0:
275,267,155536,2,0,L|290:189,1,80,2|10,1:2|2:2,0:0:0:0:
361,79,155852,1,2,2:2:0:0:
481,256,156010,6,0,L|420:246,2,53.3333333333333,0|2|2,1:1|0:0|0:0,0:0:0:0:
290,188,156326,2,0,L|350:178,2,53.3333333333333,8|2|2,2:2|0:0|0:0,0:0:0:0:
446,113,156642,1,2,0:0:0:0:
446,113,156747,2,0,L|437:165,1,53.3333333333333,2|2,0:0|0:0,0:0:0:0:
352,260,156957,5,8,2:2:0:0:
316,292,157062,5,2,0:0:0:0:
268,300,157167,5,2,0:0:0:0:
224,282,157273,6,0,P|147:271|80:335,1,160,4|8,1:2|2:2,0:0:0:0:
59,189,157747,1,2,2:2:0:0:
177,349,157905,1,0,1:1:0:0:
198,186,158063,1,2,1:2:0:0:
198,186,158142,1,2,2:2:0:0:
198,186,158220,2,0,L|211:107,1,80,8|2,2:2|2:2,0:0:0:0:
460,49,158536,6,0,B|363:48|394:92|306:84,1,160,4|10,1:2|2:2,0:0:0:0:
476,138,159010,1,6,1:2:0:0:
240,196,159168,1,8,2:2:0:0:
240,196,159247,1,8,2:2:0:0:
240,196,159326,1,2,3:2:0:0:
329,5,159484,1,14,2:2:0:0:
329,5,159563,1,8,2:2:0:0:
329,5,159642,1,10,2:2:0:0:
405,174,159799,6,0,L|375:336,1,160,4|2,1:2|3:2,0:0:0:0:
317,191,160273,1,2,1:2:0:0:
467,289,160431,1,12,2:2:0:0:
285,354,160589,2,0,L|299:275,1,80,2|0,3:2|3:3,0:0:0:0:
80,173,160905,6,0,L|110:335,1,160,2|2,1:2|3:2,0:0:0:0:
285,354,161378,1,0,1:1:0:0:
179,206,161536,2,0,L|194:285,1,80,2|12,2:2|2:2,0:0:0:0:
317,191,161852,2,0,L|332:112,1,80,2|0,3:2|1:1,0:0:0:0:
184,33,162168,6,0,B|94:26|122:74|27:66,1,160,2|2,1:2|1:2,0:0:0:0:
256,101,162642,1,2,1:2:0:0:
179,206,162799,2,0,L|164:127,1,80,2|12,3:2|2:2,0:0:0:0:
258,7,163115,1,2,3:2:0:0:
317,191,163273,1,2,3:2:0:0:
413,73,163431,6,0,L|246:102,1,160,4|2,1:2|1:2,0:0:0:0:
440,194,163905,1,10,2:2:0:0:
331,269,164063,2,0,L|316:190,1,80,6|0,1:2|0:0,0:0:0:0:
176,355,164378,1,2,1:2:0:0:
97,166,164536,5,10,2:2:0:0:
131,145,164614,1,8,2:2:0:0:
171,140,164693,1,0,3:3:0:0:
209,149,164772,1,0,3:3:0:0:
241,173,164852,6,1,L|225:261,1,80,4|0,1:2|0:0,0:0:0:0:
114,61,165168,1,8,2:2:0:0:
0,235,165326,2,0,B|99:223|63:273|154:268,1,160,6|8,1:2|2:2,0:0:0:0:
26,321,165799,1,6,1:2:0:0:
142,186,165957,1,0,0:0:0:0:
176,355,166115,1,8,2:2:0:0:
48,168,166273,6,0,P|36:95|100:26,1,160,6|8,1:2|2:2,0:0:0:0:
304,88,166747,1,6,1:2:0:0:
142,186,166905,1,8,2:2:0:0:
337,300,167063,1,6,1:2:0:0:
378,317,167141,1,0,3:3:0:0:
424,313,167220,1,0,3:3:0:0:
463,290,167299,1,0,3:3:0:0:
489,254,167378,1,4,1:2:0:0:
256,192,180010,12,0,182378,0:0:0:0:
122,91,182536,5,10,2:2:0:0:
194,281,182694,1,10,2:2:0:0:
372,55,183010,5,10,2:2:0:0:
422,292,183326,1,10,2:2:0:0:
131,193,183642,1,10,2:2:0:0:
449,80,183957,1,10,2:2:0:0:
329,303,184115,6,0,P|271:320|192:264,1,160,10|2,2:2|2:2,0:0:0:0:
12,213,184589,1,2,1:2:0:0:
12,213,184668,1,0,1:1:0:0:
12,213,184747,2,0,L|137:190,1,120,12|0,2:2|0:0,0:0:0:0:
189,95,185063,6,1,B|218:94|242:79|242:79|206:197,1,176.000005371094,4|10,1:2|2:2,0:0:0:0:
430,121,185536,1,2,2:2:0:0:
410,335,185694,1,2,1:2:0:0:
294,200,185852,2,0,L|390:217,1,88.000002685547,0|8,1:1|2:2,0:0:0:0:
176,328,186168,6,0,P|93:347|39:298,1,132.00000402832,4|0,1:2|0:0,0:0:0:0:
119,267,186484,1,2,1:2:0:0:
0,158,186642,1,10,2:2:0:0:
159,142,186799,1,2,2:2:0:0:
3,259,186957,1,0,1:1:0:0:
55,69,187115,1,2,1:2:0:0:
187,234,187273,1,10,2:2:0:0:
0,158,187431,1,2,2:2:0:0:
206,39,187589,6,0,B|314:29|277:91|383:79,1,176.000005371094,4|10,1:2|2:2,0:0:0:0:
506,186,188063,1,2,2:2:0:0:
379,307,188220,2,0,P|365:263|386:218,1,88.000002685547,0|0,1:1|1:1,0:0:0:0:
504,301,188536,1,8,2:2:0:0:
261,351,188694,6,0,L|299:179,1,176.000005371094,4|0,1:2|1:1,0:0:0:0:
154,104,189168,2,0,L|170:196,1,88.000002685547,10|2,2:2|2:2,0:0:0:0:
57,356,189484,1,2,1:2:0:0:
24,201,189642,1,0,1:1:0:0:
196,278,189799,1,10,2:2:0:0:
255,67,189957,5,0,3:3:0:0:
255,67,190036,1,0,3:0:0:0:
255,67,190115,2,0,P|318:45|422:100,1,176.000005371094,4|10,1:2|2:2,0:0:0:0:
357,257,190589,2,0,L|341:170,1,88.000002685547,2|0,2:2|1:1,0:0:0:0:
451,341,190905,1,0,1:1:0:0:
259,360,191063,6,0,L|274:273,1,88.000002685547,8|2,2:2|2:2,0:0:0:0:
273,273,191299,1,2,0:0:0:0:
273,273,191378,1,2,1:2:0:0:
94,138,191536,1,0,0:0:0:0:
115,355,191694,1,10,2:2:0:0:
265,192,191852,2,0,L|178:207,1,88.000002685547,2|0,2:2|1:1,0:0:0:0:
255,34,192168,1,2,1:2:0:0:
423,121,192326,1,10,2:2:0:0:
261,273,192484,5,2,2:2:0:0:
261,273,192563,1,2,0:0:0:0:
260,272,192642,2,0,P|247:230|264:191,1,88.000002685547,4|0,1:2|3:3,0:0:0:0:
433,230,192957,1,8,2:2:0:0:
292,373,193115,6,0,L|107:340,1,176.000005371094,6|8,1:2|2:2,0:0:0:0:
0,205,193589,1,6,1:2:0:0:
169,158,193747,1,0,3:3:0:0:
46,17,193905,1,8,2:2:0:0:
260,112,194063,6,0,L|276:26,1,88.000002685547,4|2,1:2|2:2,0:0:0:0:
188,264,194378,1,10,2:2:0:0:
188,264,194457,1,8,2:2:0:0:
188,264,194536,1,2,3:2:0:0:
151,55,194694,1,2,1:2:0:0:
324,208,194852,6,0,L|268:198,1,44.0000013427735,10|8,2:2|2:2,0:0:0:0:
390,331,195010,2,0,L|445:321,1,44.0000013427735,2|0,3:2|3:3,0:0:0:0:
192,348,195168,6,0,P|102:371|42:318,1,176.000005371094,4|10,1:2|2:2,0:0:0:0:
174,187,195642,1,2,2:2:0:0:
36,113,195799,2,0,L|54:216,1,88.000002685547,2|0,1:2|1:1,0:0:0:0:
131,8,196115,1,8,2:2:0:0:
303,209,196273,6,0,L|173:186,1,132.00000402832,4|0,1:2|0:0,0:0:0:0:
133,119,196589,1,2,1:2:0:0:
195,269,196747,1,10,2:2:0:0:
256,89,196905,1,2,2:2:0:0:
320,287,197063,1,0,1:1:0:0:
173,186,197220,1,2,1:2:0:0:
350,110,197378,1,10,2:2:0:0:
252,329,197536,1,2,2:2:0:0:
476,178,197694,6,0,L|275:213,1,176.000005371094,4|10,1:2|2:2,0:0:0:0:
446,352,198168,2,0,P|457:299|440:264,1,88.000002685547,2|0,2:2|1:1,0:0:0:0:
287,121,198484,2,0,L|304:217,1,88.000002685547,2|8,1:2|2:2,0:0:0:0:
158,315,198799,6,0,P|70:346|2:289,1,176.000005371094,4|0,1:2|1:1,0:0:0:0:
9,130,199273,1,10,2:2:0:0:
88,263,199431,1,0,1:1:0:0:
129,92,199589,1,10,2:2:0:0:
221,232,199747,1,2,1:2:0:0:
9,130,199905,1,10,2:2:0:0:
179,23,200063,5,0,1:1:0:0:
179,23,200142,1,0,1:0:0:0:
179,23,200220,2,0,B|285:3|249:71|364:42,1,176.000005371094,4|10,1:2|2:2,0:0:0:0:
505,106,200694,2,0,L|489:192,1,88.000002685547,2|0,2:2|1:1,0:0:0:0:
398,342,201010,2,0,L|382:255,1,88.000002685547,2|8,1:2|2:2,0:0:0:0:
257,137,201326,5,2,0:0:0:0:
257,137,201405,1,2,0:0:0:0:
257,137,201484,1,2,1:2:0:0:
207,311,201642,1,2,2:2:0:0:
304,258,201799,1,10,2:2:0:0:
184,186,201957,2,0,L|168:99,1,88.000002685547,2|0,2:2|1:1,0:0:0:0:
345,12,202273,2,0,L|329:98,1,88.000002685547,2|8,1:2|2:2,0:0:0:0:
255,229,202589,1,2,2:2:0:0:
116,37,202747,6,0,P|154:17|197:24,1,88.000002685547,4|8,1:2|2:2,0:0:0:0:
410,103,203063,1,0,3:3:0:0:
410,103,203142,1,0,3:3:0:0:
410,103,203220,1,6,1:2:0:0:
255,229,203378,1,8,2:2:0:0:
255,229,203457,1,8,2:2:0:0:
255,229,203535,1,0,3:3:0:0:
470,330,203694,5,14,2:2:0:0:
329,98,203852,1,0,1:1:0:0:
257,357,204010,1,4,1:2:0:0:
38,83,204799,5,0,3:3:0:0:
105,231,204957,2,0,L|111:191,1,40,10|0,2:2|3:3,0:0:0:0:
199,67,205115,2,0,L|205:106,1,40,0|0,3:3|3:3,0:0:0:0:
259,246,205273,5,4,1:2:0:0:
363,85,205431,1,10,2:2:0:0:
437,266,205589,1,0,1:1:0:0:
256,164,205747,5,2,1:2:0:0:
442,51,205905,1,10,2:2:0:0:
351,291,206063,1,0,1:1:0:0:
254,66,206220,5,2,1:2:0:0:
208,335,206378,1,10,2:2:0:0:
404,180,206536,1,0,1:1:0:0:
148,118,206694,5,10,2:2:0:0:
284,335,206852,1,10,2:2:0:0:
328,99,207010,1,8,2:2:0:0:
446,303,207168,1,10,2:2:0:0:
139,238,207326,5,10,2:2:0:0:
378,349,207484,1,10,2:2:0:0:
350,29,207642,1,10,2:2:0:0:
177,330,207799,1,12,2:2:0:0:
428,150,208115,5,2,3:2:0:0:
403,119,208194,1,0,3:3:0:0:
367,102,208273,1,2,3:2:0:0:
328,99,208352,1,0,3:3:0:0:
291,114,208431,2,0,L|281:62,1,40,2|0,3:2|3:3,0:0:0:0:
135,52,208589,2,0,L|142:90,1,40,0|0,3:3|3:3,0:0:0:0:
63,235,208747,2,0,P|113:247|150:228,1,80,10|0,2:2|0:0,0:0:0:0:
382,358,209063,5,12,2:2:0:0:
138,237,209220,1,0,1:0:0:0:
449,305,209378,5,10,2:2:0:0:
204,92,209536,1,2,1:2:0:0:
504,233,209694,5,8,2:2:0:0:
176,167,209852,1,2,1:2:0:0:
512,151,210010,5,10,2:2:0:0:
212,10,210167,1,0,1:1:0:0:
213,267,210326,6,0,L|299:251,1,88.000002685547,12|2,2:2|1:2,0:0:0:0:
114,77,210642,2,0,L|27:61,1,88.000002685547,8|2,2:2|1:2,0:0:0:0:
87,348,210957,5,10,2:2:0:0:
254,109,211115,1,2,1:2:0:0:
324,362,211273,5,10,2:2:0:0:
53,222,211431,1,2,1:2:0:0:
254,109,211589,6,0,L|237:204,1,88.000002685547,12|0,2:2|1:0,0:0:0:0:
454,343,211905,5,10,2:2:0:0:
331,89,212063,1,2,1:2:0:0:
236,359,212220,5,8,2:2:0:0:
449,166,212378,1,2,1:2:0:0:
149,117,212536,5,8,2:2:0:0:
360,305,212694,1,2,1:2:0:0:
109,365,212852,6,0,L|124:278,1,88.000002685547,12|0,2:2|1:1,0:0:0:0:
236,68,213168,5,10,2:2:0:0:
224,310,213326,1,2,1:2:0:0:
57,85,213484,5,10,2:2:0:0:
284,254,213642,1,0,1:1:0:0:
139,19,213799,5,10,2:2:0:0:
139,19,213878,1,8,2:2:0:0:
139,19,213957,1,0,3:3:0:0:
377,125,214115,6,0,P|320:62|235:68,1,176.000005371094,4|10,1:2|2:2,0:0:0:0:
107,186,214589,2,0,L|200:203,1,88.000002685547,2|0,2:2|1:1,0:0:0:0:
355,329,214905,2,0,P|374:280|356:244,1,88.000002685547,2|8,1:2|2:2,0:0:0:0:
179,291,215220,6,0,L|-14:250,1,176.000005371094,2|0,2:2|0:0,0:0:0:0:
104,28,215694,2,0,P|85:77|103:113,1,88.000002685547,10|2,2:2|2:2,0:0:0:0:
314,169,216010,2,0,L|227:153,1,88.000002685547,2|0,1:2|1:1,0:0:0:0:
92,307,216326,2,0,L|178:291,1,88.000002685547,10|0,2:2|0:0,0:0:0:0:
295,88,216642,6,0,P|373:90|440:179,1,176.000005371094,4|8,1:2|2:2,0:0:0:0:
305,347,217115,2,0,L|289:260,1,88.000002685547,2|0,2:2|1:1,0:0:0:0:
140,121,217431,1,2,1:2:0:0:
72,332,217589,1,10,2:2:0:0:
219,219,217747,6,0,B|128:239|152:175|49:202,1,176.000005371094,4|2,1:2|1:2,0:0:0:0:
217,327,218220,1,10,2:2:0:0:
140,121,218378,1,0,1:1:0:0:
333,203,218536,2,0,L|323:262,1,44.0000013427735,8|8,2:2|2:2,0:0:0:0:
221,140,218694,2,0,L|214:96,1,44.0000013427735,2|0,3:2|3:3,0:0:0:0:
328,51,218852,1,2,3:2:0:0:
418,218,219010,5,2,3:2:0:0:
418,218,219089,1,0,3:3:0:0:
418,218,219168,2,0,L|403:308,1,88.000002685547,12|0,2:2|1:0,0:0:0:0:
133,360,219484,5,10,2:2:0:0:
333,203,219642,1,2,1:2:0:0:
67,297,219799,5,8,2:2:0:0:
267,43,219957,1,2,1:2:0:0:
0,228,220115,5,10,2:2:0:0:
298,123,220273,1,0,1:1:0:0:
187,304,220431,6,0,L|281:320,1,88.000002685547,12|2,2:2|1:2,0:0:0:0:
86,123,220747,2,0,L|-8:139,1,88.000002685547,8|2,2:2|1:2,0:0:0:0:
267,43,221063,5,10,2:2:0:0:
126,249,221220,1,2,1:2:0:0:
137,5,221378,5,10,2:2:0:0:
333,213,221536,1,2,1:2:0:0:
459,17,221694,6,0,L|364:33,1,88.000002685547,12|0,2:2|1:0,0:0:0:0:
246,197,222010,2,0,L|340:213,1,88.000002685547,10|2,2:2|1:2,0:0:0:0:
115,346,222326,5,8,2:2:0:0:
178,89,222484,1,2,1:2:0:0:
298,347,222642,5,8,2:2:0:0:
18,231,222799,1,2,1:2:0:0:
347,125,222957,6,0,L|329:223,1,88.000002685547,12|0,2:2|1:1,0:0:0:0:
115,346,223273,2,0,L|99:259,1,88.000002685547,10|0,2:2|1:2,0:0:0:0:
256,34,223589,5,10,2:2:0:0:
332,303,223747,1,8,2:2:0:0:
426,44,223905,1,10,2:2:0:0:
512,297,224063,1,8,2:2:0:0:
173,155,224220,6,0,L|355:122,1,176.000005371094,4|10,1:2|2:2,0:0:0:0:
196,313,224694,2,0,P|128:351|36:296,1,176.000005371094,6|2,1:2|1:2,0:0:0:0:
173,155,225168,1,8,2:2:0:0:
30,84,225326,2,0,L|46:176,1,88.000002685547,6|0,1:2|0:0,0:0:0:0:
196,3,225642,1,2,1:2:0:0:
216,161,225799,6,0,L|156:151,1,44.0000013427735,8|8,2:2|2:2,0:0:0:0:
308,246,225957,2,0,L|367:236,1,44.0000013427735,2|0,3:2|3:3,0:0:0:0:
196,313,226115,1,2,1:2:0:0:
305,146,226273,1,0,1:1:0:0:
405,307,226431,2,0,L|315:321,1,88.000002685547,10|2,2:2|2:2,0:0:0:0:
60,367,226747,6,0,P|40:268|115:211,1,176.000005371094,4|10,1:2|2:2,0:0:0:0:
256,108,227220,1,2,1:2:0:0:
256,108,227536,1,2,1:2:0:0:
148,339,227694,1,10,2:2:0:0:
53,114,227852,6,0,L|150:131,1,88.000002685547,4|0,1:2|0:0,0:0:0:0:
380,27,228168,1,10,2:2:0:0:
302,269,228326,1,10,2:2:0:0:
255,30,228484,1,0,1:1:0:0:
255,30,228563,1,0,1:1:0:0:
255,30,228642,1,10,2:2:0:0:
454,235,229273,6,0,B|355:226|395:282|273:266,1,160,4|10,1:2|2:2,0:0:0:0:
124,345,229747,2,0,P|111:302|139:256,1,80,2|0,2:2|1:1,0:0:0:0:
228,152,230063,2,0,L|214:230,1,80,2|8,1:2|2:2,0:0:0:0:
118,70,230378,2,0,L|289:39,1,160,4|2,1:2|1:2,0:0:0:0:
479,34,230852,6,0,P|484:79|458:112,1,80,10|0,2:2|0:0,0:0:0:0:
349,258,231168,2,0,L|332:164,1,80,2|0,1:2|1:1,0:0:0:0:
275,42,231483,2,0,L|361:57,1,80,10|0,2:2|3:3,0:0:0:0:
208,214,231799,6,0,B|150:233|150:233|133:264|133:264|60:285,1,160,4|10,1:2|2:2,0:0:0:0:
225,375,232273,2,0,L|209:287,1,80,2|0,2:2|1:1,0:0:0:0:
89,125,232589,2,0,L|75:203,1,80,2|8,1:2|2:2,0:0:0:0:
283,268,232905,6,0,P|335:278|394:236,1,120,4|0,1:2|0:0,0:0:0:0:
314,191,233220,1,2,1:2:0:0:
431,158,233378,1,10,2:2:0:0:
279,122,233536,1,2,2:2:0:0:
432,59,233694,1,2,1:2:0:0:
389,243,233852,1,2,1:2:0:0:
219,44,234010,5,10,2:2:0:0:
180,34,234088,1,8,2:2:0:0:
141,40,234167,1,2,3:2:0:0:
106,60,234246,1,0,3:3:0:0:
82,92,234325,5,4,1:2:0:0:
196,196,234484,1,8,2:2:0:0:
35,260,234642,1,0,1:1:0:0:
149,374,234799,2,0,L|119:207,1,160,14|0,2:2|1:1,0:0:0:0:
277,93,235273,1,6,1:2:0:0:
331,272,235431,5,8,2:2:0:0:
331,272,235510,1,8,2:2:0:0:
331,272,235589,1,0,3:3:0:0:
196,196,235747,2,0,P|183:160|200:108,1,80,6|0,1:2|0:0,0:0:0:0:
422,160,236063,1,8,2:2:0:0:
422,160,236142,1,8,2:2:0:0:
422,160,236220,2,0,L|330:175,1,80,2|0,1:2|0:0,0:0:0:0:
205,337,236536,2,0,P|130:348|74:288,1,160,12|0,2:2|0:0,0:0:0:0:
74,73,237010,5,8,2:2:0:0:
74,73,237089,1,8,2:2:0:0:
74,73,237168,2,0,L|83:124,1,40,0|0,3:3|3:3,0:0:0:0:
186,234,237326,2,0,L|195:195,1,40,0|0,1:1|1:1,0:0:0:0:
305,71,237484,5,8,2:2:0:0:
341,54,237562,1,8,2:2:0:0:
380,52,237641,1,0,3:3:0:0:
418,66,237720,1,0,3:3:0:0:
447,93,237799,2,0,L|439:133,1,40,8|0,2:2|3:3,0:0:0:0:
360,240,237957,2,0,L|352:199,1,40,0|0,3:3|3:3,0:0:0:0:
253,345,238115,5,4,1:2:0:0:
427,276,238273,1,10,2:2:0:0:
239,194,238431,1,2,3:2:0:0:
359,354,238589,1,0,1:1:0:0:
116,273,238747,1,10,2:2:0:0:
314,138,238905,1,2,1:2:0:0:
110,80,239063,1,8,2:2:0:0:
253,345,239220,6,0,B|271:310|271:310|245:273|245:273|220:311|220:311|239:348,1,160,14|0,2:2|0:0,0:0:0:0:
